  0
SECTION
  2
HEADER
  9
$ACADVER
  1
AC1015
  9
$ACADMAINTVER
 70
     6
  9
$DWGCODEPAGE
  3
ANSI_1252
  9
$INSBASE
 10
0.0
 20
0.0
 30
0.0
  9
$EXTMIN
 10
0.0
 20
0.0
 30
0.0
  9
$EXTMAX
 10
1188.0
 20
841.0
 30
0.0
  9
$LIMMIN
 10
0.0
 20
0.0
  9
$LIMMAX
 10
1188.0
 20
841.0
  9
$ORTHOMODE
 70
     0
  9
$REGENMODE
 70
     1
  9
$FILLMODE
 70
     1
  9
$QTEXTMODE
 70
     0
  9
$MIRRTEXT
 70
     1
  9
$LTSCALE
 40
1.0
  9
$ATTMODE
 70
     1
  9
$TEXTSIZE
 40
2.5
  9
$TRACEWID
 40
1.0
  9
$TEXTSTYLE
  7
Standard
  9
$CLAYER
  8
0
  9
$CELTYPE
  6
ByLayer
  9
$CECOLOR
 62
   256
  9
$CELTSCALE
 40
1.0
  9
$DISPSILH
 70
     0
  9
$DIMSCALE
 40
1.0
  9
$DIMASZ
 40
3.302
  9
$DIMEXO
 40
1.0
  9
$DIMDLI
 40
3.75
  9
$DIMRND
 40
0.0
  9
$DIMDLE
 40
0.0
  9
$DIMEXE
 40
1.0
  9
$DIMTP
 40
0.0
  9
$DIMTM
 40
0.0
  9
$DIMTXT
 40
3.5
  9
$DIMCEN
 40
2.5
  9
$DIMTSZ
 40
0.0
  9
$DIMTOL
 70
     0
  9
$DIMLIM
 70
     0
  9
$DIMTIH
 70
     1
  9
$DIMTOH
 70
     1
  9
$DIMSE1
 70
     0
  9
$DIMSE2
 70
     0
  9
$DIMTAD
 70
     1
  9
$DIMZIN
 70
     0
  9
$DIMBLK
  1

  9
$DIMASO
 70
     1
  9
$DIMSHO
 70
     1
  9
$DIMPOST
  1

  9
$DIMAPOST
  1

  9
$DIMALT
 70
     0
  9
$DIMALTD
 70
     3
  9
$DIMALTF
 40
0.0393700787
  9
$DIMLFAC
 40
1.0
  9
$DIMTOFL
 70
     1
  9
$DIMTVP
 40
0.0
  9
$DIMTIX
 70
     0
  9
$DIMSOXD
 70
     0
  9
$DIMSAH
 70
     0
  9
$DIMBLK1
  1

  9
$DIMBLK2
  1

  9
$DIMSTYLE
  2
ISO-25
  9
$DIMCLRD
 70
     0
  9
$DIMCLRE
 70
     0
  9
$DIMCLRT
 70
     0
  9
$DIMTFAC
 40
1.0
  9
$DIMGAP
 40
1.524
  9
$DIMJUST
 70
     0
  9
$DIMSD1
 70
     0
  9
$DIMSD2
 70
     0
  9
$DIMTOLJ
 70
     0
  9
$DIMTZIN
 70
     0
  9
$DIMALTZ
 70
     0
  9
$DIMALTTZ
 70
     0
  9
$DIMUPT
 70
     0
  9
$DIMDEC
 70
     2
  9
$DIMTDEC
 70
     2
  9
$DIMALTU
 70
     2
  9
$DIMALTTD
 70
     3
  9
$DIMTXSTY
  7
Standard
  9
$DIMAUNIT
 70
     0
  9
$DIMADEC
 70
     2
  9
$DIMALTRND
 40
0.0
  9
$DIMAZIN
 70
     0
  9
$DIMDSEP
 70
    44
  9
$DIMATFIT
 70
     3
  9
$DIMFRAC
 70
     0
  9
$DIMLDRBLK
  1

  9
$DIMLUNIT
 70
     2
  9
$DIMLWD
 70
    -2
  9
$DIMLWE
 70
    -2
  9
$DIMTMOVE
 70
     0
  9
$LUNITS
 70
     2
  9
$LUPREC
 70
     3
  9
$SKETCHINC
 40
1.0
  9
$FILLETRAD
 40
10.0
  9
$AUNITS
 70
     0
  9
$AUPREC
 70
     2
  9
$MENU
  1
.
  9
$ELEVATION
 40
0.0
  9
$PELEVATION
 40
0.0
  9
$THICKNESS
 40
0.0
  9
$LIMCHECK
 70
     0
  9
$CHAMFERA
 40
0.0
  9
$CHAMFERB
 40
0.0
  9
$CHAMFERC
 40
0.0
  9
$CHAMFERD
 40
0.0
  9
$SKPOLY
 70
     0
  9
$TDCREATE
 40
2458502.425395891
  9
$TDUCREATE
 40
2458502.383729225
  9
$TDUPDATE
 40
2458502.425449606
  9
$TDUUPDATE
 40
2458502.38378294
  9
$TDINDWG
 40
0.0000000116
  9
$TDUSRTIMER
 40
0.0000000116
  9
$USRTIMER
 70
     1
  9
$ANGBASE
 50
0.0
  9
$ANGDIR
 70
     0
  9
$PDMODE
 70
     0
  9
$PDSIZE
 40
-1.0
  9
$PLINEWID
 40
0.0
  9
$SPLFRAME
 70
     0
  9
$SPLINETYPE
 70
     6
  9
$SPLINESEGS
 70
     8
  9
$HANDSEED
  5
6FC
  9
$SURFTAB1
 70
     6
  9
$SURFTAB2
 70
     6
  9
$SURFTYPE
 70
     6
  9
$SURFU
 70
     6
  9
$SURFV
 70
     6
  9
$UCSBASE
  2

  9
$UCSNAME
  2

  9
$UCSORG
 10
0.0
 20
0.0
 30
0.0
  9
$UCSXDIR
 10
1.0
 20
0.0
 30
0.0
  9
$UCSYDIR
 10
0.0
 20
1.0
 30
0.0
  9
$UCSORTHOREF
  2

  9
$UCSORTHOVIEW
 70
     0
  9
$UCSORGTOP
 10
0.0
 20
0.0
 30
0.0
  9
$UCSORGBOTTOM
 10
0.0
 20
0.0
 30
0.0
  9
$UCSORGLEFT
 10
0.0
 20
0.0
 30
0.0
  9
$UCSORGRIGHT
 10
0.0
 20
0.0
 30
0.0
  9
$UCSORGFRONT
 10
0.0
 20
0.0
 30
0.0
  9
$UCSORGBACK
 10
0.0
 20
0.0
 30
0.0
  9
$PUCSBASE
  2

  9
$PUCSNAME
  2

  9
$PUCSORG
 10
0.0
 20
0.0
 30
0.0
  9
$PUCSXDIR
 10
1.0
 20
0.0
 30
0.0
  9
$PUCSYDIR
 10
0.0
 20
1.0
 30
0.0
  9
$PUCSORTHOREF
  2

  9
$PUCSORTHOVIEW
 70
     0
  9
$PUCSORGTOP
 10
0.0
 20
0.0
 30
0.0
  9
$PUCSORGBOTTOM
 10
0.0
 20
0.0
 30
0.0
  9
$PUCSORGLEFT
 10
0.0
 20
0.0
 30
0.0
  9
$PUCSORGRIGHT
 10
0.0
 20
0.0
 30
0.0
  9
$PUCSORGFRONT
 10
0.0
 20
0.0
 30
0.0
  9
$PUCSORGBACK
 10
0.0
 20
0.0
 30
0.0
  9
$USERI1
 70
     0
  9
$USERI2
 70
     0
  9
$USERI3
 70
     0
  9
$USERI4
 70
     0
  9
$USERI5
 70
     0
  9
$USERR1
 40
0.0
  9
$USERR2
 40
0.0
  9
$USERR3
 40
0.0
  9
$USERR4
 40
0.0
  9
$USERR5
 40
0.0
  9
$WORLDVIEW
 70
     1
  9
$SHADEDGE
 70
     3
  9
$SHADEDIF
 70
    70
  9
$TILEMODE
 70
     1
  9
$MAXACTVP
 70
    64
  9
$PINSBASE
 10
0.0
 20
0.0
 30
0.0
  9
$PLIMCHECK
 70
     0
  9
$PEXTMIN
 10
1.0000000000E+20
 20
1.0000000000E+20
 30
1.0000000000E+20
  9
$PEXTMAX
 10
-1.0000000000E+20
 20
-1.0000000000E+20
 30
-1.0000000000E+20
  9
$PLIMMIN
 10
0.0
 20
0.0
  9
$PLIMMAX
 10
420.0
 20
297.0
  9
$UNITMODE
 70
     0
  9
$VISRETAIN
 70
     1
  9
$PLINEGEN
 70
     0
  9
$PSLTSCALE
 70
     1
  9
$TREEDEPTH
 70
  3020
  9
$CMLSTYLE
  2
Standard
  9
$CMLJUST
 70
     0
  9
$CMLSCALE
 40
20.0
  9
$PROXYGRAPHICS
 70
     1
  9
$MEASUREMENT
 70
     1
  9
$CELWEIGHT
370
    -1
  9
$ENDCAPS
280
     0
  9
$JOINSTYLE
280
     0
  9
$LWDISPLAY
290
     1
  9
$INSUNITS
 70
     4
  9
$HYPERLINKBASE
  1

  9
$STYLESHEET
  1

  9
$XEDIT
290
     1
  9
$CEPSNTYPE
380
     0
  9
$PSTYLEMODE
290
     1
  9
$FINGERPRINTGUID
  2
{8591BD27-7C38-4FC3-ACB1-A9A0D1FB561A}
  9
$VERSIONGUID
  2
{FAEB1C32-E019-11D5-929B-00C0DF256EC4}
  9
$EXTNAMES
290
     1
  9
$PSVPSCALE
 40
0.0
  9
$OLESTARTUP
290
     0
  0
ENDSEC
  0
SECTION
  2
CLASSES
  0
CLASS
  1
ACDBDICTIONARYWDFLT
  2
AcDbDictionaryWithDefault
  3
ObjectDBX Classes
 90
        0
280
     0
281
     0
  0
CLASS
  1
VISUALSTYLE
  2
AcDbVisualStyle
  3
ObjectDBX Classes
 90
     4095
280
     0
281
     0
  0
CLASS
  1
MATERIAL
  2
AcDbMaterial
  3
ObjectDBX Classes
 90
     1153
280
     0
281
     0
  0
CLASS
  1
SCALE
  2
AcDbScale
  3
ObjectDBX Classes
 90
     1153
280
     0
281
     0
  0
CLASS
  1
TABLESTYLE
  2
AcDbTableStyle
  3
ObjectDBX Classes
 90
     4095
280
     0
281
     0
  0
CLASS
  1
MLEADERSTYLE
  2
AcDbMLeaderStyle
  3
ACDB_MLEADERSTYLE_CLASS
 90
     4095
280
     0
281
     0
  0
CLASS
  1
SUN
  2
AcDbSun
  3
SCENEOE
 90
     1153
280
     0
281
     0
  0
CLASS
  1
LARGE_RADIAL_DIMENSION
  2
AcDbRadialDimensionLarge
  3
ObjectDBX Classes
 90
     1025
280
     0
281
     1
  0
CLASS
  1
ACDBPLACEHOLDER
  2
AcDbPlaceHolder
  3
ObjectDBX Classes
 90
        0
280
     0
281
     0
  0
CLASS
  1
LAYOUT
  2
AcDbLayout
  3
ObjectDBX Classes
 90
        0
280
     0
281
     0
  0
ENDSEC
  0
SECTION
  2
TABLES
  0
TABLE
  2
VPORT
  5
8
330
0
100
AcDbSymbolTable
 70
     1
  0
VPORT
  5
29
330
8
100
AcDbSymbolTableRecord
100
AcDbViewportTableRecord
  2
*Active
 70
     0
 10
0.0
 20
0.0
 11
1.0
 21
1.0
 12
594.0
 22
420.5
 13
0.0
 23
0.0
 14
10.0
 24
10.0
 15
10.0
 25
10.0
 16
0.0
 26
0.0
 36
1.0
 17
0.0
 27
0.0
 37
0.0
 40
841.0
 41
1.4126040428
 42
50.0
 43
0.0
 44
0.0
 50
0.0
 51
0.0
 71
     0
 72
  2000
 73
     1
 74
     3
 75
     0
 76
     0
 77
     0
 78
     0
281
     0
 65
     1
110
0.0
120
0.0
130
0.0
111
1.0
121
0.0
131
0.0
112
0.0
122
1.0
132
0.0
 79
     0
146
0.0
  0
ENDTAB
  0
TABLE
  2
LTYPE
  5
5
330
0
100
AcDbSymbolTable
 70
     6
  0
LTYPE
  5
14
330
5
100
AcDbSymbolTableRecord
100
AcDbLinetypeTableRecord
  2
ByBlock
 70
     0
  3

 72
    65
 73
     0
 40
0.0
  0
LTYPE
  5
15
330
5
100
AcDbSymbolTableRecord
100
AcDbLinetypeTableRecord
  2
ByLayer
 70
     0
  3

 72
    65
 73
     0
 40
0.0
  0
LTYPE
  5
16
330
5
100
AcDbSymbolTableRecord
100
AcDbLinetypeTableRecord
  2
Continuous
 70
     0
  3
Solid line
 72
    65
 73
     0
 40
0.0
  0
LTYPE
  5
6E
330
5
100
AcDbSymbolTableRecord
100
AcDbLinetypeTableRecord
  2
HIDDEN
 70
     0
  3
Hidden __ __ __ __ __ __ __ __ __ __ __ __ __ __
 72
    65
 73
     2
 40
1.905
 49
1.27
 74
     0
 49
-0.635
 74
     0
  0
LTYPE
  5
6F
330
5
100
AcDbSymbolTableRecord
100
AcDbLinetypeTableRecord
  2
PHANTOM
 70
     0
  3
Phantom ______  __  __  ______  __  __  ______
 72
    65
 73
     6
 40
12.7
 49
6.35
 74
     0
 49
-1.27
 74
     0
 49
1.27
 74
     0
 49
-1.27
 74
     0
 49
1.27
 74
     0
 49
-1.27
 74
     0
  0
LTYPE
  5
70
330
5
100
AcDbSymbolTableRecord
100
AcDbLinetypeTableRecord
  2
CENTER
 70
     0
  3
Center ____ _ ____ _ ____ _ ____ _ ____ _ ____
 72
    65
 73
     4
 40
10.16
 49
6.35
 74
     0
 49
-1.27
 74
     0
 49
1.27
 74
     0
 49
-1.27
 74
     0
  0
LTYPE
  5
71
330
5
100
AcDbSymbolTableRecord
100
AcDbLinetypeTableRecord
  2
CENTERX2
 70
     0
  3
Center (2x) ________  __  ________  __  _____
 72
    65
 73
     4
 40
20.32
 49
12.7
 74
     0
 49
-2.54
 74
     0
 49
2.54
 74
     0
 49
-2.54
 74
     0
  0
LTYPE
  5
72
330
5
100
AcDbSymbolTableRecord
100
AcDbLinetypeTableRecord
  2
DOT2
 70
     0
  3
Dot (.5x) ........................................
 72
    65
 73
     2
 40
0.635
 49
0.0
 74
     0
 49
-0.635
 74
     0
  0
ENDTAB
  0
TABLE
  2
LAYER
  5
2
330
0
100
AcDbSymbolTable
 70
     9
  0
LAYER
  5
10
330
2
100
AcDbSymbolTableRecord
100
AcDbLayerTableRecord
  2
0
 70
     0
 62
     7
  6
Continuous
370
    -3
390
F
  0
LAYER
  5
73
330
2
100
AcDbSymbolTableRecord
100
AcDbLayerTableRecord
  2
SLD-0_0
 70
     0
 62
   179
  6
Continuous
370
    -3
390
F
  0
LAYER
  5
74
330
2
100
AcDbSymbolTableRecord
100
AcDbLayerTableRecord
  2
SLD-0
 70
     0
 62
   179
  6
Continuous
370
    -3
390
F
  0
LAYER
  5
75
330
2
100
AcDbSymbolTableRecord
100
AcDbLayerTableRecord
  2
PREDETERMINADO
 70
     0
 62
   179
  6
Continuous
370
    -3
390
F
  0
LAYER
  5
76
330
2
100
AcDbSymbolTableRecord
100
AcDbLayerTableRecord
  2
CAJETIN
 70
     0
 62
   179
  6
Continuous
370
    -3
390
F
  0
LAYER
  5
77
330
2
100
AcDbSymbolTableRecord
100
AcDbLayerTableRecord
  2
FORMATO
 70
     0
 62
   179
  6
Continuous
370
    -3
390
F
  0
LAYER
  5
78
330
2
100
AcDbSymbolTableRecord
100
AcDbLayerTableRecord
  2
NONPLOT
 70
     0
 62
    -1
  6
DOT2
290
     0
370
    -3
390
F
  0
LAYER
  5
79
330
2
100
AcDbSymbolTableRecord
100
AcDbLayerTableRecord
  2
TEXTOS
 70
     0
 62
   142
  6
Continuous
370
    -3
390
F
  0
LAYER
  5
7A
330
2
100
AcDbSymbolTableRecord
100
AcDbLayerTableRecord
  2
TEXTO
 70
     0
 62
   140
  6
Continuous
370
    -3
390
F
  0
ENDTAB
  0
TABLE
  2
STYLE
  5
3
330
0
100
AcDbSymbolTable
 70
     5
  0
STYLE
  5
11
330
3
100
AcDbSymbolTableRecord
100
AcDbTextStyleTableRecord
  2
Standard
 70
     0
 40
0.0
 41
1.0
 50
0.0
 71
     0
 42
2.5
  3
txt
  4

  0
STYLE
  5
DD
330
3
100
AcDbSymbolTableRecord
100
AcDbTextStyleTableRecord
  2
SLDTEXTSTYLE0
 70
     0
 40
0.0
 41
0.605
 50
0.0
 71
     0
 42
2.5
  3
TXT
  4

  0
STYLE
  5
E3
330
3
100
AcDbSymbolTableRecord
100
AcDbTextStyleTableRecord
  2
SLDTEXTSTYLE1
 70
     0
 40
0.0
 41
0.5646781665
 50
0.0
 71
     0
 42
2.5
  3
TXT
  4

  0
STYLE
  5
12C
330
3
100
AcDbSymbolTableRecord
100
AcDbTextStyleTableRecord
  2
SLDTEXTSTYLE2
 70
     0
 40
0.0
 41
0.575
 50
0.0
 71
     0
 42
2.5
  3
TXT
  4

  0
STYLE
  5
139
330
3
100
AcDbSymbolTableRecord
100
AcDbTextStyleTableRecord
  2
SLDTEXTSTYLE3
 70
     0
 40
0.0
 41
0.5726923077
 50
0.0
 71
     0
 42
2.5
  3
TXT
  4

  0
ENDTAB
  0
TABLE
  2
VIEW
  5
6
330
0
100
AcDbSymbolTable
 70
     0
  0
ENDTAB
  0
TABLE
  2
UCS
  5
7
330
0
100
AcDbSymbolTable
 70
     0
  0
ENDTAB
  0
TABLE
  2
APPID
  5
9
330
0
100
AcDbSymbolTable
 70
     1
  0
APPID
  5
12
330
9
100
AcDbSymbolTableRecord
100
AcDbRegAppTableRecord
  2
ACAD
 70
     0
  0
ENDTAB
  0
TABLE
  2
DIMSTYLE
  5
A
330
0
100
AcDbSymbolTable
 70
    18
100
AcDbDimStyleTable
  0
DIMSTYLE
105
27
330
A
100
AcDbSymbolTableRecord
100
AcDbDimStyleTableRecord
  2
ISO-25
 70
     0
 41
2.5
 42
0.625
 43
3.75
 44
1.25
 73
     0
 74
     0
 77
     1
 78
     8
140
2.5
141
2.5
143
0.0393700787
147
0.625
171
     3
172
     1
178
     0
271
     2
272
     2
274
     3
278
    44
283
     0
284
     8
340
11
  0
DIMSTYLE
105
237
330
A
100
AcDbSymbolTableRecord
100
AcDbDimStyleTableRecord
  2
SLDDIMSTYLE0
 70
     0
 41
1.016
 44
0.0
 45
0.000000001
146
1.016
147
0.0
173
     1
178
     0
271
     0
272
     0
276
     2
340
11
341
238
343
238
344
238
  0
DIMSTYLE
105
2A6
102
{ACAD_REACTORS
330
2A5
330
2AE
330
2B6
330
2BE
330
605
330
610
330
66A
102
}
330
A
100
AcDbSymbolTableRecord
100
AcDbDimStyleTableRecord
  2
SLDDIMSTYLE1
 70
     0
 41
3.302
 44
0.0
 73
     0
 74
     0
 77
     1
 78
    12
 79
     3
140
3.5
147
0.875
173
     1
178
     0
179
     2
272
     2
276
     2
284
    12
340
DD
  0
DIMSTYLE
105
2C7
102
{ACAD_REACTORS
330
2C6
330
2E6
330
31D
330
359
330
3DC
330
490
102
}
330
A
100
AcDbSymbolTableRecord
100
AcDbDimStyleTableRecord
  2
SLDDIMSTYLE2
 70
     0
 41
3.302
 44
0.0
 45
0.000000001
 73
     0
 74
     0
 77
     1
 78
     4
 79
     1
140
3.5
147
0.875
173
     1
178
     0
271
     2
272
     2
276
     2
284
    12
340
DD
  0
DIMSTYLE
105
2D2
102
{ACAD_REACTORS
330
2D1
330
2DC
330
363
330
36D
330
39C
330
3A6
330
3B0
330
3BA
330
3C4
330
3CC
330
5E0
330
5F1
330
5FB
330
628
330
632
330
63C
330
646
330
656
330
695
330
6A3
102
}
330
A
100
AcDbSymbolTableRecord
100
AcDbDimStyleTableRecord
  2
SLDDIMSTYLE3
 70
     0
 41
3.302
 44
0.0
 45
0.000000001
 73
     0
 74
     0
 77
     1
 78
    12
 79
     3
140
3.5
147
0.875
173
     1
178
     0
271
     2
272
     2
276
     2
284
    12
340
DD
  0
DIMSTYLE
105
2F1
102
{ACAD_REACTORS
330
2F0
102
}
330
A
100
AcDbSymbolTableRecord
100
AcDbDimStyleTableRecord
  2
SLDDIMSTYLE4
 70
     0
 41
3.302
 44
0.0
 45
0.000000001
 73
     0
 74
     0
 77
     1
 78
    12
 79
     3
140
3.5
141
0.0
147
0.875
173
     1
178
     0
271
     1
272
     1
276
     2
284
    12
340
DD
  0
DIMSTYLE
105
2FD
102
{ACAD_REACTORS
330
2FC
102
}
330
A
100
AcDbSymbolTableRecord
100
AcDbDimStyleTableRecord
  2
SLDDIMSTYLE5
 70
     0
 41
3.302
 44
0.0
 45
0.000000001
 73
     0
 74
     0
 77
     1
 78
    12
 79
     3
140
3.5
147
0.875
173
     1
178
     0
271
     1
272
     2
276
     2
284
    12
340
DD
  0
DIMSTYLE
105
308
102
{ACAD_REACTORS
330
307
102
}
330
A
100
AcDbSymbolTableRecord
100
AcDbDimStyleTableRecord
  2
SLDDIMSTYLE6
 70
     0
 41
3.302
 44
0.0
 45
0.000000001
 73
     0
 74
     0
 77
     1
 78
    12
 79
     3
140
3.5
147
0.875
173
     1
178
     0
271
     0
272
     0
276
     2
284
    12
340
DD
  0
DIMSTYLE
105
313
102
{ACAD_REACTORS
330
312
102
}
330
A
100
AcDbSymbolTableRecord
100
AcDbDimStyleTableRecord
  2
SLDDIMSTYLE7
 70
     0
 41
3.302
 44
0.0
 45
0.000000001
 73
     0
 74
     0
 77
     1
 78
    12
 79
     3
140
3.5
147
0.875
173
     1
178
     0
271
     0
272
     2
276
     2
284
    12
340
DD
  0
DIMSTYLE
105
346
102
{ACAD_REACTORS
330
345
102
}
330
A
100
AcDbSymbolTableRecord
100
AcDbDimStyleTableRecord
  2
SLDDIMSTYLE8
 70
     0
 41
3.302
 44
0.0
 45
0.000000001
 73
     0
 74
     0
 77
     1
 78
    12
 79
     3
140
3.5
141
0.0
147
0.875
172
     1
173
     1
178
     0
271
     2
272
     2
276
     2
284
    12
340
DD
  0
DIMSTYLE
105
350
102
{ACAD_REACTORS
330
34F
102
}
330
A
100
AcDbSymbolTableRecord
100
AcDbDimStyleTableRecord
  2
SLDDIMSTYLE9
 70
     0
 41
3.302
 44
0.0
 45
0.000000001
 73
     0
 74
     0
 77
     1
 78
     4
 79
     1
140
3.5
141
0.0
147
0.875
172
     1
173
     1
178
     0
271
     2
272
     2
276
     2
284
    12
340
DD
  0
DIMSTYLE
105
378
102
{ACAD_REACTORS
330
377
102
}
330
A
100
AcDbSymbolTableRecord
100
AcDbDimStyleTableRecord
  2
SLDDIMSTYLE10
 70
     0
 41
3.302
 44
0.0
 45
0.000000001
 73
     0
 74
     0
 77
     1
 78
     4
 79
     1
140
3.5
147
0.875
172
     1
173
     1
178
     0
271
     2
272
     2
276
     2
284
    12
289
     0
340
DD
  0
DIMSTYLE
105
385
102
{ACAD_REACTORS
330
384
102
}
330
A
100
AcDbSymbolTableRecord
100
AcDbDimStyleTableRecord
  2
SLDDIMSTYLE11
 70
     0
 41
1.016
 44
0.0
 45
0.000000001
 73
     0
 74
     0
 77
     1
 78
    12
 79
     3
140
3.5
147
0.875
172
     1
173
     1
178
     0
271
     2
272
     2
276
     2
284
    12
289
     0
340
DD
341
238
343
238
  0
DIMSTYLE
105
392
102
{ACAD_REACTORS
330
391
102
}
330
A
100
AcDbSymbolTableRecord
100
AcDbDimStyleTableRecord
  2
SLDDIMSTYLE12
 70
     0
 41
1.016
 44
0.0
 45
0.000000001
 73
     0
 74
     0
 77
     1
 78
    12
 79
     3
140
3.5
147
0.875
173
     1
178
     0
271
     2
272
     2
276
     2
284
    12
340
DD
341
238
343
238
  0
DIMSTYLE
105
3D5
102
{ACAD_REACTORS
330
3D4
102
}
330
A
100
AcDbSymbolTableRecord
100
AcDbDimStyleTableRecord
  2
SLDDIMSTYLE13
 70
     0
 41
3.302
 44
0.0
 45
0.000000001
 73
     0
 74
     0
 77
     1
 78
    12
 79
     3
140
3.5
141
0.0
147
0.875
173
     1
178
     0
271
     2
272
     2
276
     2
279
     1
284
    12
340
DD
  0
DIMSTYLE
105
3E7
102
{ACAD_REACTORS
330
3E6
330
3F4
102
}
330
A
100
AcDbSymbolTableRecord
100
AcDbDimStyleTableRecord
  2
SLDDIMSTYLE14
 70
     0
 41
3.302
 44
0.0
 45
0.000000001
 78
     4
 79
     1
140
3.5
141
0.0
147
0.875
172
     1
173
     1
178
     0
271
     2
272
     2
276
     2
284
    12
340
DD
341
3E8
343
3E8
  0
DIMSTYLE
105
3FF
102
{ACAD_REACTORS
330
3FE
330
484
330
49E
330
4F1
330
501
330
553
330
5CD
330
61C
330
675
330
6C7
330
6DA
330
6F0
102
}
330
A
100
AcDbSymbolTableRecord
100
AcDbDimStyleTableRecord
  2
SLDDIMSTYLE15
 70
     0
 41
3.302
 44
0.0
 45
0.000000001
 73
     0
 74
     0
 77
     1
 78
    12
 79
     3
140
3.5
147
0.875
172
     1
173
     1
178
     0
271
     2
272
     2
276
     2
284
    12
289
     0
340
DD
  0
DIMSTYLE
105
4AB
102
{ACAD_REACTORS
330
4AA
330
4CF
330
50D
330
531
330
5B7
330
660
330
681
330
68B
330
6B1
102
}
330
A
100
AcDbSymbolTableRecord
100
AcDbDimStyleTableRecord
  2
SLDDIMSTYLE16
 70
     0
 41
3.302
 44
0.0
 45
0.000000001
 73
     0
 74
     0
 77
     1
 78
    12
 79
     3
140
3.5
147
0.875
173
     1
178
     0
271
     1
272
     1
276
     2
284
    12
340
DD
  0
ENDTAB
  0
TABLE
  2
BLOCK_RECORD
  5
1
330
0
100
AcDbSymbolTable
 70
   106
  0
BLOCK_RECORD
  5
1F
330
1
100
AcDbSymbolTableRecord
100
AcDbBlockTableRecord
  2
*Model_Space
340
22
  0
BLOCK_RECORD
  5
1B
330
1
100
AcDbSymbolTableRecord
100
AcDbBlockTableRecord
  2
*Paper_Space
340
1E
  0
BLOCK_RECORD
  5
23
330
1
100
AcDbSymbolTableRecord
100
AcDbBlockTableRecord
  2
*Paper_Space0
340
26
  0
BLOCK_RECORD
  5
DA
330
1
100
AcDbSymbolTableRecord
100
AcDbBlockTableRecord
  2
SW_NOTE_0
340
0
102
{BLKREFS
331
E0
102
}
  0
BLOCK_RECORD
  5
100
330
1
100
AcDbSymbolTableRecord
100
AcDbBlockTableRecord
  2
SW_NOTE_1
340
0
102
{BLKREFS
331
105
102
}
  0
BLOCK_RECORD
  5
106
330
1
100
AcDbSymbolTableRecord
100
AcDbBlockTableRecord
  2
SW_TABLEANNOTATION_0
340
0
102
{BLKREFS
331
142
102
}
  0
BLOCK_RECORD
  5
231
330
1
100
AcDbSymbolTableRecord
100
AcDbBlockTableRecord
  2
SW_NOTE_2
340
0
102
{BLKREFS
331
236
102
}
  0
BLOCK_RECORD
  5
238
330
1
100
AcDbSymbolTableRecord
100
AcDbBlockTableRecord
  2
_DOT
340
0
102
{BLKREFS
331
389
331
396
102
}
  0
BLOCK_RECORD
  5
241
330
1
100
AcDbSymbolTableRecord
100
AcDbBlockTableRecord
  2
SW_NOTE_3
340
0
102
{BLKREFS
331
246
102
}
  0
BLOCK_RECORD
  5
248
330
1
100
AcDbSymbolTableRecord
100
AcDbBlockTableRecord
  2
SW_NOTE_4
340
0
102
{BLKREFS
331
24D
102
}
  0
BLOCK_RECORD
  5
24F
330
1
100
AcDbSymbolTableRecord
100
AcDbBlockTableRecord
  2
SW_NOTE_5
340
0
102
{BLKREFS
331
254
102
}
  0
BLOCK_RECORD
  5
256
330
1
100
AcDbSymbolTableRecord
100
AcDbBlockTableRecord
  2
SW_NOTE_6
340
0
102
{BLKREFS
331
25B
102
}
  0
BLOCK_RECORD
  5
25D
330
1
100
AcDbSymbolTableRecord
100
AcDbBlockTableRecord
  2
SW_NOTE_7
340
0
102
{BLKREFS
331
262
102
}
  0
BLOCK_RECORD
  5
264
330
1
100
AcDbSymbolTableRecord
100
AcDbBlockTableRecord
  2
SW_NOTE_8
340
0
102
{BLKREFS
331
269
102
}
  0
BLOCK_RECORD
  5
26B
330
1
100
AcDbSymbolTableRecord
100
AcDbBlockTableRecord
  2
SW_NOTE_9
340
0
102
{BLKREFS
331
270
102
}
  0
BLOCK_RECORD
  5
272
330
1
100
AcDbSymbolTableRecord
100
AcDbBlockTableRecord
  2
SW_NOTE_10
340
0
102
{BLKREFS
331
277
102
}
  0
BLOCK_RECORD
  5
279
330
1
100
AcDbSymbolTableRecord
100
AcDbBlockTableRecord
  2
SW_NOTE_11
340
0
102
{BLKREFS
331
27E
102
}
  0
BLOCK_RECORD
  5
280
330
1
100
AcDbSymbolTableRecord
100
AcDbBlockTableRecord
  2
SW_NOTE_12
340
0
102
{BLKREFS
331
285
102
}
  0
BLOCK_RECORD
  5
287
330
1
100
AcDbSymbolTableRecord
100
AcDbBlockTableRecord
  2
SW_NOTE_13
340
0
102
{BLKREFS
331
28C
102
}
  0
BLOCK_RECORD
  5
28E
330
1
100
AcDbSymbolTableRecord
100
AcDbBlockTableRecord
  2
SW_NOTE_14
340
0
102
{BLKREFS
331
293
102
}
  0
BLOCK_RECORD
  5
295
330
1
100
AcDbSymbolTableRecord
100
AcDbBlockTableRecord
  2
SW_NOTE_15
340
0
102
{BLKREFS
331
29A
102
}
  0
BLOCK_RECORD
  5
2A7
330
1
100
AcDbSymbolTableRecord
100
AcDbBlockTableRecord
  2
_D
340
0
  0
BLOCK_RECORD
  5
2AF
330
1
100
AcDbSymbolTableRecord
100
AcDbBlockTableRecord
  2
_D_1
340
0
  0
BLOCK_RECORD
  5
2B7
330
1
100
AcDbSymbolTableRecord
100
AcDbBlockTableRecord
  2
_D_2
340
0
  0
BLOCK_RECORD
  5
2BF
330
1
100
AcDbSymbolTableRecord
100
AcDbBlockTableRecord
  2
_D_3
340
0
  0
BLOCK_RECORD
  5
2C8
330
1
100
AcDbSymbolTableRecord
100
AcDbBlockTableRecord
  2
_D_4
340
0
  0
BLOCK_RECORD
  5
2D3
330
1
100
AcDbSymbolTableRecord
100
AcDbBlockTableRecord
  2
_D_5
340
0
  0
BLOCK_RECORD
  5
2DD
330
1
100
AcDbSymbolTableRecord
100
AcDbBlockTableRecord
  2
_D_6
340
0
  0
BLOCK_RECORD
  5
2E7
330
1
100
AcDbSymbolTableRecord
100
AcDbBlockTableRecord
  2
_D_7
340
0
  0
BLOCK_RECORD
  5
2F2
330
1
100
AcDbSymbolTableRecord
100
AcDbBlockTableRecord
  2
_D_8
340
0
  0
BLOCK_RECORD
  5
2FE
330
1
100
AcDbSymbolTableRecord
100
AcDbBlockTableRecord
  2
_D_9
340
0
  0
BLOCK_RECORD
  5
309
330
1
100
AcDbSymbolTableRecord
100
AcDbBlockTableRecord
  2
_D_10
340
0
  0
BLOCK_RECORD
  5
314
330
1
100
AcDbSymbolTableRecord
100
AcDbBlockTableRecord
  2
_D_11
340
0
  0
BLOCK_RECORD
  5
31E
330
1
100
AcDbSymbolTableRecord
100
AcDbBlockTableRecord
  2
_D_12
340
0
  0
BLOCK_RECORD
  5
347
330
1
100
AcDbSymbolTableRecord
100
AcDbBlockTableRecord
  2
_D_13
340
0
  0
BLOCK_RECORD
  5
351
330
1
100
AcDbSymbolTableRecord
100
AcDbBlockTableRecord
  2
_D_14
340
0
  0
BLOCK_RECORD
  5
35A
330
1
100
AcDbSymbolTableRecord
100
AcDbBlockTableRecord
  2
_D_15
340
0
  0
BLOCK_RECORD
  5
364
330
1
100
AcDbSymbolTableRecord
100
AcDbBlockTableRecord
  2
_D_16
340
0
  0
BLOCK_RECORD
  5
36E
330
1
100
AcDbSymbolTableRecord
100
AcDbBlockTableRecord
  2
_D_17
340
0
  0
BLOCK_RECORD
  5
379
330
1
100
AcDbSymbolTableRecord
100
AcDbBlockTableRecord
  2
_D_18
340
0
  0
BLOCK_RECORD
  5
386
330
1
100
AcDbSymbolTableRecord
100
AcDbBlockTableRecord
  2
_D_19
340
0
  0
BLOCK_RECORD
  5
393
330
1
100
AcDbSymbolTableRecord
100
AcDbBlockTableRecord
  2
_D_20
340
0
  0
BLOCK_RECORD
  5
39D
330
1
100
AcDbSymbolTableRecord
100
AcDbBlockTableRecord
  2
_D_21
340
0
  0
BLOCK_RECORD
  5
3A7
330
1
100
AcDbSymbolTableRecord
100
AcDbBlockTableRecord
  2
_D_22
340
0
  0
BLOCK_RECORD
  5
3B1
330
1
100
AcDbSymbolTableRecord
100
AcDbBlockTableRecord
  2
_D_23
340
0
  0
BLOCK_RECORD
  5
3BB
330
1
100
AcDbSymbolTableRecord
100
AcDbBlockTableRecord
  2
_D_24
340
0
  0
BLOCK_RECORD
  5
3C5
330
1
100
AcDbSymbolTableRecord
100
AcDbBlockTableRecord
  2
_D_25
340
0
  0
BLOCK_RECORD
  5
3CD
330
1
100
AcDbSymbolTableRecord
100
AcDbBlockTableRecord
  2
_D_26
340
0
  0
BLOCK_RECORD
  5
3D6
330
1
100
AcDbSymbolTableRecord
100
AcDbBlockTableRecord
  2
_D_27
340
0
  0
BLOCK_RECORD
  5
3DD
330
1
100
AcDbSymbolTableRecord
100
AcDbBlockTableRecord
  2
_D_28
340
0
  0
BLOCK_RECORD
  5
3E8
330
1
100
AcDbSymbolTableRecord
100
AcDbBlockTableRecord
  2
_NONE
340
0
  0
BLOCK_RECORD
  5
3EB
330
1
100
AcDbSymbolTableRecord
100
AcDbBlockTableRecord
  2
_D_29
340
0
  0
BLOCK_RECORD
  5
3F5
330
1
100
AcDbSymbolTableRecord
100
AcDbBlockTableRecord
  2
_D_30
340
0
  0
BLOCK_RECORD
  5
400
330
1
100
AcDbSymbolTableRecord
100
AcDbBlockTableRecord
  2
_D_31
340
0
  0
BLOCK_RECORD
  5
40A
330
1
100
AcDbSymbolTableRecord
100
AcDbBlockTableRecord
  2
SW_CENTERMARKSYMBOL_0
340
0
102
{BLKREFS
331
415
102
}
  0
BLOCK_RECORD
  5
416
330
1
100
AcDbSymbolTableRecord
100
AcDbBlockTableRecord
  2
SW_CENTERMARKSYMBOL_1
340
0
102
{BLKREFS
331
421
102
}
  0
BLOCK_RECORD
  5
422
330
1
100
AcDbSymbolTableRecord
100
AcDbBlockTableRecord
  2
SW_CENTERMARKSYMBOL_2
340
0
102
{BLKREFS
331
42D
102
}
  0
BLOCK_RECORD
  5
42E
330
1
100
AcDbSymbolTableRecord
100
AcDbBlockTableRecord
  2
SW_CENTERMARKSYMBOL_3
340
0
102
{BLKREFS
331
439
102
}
  0
BLOCK_RECORD
  5
43A
330
1
100
AcDbSymbolTableRecord
100
AcDbBlockTableRecord
  2
SW_CENTERMARKSYMBOL_4
340
0
102
{BLKREFS
331
47D
102
}
  0
BLOCK_RECORD
  5
485
330
1
100
AcDbSymbolTableRecord
100
AcDbBlockTableRecord
  2
_D_32
340
0
  0
BLOCK_RECORD
  5
491
330
1
100
AcDbSymbolTableRecord
100
AcDbBlockTableRecord
  2
_D_33
340
0
  0
BLOCK_RECORD
  5
49F
330
1
100
AcDbSymbolTableRecord
100
AcDbBlockTableRecord
  2
_D_34
340
0
  0
BLOCK_RECORD
  5
4AC
330
1
100
AcDbSymbolTableRecord
100
AcDbBlockTableRecord
  2
_D_35
340
0
  0
BLOCK_RECORD
  5
4B5
330
1
100
AcDbSymbolTableRecord
100
AcDbBlockTableRecord
  2
SW_ANGULAR_DIMENSION_0
340
0
102
{BLKREFS
331
4C0
102
}
  0
BLOCK_RECORD
  5
4C1
330
1
100
AcDbSymbolTableRecord
100
AcDbBlockTableRecord
  2
SW_ANGULAR_DIMENSION_1
340
0
102
{BLKREFS
331
4CA
102
}
  0
BLOCK_RECORD
  5
4D0
330
1
100
AcDbSymbolTableRecord
100
AcDbBlockTableRecord
  2
_D_36
340
0
  0
BLOCK_RECORD
  5
4D9
330
1
100
AcDbSymbolTableRecord
100
AcDbBlockTableRecord
  2
SW_ANGULAR_DIMENSION_2
340
0
102
{BLKREFS
331
4E4
102
}
  0
BLOCK_RECORD
  5
4E5
330
1
100
AcDbSymbolTableRecord
100
AcDbBlockTableRecord
  2
SW_ANGULAR_DIMENSION_3
340
0
102
{BLKREFS
331
4F0
102
}
  0
BLOCK_RECORD
  5
4F2
330
1
100
AcDbSymbolTableRecord
100
AcDbBlockTableRecord
  2
_D_37
340
0
  0
BLOCK_RECORD
  5
502
330
1
100
AcDbSymbolTableRecord
100
AcDbBlockTableRecord
  2
_D_38
340
0
  0
BLOCK_RECORD
  5
50E
330
1
100
AcDbSymbolTableRecord
100
AcDbBlockTableRecord
  2
_D_39
340
0
  0
BLOCK_RECORD
  5
517
330
1
100
AcDbSymbolTableRecord
100
AcDbBlockTableRecord
  2
SW_ANGULAR_DIMENSION_4
340
0
102
{BLKREFS
331
520
102
}
  0
BLOCK_RECORD
  5
521
330
1
100
AcDbSymbolTableRecord
100
AcDbBlockTableRecord
  2
SW_ANGULAR_DIMENSION_5
340
0
102
{BLKREFS
331
52C
102
}
  0
BLOCK_RECORD
  5
532
330
1
100
AcDbSymbolTableRecord
100
AcDbBlockTableRecord
  2
_D_40
340
0
  0
BLOCK_RECORD
  5
53B
330
1
100
AcDbSymbolTableRecord
100
AcDbBlockTableRecord
  2
SW_ANGULAR_DIMENSION_6
340
0
102
{BLKREFS
331
546
102
}
  0
BLOCK_RECORD
  5
547
330
1
100
AcDbSymbolTableRecord
100
AcDbBlockTableRecord
  2
SW_ANGULAR_DIMENSION_7
340
0
102
{BLKREFS
331
552
102
}
  0
BLOCK_RECORD
  5
554
330
1
100
AcDbSymbolTableRecord
100
AcDbBlockTableRecord
  2
_D_41
340
0
  0
BLOCK_RECORD
  5
590
330
1
100
AcDbSymbolTableRecord
100
AcDbBlockTableRecord
  2
SW_NOTE_16
340
0
102
{BLKREFS
331
595
102
}
  0
BLOCK_RECORD
  5
597
330
1
100
AcDbSymbolTableRecord
100
AcDbBlockTableRecord
  2
SW_NOTE_17
340
0
102
{BLKREFS
331
59C
102
}
  0
BLOCK_RECORD
  5
59E
330
1
100
AcDbSymbolTableRecord
100
AcDbBlockTableRecord
  2
SW_NOTE_18
340
0
102
{BLKREFS
331
5A3
102
}
  0
BLOCK_RECORD
  5
5A5
330
1
100
AcDbSymbolTableRecord
100
AcDbBlockTableRecord
  2
SW_NOTE_19
340
0
102
{BLKREFS
331
5AA
102
}
  0
BLOCK_RECORD
  5
5AC
330
1
100
AcDbSymbolTableRecord
100
AcDbBlockTableRecord
  2
SW_NOTE_20
340
0
102
{BLKREFS
331
5B1
102
}
  0
BLOCK_RECORD
  5
5B8
330
1
100
AcDbSymbolTableRecord
100
AcDbBlockTableRecord
  2
_D_42
340
0
  0
BLOCK_RECORD
  5
5C1
330
1
100
AcDbSymbolTableRecord
100
AcDbBlockTableRecord
  2
SW_ANGULAR_DIMENSION_8
340
0
102
{BLKREFS
331
5CC
102
}
  0
BLOCK_RECORD
  5
5CE
330
1
100
AcDbSymbolTableRecord
100
AcDbBlockTableRecord
  2
_D_43
340
0
  0
BLOCK_RECORD
  5
5E1
330
1
100
AcDbSymbolTableRecord
100
AcDbBlockTableRecord
  2
_D_44
340
0
  0
BLOCK_RECORD
  5
5F2
330
1
100
AcDbSymbolTableRecord
100
AcDbBlockTableRecord
  2
_D_45
340
0
  0
BLOCK_RECORD
  5
5FC
330
1
100
AcDbSymbolTableRecord
100
AcDbBlockTableRecord
  2
_D_46
340
0
  0
BLOCK_RECORD
  5
606
330
1
100
AcDbSymbolTableRecord
100
AcDbBlockTableRecord
  2
_D_47
340
0
  0
BLOCK_RECORD
  5
611
330
1
100
AcDbSymbolTableRecord
100
AcDbBlockTableRecord
  2
_D_48
340
0
  0
BLOCK_RECORD
  5
61D
330
1
100
AcDbSymbolTableRecord
100
AcDbBlockTableRecord
  2
_D_49
340
0
  0
BLOCK_RECORD
  5
629
330
1
100
AcDbSymbolTableRecord
100
AcDbBlockTableRecord
  2
_D_50
340
0
  0
BLOCK_RECORD
  5
633
330
1
100
AcDbSymbolTableRecord
100
AcDbBlockTableRecord
  2
_D_51
340
0
  0
BLOCK_RECORD
  5
63D
330
1
100
AcDbSymbolTableRecord
100
AcDbBlockTableRecord
  2
_D_52
340
0
  0
BLOCK_RECORD
  5
647
330
1
100
AcDbSymbolTableRecord
100
AcDbBlockTableRecord
  2
_D_53
340
0
  0
BLOCK_RECORD
  5
657
330
1
100
AcDbSymbolTableRecord
100
AcDbBlockTableRecord
  2
_D_54
340
0
  0
BLOCK_RECORD
  5
661
330
1
100
AcDbSymbolTableRecord
100
AcDbBlockTableRecord
  2
_D_55
340
0
  0
BLOCK_RECORD
  5
66B
330
1
100
AcDbSymbolTableRecord
100
AcDbBlockTableRecord
  2
_D_56
340
0
  0
BLOCK_RECORD
  5
676
330
1
100
AcDbSymbolTableRecord
100
AcDbBlockTableRecord
  2
_D_57
340
0
  0
BLOCK_RECORD
  5
682
330
1
100
AcDbSymbolTableRecord
100
AcDbBlockTableRecord
  2
_D_58
340
0
  0
BLOCK_RECORD
  5
68C
330
1
100
AcDbSymbolTableRecord
100
AcDbBlockTableRecord
  2
_D_59
340
0
  0
BLOCK_RECORD
  5
696
330
1
100
AcDbSymbolTableRecord
100
AcDbBlockTableRecord
  2
_D_60
340
0
  0
BLOCK_RECORD
  5
6A4
330
1
100
AcDbSymbolTableRecord
100
AcDbBlockTableRecord
  2
_D_61
340
0
  0
BLOCK_RECORD
  5
6B2
330
1
100
AcDbSymbolTableRecord
100
AcDbBlockTableRecord
  2
_D_62
340
0
  0
BLOCK_RECORD
  5
6BB
330
1
100
AcDbSymbolTableRecord
100
AcDbBlockTableRecord
  2
SW_ANGULAR_DIMENSION_9
340
0
102
{BLKREFS
331
6C6
102
}
  0
BLOCK_RECORD
  5
6C8
330
1
100
AcDbSymbolTableRecord
100
AcDbBlockTableRecord
  2
_D_63
340
0
  0
BLOCK_RECORD
  5
6DB
330
1
100
AcDbSymbolTableRecord
100
AcDbBlockTableRecord
  2
_D_64
340
0
  0
BLOCK_RECORD
  5
6F1
330
1
100
AcDbSymbolTableRecord
100
AcDbBlockTableRecord
  2
_D_65
340
0
  0
ENDTAB
  0
ENDSEC
  0
SECTION
  2
BLOCKS
  0
BLOCK
  5
20
330
1F
100
AcDbEntity
  8
0
100
AcDbBlockBegin
  2
*Model_Space
 70
     0
 10
0.0
 20
0.0
 30
0.0
  3
*Model_Space
  1

  0
ENDBLK
  5
21
330
1F
100
AcDbEntity
  8
0
100
AcDbBlockEnd
  0
BLOCK
  5
1C
330
1B
100
AcDbEntity
 67
     1
  8
0
100
AcDbBlockBegin
  2
*Paper_Space
 70
     0
 10
0.0
 20
0.0
 30
0.0
  3
*Paper_Space
  1

  0
ENDBLK
  5
1D
330
1B
100
AcDbEntity
 67
     1
  8
0
100
AcDbBlockEnd
  0
BLOCK
  5
24
330
23
100
AcDbEntity
  8
0
100
AcDbBlockBegin
  2
*Paper_Space0
 70
     0
 10
0.0
 20
0.0
 30
0.0
  3
*Paper_Space0
  1

  0
ENDBLK
  5
25
330
23
100
AcDbEntity
  8
0
100
AcDbBlockEnd
  0
BLOCK
  5
DB
330
DA
100
AcDbEntity
  8
0
100
AcDbBlockBegin
  2
SW_NOTE_0
 70
     0
 10
0.0
 20
0.0
 30
0.0
  3
SW_NOTE_0
  1

  0
MTEXT
  5
DE
330
DA
100
AcDbEntity
  8
CAJETIN
 62
     0
100
AcDbMText
 10
0.0
 20
3.2126089873
 30
0.0
 40
2.5
 41
0.0
 71
     1
 72
     1
  1
Birch Plywood
  7
SLDTEXTSTYLE0
 73
     1
 44
1.0
  0
MTEXT
  5
DF
330
DA
100
AcDbEntity
  8
CAJETIN
 62
     0
100
AcDbMText
 10
0.0
 20
-0.2873911208
 30
0.0
 40
2.5
 41
0.0
 71
     1
 72
     1
  1
15mm
  7
SLDTEXTSTYLE0
 73
     1
 44
1.0
  0
ENDBLK
  5
DC
330
DA
100
AcDbEntity
  8
0
100
AcDbBlockEnd
  0
BLOCK
  5
101
330
100
100
AcDbEntity
  8
0
100
AcDbBlockBegin
  2
SW_NOTE_1
 70
     0
 10
0.0
 20
0.0
 30
0.0
  3
SW_NOTE_1
  1

  0
MTEXT
  5
103
330
100
100
AcDbEntity
  8
CAJETIN
 62
     0
100
AcDbMText
 10
7.421875
 20
3.2126089873
 30
0.0
 40
2.5
 41
0.0
 71
     2
 72
     1
  1
FR-10CM
  7
SLDTEXTSTYLE0
 73
     1
 44
1.0
  0
MTEXT
  5
104
330
100
100
AcDbEntity
  8
CAJETIN
 62
     0
100
AcDbMText
 10
7.206591405
 20
-0.2873911208
 30
0.0
 40
2.5
 41
0.0
 71
     2
 72
     1
  1
FULL RANGE 2 WAY SYSTEM 10''
  7
SLDTEXTSTYLE0
 73
     1
 44
1.0
  0
ENDBLK
  5
102
330
100
100
AcDbEntity
  8
0
100
AcDbBlockEnd
  0
BLOCK
  5
107
330
106
100
AcDbEntity
  8
0
100
AcDbBlockBegin
  2
SW_TABLEANNOTATION_0
 70
     0
 10
0.0
 20
0.0
 30
0.0
  3
SW_TABLEANNOTATION_0
  1

  0
LINE
  5
109
330
106
100
AcDbEntity
  8
CAJETIN
 62
     0
100
AcDbLine
 10
0.0
 20
0.0
 30
0.0
 11
0.0
 21
-90.2544231695
 31
0.0
  0
LINE
  5
10A
330
106
100
AcDbEntity
  8
CAJETIN
 62
     0
100
AcDbLine
 10
0.0
 20
-90.2544231695
 30
0.0
 11
119.9210148447
 21
-90.2544231695
 31
0.0
  0
LINE
  5
10B
330
106
100
AcDbEntity
  8
CAJETIN
 62
     0
100
AcDbLine
 10
119.9210148447
 20
-90.2544231695
 30
0.0
 11
119.9210148447
 21
0.0
 31
0.0
  0
LINE
  5
10C
330
106
100
AcDbEntity
  8
CAJETIN
 62
     0
100
AcDbLine
 10
119.9210148447
 20
0.0
 30
0.0
 11
0.0
 21
0.0
 31
0.0
  0
LINE
  5
10D
330
106
100
AcDbEntity
  8
CAJETIN
 62
     0
100
AcDbLine
 10
31.5055826101
 20
0.0
 30
0.0
 11
31.5055826101
 21
-11.9056661903
 31
0.0
  0
LINE
  5
10E
330
106
100
AcDbEntity
  8
CAJETIN
 62
     0
100
AcDbLine
 10
88.5083507637
 20
0.0
 30
0.0
 11
88.5083507637
 21
-11.9056661903
 31
0.0
  0
LINE
  5
10F
330
106
100
AcDbEntity
  8
CAJETIN
 62
     0
100
AcDbLine
 10
31.5055826101
 20
-11.9056661903
 30
0.0
 11
31.5055826101
 21
-90.2544231695
 31
0.0
  0
LINE
  5
110
330
106
100
AcDbEntity
  8
CAJETIN
 62
     0
100
AcDbLine
 10
88.5083507637
 20
-11.9056661903
 30
0.0
 11
88.5083507637
 21
-90.2544231695
 31
0.0
  0
LINE
  5
111
330
106
100
AcDbEntity
  8
CAJETIN
 62
     0
100
AcDbLine
 10
0.0
 20
-19.0282804611
 30
0.0
 11
119.9210148447
 21
-19.0282804611
 31
0.0
  0
LINE
  5
112
330
106
100
AcDbEntity
  8
CAJETIN
 62
     0
100
AcDbLine
 10
0.0
 20
-26.150894732
 30
0.0
 11
119.9210148447
 21
-26.150894732
 31
0.0
  0
LINE
  5
113
330
106
100
AcDbEntity
  8
CAJETIN
 62
     0
100
AcDbLine
 10
0.0
 20
-33.2735090028
 30
0.0
 11
119.9210148447
 21
-33.2735090028
 31
0.0
  0
LINE
  5
114
330
106
100
AcDbEntity
  8
CAJETIN
 62
     0
100
AcDbLine
 10
0.0
 20
-40.3961232736
 30
0.0
 11
119.9210148447
 21
-40.3961232736
 31
0.0
  0
LINE
  5
115
330
106
100
AcDbEntity
  8
CAJETIN
 62
     0
100
AcDbLine
 10
0.0
 20
-47.5187375445
 30
0.0
 11
119.9210148447
 21
-47.5187375445
 31
0.0
  0
LINE
  5
116
330
106
100
AcDbEntity
  8
CAJETIN
 62
     0
100
AcDbLine
 10
0.0
 20
-54.6413518153
 30
0.0
 11
119.9210148447
 21
-54.6413518153
 31
0.0
  0
LINE
  5
117
330
106
100
AcDbEntity
  8
CAJETIN
 62
     0
100
AcDbLine
 10
0.0
 20
-61.7639660862
 30
0.0
 11
119.9210148447
 21
-61.7639660862
 31
0.0
  0
LINE
  5
118
330
106
100
AcDbEntity
  8
CAJETIN
 62
     0
100
AcDbLine
 10
0.0
 20
-68.886580357
 30
0.0
 11
119.9210148447
 21
-68.886580357
 31
0.0
  0
LINE
  5
119
330
106
100
AcDbEntity
  8
CAJETIN
 62
     0
100
AcDbLine
 10
0.0
 20
-76.0091946279
 30
0.0
 11
119.9210148447
 21
-76.0091946279
 31
0.0
  0
LINE
  5
11A
330
106
100
AcDbEntity
  8
CAJETIN
 62
     0
100
AcDbLine
 10
0.0
 20
-83.1318088987
 30
0.0
 11
119.9210148447
 21
-83.1318088987
 31
0.0
  0
LINE
  5
11B
330
106
100
AcDbEntity
  8
CAJETIN
 62
     0
100
AcDbLine
 10
0.0
 20
-11.9056661903
 30
0.0
 11
119.9210148447
 21
-11.9056661903
 31
0.0
  0
MTEXT
  5
11C
330
106
100
AcDbEntity
  8
CAJETIN
 62
     0
100
AcDbMText
 10
6.3453846322
 20
-4.362489479
 30
0.0
 40
3.175
 41
0.0
 71
     1
 72
     1
  1
ITEM NO.
  7
SLDTEXTSTYLE0
 73
     1
 44
1.0
  0
MTEXT
  5
11D
330
106
100
AcDbEntity
  8
CAJETIN
 62
     0
100
AcDbMText
 10
40.2514095074
 20
-4.362489479
 30
0.0
 40
3.175
 41
0.0
 71
     1
 72
     1
  1
PART DIMENSIONS
  7
SLDTEXTSTYLE0
 73
     1
 44
1.0
  0
MTEXT
  5
11E
330
106
100
AcDbEntity
  8
CAJETIN
 62
     0
100
AcDbMText
 10
99.275793975
 20
-4.362489479
 30
0.0
 40
3.175
 41
0.0
 71
     1
 72
     1
  1
QTY.
  7
SLDTEXTSTYLE0
 73
     1
 44
1.0
  0
MTEXT
  5
11F
330
106
100
AcDbEntity
  8
CAJETIN
 62
     0
100
AcDbMText
 10
14.5401176941
 20
-13.8490618441
 30
0.0
 40
3.175
 41
0.0
 71
     1
 72
     1
  1
1
  7
SLDTEXTSTYLE0
 73
     1
 44
1.0
  0
MTEXT
  5
120
330
106
100
AcDbEntity
  8
CAJETIN
 62
     0
100
AcDbMText
 10
44.36715307
 20
-13.8766297095
 30
0.0
 40
3.175
 41
0.0
 71
     1
 72
     1
  1
301.5 x 307 x 15
  7
SLDTEXTSTYLE0
 73
     1
 44
1.0
  0
MTEXT
  5
121
330
106
100
AcDbEntity
  8
CAJETIN
 62
     0
100
AcDbMText
 10
103.0020091932
 20
-13.8490618441
 30
0.0
 40
3.175
 41
0.0
 71
     1
 72
     1
  1
2
  7
SLDTEXTSTYLE0
 73
     1
 44
1.0
  0
MTEXT
  5
122
330
106
100
AcDbEntity
  8
CAJETIN
 62
     0
100
AcDbMText
 10
14.5401176941
 20
-20.9716761149
 30
0.0
 40
3.175
 41
0.0
 71
     1
 72
     1
  1
2
  7
SLDTEXTSTYLE0
 73
     1
 44
1.0
  0
MTEXT
  5
123
330
106
100
AcDbEntity
  8
CAJETIN
 62
     0
100
AcDbMText
 10
45.5430782056
 20
-20.9992439804
 30
0.0
 40
3.175
 41
0.0
 71
     1
 72
     1
  1
42.5 x 508 x 15
  7
SLDTEXTSTYLE0
 73
     1
 44
1.0
  0
MTEXT
  5
124
330
106
100
AcDbEntity
  8
CAJETIN
 62
     0
100
AcDbMText
 10
103.0020091932
 20
-20.9716761149
 30
0.0
 40
3.175
 41
0.0
 71
     1
 72
     1
  1
2
  7
SLDTEXTSTYLE0
 73
     1
 44
1.0
  0
MTEXT
  5
125
330
106
100
AcDbEntity
  8
CAJETIN
 62
     0
100
AcDbMText
 10
14.5401176941
 20
-28.0942903858
 30
0.0
 40
3.175
 41
0.0
 71
     1
 72
     1
  1
3
  7
SLDTEXTSTYLE0
 73
     1
 44
1.0
  0
MTEXT
  5
126
330
106
100
AcDbEntity
  8
CAJETIN
 62
     0
100
AcDbMText
 10
44.36715307
 20
-28.1218582512
 30
0.0
 40
3.175
 41
0.0
 71
     1
 72
     1
  1
224.3 x 508 x 15
  7
SLDTEXTSTYLE0
 73
     1
 44
1.0
  0
MTEXT
  5
127
330
106
100
AcDbEntity
  8
CAJETIN
 62
     0
100
AcDbMText
 10
103.0020091932
 20
-28.0942903858
 30
0.0
 40
3.175
 41
0.0
 71
     1
 72
     1
  1
1
  7
SLDTEXTSTYLE0
 73
     1
 44
1.0
  0
MTEXT
  5
128
330
106
100
AcDbEntity
  8
CAJETIN
 62
     0
100
AcDbMText
 10
14.5401176941
 20
-35.2169046566
 30
0.0
 40
3.175
 41
0.0
 71
     1
 72
     1
  1
4
  7
SLDTEXTSTYLE0
 73
     1
 44
1.0
  0
MTEXT
  5
129
330
106
100
AcDbEntity
  8
CAJETIN
 62
     0
100
AcDbMText
 10
44.36715307
 20
-35.244472522
 30
0.0
 40
3.175
 41
0.0
 71
     1
 72
     1
  1
138.8 x 508 x 15
  7
SLDTEXTSTYLE0
 73
     1
 44
1.0
  0
MTEXT
  5
12A
330
106
100
AcDbEntity
  8
CAJETIN
 62
     0
100
AcDbMText
 10
103.0020091932
 20
-35.2169046566
 30
0.0
 40
3.175
 41
0.0
 71
     1
 72
     1
  1
1
  7
SLDTEXTSTYLE0
 73
     1
 44
1.0
  0
MTEXT
  5
12B
330
106
100
AcDbEntity
  8
CAJETIN
 62
     0
100
AcDbMText
 10
14.5401176941
 20
-42.3395189275
 30
0.0
 40
3.175
 41
0.0
 71
     1
 72
     1
  1
5
  7
SLDTEXTSTYLE0
 73
     1
 44
1.0
  0
MTEXT
  5
12D
330
106
100
AcDbEntity
  8
CAJETIN
 62
     0
100
AcDbMText
 10
46.1310407734
 20
-42.3670867929
 30
0.0
 40
3.175
 41
0.0
 71
     1
 72
     1
  1
123 x 508 x 15
  7
SLDTEXTSTYLE2
 73
     1
 44
1.0
  0
MTEXT
  5
12E
330
106
100
AcDbEntity
  8
CAJETIN
 62
     0
100
AcDbMText
 10
103.0020091932
 20
-42.3395189275
 30
0.0
 40
3.175
 41
0.0
 71
     1
 72
     1
  1
1
  7
SLDTEXTSTYLE0
 73
     1
 44
1.0
  0
MTEXT
  5
12F
330
106
100
AcDbEntity
  8
CAJETIN
 62
     0
100
AcDbMText
 10
14.5401176941
 20
-49.4621331983
 30
0.0
 40
3.175
 41
0.0
 71
     1
 72
     1
  1
6
  7
SLDTEXTSTYLE0
 73
     1
 44
1.0
  0
MTEXT
  5
130
330
106
100
AcDbEntity
  8
CAJETIN
 62
     0
100
AcDbMText
 10
44.36715307
 20
-49.4897010637
 30
0.0
 40
3.175
 41
0.0
 71
     1
 72
     1
  1
146.4 x 508 x 15
  7
SLDTEXTSTYLE0
 73
     1
 44
1.0
  0
MTEXT
  5
131
330
106
100
AcDbEntity
  8
CAJETIN
 62
     0
100
AcDbMText
 10
103.0020091932
 20
-49.4621331983
 30
0.0
 40
3.175
 41
0.0
 71
     1
 72
     1
  1
1
  7
SLDTEXTSTYLE0
 73
     1
 44
1.0
  0
MTEXT
  5
132
330
106
100
AcDbEntity
  8
CAJETIN
 62
     0
100
AcDbMText
 10
14.5401176941
 20
-56.5847474691
 30
0.0
 40
3.175
 41
0.0
 71
     1
 72
     1
  1
7
  7
SLDTEXTSTYLE0
 73
     1
 44
1.0
  0
MTEXT
  5
133
330
106
100
AcDbEntity
  8
CAJETIN
 62
     0
100
AcDbMText
 10
44.36715307
 20
-56.6123153346
 30
0.0
 40
3.175
 41
0.0
 71
     1
 72
     1
  1
301.5 x 508 x 15
  7
SLDTEXTSTYLE0
 73
     1
 44
1.0
  0
MTEXT
  5
134
330
106
100
AcDbEntity
  8
CAJETIN
 62
     0
100
AcDbMText
 10
103.0020091932
 20
-56.5847474691
 30
0.0
 40
3.175
 41
0.0
 71
     1
 72
     1
  1
1
  7
SLDTEXTSTYLE0
 73
     1
 44
1.0
  0
MTEXT
  5
135
330
106
100
AcDbEntity
  8
CAJETIN
 62
     0
100
AcDbMText
 10
14.5401176941
 20
-63.70736174
 30
0.0
 40
3.175
 41
0.0
 71
     1
 72
     1
  1
8
  7
SLDTEXTSTYLE0
 73
     1
 44
1.0
  0
MTEXT
  5
136
330
106
100
AcDbEntity
  8
CAJETIN
 62
     0
100
AcDbMText
 10
45.5430782056
 20
-63.7349296054
 30
0.0
 40
3.175
 41
0.0
 71
     1
 72
     1
  1
120 x 57.3 x 15
  7
SLDTEXTSTYLE0
 73
     1
 44
1.0
  0
MTEXT
  5
137
330
106
100
AcDbEntity
  8
CAJETIN
 62
     0
100
AcDbMText
 10
103.0020091932
 20
-63.70736174
 30
0.0
 40
3.175
 41
0.0
 71
     1
 72
     1
  1
2
  7
SLDTEXTSTYLE0
 73
     1
 44
1.0
  0
MTEXT
  5
138
330
106
100
AcDbEntity
  8
CAJETIN
 62
     0
100
AcDbMText
 10
14.5401176941
 20
-70.8299760108
 30
0.0
 40
3.175
 41
0.0
 71
     1
 72
     1
  1
9
  7
SLDTEXTSTYLE0
 73
     1
 44
1.0
  0
MTEXT
  5
13A
330
106
100
AcDbEntity
  8
CAJETIN
 62
     0
100
AcDbMText
 10
47.3069668404
 20
-70.8575438763
 30
0.0
 40
3.175
 41
0.0
 71
     1
 72
     1
  1
202 x 39 x 15
  7
SLDTEXTSTYLE3
 73
     1
 44
1.0
  0
MTEXT
  5
13B
330
106
100
AcDbEntity
  8
CAJETIN
 62
     0
100
AcDbMText
 10
103.0020091932
 20
-70.8299760108
 30
0.0
 40
3.175
 41
0.0
 71
     1
 72
     1
  1
1
  7
SLDTEXTSTYLE0
 73
     1
 44
1.0
  0
MTEXT
  5
13C
330
106
100
AcDbEntity
  8
CAJETIN
 62
     0
100
AcDbMText
 10
13.327444083
 20
-77.9525902817
 30
0.0
 40
3.175
 41
0.0
 71
     1
 72
     1
  1
10
  7
SLDTEXTSTYLE0
 73
     1
 44
1.0
  0
MTEXT
  5
13D
330
106
100
AcDbEntity
  8
CAJETIN
 62
     0
100
AcDbMText
 10
47.3069668404
 20
-77.9801581471
 30
0.0
 40
3.175
 41
0.0
 71
     1
 72
     1
  1
202 x 80 x 15
  7
SLDTEXTSTYLE3
 73
     1
 44
1.0
  0
MTEXT
  5
13E
330
106
100
AcDbEntity
  8
CAJETIN
 62
     0
100
AcDbMText
 10
103.0020091932
 20
-77.9525902817
 30
0.0
 40
3.175
 41
0.0
 71
     1
 72
     1
  1
1
  7
SLDTEXTSTYLE0
 73
     1
 44
1.0
  0
MTEXT
  5
13F
330
106
100
AcDbEntity
  8
CAJETIN
 62
     0
100
AcDbMText
 10
13.327444083
 20
-85.0752045525
 30
0.0
 40
3.175
 41
0.0
 71
     1
 72
     1
  1
11
  7
SLDTEXTSTYLE0
 73
     1
 44
1.0
  0
MTEXT
  5
140
330
106
100
AcDbEntity
  8
CAJETIN
 62
     0
100
AcDbMText
 10
45.5430782056
 20
-85.1027724179
 30
0.0
 40
3.175
 41
0.0
 71
     1
 72
     1
  1
133 x 42.5 x 15
  7
SLDTEXTSTYLE0
 73
     1
 44
1.0
  0
MTEXT
  5
141
330
106
100
AcDbEntity
  8
CAJETIN
 62
     0
100
AcDbMText
 10
103.0020091932
 20
-85.0752045525
 30
0.0
 40
3.175
 41
0.0
 71
     1
 72
     1
  1
1
  7
SLDTEXTSTYLE0
 73
     1
 44
1.0
  0
ENDBLK
  5
108
330
106
100
AcDbEntity
  8
0
100
AcDbBlockEnd
  0
BLOCK
  5
232
330
231
100
AcDbEntity
  8
0
100
AcDbBlockBegin
  2
SW_NOTE_2
 70
     0
 10
0.0
 20
0.0
 30
0.0
  3
SW_NOTE_2
  1

  0
CIRCLE
  5
234
330
231
100
AcDbEntity
  8
SLD-0_0
 62
     0
100
AcDbCircle
 10
-3.3426840999
 20
1.571620752
 30
0.0
 40
3.693714766971152
  0
MTEXT
  5
235
330
231
100
AcDbEntity
  8
SLD-0_0
 62
     0
100
AcDbMText
 10
-3.3600452123
 20
2.8677974192
 30
0.0
 40
2.5
 41
0.0
 71
     2
 72
     1
  1
8
  7
SLDTEXTSTYLE0
 73
     1
 44
1.0
  0
ENDBLK
  5
233
330
231
100
AcDbEntity
  8
0
100
AcDbBlockEnd
  0
BLOCK
  5
239
330
238
100
AcDbEntity
  8
0
100
AcDbBlockBegin
  2
_DOT
 70
     0
 10
0.0
 20
0.0
 30
0.0
  3
_DOT
  1

  0
POLYLINE
  5
23B
330
238
100
AcDbEntity
  8
0
  6
ByBlock
 62
     0
100
AcDb2dPolyline
 66
     1
 10
0.0
 20
0.0
 30
0.0
 70
     1
 40
0.5
 41
0.5
  0
VERTEX
  5
23D
330
23B
100
AcDbEntity
  8
0
  6
ByBlock
 62
     0
100
AcDbVertex
100
AcDb2dVertex
 10
-0.25
 20
0.0
 30
0.0
 42
1.0
  0
VERTEX
  5
23E
330
23B
100
AcDbEntity
  8
0
  6
ByBlock
 62
     0
100
AcDbVertex
100
AcDb2dVertex
 10
0.25
 20
0.0
 30
0.0
 42
1.0
  0
SEQEND
  5
23F
330
23B
100
AcDbEntity
  8
0
  6
ByBlock
 62
     0
  0
LINE
  5
23C
330
238
100
AcDbEntity
  8
0
  6
ByBlock
 62
     0
370
    -2
100
AcDbLine
 10
-0.5
 20
0.0
 30
0.0
 11
-1.0
 21
0.0
 31
0.0
  0
ENDBLK
  5
23A
330
238
100
AcDbEntity
  8
0
100
AcDbBlockEnd
  0
BLOCK
  5
242
330
241
100
AcDbEntity
  8
0
100
AcDbBlockBegin
  2
SW_NOTE_3
 70
     0
 10
0.0
 20
0.0
 30
0.0
  3
SW_NOTE_3
  1

  0
CIRCLE
  5
244
330
241
100
AcDbEntity
  8
SLD-0_0
 62
     0
100
AcDbCircle
 10
-2.1421333784
 20
3.0091183707
 30
0.0
 40
3.693714766971127
  0
MTEXT
  5
245
330
241
100
AcDbEntity
  8
SLD-0_0
 62
     0
100
AcDbMText
 10
-2.1594944908
 20
4.3052950379
 30
0.0
 40
2.5
 41
0.0
 71
     2
 72
     1
  1
5
  7
SLDTEXTSTYLE0
 73
     1
 44
1.0
  0
ENDBLK
  5
243
330
241
100
AcDbEntity
  8
0
100
AcDbBlockEnd
  0
BLOCK
  5
249
330
248
100
AcDbEntity
  8
0
100
AcDbBlockBegin
  2
SW_NOTE_4
 70
     0
 10
0.0
 20
0.0
 30
0.0
  3
SW_NOTE_4
  1

  0
CIRCLE
  5
24B
330
248
100
AcDbEntity
  8
SLD-0_0
 62
     0
100
AcDbCircle
 10
3.4085593673
 20
1.4231134246
 30
0.0
 40
3.693714766971176
  0
MTEXT
  5
24C
330
248
100
AcDbEntity
  8
SLD-0_0
 62
     0
100
AcDbMText
 10
3.3911982549
 20
2.7192900918
 30
0.0
 40
2.5
 41
0.0
 71
     2
 72
     1
  1
3
  7
SLDTEXTSTYLE0
 73
     1
 44
1.0
  0
ENDBLK
  5
24A
330
248
100
AcDbEntity
  8
0
100
AcDbBlockEnd
  0
BLOCK
  5
250
330
24F
100
AcDbEntity
  8
0
100
AcDbBlockBegin
  2
SW_NOTE_5
 70
     0
 10
0.0
 20
0.0
 30
0.0
  3
SW_NOTE_5
  1

  0
CIRCLE
  5
252
330
24F
100
AcDbEntity
  8
SLD-0_0
 62
     0
100
AcDbCircle
 10
3.6934359443
 20
-0.0453839708
 30
0.0
 40
3.693714766971133
  0
MTEXT
  5
253
330
24F
100
AcDbEntity
  8
SLD-0_0
 62
     0
100
AcDbMText
 10
3.6760748319
 20
1.2507926964
 30
0.0
 40
2.5
 41
0.0
 71
     2
 72
     1
  1
2
  7
SLDTEXTSTYLE0
 73
     1
 44
1.0
  0
ENDBLK
  5
251
330
24F
100
AcDbEntity
  8
0
100
AcDbBlockEnd
  0
BLOCK
  5
257
330
256
100
AcDbEntity
  8
0
100
AcDbBlockBegin
  2
SW_NOTE_6
 70
     0
 10
0.0
 20
0.0
 30
0.0
  3
SW_NOTE_6
  1

  0
CIRCLE
  5
259
330
256
100
AcDbEntity
  8
SLD-0_0
 62
     0
100
AcDbCircle
 10
-1.8382518444
 20
-3.203803823
 30
0.0
 40
3.693714766971154
  0
MTEXT
  5
25A
330
256
100
AcDbEntity
  8
SLD-0_0
 62
     0
100
AcDbMText
 10
-1.8729740692
 20
-1.9076271558
 30
0.0
 40
2.5
 41
0.0
 71
     2
 72
     1
  1
11
  7
SLDTEXTSTYLE0
 73
     1
 44
1.0
  0
ENDBLK
  5
258
330
256
100
AcDbEntity
  8
0
100
AcDbBlockEnd
  0
BLOCK
  5
25E
330
25D
100
AcDbEntity
  8
0
100
AcDbBlockBegin
  2
SW_NOTE_7
 70
     0
 10
0.0
 20
0.0
 30
0.0
  3
SW_NOTE_7
  1

  0
CIRCLE
  5
260
330
25D
100
AcDbEntity
  8
SLD-0_0
 62
     0
100
AcDbCircle
 10
3.2587321528
 20
1.7390208556
 30
0.0
 40
3.693714766971176
  0
MTEXT
  5
261
330
25D
100
AcDbEntity
  8
SLD-0_0
 62
     0
100
AcDbMText
 10
3.224009928
 20
3.0351975228
 30
0.0
 40
2.5
 41
0.0
 71
     2
 72
     1
  1
10
  7
SLDTEXTSTYLE0
 73
     1
 44
1.0
  0
ENDBLK
  5
25F
330
25D
100
AcDbEntity
  8
0
100
AcDbBlockEnd
  0
BLOCK
  5
265
330
264
100
AcDbEntity
  8
0
100
AcDbBlockBegin
  2
SW_NOTE_8
 70
     0
 10
0.0
 20
0.0
 30
0.0
  3
SW_NOTE_8
  1

  0
CIRCLE
  5
267
330
264
100
AcDbEntity
  8
SLD-0_0
 62
     0
100
AcDbCircle
 10
3.3309240436
 20
-1.5963939976
 30
0.0
 40
3.693714766971133
  0
MTEXT
  5
268
330
264
100
AcDbEntity
  8
SLD-0_0
 62
     0
100
AcDbMText
 10
3.3135629312
 20
-0.3002173304
 30
0.0
 40
2.5
 41
0.0
 71
     2
 72
     1
  1
1
  7
SLDTEXTSTYLE0
 73
     1
 44
1.0
  0
ENDBLK
  5
266
330
264
100
AcDbEntity
  8
0
100
AcDbBlockEnd
  0
BLOCK
  5
26C
330
26B
100
AcDbEntity
  8
0
100
AcDbBlockBegin
  2
SW_NOTE_9
 70
     0
 10
0.0
 20
0.0
 30
0.0
  3
SW_NOTE_9
  1

  0
CIRCLE
  5
26E
330
26B
100
AcDbEntity
  8
SLD-0_0
 62
     0
100
AcDbCircle
 10
-2.8978861876
 20
-2.2903677485
 30
0.0
 40
3.693714766971133
  0
MTEXT
  5
26F
330
26B
100
AcDbEntity
  8
SLD-0_0
 62
     0
100
AcDbMText
 10
-2.9152473
 20
-0.9941910813
 30
0.0
 40
2.5
 41
0.0
 71
     2
 72
     1
  1
7
  7
SLDTEXTSTYLE0
 73
     1
 44
1.0
  0
ENDBLK
  5
26D
330
26B
100
AcDbEntity
  8
0
100
AcDbBlockEnd
  0
BLOCK
  5
273
330
272
100
AcDbEntity
  8
0
100
AcDbBlockBegin
  2
SW_NOTE_10
 70
     0
 10
0.0
 20
0.0
 30
0.0
  3
SW_NOTE_10
  1

  0
CIRCLE
  5
275
330
272
100
AcDbEntity
  8
SLD-0_0
 62
     0
100
AcDbCircle
 10
-1.8594749969
 20
3.1915327847
 30
0.0
 40
3.69371476697112
  0
MTEXT
  5
276
330
272
100
AcDbEntity
  8
SLD-0_0
 62
     0
100
AcDbMText
 10
-1.8768361093
 20
4.4877094519
 30
0.0
 40
2.5
 41
0.0
 71
     2
 72
     1
  1
6
  7
SLDTEXTSTYLE0
 73
     1
 44
1.0
  0
ENDBLK
  5
274
330
272
100
AcDbEntity
  8
0
100
AcDbBlockEnd
  0
BLOCK
  5
27A
330
279
100
AcDbEntity
  8
0
100
AcDbBlockBegin
  2
SW_NOTE_11
 70
     0
 10
0.0
 20
0.0
 30
0.0
  3
SW_NOTE_11
  1

  0
CIRCLE
  5
27C
330
279
100
AcDbEntity
  8
SLD-0_0
 62
     0
100
AcDbCircle
 10
-3.1076637189
 20
1.9964856599
 30
0.0
 40
3.693714766971139
  0
MTEXT
  5
27D
330
279
100
AcDbEntity
  8
SLD-0_0
 62
     0
100
AcDbMText
 10
-3.1250248313
 20
3.2926623271
 30
0.0
 40
2.5
 41
0.0
 71
     2
 72
     1
  1
2
  7
SLDTEXTSTYLE0
 73
     1
 44
1.0
  0
ENDBLK
  5
27B
330
279
100
AcDbEntity
  8
0
100
AcDbBlockEnd
  0
BLOCK
  5
281
330
280
100
AcDbEntity
  8
0
100
AcDbBlockBegin
  2
SW_NOTE_12
 70
     0
 10
0.0
 20
0.0
 30
0.0
  3
SW_NOTE_12
  1

  0
CIRCLE
  5
283
330
280
100
AcDbEntity
  8
SLD-0_0
 62
     0
100
AcDbCircle
 10
3.6889014262
 20
0.1885074201
 30
0.0
 40
3.693714766971153
  0
MTEXT
  5
284
330
280
100
AcDbEntity
  8
SLD-0_0
 62
     0
100
AcDbMText
 10
3.6715403138
 20
1.4846840873
 30
0.0
 40
2.5
 41
0.0
 71
     2
 72
     1
  1
9
  7
SLDTEXTSTYLE0
 73
     1
 44
1.0
  0
ENDBLK
  5
282
330
280
100
AcDbEntity
  8
0
100
AcDbBlockEnd
  0
BLOCK
  5
288
330
287
100
AcDbEntity
  8
0
100
AcDbBlockBegin
  2
SW_NOTE_13
 70
     0
 10
0.0
 20
0.0
 30
0.0
  3
SW_NOTE_13
  1

  0
CIRCLE
  5
28A
330
287
100
AcDbEntity
  8
SLD-0_0
 62
     0
100
AcDbCircle
 10
2.3707929415
 20
2.8324670533
 30
0.0
 40
3.693714766971127
  0
MTEXT
  5
28B
330
287
100
AcDbEntity
  8
SLD-0_0
 62
     0
100
AcDbMText
 10
2.3534318291
 20
4.1286437205
 30
0.0
 40
2.5
 41
0.0
 71
     2
 72
     1
  1
4
  7
SLDTEXTSTYLE0
 73
     1
 44
1.0
  0
ENDBLK
  5
289
330
287
100
AcDbEntity
  8
0
100
AcDbBlockEnd
  0
BLOCK
  5
28F
330
28E
100
AcDbEntity
  8
0
100
AcDbBlockBegin
  2
SW_NOTE_14
 70
     0
 10
0.0
 20
0.0
 30
0.0
  3
SW_NOTE_14
  1

  0
CIRCLE
  5
291
330
28E
100
AcDbEntity
  8
SLD-0_0
 62
     0
100
AcDbCircle
 10
-0.9228764913
 20
-3.5765664766
 30
0.0
 40
3.69371476697114
  0
MTEXT
  5
292
330
28E
100
AcDbEntity
  8
SLD-0_0
 62
     0
100
AcDbMText
 10
-0.9402376037
 20
-2.2803898094
 30
0.0
 40
2.5
 41
0.0
 71
     2
 72
     1
  1
8
  7
SLDTEXTSTYLE0
 73
     1
 44
1.0
  0
ENDBLK
  5
290
330
28E
100
AcDbEntity
  8
0
100
AcDbBlockEnd
  0
BLOCK
  5
296
330
295
100
AcDbEntity
  8
0
100
AcDbBlockBegin
  2
SW_NOTE_15
 70
     0
 10
0.0
 20
0.0
 30
0.0
  3
SW_NOTE_15
  1

  0
CIRCLE
  5
298
330
295
100
AcDbEntity
  8
SLD-0_0
 62
     0
100
AcDbCircle
 10
-2.2681560837
 20
2.9153038881
 30
0.0
 40
3.693714766971178
  0
MTEXT
  5
299
330
295
100
AcDbEntity
  8
SLD-0_0
 62
     0
100
AcDbMText
 10
-2.2855171961
 20
4.2114805553
 30
0.0
 40
2.5
 41
0.0
 71
     2
 72
     1
  1
1
  7
SLDTEXTSTYLE0
 73
     1
 44
1.0
  0
ENDBLK
  5
297
330
295
100
AcDbEntity
  8
0
100
AcDbBlockEnd
  0
BLOCK
  5
2A8
330
2A7
100
AcDbEntity
  8
0
100
AcDbBlockBegin
  2
_D
 70
     0
 10
0.0
 20
0.0
 30
0.0
  3
_D
  1

  0
ARC
  5
2AA
330
2A7
100
AcDbEntity
  8
SLD-0_0
100
AcDbCircle
 10
120.8607111241
 20
692.3546377473
 30
0.0
 40
53.94664276802649
100
AcDbArc
 50
261.0
 51
33.0
  0
SOLID
  5
2AB
330
2A7
100
AcDbEntity
  8
SLD-0_0
100
AcDbTrace
 10
112.4215969219
 20
639.0721676711
 30
0.0
 11
115.6331092882
 21
638.1515937625
 31
0.0
 12
115.7613043421
 22
639.1594737296
 32
0.0
 13
115.7613043421
 23
639.1594737296
 33
0.0
  0
SOLID
  5
2AC
330
2A7
100
AcDbEntity
  8
SLD-0_0
100
AcDbTrace
 10
166.1041726531
 20
721.7360852068
 30
0.0
 11
167.3827959848
 21
718.6496000901
 31
0.0
 12
168.2513985248
 22
719.1766538137
 32
0.0
 13
168.2513985248
 23
719.1766538137
 33
0.0
  0
MTEXT
  5
2AD
330
2A7
100
AcDbEntity
  8
SLD-0_0
100
AcDbMText
 10
161.2198340605
 20
663.3773881468
 30
0.0
 40
3.5
 41
0.0
 71
     1
 72
     1
  1
132°
  7
SLDTEXTSTYLE0
 11
0.4989933930348449
 21
0.8666057891034267
 31
0.0
 73
     1
 44
1.0
  0
ENDBLK
  5
2A9
330
2A7
100
AcDbEntity
  8
0
100
AcDbBlockEnd
  0
BLOCK
  5
2B0
330
2AF
100
AcDbEntity
  8
0
100
AcDbBlockBegin
  2
_D_1
 70
     0
 10
0.0
 20
0.0
 30
0.0
  3
_D_1
  1

  0
ARC
  5
2B2
330
2AF
100
AcDbEntity
  8
SLD-0_0
100
AcDbCircle
 10
224.0316636996
 20
759.3546377473
 30
0.0
 40
51.33083203389759
100
AcDbArc
 50
213.0
 51
0.0
  0
SOLID
  5
2B3
330
2AF
100
AcDbEntity
  8
SLD-0_0
100
AcDbTrace
 10
180.9820056447
 20
731.3978629218
 30
0.0
 11
182.4514698067
 21
728.3975390932
 31
0.0
 12
183.2853491465
 22
728.9779710415
 32
0.0
 13
183.2853491465
 23
728.9779710415
 33
0.0
  0
SOLID
  5
2B4
330
2AF
100
AcDbEntity
  8
SLD-0_0
100
AcDbTrace
 10
275.3624957335
 20
759.3546377473
 30
0.0
 11
274.7487169092
 21
756.0706548675
 31
0.0
 12
275.764192865
 22
756.0380269147
 32
0.0
 13
275.764192865
 23
756.0380269147
 33
0.0
  0
MTEXT
  5
2B5
330
2AF
100
AcDbEntity
  8
SLD-0_0
100
AcDbMText
 10
233.5330069967
 20
713.2408434323
 30
0.0
 40
3.5
 41
0.0
 71
     1
 72
     1
  1
147°
  7
SLDTEXTSTYLE0
 11
0.952633149395497
 21
0.304121822092425
 31
0.0
 73
     1
 44
1.0
  0
ENDBLK
  5
2B1
330
2AF
100
AcDbEntity
  8
0
100
AcDbBlockEnd
  0
BLOCK
  5
2B8
330
2B7
100
AcDbEntity
  8
0
100
AcDbBlockBegin
  2
_D_2
 70
     0
 10
0.0
 20
0.0
 30
0.0
  3
_D_2
  1

  0
ARC
  5
2BA
330
2B7
100
AcDbEntity
  8
SLD-0_0
100
AcDbCircle
 10
362.808161562
 20
759.3546377473
 30
0.0
 40
59.58342574760422
100
AcDbArc
 50
180.0
 51
279.0
  0
SOLID
  5
2BB
330
2B7
100
AcDbEntity
  8
SLD-0_0
100
AcDbTrace
 10
303.2247358144
 20
759.3546377473
 30
0.0
 11
302.8083205335
 21
756.0398426837
 31
0.0
 12
303.8239313171
 22
756.0679627178
 32
0.0
 13
303.8239313171
 23
756.0679627178
 33
0.0
  0
SOLID
  5
2BC
330
2B7
100
AcDbEntity
  8
SLD-0_0
100
AcDbTrace
 10
372.1290628941
 20
700.5047828437
 30
0.0
 11
368.7891174602
 21
700.5824520054
 31
0.0
 12
368.92022016
 22
699.5749461334
 32
0.0
 13
368.92022016
 23
699.5749461334
 33
0.0
  0
MTEXT
  5
2BD
330
2B7
100
AcDbEntity
  8
SLD-0_0
100
AcDbMText
 10
325.2096707116
 20
718.9508547444
 30
0.0
 40
3.5
 41
0.0
 71
     1
 72
     1
  1
99°
  7
SLDTEXTSTYLE0
 11
0.775354515684833
 21
-0.6315262266977817
 31
0.0
 73
     1
 44
1.0
  0
ENDBLK
  5
2B9
330
2B7
100
AcDbEntity
  8
0
100
AcDbBlockEnd
  0
BLOCK
  5
2C0
330
2BF
100
AcDbEntity
  8
0
100
AcDbBlockBegin
  2
_D_3
 70
     0
 10
0.0
 20
0.0
 30
0.0
  3
_D_3
  1

  0
ARC
  5
2C2
330
2BF
100
AcDbEntity
  8
SLD-0_0
100
AcDbCircle
 10
397.8903150939
 20
537.8546377473
 30
0.0
 40
43.99887184353048
100
AcDbArc
 50
99.0
 51
270.0
  0
SOLID
  5
2C3
330
2BF
100
AcDbEntity
  8
SLD-0_0
100
AcDbTrace
 10
391.0073751147
 20
581.3118104665
 30
0.0
 11
387.6694566352
 21
581.1719239986
 31
0.0
 12
387.8658580466
 22
580.1750877604
 32
0.0
 13
387.8658580466
 23
580.1750877604
 33
0.0
  0
SOLID
  5
2C4
330
2BF
100
AcDbEntity
  8
SLD-0_0
100
AcDbTrace
 10
397.8903150939
 20
493.8557659038
 30
0.0
 11
394.6096527055
 21
494.4870521251
 31
0.0
 12
394.571608865
 22
493.4717646455
 32
0.0
 13
394.571608865
 23
493.4717646455
 33
0.0
  0
MTEXT
  5
2C5
330
2BF
100
AcDbEntity
  8
SLD-0_0
100
AcDbMText
 10
358.1572628741
 20
540.1455483826
 30
0.0
 40
3.5
 41
0.0
 71
     1
 72
     1
  1
171°
  7
SLDTEXTSTYLE0
 11
0.06763264574071644
 21
-0.9977102912319341
 31
0.0
 73
     1
 44
1.0
  0
ENDBLK
  5
2C1
330
2BF
100
AcDbEntity
  8
0
100
AcDbBlockEnd
  0
BLOCK
  5
2C9
330
2C8
100
AcDbEntity
  8
0
100
AcDbBlockBegin
  2
_D_4
 70
     0
 10
0.0
 20
0.0
 30
0.0
  3
_D_4
  1

  0
SOLID
  5
2CB
330
2C8
100
AcDbEntity
  8
SLD-0_0
100
AcDbTrace
 10
407.8903150939
 20
537.8546377473
 30
0.0
 11
407.3823150939
 21
534.5526377473
 31
0.0
 12
408.3983150939
 22
534.5526377473
 32
0.0
 13
408.3983150939
 23
534.5526377473
 33
0.0
  0
SOLID
  5
2CC
330
2C8
100
AcDbEntity
  8
SLD-0_0
100
AcDbTrace
 10
407.8903150939
 20
452.3546377473
 30
0.0
 11
408.3983150939
 21
455.6566377473
 31
0.0
 12
407.3823150939
 22
455.6566377473
 32
0.0
 13
407.3823150939
 23
455.6566377473
 33
0.0
  0
LINE
  5
2CD
330
2C8
100
AcDbEntity
  8
SLD-0_0
100
AcDbLine
 10
398.8903150939
 20
537.8546377473
 30
0.0
 11
408.8903150939
 21
537.8546377473
 31
0.0
  0
LINE
  5
2CE
330
2C8
100
AcDbEntity
  8
SLD-0_0
100
AcDbLine
 10
248.1403150939
 20
452.3546377473
 30
0.0
 11
408.8903150939
 21
452.3546377473
 31
0.0
  0
LINE
  5
2CF
330
2C8
100
AcDbEntity
  8
SLD-0_0
100
AcDbLine
 10
407.8903150939
 20
537.8546377473
 30
0.0
 11
407.8903150939
 21
452.3546377473
 31
0.0
  0
MTEXT
  5
2D0
330
2C8
100
AcDbEntity
  8
SLD-0_0
100
AcDbMText
 10
403.3785780047
 20
488.6114797641
 30
0.0
 40
3.5
 41
0.0
 71
     1
 72
     1
  1
85.50
  7
SLDTEXTSTYLE0
 11
-7.044195017643634E-15
 21
1.0
 31
0.0
 73
     1
 44
1.0
  0
ENDBLK
  5
2CA
330
2C8
100
AcDbEntity
  8
0
100
AcDbBlockEnd
  0
BLOCK
  5
2D4
330
2D3
100
AcDbEntity
  8
0
100
AcDbBlockBegin
  2
_D_5
 70
     0
 10
0.0
 20
0.0
 30
0.0
  3
_D_5
  1

  0
SOLID
  5
2D6
330
2D3
100
AcDbEntity
  8
SLD-0_0
100
AcDbTrace
 10
414.8903150939
 20
759.3546377473
 30
0.0
 11
414.3823150939
 21
756.0526377473
 31
0.0
 12
415.3983150939
 22
756.0526377473
 32
0.0
 13
415.3983150939
 23
756.0526377473
 33
0.0
  0
SOLID
  5
2D7
330
2D3
100
AcDbEntity
  8
SLD-0_0
100
AcDbTrace
 10
414.8903150939
 20
452.3546377473
 30
0.0
 11
415.3983150939
 21
455.6566377473
 31
0.0
 12
414.3823150939
 22
455.6566377473
 32
0.0
 13
414.3823150939
 23
455.6566377473
 33
0.0
  0
LINE
  5
2D8
330
2D3
100
AcDbEntity
  8
SLD-0_0
100
AcDbLine
 10
363.808161562
 20
759.3546377473
 30
0.0
 11
415.8903150939
 21
759.3546377473
 31
0.0
  0
LINE
  5
2D9
330
2D3
100
AcDbEntity
  8
SLD-0_0
100
AcDbLine
 10
248.1403150939
 20
452.3546377473
 30
0.0
 11
415.8903150939
 21
452.3546377473
 31
0.0
  0
LINE
  5
2DA
330
2D3
100
AcDbEntity
  8
SLD-0_0
100
AcDbLine
 10
414.8903150939
 20
759.3546377473
 30
0.0
 11
414.8903150939
 21
452.3546377473
 31
0.0
  0
MTEXT
  5
2DB
330
2D3
100
AcDbEntity
  8
SLD-0_0
100
AcDbMText
 10
410.3785780047
 20
614.0454025328
 30
0.0
 40
3.5
 41
0.0
 71
     1
 72
     1
  1
307
  7
SLDTEXTSTYLE0
 11
-6.156016597943509E-15
 21
1.0
 31
0.0
 73
     1
 44
1.0
  0
ENDBLK
  5
2D5
330
2D3
100
AcDbEntity
  8
0
100
AcDbBlockEnd
  0
BLOCK
  5
2DE
330
2DD
100
AcDbEntity
  8
0
100
AcDbBlockBegin
  2
_D_6
 70
     0
 10
0.0
 20
0.0
 30
0.0
  3
_D_6
  1

  0
SOLID
  5
2E0
330
2DD
100
AcDbEntity
  8
SLD-0_0
100
AcDbTrace
 10
72.3903150939
 20
692.3546377473
 30
0.0
 11
71.8823150939
 21
689.0526377473
 31
0.0
 12
72.8983150939
 22
689.0526377473
 32
0.0
 13
72.8983150939
 23
689.0526377473
 33
0.0
  0
SOLID
  5
2E1
330
2DD
100
AcDbEntity
  8
SLD-0_0
100
AcDbTrace
 10
72.3903150939
 20
452.3546377473
 30
0.0
 11
72.8983150939
 21
455.6566377473
 31
0.0
 12
71.8823150939
 22
455.6566377473
 32
0.0
 13
71.8823150939
 23
455.6566377473
 33
0.0
  0
LINE
  5
2E2
330
2DD
100
AcDbEntity
  8
SLD-0_0
100
AcDbLine
 10
119.8607111241
 20
692.3546377473
 30
0.0
 11
71.3903150939
 21
692.3546377473
 31
0.0
  0
LINE
  5
2E3
330
2DD
100
AcDbEntity
  8
SLD-0_0
100
AcDbLine
 10
246.1403150939
 20
452.3546377473
 30
0.0
 11
71.3903150939
 21
452.3546377473
 31
0.0
  0
LINE
  5
2E4
330
2DD
100
AcDbEntity
  8
SLD-0_0
100
AcDbLine
 10
72.3903150939
 20
692.3546377473
 30
0.0
 11
72.3903150939
 21
452.3546377473
 31
0.0
  0
MTEXT
  5
2E5
330
2DD
100
AcDbEntity
  8
SLD-0_0
100
AcDbMText
 10
67.8785780047
 20
559.2433170119
 30
0.0
 40
3.5
 41
0.0
 71
     1
 72
     1
  1
240
  7
SLDTEXTSTYLE0
 11
-7.044195017643634E-15
 21
1.0
 31
0.0
 73
     1
 44
1.0
  0
ENDBLK
  5
2DF
330
2DD
100
AcDbEntity
  8
0
100
AcDbBlockEnd
  0
BLOCK
  5
2E8
330
2E7
100
AcDbEntity
  8
0
100
AcDbBlockBegin
  2
_D_7
 70
     0
 10
0.0
 20
0.0
 30
0.0
  3
_D_7
  1

  0
SOLID
  5
2EA
330
2E7
100
AcDbEntity
  8
SLD-0_0
100
AcDbTrace
 10
96.3903150939
 20
435.3546377473
 30
0.0
 11
99.6923150939
 21
434.8466377473
 31
0.0
 12
99.6923150939
 22
435.8626377473
 32
0.0
 13
99.6923150939
 23
435.8626377473
 33
0.0
  0
SOLID
  5
2EB
330
2E7
100
AcDbEntity
  8
SLD-0_0
100
AcDbTrace
 10
397.8903150939
 20
435.3546377473
 30
0.0
 11
394.5883150939
 21
435.8626377473
 31
0.0
 12
394.5883150939
 22
434.8466377473
 32
0.0
 13
394.5883150939
 23
434.8466377473
 33
0.0
  0
LINE
  5
2EC
330
2E7
100
AcDbEntity
  8
SLD-0_0
100
AcDbLine
 10
96.3903150939
 20
471.3546377473
 30
0.0
 11
96.3903150939
 21
434.3546377473
 31
0.0
  0
LINE
  5
2ED
330
2E7
100
AcDbEntity
  8
SLD-0_0
100
AcDbLine
 10
397.8903150939
 20
471.3546377473
 30
0.0
 11
397.8903150939
 21
434.3546377473
 31
0.0
  0
LINE
  5
2EE
330
2E7
100
AcDbEntity
  8
SLD-0_0
100
AcDbLine
 10
96.3903150939
 20
435.3546377473
 30
0.0
 11
397.8903150939
 21
435.3546377473
 31
0.0
  0
MTEXT
  5
2EF
330
2E7
100
AcDbEntity
  8
SLD-0_0
100
AcDbMText
 10
246.7859853365
 20
439.8663748365
 30
0.0
 40
3.5
 41
0.0
 71
     1
 72
     1
  1
301.50
  7
SLDTEXTSTYLE0
 73
     1
 44
1.0
  0
ENDBLK
  5
2E9
330
2E7
100
AcDbEntity
  8
0
100
AcDbBlockEnd
  0
BLOCK
  5
2F3
330
2F2
100
AcDbEntity
  8
0
100
AcDbBlockBegin
  2
_D_8
 70
     0
 10
0.0
 20
0.0
 30
0.0
  3
_D_8
  1

  0
SOLID
  5
2F5
330
2F2
100
AcDbEntity
  8
SLD-0_0
100
AcDbTrace
 10
198.3180236947
 20
453.5405929523
 30
0.0
 11
198.9857494517
 21
456.8140330867
 31
0.0
 12
197.9709477578
 22
456.8633638282
 32
0.0
 13
197.9709477578
 23
456.8633638282
 33
0.0
  0
LINE
  5
2F6
330
2F2
100
AcDbEntity
  8
SLD-0_0
100
AcDbLine
 10
198.3180236947
 20
453.5405929523
 30
0.0
 11
202.7463186787
 21
544.6367554896
 31
0.0
  0
LINE
  5
2F7
330
2F2
100
AcDbEntity
  8
SLD-0_0
100
AcDbLine
 10
202.7463186787
 20
544.6367554896
 30
0.0
 11
190.2069350274
 21
533.8323817262
 31
0.0
  0
LINE
  5
2F8
330
2F2
100
AcDbEntity
  8
SLD-0_0
100
AcDbLine
 10
190.2069350274
 20
533.8323817262
 30
0.0
 11
191.3140087734
 21
556.6064223605
 31
0.0
  0
LINE
  5
2F9
330
2F2
100
AcDbEntity
  8
SLD-0_0
100
AcDbLine
 10
191.3140087734
 20
559.2900910462
 30
0.0
 11
191.3140087734
 21
553.9227536749
 31
0.0
  0
LINE
  5
2FA
330
2F2
100
AcDbEntity
  8
SLD-0_0
100
AcDbLine
 10
188.6303400878
 20
556.6064223605
 30
0.0
 11
193.997677459
 21
556.6064223605
 31
0.0
  0
MTEXT
  5
2FB
330
2F2
100
AcDbEntity
  8
SLD-0_0
100
AcDbMText
 10
196.5330980278
 20
509.7442516901
 30
0.0
 40
3.5
 41
0.0
 71
     1
 72
     1
  1
R1005.5
  7
SLDTEXTSTYLE0
 11
0.048553879484237
 21
0.9988205648598902
 31
0.0
 73
     1
 44
1.0
  0
ENDBLK
  5
2F4
330
2F2
100
AcDbEntity
  8
0
100
AcDbBlockEnd
  0
BLOCK
  5
2FF
330
2FE
100
AcDbEntity
  8
0
100
AcDbBlockBegin
  2
_D_9
 70
     0
 10
0.0
 20
0.0
 30
0.0
  3
_D_9
  1

  0
SOLID
  5
301
330
2FE
100
AcDbEntity
  8
SLD-0_0
100
AcDbTrace
 10
96.3903150939
 20
765.5096422627
 30
0.0
 11
99.6923150939
 21
765.0016422627
 31
0.0
 12
99.6923150939
 22
766.0176422627
 32
0.0
 13
99.6923150939
 23
766.0176422627
 33
0.0
  0
SOLID
  5
302
330
2FE
100
AcDbEntity
  8
SLD-0_0
100
AcDbTrace
 10
120.8607111241
 20
765.5096422627
 30
0.0
 11
117.5587111241
 21
766.0176422627
 31
0.0
 12
117.5587111241
 22
765.0016422627
 32
0.0
 13
117.5587111241
 23
765.0016422627
 33
0.0
  0
LINE
  5
303
330
2FE
100
AcDbEntity
  8
SLD-0_0
100
AcDbLine
 10
96.3903150939
 20
538.8546377473
 30
0.0
 11
96.3903150939
 21
766.5096422627
 31
0.0
  0
LINE
  5
304
330
2FE
100
AcDbEntity
  8
SLD-0_0
100
AcDbLine
 10
120.8607111241
 20
693.3546377473
 30
0.0
 11
120.8607111241
 21
766.5096422627
 31
0.0
  0
LINE
  5
305
330
2FE
100
AcDbEntity
  8
SLD-0_0
100
AcDbLine
 10
96.3903150939
 20
765.5096422627
 30
0.0
 11
120.8607111241
 21
765.5096422627
 31
0.0
  0
MTEXT
  5
306
330
2FE
100
AcDbEntity
  8
SLD-0_0
100
AcDbMText
 10
105.7378508271
 20
770.0213793519
 30
0.0
 40
3.5
 41
0.0
 71
     1
 72
     1
  1
24.5
  7
SLDTEXTSTYLE0
 73
     1
 44
1.0
  0
ENDBLK
  5
300
330
2FE
100
AcDbEntity
  8
0
100
AcDbBlockEnd
  0
BLOCK
  5
30A
330
309
100
AcDbEntity
  8
0
100
AcDbBlockBegin
  2
_D_10
 70
     0
 10
0.0
 20
0.0
 30
0.0
  3
_D_10
  1

  0
SOLID
  5
30C
330
309
100
AcDbEntity
  8
SLD-0_0
100
AcDbTrace
 10
96.3903150939
 20
776.3546377473
 30
0.0
 11
99.6923150939
 21
775.8466377473
 31
0.0
 12
99.6923150939
 22
776.8626377473
 32
0.0
 13
99.6923150939
 23
776.8626377473
 33
0.0
  0
SOLID
  5
30D
330
309
100
AcDbEntity
  8
SLD-0_0
100
AcDbTrace
 10
224.0316636996
 20
776.3546377473
 30
0.0
 11
220.7296636996
 21
776.8626377473
 31
0.0
 12
220.7296636996
 22
775.8466377473
 32
0.0
 13
220.7296636996
 23
775.8466377473
 33
0.0
  0
LINE
  5
30E
330
309
100
AcDbEntity
  8
SLD-0_0
100
AcDbLine
 10
96.3903150939
 20
538.8546377473
 30
0.0
 11
96.3903150939
 21
777.3546377473
 31
0.0
  0
LINE
  5
30F
330
309
100
AcDbEntity
  8
SLD-0_0
100
AcDbLine
 10
224.0316636996
 20
760.3546377473
 30
0.0
 11
224.0316636996
 21
777.3546377473
 31
0.0
  0
LINE
  5
310
330
309
100
AcDbEntity
  8
SLD-0_0
100
AcDbLine
 10
96.3903150939
 20
776.3546377473
 30
0.0
 11
224.0316636996
 21
776.3546377473
 31
0.0
  0
MTEXT
  5
311
330
309
100
AcDbEntity
  8
SLD-0_0
100
AcDbMText
 10
152.1351615946
 20
780.8663748365
 30
0.0
 40
3.5
 41
0.0
 71
     1
 72
     1
  1
128
  7
SLDTEXTSTYLE0
 73
     1
 44
1.0
  0
ENDBLK
  5
30B
330
309
100
AcDbEntity
  8
0
100
AcDbBlockEnd
  0
BLOCK
  5
315
330
314
100
AcDbEntity
  8
0
100
AcDbBlockBegin
  2
_D_11
 70
     0
 10
0.0
 20
0.0
 30
0.0
  3
_D_11
  1

  0
SOLID
  5
317
330
314
100
AcDbEntity
  8
SLD-0_0
100
AcDbTrace
 10
397.8903150939
 20
776.3546377473
 30
0.0
 11
394.5883150939
 21
776.8626377473
 31
0.0
 12
394.5883150939
 22
775.8466377473
 32
0.0
 13
394.5883150939
 23
775.8466377473
 33
0.0
  0
SOLID
  5
318
330
314
100
AcDbEntity
  8
SLD-0_0
100
AcDbTrace
 10
362.808161562
 20
776.3546377473
 30
0.0
 11
366.110161562
 21
775.8466377473
 31
0.0
 12
366.110161562
 22
776.8626377473
 32
0.0
 13
366.110161562
 23
776.8626377473
 33
0.0
  0
LINE
  5
319
330
314
100
AcDbEntity
  8
SLD-0_0
100
AcDbLine
 10
397.8903150939
 20
538.8546377473
 30
0.0
 11
397.8903150939
 21
777.3546377473
 31
0.0
  0
LINE
  5
31A
330
314
100
AcDbEntity
  8
SLD-0_0
100
AcDbLine
 10
362.808161562
 20
760.3546377473
 30
0.0
 11
362.808161562
 21
777.3546377473
 31
0.0
  0
LINE
  5
31B
330
314
100
AcDbEntity
  8
SLD-0_0
100
AcDbLine
 10
397.8903150939
 20
776.3546377473
 30
0.0
 11
362.808161562
 21
776.3546377473
 31
0.0
  0
MTEXT
  5
31C
330
314
100
AcDbEntity
  8
SLD-0_0
100
AcDbMText
 10
378.0092078664
 20
780.8663748365
 30
0.0
 40
3.5
 41
0.0
 71
     1
 72
     1
  1
35
  7
SLDTEXTSTYLE0
 73
     1
 44
1.0
  0
ENDBLK
  5
316
330
314
100
AcDbEntity
  8
0
100
AcDbBlockEnd
  0
BLOCK
  5
31F
330
31E
100
AcDbEntity
  8
0
100
AcDbBlockBegin
  2
_D_12
 70
     0
 10
0.0
 20
0.0
 30
0.0
  3
_D_12
  1

  0
SOLID
  5
321
330
31E
100
AcDbEntity
  8
SLD-0_0
100
AcDbTrace
 10
86.3903150939
 20
537.8546377473
 30
0.0
 11
85.8823150939
 21
534.5526377473
 31
0.0
 12
86.8983150939
 22
534.5526377473
 32
0.0
 13
86.8983150939
 23
534.5526377473
 33
0.0
  0
SOLID
  5
322
330
31E
100
AcDbEntity
  8
SLD-0_0
100
AcDbTrace
 10
86.3903150939
 20
452.3546377473
 30
0.0
 11
86.8983150939
 21
455.6566377473
 31
0.0
 12
85.8823150939
 22
455.6566377473
 32
0.0
 13
85.8823150939
 23
455.6566377473
 33
0.0
  0
LINE
  5
323
330
31E
100
AcDbEntity
  8
SLD-0_0
100
AcDbLine
 10
95.3903150939
 20
537.8546377473
 30
0.0
 11
85.3903150939
 21
537.8546377473
 31
0.0
  0
LINE
  5
324
330
31E
100
AcDbEntity
  8
SLD-0_0
100
AcDbLine
 10
246.1403150939
 20
452.3546377473
 30
0.0
 11
85.3903150939
 21
452.3546377473
 31
0.0
  0
LINE
  5
325
330
31E
100
AcDbEntity
  8
SLD-0_0
100
AcDbLine
 10
86.3903150939
 20
537.8546377473
 30
0.0
 11
86.3903150939
 21
583.8642288364
 31
0.0
  0
LINE
  5
326
330
31E
100
AcDbEntity
  8
SLD-0_0
100
AcDbLine
 10
86.3903150939
 20
537.8546377473
 30
0.0
 11
86.3903150939
 21
452.3546377473
 31
0.0
  0
MTEXT
  5
327
330
31E
100
AcDbEntity
  8
SLD-0_0
100
AcDbMText
 10
81.8785780047
 20
571.8329791344
 30
0.0
 40
3.5
 41
0.0
 71
     1
 72
     1
  1
85.50
  7
SLDTEXTSTYLE0
 11
-7.044195017643634E-15
 21
1.0
 31
0.0
 73
     1
 44
1.0
  0
ENDBLK
  5
320
330
31E
100
AcDbEntity
  8
0
100
AcDbBlockEnd
  0
BLOCK
  5
348
330
347
100
AcDbEntity
  8
0
100
AcDbBlockBegin
  2
_D_13
 70
     0
 10
0.0
 20
0.0
 30
0.0
  3
_D_13
  1

  0
SOLID
  5
34A
330
347
100
AcDbEntity
  8
SLD-0_0
100
AcDbTrace
 10
544.204451123
 20
335.2753075106
 30
0.0
 11
547.2336039676
 21
336.6843855934
 31
0.0
 12
546.6699896147
 22
337.5297227221
 32
0.0
 13
546.6699896147
 23
337.5297227221
 33
0.0
  0
SOLID
  5
34B
330
347
100
AcDbEntity
  8
SLD-0_0
100
AcDbTrace
 10
735.5701396996
 20
462.8651708838
 30
0.0
 11
732.5409868549
 21
461.4560928009
 31
0.0
 12
733.1046012079
 22
460.6107556722
 32
0.0
 13
733.1046012079
 23
460.6107556722
 33
0.0
  0
LINE
  5
34C
330
347
100
AcDbEntity
  8
SLD-0_0
100
AcDbLine
 10
735.5701396996
 20
462.8651708838
 30
0.0
 11
544.204451123
 21
335.2753075106
 31
0.0
  0
MTEXT
  5
34D
330
347
100
AcDbEntity
  8
SLD-0_0
100
AcDbMText
 10
687.1523445595
 20
436.0031248873
 30
0.0
 40
3.5
 41
0.0
 71
     1
 72
     1
  1
%%c
  7
SLDTEXTSTYLE0
 11
0.8320247329417614
 21
0.5547385364053868
 31
0.0
 73
     1
 44
1.0
  0
MTEXT
  5
34E
330
347
100
AcDbEntity
  8
SLD-0_0
100
AcDbMText
 10
691.3846431719
 20
438.8541516663
 30
0.0
 40
3.5
 41
0.0
 71
     1
 72
     1
  1
230
  7
SLDTEXTSTYLE0
 11
0.8320247329417614
 21
0.5547385364053868
 31
0.0
 73
     1
 44
1.0
  0
ENDBLK
  5
349
330
347
100
AcDbEntity
  8
0
100
AcDbBlockEnd
  0
BLOCK
  5
352
330
351
100
AcDbEntity
  8
0
100
AcDbBlockBegin
  2
_D_14
 70
     0
 10
0.0
 20
0.0
 30
0.0
  3
_D_14
  1

  0
SOLID
  5
354
330
351
100
AcDbEntity
  8
SLD-0_0
100
AcDbTrace
 10
734.0550465471
 20
321.1119353033
 30
0.0
 11
731.8355038406
 21
323.6089131113
 31
0.0
 12
731.1876049714
 22
322.8263001448
 32
0.0
 13
731.1876049714
 23
322.8263001448
 33
0.0
  0
SOLID
  5
355
330
351
100
AcDbEntity
  8
SLD-0_0
100
AcDbTrace
 10
545.7195442754
 20
477.0285430911
 30
0.0
 11
547.939086982
 21
474.531565283
 31
0.0
 12
548.5869858511
 22
475.3141782495
 32
0.0
 13
548.5869858511
 23
475.3141782495
 33
0.0
  0
LINE
  5
356
330
351
100
AcDbEntity
  8
SLD-0_0
100
AcDbLine
 10
545.7195442754
 20
477.0285430911
 30
0.0
 11
734.0550465471
 21
321.1119353033
 31
0.0
  0
MTEXT
  5
357
330
351
100
AcDbEntity
  8
SLD-0_0
100
AcDbMText
 10
579.9321589337
 20
454.5595974539
 30
0.0
 40
3.5
 41
0.0
 71
     1
 72
     1
  1
%%c
  7
SLDTEXTSTYLE0
 11
0.7702883528494795
 21
-0.6376957373735814
 31
0.0
 73
     1
 44
1.0
  0
MTEXT
  5
358
330
351
100
AcDbEntity
  8
SLD-0_0
100
AcDbMText
 10
583.8784026878
 20
451.3241893696
 30
0.0
 40
3.5
 41
0.0
 71
     1
 72
     1
  1
244.50
  7
SLDTEXTSTYLE0
 11
0.7702883528494795
 21
-0.6376957373735814
 31
0.0
 73
     1
 44
1.0
  0
ENDBLK
  5
353
330
351
100
AcDbEntity
  8
0
100
AcDbBlockEnd
  0
BLOCK
  5
35B
330
35A
100
AcDbEntity
  8
0
100
AcDbBlockBegin
  2
_D_15
 70
     0
 10
0.0
 20
0.0
 30
0.0
  3
_D_15
  1

  0
SOLID
  5
35D
330
35A
100
AcDbEntity
  8
SLD-0_0
100
AcDbTrace
 10
489.1372954113
 20
250.6702391972
 30
0.0
 11
492.4392954113
 21
250.1622391972
 31
0.0
 12
492.4392954113
 22
251.1782391972
 32
0.0
 13
492.4392954113
 23
251.1782391972
 33
0.0
  0
SOLID
  5
35E
330
35A
100
AcDbEntity
  8
SLD-0_0
100
AcDbTrace
 10
790.6372954113
 20
250.6702391972
 30
0.0
 11
787.3352954113
 21
251.1782391972
 31
0.0
 12
787.3352954113
 22
250.1622391972
 32
0.0
 13
787.3352954113
 23
250.1622391972
 33
0.0
  0
LINE
  5
35F
330
35A
100
AcDbEntity
  8
SLD-0_0
100
AcDbLine
 10
489.1372954113
 20
259.6702391972
 30
0.0
 11
489.1372954113
 21
249.6702391972
 31
0.0
  0
LINE
  5
360
330
35A
100
AcDbEntity
  8
SLD-0_0
100
AcDbLine
 10
790.6372954113
 20
259.6702391972
 30
0.0
 11
790.6372954113
 21
249.6702391972
 31
0.0
  0
LINE
  5
361
330
35A
100
AcDbEntity
  8
SLD-0_0
100
AcDbLine
 10
489.1372954113
 20
250.6702391972
 30
0.0
 11
790.6372954113
 21
250.6702391972
 31
0.0
  0
MTEXT
  5
362
330
35A
100
AcDbEntity
  8
SLD-0_0
100
AcDbMText
 10
632.5348650379
 20
255.1819762864
 30
0.0
 40
3.5
 41
0.0
 71
     1
 72
     1
  1
301.50
  7
SLDTEXTSTYLE0
 73
     1
 44
1.0
  0
ENDBLK
  5
35C
330
35A
100
AcDbEntity
  8
0
100
AcDbBlockEnd
  0
BLOCK
  5
365
330
364
100
AcDbEntity
  8
0
100
AcDbBlockBegin
  2
_D_16
 70
     0
 10
0.0
 20
0.0
 30
0.0
  3
_D_16
  1

  0
SOLID
  5
367
330
364
100
AcDbEntity
  8
SLD-0_0
100
AcDbTrace
 10
807.6372954113
 20
260.6702391972
 30
0.0
 11
808.1452954113
 21
263.9722391972
 31
0.0
 12
807.1292954113
 22
263.9722391972
 32
0.0
 13
807.1292954113
 23
263.9722391972
 33
0.0
  0
SOLID
  5
368
330
364
100
AcDbEntity
  8
SLD-0_0
100
AcDbTrace
 10
807.6372954113
 20
768.6702391972
 30
0.0
 11
807.1292954113
 21
765.3682391972
 31
0.0
 12
808.1452954113
 22
765.3682391972
 32
0.0
 13
808.1452954113
 23
765.3682391972
 33
0.0
  0
LINE
  5
369
330
364
100
AcDbEntity
  8
SLD-0_0
100
AcDbLine
 10
791.6372954113
 20
260.6702391972
 30
0.0
 11
808.6372954113
 21
260.6702391972
 31
0.0
  0
LINE
  5
36A
330
364
100
AcDbEntity
  8
SLD-0_0
100
AcDbLine
 10
791.6372954113
 20
768.6702391972
 30
0.0
 11
808.6372954113
 21
768.6702391972
 31
0.0
  0
LINE
  5
36B
330
364
100
AcDbEntity
  8
SLD-0_0
100
AcDbLine
 10
807.6372954113
 20
260.6702391972
 30
0.0
 11
807.6372954113
 21
768.6702391972
 31
0.0
  0
MTEXT
  5
36C
330
364
100
AcDbEntity
  8
SLD-0_0
100
AcDbMText
 10
803.1255583221
 20
510.6598226298
 30
0.0
 40
3.5
 41
0.0
 71
     1
 72
     1
  1
508
  7
SLDTEXTSTYLE0
 11
-1.608122649676637E-16
 21
1.0
 31
0.0
 73
     1
 44
1.0
  0
ENDBLK
  5
366
330
364
100
AcDbEntity
  8
0
100
AcDbBlockEnd
  0
BLOCK
  5
36F
330
36E
100
AcDbEntity
  8
0
100
AcDbBlockBegin
  2
_D_17
 70
     0
 10
0.0
 20
0.0
 30
0.0
  3
_D_17
  1

  0
SOLID
  5
371
330
36E
100
AcDbEntity
  8
SLD-0_0
100
AcDbTrace
 10
800.6372954113
 20
544.1702391972
 30
0.0
 11
801.1452954113
 21
547.4722391972
 31
0.0
 12
800.1292954113
 22
547.4722391972
 32
0.0
 13
800.1292954113
 23
547.4722391972
 33
0.0
  0
SOLID
  5
372
330
36E
100
AcDbEntity
  8
SLD-0_0
100
AcDbTrace
 10
800.6372954113
 20
746.1702391972
 30
0.0
 11
800.1292954113
 21
742.8682391972
 31
0.0
 12
801.1452954113
 22
742.8682391972
 32
0.0
 13
801.1452954113
 23
742.8682391972
 33
0.0
  0
LINE
  5
373
330
36E
100
AcDbEntity
  8
SLD-0_0
100
AcDbLine
 10
776.6372954113
 20
544.1702391972
 30
0.0
 11
801.6372954113
 21
544.1702391972
 31
0.0
  0
LINE
  5
374
330
36E
100
AcDbEntity
  8
SLD-0_0
100
AcDbLine
 10
776.6372954113
 20
746.1702391972
 30
0.0
 11
801.6372954113
 21
746.1702391972
 31
0.0
  0
LINE
  5
375
330
36E
100
AcDbEntity
  8
SLD-0_0
100
AcDbLine
 10
800.6372954113
 20
544.1702391972
 30
0.0
 11
800.6372954113
 21
746.1702391972
 31
0.0
  0
MTEXT
  5
376
330
36E
100
AcDbEntity
  8
SLD-0_0
100
AcDbMText
 10
796.1255583221
 20
641.1598226298
 30
0.0
 40
3.5
 41
0.0
 71
     1
 72
     1
  1
202
  7
SLDTEXTSTYLE0
 11
-3.828568698926949E-16
 21
1.0
 31
0.0
 73
     1
 44
1.0
  0
ENDBLK
  5
370
330
36E
100
AcDbEntity
  8
0
100
AcDbBlockEnd
  0
BLOCK
  5
37A
330
379
100
AcDbEntity
  8
0
100
AcDbBlockBegin
  2
_D_18
 70
     0
 10
0.0
 20
0.0
 30
0.0
  3
_D_18
  1

  0
SOLID
  5
37C
330
379
100
AcDbEntity
  8
SLD-0_0
100
AcDbTrace
 10
800.6372954113
 20
746.1702391972
 30
0.0
 11
800.1292954113
 21
742.8682391972
 31
0.0
 12
801.1452954113
 22
742.8682391972
 32
0.0
 13
801.1452954113
 23
742.8682391972
 33
0.0
  0
SOLID
  5
37D
330
379
100
AcDbEntity
  8
SLD-0_0
100
AcDbTrace
 10
800.6372954113
 20
768.6702391972
 30
0.0
 11
801.1452954113
 21
771.9722391972
 31
0.0
 12
800.1292954113
 22
771.9722391972
 32
0.0
 13
800.1292954113
 23
771.9722391972
 33
0.0
  0
LINE
  5
37E
330
379
100
AcDbEntity
  8
SLD-0_0
100
AcDbLine
 10
776.6372954113
 20
746.1702391972
 30
0.0
 11
801.6372954113
 21
746.1702391972
 31
0.0
  0
LINE
  5
37F
330
379
100
AcDbEntity
  8
SLD-0_0
100
AcDbLine
 10
791.6372954113
 20
768.6702391972
 30
0.0
 11
801.6372954113
 21
768.6702391972
 31
0.0
  0
LINE
  5
380
330
379
100
AcDbEntity
  8
SLD-0_0
100
AcDbLine
 10
800.6372954113
 20
746.1702391972
 30
0.0
 11
800.6372954113
 21
739.8202391972
 31
0.0
  0
LINE
  5
381
330
379
100
AcDbEntity
  8
SLD-0_0
100
AcDbLine
 10
800.6372954113
 20
746.1702391972
 30
0.0
 11
800.6372954113
 21
768.6702391972
 31
0.0
  0
LINE
  5
382
330
379
100
AcDbEntity
  8
SLD-0_0
100
AcDbLine
 10
800.6372954113
 20
768.6702391972
 30
0.0
 11
800.6372954113
 21
775.0202391972
 31
0.0
  0
MTEXT
  5
383
330
379
100
AcDbEntity
  8
SLD-0_0
100
AcDbMText
 10
796.1255583221
 20
751.4660381818
 30
0.0
 40
3.5
 41
0.0
 71
     1
 72
     1
  1
22.50
  7
SLDTEXTSTYLE0
 11
6.123233995736766E-17
 21
1.0
 31
0.0
 73
     1
 44
1.0
  0
ENDBLK
  5
37B
330
379
100
AcDbEntity
  8
0
100
AcDbBlockEnd
  0
BLOCK
  5
387
330
386
100
AcDbEntity
  8
0
100
AcDbBlockBegin
  2
_D_19
 70
     0
 10
0.0
 20
0.0
 30
0.0
  3
_D_19
  1

  0
INSERT
  5
389
330
386
100
AcDbEntity
  8
SLD-0_0
100
AcDbBlockReference
  2
_DOT
 10
775.6372954113
 20
785.6702391972
 30
-7.4
 41
1.016
 42
1.016
 50
0.0
  0
SOLID
  5
38A
330
386
100
AcDbEntity
  8
SLD-0_0
100
AcDbTrace
 10
790.6372954113
 20
785.6702391972
 30
0.0
 11
793.9392954113
 21
785.1622391972
 31
0.0
 12
793.9392954113
 22
786.1782391972
 32
0.0
 13
793.9392954113
 23
786.1782391972
 33
0.0
  0
LINE
  5
38B
330
386
100
AcDbEntity
  8
SLD-0_0
100
AcDbLine
 10
775.6372954113
 20
747.1702391972
 30
0.0
 11
775.6372954113
 21
786.6702391972
 31
0.0
  0
LINE
  5
38C
330
386
100
AcDbEntity
  8
SLD-0_0
100
AcDbLine
 10
790.6372954113
 20
769.6702391972
 30
0.0
 11
790.6372954113
 21
786.6702391972
 31
0.0
  0
LINE
  5
38D
330
386
100
AcDbEntity
  8
SLD-0_0
100
AcDbLine
 10
775.6372954113
 20
785.6702391972
 30
0.0
 11
769.2872954113
 21
785.6702391972
 31
0.0
  0
LINE
  5
38E
330
386
100
AcDbEntity
  8
SLD-0_0
100
AcDbLine
 10
775.6372954113
 20
785.6702391972
 30
0.0
 11
790.6372954113
 21
785.6702391972
 31
0.0
  0
LINE
  5
38F
330
386
100
AcDbEntity
  8
SLD-0_0
100
AcDbLine
 10
790.6372954113
 20
785.6702391972
 30
0.0
 11
796.9872954113
 21
785.6702391972
 31
0.0
  0
MTEXT
  5
390
330
386
100
AcDbEntity
  8
SLD-0_0
100
AcDbMText
 10
778.8935155897
 20
790.1819762864
 30
0.0
 40
3.5
 41
0.0
 71
     1
 72
     1
  1
15
  7
SLDTEXTSTYLE0
 73
     1
 44
1.0
  0
ENDBLK
  5
388
330
386
100
AcDbEntity
  8
0
100
AcDbBlockEnd
  0
BLOCK
  5
394
330
393
100
AcDbEntity
  8
0
100
AcDbBlockBegin
  2
_D_20
 70
     0
 10
0.0
 20
0.0
 30
0.0
  3
_D_20
  1

  0
INSERT
  5
396
330
393
100
AcDbEntity
  8
SLD-0_0
100
AcDbBlockReference
  2
_DOT
 10
775.6372954113
 20
785.6702391972
 30
-7.4
 41
1.016
 42
1.016
 50
0.0
  0
SOLID
  5
397
330
393
100
AcDbEntity
  8
SLD-0_0
100
AcDbTrace
 10
745.6372954113
 20
785.6702391972
 30
0.0
 11
748.9392954113
 21
785.1622391972
 31
0.0
 12
748.9392954113
 22
786.1782391972
 32
0.0
 13
748.9392954113
 23
786.1782391972
 33
0.0
  0
LINE
  5
398
330
393
100
AcDbEntity
  8
SLD-0_0
100
AcDbLine
 10
775.6372954113
 20
747.1702391972
 30
0.0
 11
775.6372954113
 21
786.6702391972
 31
0.0
  0
LINE
  5
399
330
393
100
AcDbEntity
  8
SLD-0_0
100
AcDbLine
 10
745.6372954113
 20
747.1702391972
 30
0.0
 11
745.6372954113
 21
786.6702391972
 31
0.0
  0
LINE
  5
39A
330
393
100
AcDbEntity
  8
SLD-0_0
100
AcDbLine
 10
775.6372954113
 20
785.6702391972
 30
0.0
 11
745.6372954113
 21
785.6702391972
 31
0.0
  0
MTEXT
  5
39B
330
393
100
AcDbEntity
  8
SLD-0_0
100
AcDbMText
 10
758.8490422426
 20
790.1819762864
 30
0.0
 40
3.5
 41
0.0
 71
     1
 72
     1
  1
30
  7
SLDTEXTSTYLE0
 73
     1
 44
1.0
  0
ENDBLK
  5
395
330
393
100
AcDbEntity
  8
0
100
AcDbBlockEnd
  0
BLOCK
  5
39E
330
39D
100
AcDbEntity
  8
0
100
AcDbBlockBegin
  2
_D_21
 70
     0
 10
0.0
 20
0.0
 30
0.0
  3
_D_21
  1

  0
SOLID
  5
3A0
330
39D
100
AcDbEntity
  8
SLD-0_0
100
AcDbTrace
 10
540.3872954113
 20
778.6702391972
 30
0.0
 11
543.6892954113
 21
778.1622391972
 31
0.0
 12
543.6892954113
 22
779.1782391972
 32
0.0
 13
543.6892954113
 23
779.1782391972
 33
0.0
  0
SOLID
  5
3A1
330
39D
100
AcDbEntity
  8
SLD-0_0
100
AcDbTrace
 10
705.3872954113
 20
778.6702391972
 30
0.0
 11
702.0852954113
 21
779.1782391972
 31
0.0
 12
702.0852954113
 22
778.1622391972
 32
0.0
 13
702.0852954113
 23
778.1622391972
 33
0.0
  0
LINE
  5
3A2
330
39D
100
AcDbEntity
  8
SLD-0_0
100
AcDbLine
 10
540.3872954113
 20
713.6702391972
 30
0.0
 11
540.3872954113
 21
779.6702391972
 31
0.0
  0
LINE
  5
3A3
330
39D
100
AcDbEntity
  8
SLD-0_0
100
AcDbLine
 10
705.3872954113
 20
713.6702391972
 30
0.0
 11
705.3872954113
 21
779.6702391972
 31
0.0
  0
LINE
  5
3A4
330
39D
100
AcDbEntity
  8
SLD-0_0
100
AcDbLine
 10
540.3872954113
 20
778.6702391972
 30
0.0
 11
705.3872954113
 21
778.6702391972
 31
0.0
  0
MTEXT
  5
3A5
330
39D
100
AcDbEntity
  8
SLD-0_0
100
AcDbMText
 10
616.6634841534
 20
783.1819762864
 30
0.0
 40
3.5
 41
0.0
 71
     1
 72
     1
  1
165
  7
SLDTEXTSTYLE0
 73
     1
 44
1.0
  0
ENDBLK
  5
39F
330
39D
100
AcDbEntity
  8
0
100
AcDbBlockEnd
  0
BLOCK
  5
3A8
330
3A7
100
AcDbEntity
  8
0
100
AcDbBlockBegin
  2
_D_22
 70
     0
 10
0.0
 20
0.0
 30
0.0
  3
_D_22
  1

  0
SOLID
  5
3AA
330
3A7
100
AcDbEntity
  8
SLD-0_0
100
AcDbTrace
 10
715.8872954113
 20
785.6702391972
 30
0.0
 11
712.5852954113
 21
786.1782391972
 31
0.0
 12
712.5852954113
 22
785.1622391972
 32
0.0
 13
712.5852954113
 23
785.1622391972
 33
0.0
  0
SOLID
  5
3AB
330
3A7
100
AcDbEntity
  8
SLD-0_0
100
AcDbTrace
 10
529.8872954113
 20
785.6702391972
 30
0.0
 11
533.1892954113
 21
785.1622391972
 31
0.0
 12
533.1892954113
 22
786.1782391972
 32
0.0
 13
533.1892954113
 23
786.1782391972
 33
0.0
  0
LINE
  5
3AC
330
3A7
100
AcDbEntity
  8
SLD-0_0
100
AcDbLine
 10
715.8872954113
 20
744.4202391972
 30
0.0
 11
715.8872954113
 21
786.6702391972
 31
0.0
  0
LINE
  5
3AD
330
3A7
100
AcDbEntity
  8
SLD-0_0
100
AcDbLine
 10
529.8872954113
 20
744.4202391972
 30
0.0
 11
529.8872954113
 21
786.6702391972
 31
0.0
  0
LINE
  5
3AE
330
3A7
100
AcDbEntity
  8
SLD-0_0
100
AcDbLine
 10
715.8872954113
 20
785.6702391972
 30
0.0
 11
529.8872954113
 21
785.6702391972
 31
0.0
  0
MTEXT
  5
3AF
330
3A7
100
AcDbEntity
  8
SLD-0_0
100
AcDbMText
 10
616.6634841534
 20
790.1819762864
 30
0.0
 40
3.5
 41
0.0
 71
     1
 72
     1
  1
186
  7
SLDTEXTSTYLE0
 73
     1
 44
1.0
  0
ENDBLK
  5
3A9
330
3A7
100
AcDbEntity
  8
0
100
AcDbBlockEnd
  0
BLOCK
  5
3B2
330
3B1
100
AcDbEntity
  8
0
100
AcDbBlockBegin
  2
_D_23
 70
     0
 10
0.0
 20
0.0
 30
0.0
  3
_D_23
  1

  0
SOLID
  5
3B4
330
3B1
100
AcDbEntity
  8
SLD-0_0
100
AcDbTrace
 10
469.728884216
 20
552.1702391972
 30
0.0
 11
470.236884216
 21
555.4722391972
 31
0.0
 12
469.220884216
 22
555.4722391972
 32
0.0
 13
469.220884216
 23
555.4722391972
 33
0.0
  0
SOLID
  5
3B5
330
3B1
100
AcDbEntity
  8
SLD-0_0
100
AcDbTrace
 10
469.728884216
 20
738.1702391972
 30
0.0
 11
469.220884216
 21
734.8682391972
 31
0.0
 12
470.236884216
 22
734.8682391972
 32
0.0
 13
470.236884216
 23
734.8682391972
 33
0.0
  0
LINE
  5
3B6
330
3B1
100
AcDbEntity
  8
SLD-0_0
100
AcDbLine
 10
523.6372954113
 20
552.1702391972
 30
0.0
 11
468.728884216
 21
552.1702391972
 31
0.0
  0
LINE
  5
3B7
330
3B1
100
AcDbEntity
  8
SLD-0_0
100
AcDbLine
 10
523.6372954113
 20
738.1702391972
 30
0.0
 11
468.728884216
 21
738.1702391972
 31
0.0
  0
LINE
  5
3B8
330
3B1
100
AcDbEntity
  8
SLD-0_0
100
AcDbLine
 10
469.728884216
 20
552.1702391972
 30
0.0
 11
469.728884216
 21
738.1702391972
 31
0.0
  0
MTEXT
  5
3B9
330
3B1
100
AcDbEntity
  8
SLD-0_0
100
AcDbMText
 10
465.2171471268
 20
641.1598226298
 30
0.0
 40
3.5
 41
0.0
 71
     1
 72
     1
  1
186
  7
SLDTEXTSTYLE0
 11
6.123233995736766E-17
 21
1.0
 31
0.0
 73
     1
 44
1.0
  0
ENDBLK
  5
3B3
330
3B1
100
AcDbEntity
  8
0
100
AcDbBlockEnd
  0
BLOCK
  5
3BC
330
3BB
100
AcDbEntity
  8
0
100
AcDbBlockBegin
  2
_D_24
 70
     0
 10
0.0
 20
0.0
 30
0.0
  3
_D_24
  1

  0
SOLID
  5
3BE
330
3BB
100
AcDbEntity
  8
SLD-0_0
100
AcDbTrace
 10
479.1372954113
 20
727.6702391972
 30
0.0
 11
478.6292954113
 21
724.3682391972
 31
0.0
 12
479.6452954113
 22
724.3682391972
 32
0.0
 13
479.6452954113
 23
724.3682391972
 33
0.0
  0
SOLID
  5
3BF
330
3BB
100
AcDbEntity
  8
SLD-0_0
100
AcDbTrace
 10
479.1372954113
 20
562.6702391972
 30
0.0
 11
479.6452954113
 21
565.9722391972
 31
0.0
 12
478.6292954113
 22
565.9722391972
 32
0.0
 13
478.6292954113
 23
565.9722391972
 33
0.0
  0
LINE
  5
3C0
330
3BB
100
AcDbEntity
  8
SLD-0_0
100
AcDbLine
 10
554.3872954113
 20
727.6702391972
 30
0.0
 11
478.1372954113
 21
727.6702391972
 31
0.0
  0
LINE
  5
3C1
330
3BB
100
AcDbEntity
  8
SLD-0_0
100
AcDbLine
 10
554.3872954113
 20
562.6702391972
 30
0.0
 11
478.1372954113
 21
562.6702391972
 31
0.0
  0
LINE
  5
3C2
330
3BB
100
AcDbEntity
  8
SLD-0_0
100
AcDbLine
 10
479.1372954113
 20
727.6702391972
 30
0.0
 11
479.1372954113
 21
562.6702391972
 31
0.0
  0
MTEXT
  5
3C3
330
3BB
100
AcDbEntity
  8
SLD-0_0
100
AcDbMText
 10
474.6255583221
 20
641.1598226298
 30
0.0
 40
3.5
 41
0.0
 71
     1
 72
     1
  1
165
  7
SLDTEXTSTYLE0
 11
-7.044195017643634E-15
 21
1.0
 31
0.0
 73
     1
 44
1.0
  0
ENDBLK
  5
3BD
330
3BB
100
AcDbEntity
  8
0
100
AcDbBlockEnd
  0
BLOCK
  5
3C6
330
3C5
100
AcDbEntity
  8
0
100
AcDbBlockBegin
  2
_D_25
 70
     0
 10
0.0
 20
0.0
 30
0.0
  3
_D_25
  1

  0
SOLID
  5
3C8
330
3C5
100
AcDbEntity
  8
SLD-0_0
100
AcDbTrace
 10
540.3872954113
 20
673.1200735784
 30
0.0
 11
537.0852954113
 21
673.6280735784
 31
0.0
 12
537.0852954113
 22
672.6120735784
 32
0.0
 13
537.0852954113
 23
672.6120735784
 33
0.0
  0
SOLID
  5
3C9
330
3C5
100
AcDbEntity
  8
SLD-0_0
100
AcDbTrace
 10
489.1372954113
 20
673.1200735784
 30
0.0
 11
492.4392954113
 21
672.6120735784
 31
0.0
 12
492.4392954113
 22
673.6280735784
 32
0.0
 13
492.4392954113
 23
673.6280735784
 33
0.0
  0
LINE
  5
3CA
330
3C5
100
AcDbEntity
  8
SLD-0_0
100
AcDbLine
 10
540.3872954113
 20
673.1200735784
 30
0.0
 11
489.1372954113
 21
673.1200735784
 31
0.0
  0
MTEXT
  5
3CB
330
3C5
100
AcDbEntity
  8
SLD-0_0
100
AcDbMText
 10
509.2882900306
 20
677.6318106676
 30
0.0
 40
3.5
 41
0.0
 71
     1
 72
     1
  1
51.25
  7
SLDTEXTSTYLE0
 73
     1
 44
1.0
  0
ENDBLK
  5
3C7
330
3C5
100
AcDbEntity
  8
0
100
AcDbBlockEnd
  0
BLOCK
  5
3CE
330
3CD
100
AcDbEntity
  8
0
100
AcDbBlockBegin
  2
_D_26
 70
     0
 10
0.0
 20
0.0
 30
0.0
  3
_D_26
  1

  0
SOLID
  5
3D0
330
3CD
100
AcDbEntity
  8
SLD-0_0
100
AcDbTrace
 10
591.5632952162
 20
727.6702391972
 30
0.0
 11
592.0712952162
 21
730.9722391972
 31
0.0
 12
591.0552952162
 22
730.9722391972
 32
0.0
 13
591.0552952162
 23
730.9722391972
 33
0.0
  0
SOLID
  5
3D1
330
3CD
100
AcDbEntity
  8
SLD-0_0
100
AcDbTrace
 10
591.5632952162
 20
768.6702391972
 30
0.0
 11
591.0552952162
 21
765.3682391972
 31
0.0
 12
592.0712952162
 22
765.3682391972
 32
0.0
 13
592.0712952162
 23
765.3682391972
 33
0.0
  0
LINE
  5
3D2
330
3CD
100
AcDbEntity
  8
SLD-0_0
100
AcDbLine
 10
591.5632952162
 20
727.6702391972
 30
0.0
 11
591.5632952162
 21
768.6702391972
 31
0.0
  0
MTEXT
  5
3D3
330
3CD
100
AcDbEntity
  8
SLD-0_0
100
AcDbMText
 10
587.051558127
 20
742.2583648307
 30
0.0
 40
3.5
 41
0.0
 71
     1
 72
     1
  1
41
  7
SLDTEXTSTYLE0
 11
6.123233995736766E-17
 21
1.0
 31
0.0
 73
     1
 44
1.0
  0
ENDBLK
  5
3CF
330
3CD
100
AcDbEntity
  8
0
100
AcDbBlockEnd
  0
BLOCK
  5
3D7
330
3D6
100
AcDbEntity
  8
0
100
AcDbBlockBegin
  2
_D_27
 70
     0
 10
0.0
 20
0.0
 30
0.0
  3
_D_27
  1

  0
SOLID
  5
3D9
330
3D6
100
AcDbEntity
  8
SLD-0_0
100
AcDbTrace
 10
542.8705965278
 20
720.9365714588
 30
0.0
 11
545.3426058245
 21
718.6892534935
 31
0.0
 12
545.9037876732
 22
719.5362074077
 32
0.0
 13
545.9037876732
 23
719.5362074077
 33
0.0
  0
LINE
  5
3DA
330
3D6
100
AcDbEntity
  8
SLD-0_0
100
AcDbLine
 10
542.8705965278
 20
720.9365714588
 30
0.0
 11
570.3278583517
 21
702.7437079601
 31
0.0
  0
MTEXT
  5
3DB
330
3D6
100
AcDbEntity
  8
SLD-0_0
100
AcDbMText
 10
565.4560298441
 20
711.3680433786
 30
0.0
 40
3.5
 41
0.0
 71
     1
 72
     1
  1
R15
  7
SLDTEXTSTYLE0
 11
0.8344465922328737
 21
-0.5510888174431996
 31
0.0
 73
     1
 44
1.0
  0
ENDBLK
  5
3D8
330
3D6
100
AcDbEntity
  8
0
100
AcDbBlockEnd
  0
BLOCK
  5
3DE
330
3DD
100
AcDbEntity
  8
0
100
AcDbBlockBegin
  2
_D_28
 70
     0
 10
0.0
 20
0.0
 30
0.0
  3
_D_28
  1

  0
SOLID
  5
3E0
330
3DD
100
AcDbEntity
  8
SLD-0_0
100
AcDbTrace
 10
479.1372954113
 20
399.0702391972
 30
0.0
 11
478.6292954113
 21
395.7682391972
 31
0.0
 12
479.6452954113
 22
395.7682391972
 32
0.0
 13
479.6452954113
 23
395.7682391972
 33
0.0
  0
SOLID
  5
3E1
330
3DD
100
AcDbEntity
  8
SLD-0_0
100
AcDbTrace
 10
479.1372954113
 20
260.6702391972
 30
0.0
 11
479.6452954113
 21
263.9722391972
 31
0.0
 12
478.6292954113
 22
263.9722391972
 32
0.0
 13
478.6292954113
 23
263.9722391972
 33
0.0
  0
LINE
  5
3E2
330
3DD
100
AcDbEntity
  8
SLD-0_0
100
AcDbLine
 10
523.4430225618
 20
399.0702391972
 30
0.0
 11
478.1372954113
 21
399.0702391972
 31
0.0
  0
LINE
  5
3E3
330
3DD
100
AcDbEntity
  8
SLD-0_0
100
AcDbLine
 10
488.1372954113
 20
260.6702391972
 30
0.0
 11
478.1372954113
 21
260.6702391972
 31
0.0
  0
LINE
  5
3E4
330
3DD
100
AcDbEntity
  8
SLD-0_0
100
AcDbLine
 10
479.1372954113
 20
399.0702391972
 30
0.0
 11
479.1372954113
 21
260.6702391972
 31
0.0
  0
MTEXT
  5
3E5
330
3DD
100
AcDbEntity
  8
SLD-0_0
100
AcDbMText
 10
474.6255583221
 20
322.5178088237
 30
0.0
 40
3.5
 41
0.0
 71
     1
 72
     1
  1
138.40
  7
SLDTEXTSTYLE0
 11
-7.044195017643634E-15
 21
1.0
 31
0.0
 73
     1
 44
1.0
  0
ENDBLK
  5
3DF
330
3DD
100
AcDbEntity
  8
0
100
AcDbBlockEnd
  0
BLOCK
  5
3E9
330
3E8
100
AcDbEntity
  8
0
100
AcDbBlockBegin
  2
_NONE
 70
     0
 10
0.0
 20
0.0
 30
0.0
  3
_NONE
  1

  0
ENDBLK
  5
3EA
330
3E8
100
AcDbEntity
  8
0
100
AcDbBlockEnd
  0
BLOCK
  5
3EC
330
3EB
100
AcDbEntity
  8
0
100
AcDbBlockBegin
  2
_D_29
 70
     0
 10
0.0
 20
0.0
 30
0.0
  3
_D_29
  1

  0
SOLID
  5
3EE
330
3EB
100
AcDbEntity
  8
SLD-0_0
100
AcDbTrace
 10
525.4098844747
 20
448.1362665974
 30
0.0
 11
523.9907320222
 21
451.1607127147
 31
0.0
 12
523.1472754992
 22
450.5942878796
 32
0.0
 13
523.1472754992
 23
450.5942878796
 33
0.0
  0
LINE
  5
3EF
330
3EB
100
AcDbEntity
  8
SLD-0_0
100
AcDbLine
 10
525.4098844747
 20
448.1362665974
 30
0.0
 11
517.1129849953
 21
460.4910814877
 31
0.0
  0
LINE
  5
3F0
330
3EB
100
AcDbEntity
  8
SLD-0_0
100
AcDbLine
 10
528.4761606488
 20
443.5703110102
 30
0.0
 11
525.4098844747
 21
448.1362665974
 31
0.0
  0
LINE
  5
3F1
330
3EB
100
AcDbEntity
  8
SLD-0_0
100
AcDbLine
 10
517.1129849953
 20
460.4910814877
 30
0.0
 11
501.0648952586
 21
460.4910814877
 31
0.0
  0
MTEXT
  5
3F2
330
3EB
100
AcDbEntity
  8
SLD-0_0
100
AcDbMText
 10
501.0648952586
 20
465.0028185769
 30
0.0
 40
3.5
 41
0.0
 71
     1
 72
     1
  1
%%c
  7
SLDTEXTSTYLE0
 73
     1
 44
1.0
  0
MTEXT
  5
3F3
330
3EB
100
AcDbEntity
  8
SLD-0_0
100
AcDbMText
 10
506.1678468039
 20
465.0271242335
 30
0.0
 40
3.5
 41
0.0
 71
     1
 72
     1
  1
5.50
  7
SLDTEXTSTYLE0
 73
     1
 44
1.0
  0
ENDBLK
  5
3ED
330
3EB
100
AcDbEntity
  8
0
100
AcDbBlockEnd
  0
BLOCK
  5
3F6
330
3F5
100
AcDbEntity
  8
0
100
AcDbBlockBegin
  2
_D_30
 70
     0
 10
0.0
 20
0.0
 30
0.0
  3
_D_30
  1

  0
SOLID
  5
3F8
330
3F5
100
AcDbEntity
  8
SLD-0_0
100
AcDbTrace
 10
528.2249362388
 20
740.3609153443
 30
0.0
 11
526.6335738735
 21
743.2984030162
 31
0.0
 12
525.8242186133
 22
742.6842368638
 32
0.0
 13
525.8242186133
 23
742.6842368638
 33
0.0
  0
LINE
  5
3F9
330
3F5
100
AcDbEntity
  8
SLD-0_0
100
AcDbLine
 10
528.2249362388
 20
740.3609153443
 30
0.0
 11
524.12170975
 21
745.7681946764
 31
0.0
  0
LINE
  5
3FA
330
3F5
100
AcDbEntity
  8
SLD-0_0
100
AcDbLine
 10
531.5496545837
 20
735.97956305
 30
0.0
 11
528.2249362388
 21
740.3609153443
 31
0.0
  0
LINE
  5
3FB
330
3F5
100
AcDbEntity
  8
SLD-0_0
100
AcDbLine
 10
524.12170975
 20
745.7681946764
 30
0.0
 11
508.0736200133
 21
745.7681946764
 31
0.0
  0
MTEXT
  5
3FC
330
3F5
100
AcDbEntity
  8
SLD-0_0
100
AcDbMText
 10
508.0736200133
 20
750.2799317656
 30
0.0
 40
3.5
 41
0.0
 71
     1
 72
     1
  1
%%c
  7
SLDTEXTSTYLE0
 73
     1
 44
1.0
  0
MTEXT
  5
3FD
330
3F5
100
AcDbEntity
  8
SLD-0_0
100
AcDbMText
 10
513.1765715585
 20
750.3042374222
 30
0.0
 40
3.5
 41
0.0
 71
     1
 72
     1
  1
5.50
  7
SLDTEXTSTYLE0
 73
     1
 44
1.0
  0
ENDBLK
  5
3F7
330
3F5
100
AcDbEntity
  8
0
100
AcDbBlockEnd
  0
BLOCK
  5
401
330
400
100
AcDbEntity
  8
0
100
AcDbBlockBegin
  2
_D_31
 70
     0
 10
0.0
 20
0.0
 30
0.0
  3
_D_31
  1

  0
SOLID
  5
403
330
400
100
AcDbEntity
  8
SLD-0_0
100
AcDbTrace
 10
622.8872954113
 20
578.1015594686
 30
0.0
 11
619.5852954113
 21
578.6095594686
 31
0.0
 12
619.5852954113
 22
577.5935594686
 32
0.0
 13
619.5852954113
 23
577.5935594686
 33
0.0
  0
SOLID
  5
404
330
400
100
AcDbEntity
  8
SLD-0_0
100
AcDbTrace
 10
639.8872954113
 20
578.1015594686
 30
0.0
 11
643.1892954113
 21
577.5935594686
 31
0.0
 12
643.1892954113
 22
578.6095594686
 32
0.0
 13
643.1892954113
 23
578.6095594686
 33
0.0
  0
LINE
  5
405
330
400
100
AcDbEntity
  8
SLD-0_0
100
AcDbLine
 10
639.8872954113
 20
515.5145120467
 30
0.0
 11
639.8872954113
 21
579.1015594686
 31
0.0
  0
LINE
  5
406
330
400
100
AcDbEntity
  8
SLD-0_0
100
AcDbLine
 10
622.8872954113
 20
578.1015594686
 30
0.0
 11
616.5372954113
 21
578.1015594686
 31
0.0
  0
LINE
  5
407
330
400
100
AcDbEntity
  8
SLD-0_0
100
AcDbLine
 10
622.8872954113
 20
578.1015594686
 30
0.0
 11
639.8872954113
 21
578.1015594686
 31
0.0
  0
LINE
  5
408
330
400
100
AcDbEntity
  8
SLD-0_0
100
AcDbLine
 10
639.8872954113
 20
578.1015594686
 30
0.0
 11
646.2372954113
 21
578.1015594686
 31
0.0
  0
MTEXT
  5
409
330
400
100
AcDbEntity
  8
SLD-0_0
100
AcDbMText
 10
628.7039266847
 20
582.6132965578
 30
0.0
 40
3.5
 41
0.0
 71
     1
 72
     1
  1
17
  7
SLDTEXTSTYLE0
 73
     1
 44
1.0
  0
ENDBLK
  5
402
330
400
100
AcDbEntity
  8
0
100
AcDbBlockEnd
  0
BLOCK
  5
40B
330
40A
100
AcDbEntity
  8
0
100
AcDbBlockBegin
  2
SW_CENTERMARKSYMBOL_0
 70
     0
 10
0.0
 20
0.0
 30
0.0
  3
SW_CENTERMARKSYMBOL_0
  1

  0
LINE
  5
40D
330
40A
100
AcDbEntity
  8
SLD-0_0
 62
     0
100
AcDbLine
 10
0.0
 20
0.0
 30
0.0
 11
0.0
 21
2.5
 31
0.0
  0
LINE
  5
40E
330
40A
100
AcDbEntity
  8
SLD-0_0
 62
     0
100
AcDbLine
 10
0.0
 20
0.0
 30
0.0
 11
-2.5
 21
0.0
 31
0.0
  0
LINE
  5
40F
330
40A
100
AcDbEntity
  8
SLD-0_0
 62
     0
100
AcDbLine
 10
0.0
 20
0.0
 30
0.0
 11
0.0
 21
-2.5
 31
0.0
  0
LINE
  5
410
330
40A
100
AcDbEntity
  8
SLD-0_0
 62
     0
100
AcDbLine
 10
0.0
 20
0.0
 30
0.0
 11
2.5
 21
0.0
 31
0.0
  0
LINE
  5
411
330
40A
100
AcDbEntity
  8
SLD-0_0
 62
     0
100
AcDbLine
 10
0.0
 20
5.0
 30
0.0
 11
0.0
 21
5.25
 31
0.0
  0
LINE
  5
412
330
40A
100
AcDbEntity
  8
SLD-0_0
 62
     0
100
AcDbLine
 10
-5.0
 20
0.0
 30
0.0
 11
-5.25
 21
0.0
 31
0.0
  0
LINE
  5
413
330
40A
100
AcDbEntity
  8
SLD-0_0
 62
     0
100
AcDbLine
 10
0.0
 20
-5.0
 30
0.0
 11
0.0
 21
-5.25
 31
0.0
  0
LINE
  5
414
330
40A
100
AcDbEntity
  8
SLD-0_0
 62
     0
100
AcDbLine
 10
5.0
 20
0.0
 30
0.0
 11
5.25
 21
0.0
 31
0.0
  0
ENDBLK
  5
40C
330
40A
100
AcDbEntity
  8
0
100
AcDbBlockEnd
  0
BLOCK
  5
417
330
416
100
AcDbEntity
  8
0
100
AcDbBlockBegin
  2
SW_CENTERMARKSYMBOL_1
 70
     0
 10
0.0
 20
0.0
 30
0.0
  3
SW_CENTERMARKSYMBOL_1
  1

  0
LINE
  5
419
330
416
100
AcDbEntity
  8
SLD-0_0
 62
     0
100
AcDbLine
 10
0.0
 20
0.0
 30
0.0
 11
0.0
 21
2.5
 31
0.0
  0
LINE
  5
41A
330
416
100
AcDbEntity
  8
SLD-0_0
 62
     0
100
AcDbLine
 10
0.0
 20
0.0
 30
0.0
 11
-2.5
 21
0.0
 31
0.0
  0
LINE
  5
41B
330
416
100
AcDbEntity
  8
SLD-0_0
 62
     0
100
AcDbLine
 10
0.0
 20
0.0
 30
0.0
 11
0.0
 21
-2.5
 31
0.0
  0
LINE
  5
41C
330
416
100
AcDbEntity
  8
SLD-0_0
 62
     0
100
AcDbLine
 10
0.0
 20
0.0
 30
0.0
 11
2.5
 21
0.0
 31
0.0
  0
LINE
  5
41D
330
416
100
AcDbEntity
  8
SLD-0_0
 62
     0
100
AcDbLine
 10
0.0
 20
5.0
 30
0.0
 11
0.0
 21
5.25
 31
0.0
  0
LINE
  5
41E
330
416
100
AcDbEntity
  8
SLD-0_0
 62
     0
100
AcDbLine
 10
-5.0
 20
0.0
 30
0.0
 11
-5.25
 21
0.0
 31
0.0
  0
LINE
  5
41F
330
416
100
AcDbEntity
  8
SLD-0_0
 62
     0
100
AcDbLine
 10
0.0
 20
-5.0
 30
0.0
 11
0.0
 21
-5.25
 31
0.0
  0
LINE
  5
420
330
416
100
AcDbEntity
  8
SLD-0_0
 62
     0
100
AcDbLine
 10
5.0
 20
0.0
 30
0.0
 11
5.25
 21
0.0
 31
0.0
  0
ENDBLK
  5
418
330
416
100
AcDbEntity
  8
0
100
AcDbBlockEnd
  0
BLOCK
  5
423
330
422
100
AcDbEntity
  8
0
100
AcDbBlockBegin
  2
SW_CENTERMARKSYMBOL_2
 70
     0
 10
0.0
 20
0.0
 30
0.0
  3
SW_CENTERMARKSYMBOL_2
  1

  0
LINE
  5
425
330
422
100
AcDbEntity
  8
SLD-0_0
 62
     0
100
AcDbLine
 10
0.0
 20
0.0
 30
0.0
 11
0.0
 21
2.5
 31
0.0
  0
LINE
  5
426
330
422
100
AcDbEntity
  8
SLD-0_0
 62
     0
100
AcDbLine
 10
0.0
 20
0.0
 30
0.0
 11
-2.5
 21
0.0
 31
0.0
  0
LINE
  5
427
330
422
100
AcDbEntity
  8
SLD-0_0
 62
     0
100
AcDbLine
 10
0.0
 20
0.0
 30
0.0
 11
0.0
 21
-2.5
 31
0.0
  0
LINE
  5
428
330
422
100
AcDbEntity
  8
SLD-0_0
 62
     0
100
AcDbLine
 10
0.0
 20
0.0
 30
0.0
 11
2.5
 21
0.0
 31
0.0
  0
LINE
  5
429
330
422
100
AcDbEntity
  8
SLD-0_0
 62
     0
100
AcDbLine
 10
0.0
 20
5.0
 30
0.0
 11
0.0
 21
5.25
 31
0.0
  0
LINE
  5
42A
330
422
100
AcDbEntity
  8
SLD-0_0
 62
     0
100
AcDbLine
 10
-5.0
 20
0.0
 30
0.0
 11
-5.25
 21
0.0
 31
0.0
  0
LINE
  5
42B
330
422
100
AcDbEntity
  8
SLD-0_0
 62
     0
100
AcDbLine
 10
0.0
 20
-5.0
 30
0.0
 11
0.0
 21
-5.25
 31
0.0
  0
LINE
  5
42C
330
422
100
AcDbEntity
  8
SLD-0_0
 62
     0
100
AcDbLine
 10
5.0
 20
0.0
 30
0.0
 11
5.25
 21
0.0
 31
0.0
  0
ENDBLK
  5
424
330
422
100
AcDbEntity
  8
0
100
AcDbBlockEnd
  0
BLOCK
  5
42F
330
42E
100
AcDbEntity
  8
0
100
AcDbBlockBegin
  2
SW_CENTERMARKSYMBOL_3
 70
     0
 10
0.0
 20
0.0
 30
0.0
  3
SW_CENTERMARKSYMBOL_3
  1

  0
LINE
  5
431
330
42E
100
AcDbEntity
  8
SLD-0_0
 62
     0
100
AcDbLine
 10
0.0
 20
0.0
 30
0.0
 11
0.0
 21
2.5
 31
0.0
  0
LINE
  5
432
330
42E
100
AcDbEntity
  8
SLD-0_0
 62
     0
100
AcDbLine
 10
0.0
 20
0.0
 30
0.0
 11
-2.5
 21
0.0
 31
0.0
  0
LINE
  5
433
330
42E
100
AcDbEntity
  8
SLD-0_0
 62
     0
100
AcDbLine
 10
0.0
 20
0.0
 30
0.0
 11
0.0
 21
-2.5
 31
0.0
  0
LINE
  5
434
330
42E
100
AcDbEntity
  8
SLD-0_0
 62
     0
100
AcDbLine
 10
0.0
 20
0.0
 30
0.0
 11
2.5
 21
0.0
 31
0.0
  0
LINE
  5
435
330
42E
100
AcDbEntity
  8
SLD-0_0
 62
     0
100
AcDbLine
 10
0.0
 20
5.0
 30
0.0
 11
0.0
 21
5.25
 31
0.0
  0
LINE
  5
436
330
42E
100
AcDbEntity
  8
SLD-0_0
 62
     0
100
AcDbLine
 10
-5.0
 20
0.0
 30
0.0
 11
-5.25
 21
0.0
 31
0.0
  0
LINE
  5
437
330
42E
100
AcDbEntity
  8
SLD-0_0
 62
     0
100
AcDbLine
 10
0.0
 20
-5.0
 30
0.0
 11
0.0
 21
-5.25
 31
0.0
  0
LINE
  5
438
330
42E
100
AcDbEntity
  8
SLD-0_0
 62
     0
100
AcDbLine
 10
5.0
 20
0.0
 30
0.0
 11
5.25
 21
0.0
 31
0.0
  0
ENDBLK
  5
430
330
42E
100
AcDbEntity
  8
0
100
AcDbBlockEnd
  0
BLOCK
  5
43B
330
43A
100
AcDbEntity
  8
0
100
AcDbBlockBegin
  2
SW_CENTERMARKSYMBOL_4
 70
     0
 10
0.0
 20
0.0
 30
0.0
  3
SW_CENTERMARKSYMBOL_4
  1

  0
ARC
  5
43D
330
43A
100
AcDbEntity
  8
SLD-0_0
 62
     0
100
AcDbCircle
 10
46.7830496066
 20
-112.9442728495
 30
0.0
 40
122.25
100
AcDbArc
 50
112.5
 51
113.6716928326
  0
ARC
  5
43E
330
43A
100
AcDbEntity
  8
SLD-0_0
 62
     0
100
AcDbCircle
 10
46.7830496066
 20
-112.9442728495
 30
0.0
 40
122.25
100
AcDbArc
 50
111.3283071674
 51
112.5
  0
ARC
  5
43F
330
43A
100
AcDbEntity
  8
SLD-0_0
 62
     0
100
AcDbCircle
 10
46.7830496066
 20
-112.9442728495
 30
0.0
 40
122.25
100
AcDbArc
 50
67.5
 51
68.6716928326
  0
ARC
  5
440
330
43A
100
AcDbEntity
  8
SLD-0_0
 62
     0
100
AcDbCircle
 10
46.7830496066
 20
-112.9442728495
 30
0.0
 40
122.25
100
AcDbArc
 50
66.3283071674
 51
67.5
  0
ARC
  5
441
330
43A
100
AcDbEntity
  8
SLD-0_0
 62
     0
100
AcDbCircle
 10
46.7830496066
 20
-112.9442728495
 30
0.0
 40
122.25
100
AcDbArc
 50
22.5
 51
23.6716928326
  0
ARC
  5
442
330
43A
100
AcDbEntity
  8
SLD-0_0
 62
     0
100
AcDbCircle
 10
46.7830496066
 20
-112.9442728495
 30
0.0
 40
122.25
100
AcDbArc
 50
21.3283071674
 51
22.5
  0
ARC
  5
443
330
43A
100
AcDbEntity
  8
SLD-0_0
 62
     0
100
AcDbCircle
 10
46.7830496066
 20
-112.9442728495
 30
0.0
 40
122.2500000000001
100
AcDbArc
 50
337.5
 51
338.6716928326
  0
ARC
  5
444
330
43A
100
AcDbEntity
  8
SLD-0_0
 62
     0
100
AcDbCircle
 10
46.7830496066
 20
-112.9442728495
 30
0.0
 40
122.2500000000001
100
AcDbArc
 50
336.3283071674
 51
337.5
  0
ARC
  5
445
330
43A
100
AcDbEntity
  8
SLD-0_0
 62
     0
100
AcDbCircle
 10
46.7830496066
 20
-112.9442728495
 30
0.0
 40
122.25
100
AcDbArc
 50
157.5
 51
158.6716928326
  0
ARC
  5
446
330
43A
100
AcDbEntity
  8
SLD-0_0
 62
     0
100
AcDbCircle
 10
46.7830496066
 20
-112.9442728495
 30
0.0
 40
122.25
100
AcDbArc
 50
156.3283071674
 51
157.5
  0
ARC
  5
447
330
43A
100
AcDbEntity
  8
SLD-0_0
 62
     0
100
AcDbCircle
 10
46.7830496066
 20
-112.9442728495
 30
0.0
 40
122.2500000000001
100
AcDbArc
 50
202.5
 51
203.6716928326
  0
ARC
  5
448
330
43A
100
AcDbEntity
  8
SLD-0_0
 62
     0
100
AcDbCircle
 10
46.7830496066
 20
-112.9442728495
 30
0.0
 40
122.25
100
AcDbArc
 50
201.3283071674
 51
202.5
  0
ARC
  5
449
330
43A
100
AcDbEntity
  8
SLD-0_0
 62
     0
100
AcDbCircle
 10
46.7830496066
 20
-112.9442728495
 30
0.0
 40
122.2500000000001
100
AcDbArc
 50
247.5
 51
248.6716928326
  0
ARC
  5
44A
330
43A
100
AcDbEntity
  8
SLD-0_0
 62
     0
100
AcDbCircle
 10
46.7830496066
 20
-112.9442728495
 30
0.0
 40
122.25
100
AcDbArc
 50
246.3283071674
 51
247.5
  0
ARC
  5
44B
330
43A
100
AcDbEntity
  8
SLD-0_0
 62
     0
100
AcDbCircle
 10
46.7830496066
 20
-112.9442728495
 30
0.0
 40
122.2500000000001
100
AcDbArc
 50
292.5
 51
293.6716928326
  0
ARC
  5
44C
330
43A
100
AcDbEntity
  8
SLD-0_0
 62
     0
100
AcDbCircle
 10
46.7830496066
 20
-112.9442728495
 30
0.0
 40
122.2500000000001
100
AcDbArc
 50
291.3283071674
 51
292.5
  0
ARC
  5
44D
330
43A
100
AcDbEntity
  8
SLD-0_0
 62
     0
100
AcDbCircle
 10
46.7830496066
 20
-112.9442728495
 30
0.0
 40
122.2499999999999
100
AcDbArc
 50
24.8433856652
 51
65.1566143348
  0
ARC
  5
44E
330
43A
100
AcDbEntity
  8
SLD-0_0
 62
     0
100
AcDbCircle
 10
46.7830496066
 20
-112.9442728495
 30
0.0
 40
122.2499999999999
100
AcDbArc
 50
69.8433856652
 51
110.1566143348
  0
ARC
  5
44F
330
43A
100
AcDbEntity
  8
SLD-0_0
 62
     0
100
AcDbCircle
 10
46.7830496066
 20
-112.9442728495
 30
0.0
 40
122.2500000000001
100
AcDbArc
 50
339.8433856652
 51
20.1566143348
  0
ARC
  5
450
330
43A
100
AcDbEntity
  8
SLD-0_0
 62
     0
100
AcDbCircle
 10
46.7830496066
 20
-112.9442728495
 30
0.0
 40
122.25
100
AcDbArc
 50
114.8433856652
 51
155.1566143348
  0
ARC
  5
451
330
43A
100
AcDbEntity
  8
SLD-0_0
 62
     0
100
AcDbCircle
 10
46.7830496066
 20
-112.9442728495
 30
0.0
 40
122.25
100
AcDbArc
 50
159.8433856652
 51
200.1566143348
  0
ARC
  5
452
330
43A
100
AcDbEntity
  8
SLD-0_0
 62
     0
100
AcDbCircle
 10
46.7830496066
 20
-112.9442728495
 30
0.0
 40
122.2500000000001
100
AcDbArc
 50
204.8433856652
 51
245.1566143348
  0
ARC
  5
453
330
43A
100
AcDbEntity
  8
SLD-0_0
 62
     0
100
AcDbCircle
 10
46.7830496066
 20
-112.9442728495
 30
0.0
 40
122.2500000000001
100
AcDbArc
 50
249.8433856652
 51
290.1566143348
  0
ARC
  5
454
330
43A
100
AcDbEntity
  8
SLD-0_0
 62
     0
100
AcDbCircle
 10
46.7830496066
 20
-112.9442728495
 30
0.0
 40
122.2500000000001
100
AcDbArc
 50
294.8433856652
 51
335.1566143348
  0
LINE
  5
455
330
43A
100
AcDbEntity
  8
SLD-0_0
 62
     0
100
AcDbLine
 10
0.0
 20
0.0
 30
0.0
 11
-0.9567085809
 21
2.3096988313
 31
0.0
  0
LINE
  5
456
330
43A
100
AcDbEntity
  8
SLD-0_0
 62
     0
100
AcDbLine
 10
0.0
 20
0.0
 30
0.0
 11
0.9567085809
 21
-2.3096988313
 31
0.0
  0
LINE
  5
457
330
43A
100
AcDbEntity
  8
SLD-0_0
 62
     0
100
AcDbLine
 10
-1.9134171618
 20
4.6193976626
 30
0.0
 11
-2.0090880199
 21
4.8503675457
 31
0.0
  0
LINE
  5
458
330
43A
100
AcDbEntity
  8
SLD-0_0
 62
     0
100
AcDbLine
 10
1.9134171618
 20
-4.6193976626
 30
0.0
 11
2.0090880199
 21
-4.8503675457
 31
0.0
  0
LINE
  5
459
330
43A
100
AcDbEntity
  8
SLD-0_0
 62
     0
100
AcDbLine
 10
93.5660992133
 20
0.0
 30
0.0
 11
94.5228077942
 21
2.3096988313
 31
0.0
  0
LINE
  5
45A
330
43A
100
AcDbEntity
  8
SLD-0_0
 62
     0
100
AcDbLine
 10
93.5660992133
 20
0.0
 30
0.0
 11
92.6093906324
 21
-2.3096988313
 31
0.0
  0
LINE
  5
45B
330
43A
100
AcDbEntity
  8
SLD-0_0
 62
     0
100
AcDbLine
 10
95.4795163751
 20
4.6193976626
 30
0.0
 11
95.5751872332
 21
4.8503675457
 31
0.0
  0
LINE
  5
45C
330
43A
100
AcDbEntity
  8
SLD-0_0
 62
     0
100
AcDbLine
 10
91.6526820514
 20
-4.6193976626
 30
0.0
 11
91.5570111933
 21
-4.8503675457
 31
0.0
  0
LINE
  5
45D
330
43A
100
AcDbEntity
  8
SLD-0_0
 62
     0
100
AcDbLine
 10
159.7273224561
 20
-66.1612232429
 30
0.0
 11
162.0370212874
 21
-65.204514662
 31
0.0
  0
LINE
  5
45E
330
43A
100
AcDbEntity
  8
SLD-0_0
 62
     0
100
AcDbLine
 10
159.7273224561
 20
-66.1612232429
 30
0.0
 11
157.4176236249
 21
-67.1179318238
 31
0.0
  0
LINE
  5
45F
330
43A
100
AcDbEntity
  8
SLD-0_0
 62
     0
100
AcDbLine
 10
164.3467201187
 20
-64.247806081
 30
0.0
 11
164.5776900018
 21
-64.152135223
 31
0.0
  0
LINE
  5
460
330
43A
100
AcDbEntity
  8
SLD-0_0
 62
     0
100
AcDbLine
 10
155.1079247936
 20
-68.0746404047
 30
0.0
 11
154.8769549105
 21
-68.1703112628
 31
0.0
  0
LINE
  5
461
330
43A
100
AcDbEntity
  8
SLD-0_0
 62
     0
100
AcDbLine
 10
46.7830496066
 20
-112.9442728495
 30
0.0
 11
46.7830496066
 21
-110.4442728495
 31
0.0
  0
LINE
  5
462
330
43A
100
AcDbEntity
  8
SLD-0_0
 62
     0
100
AcDbLine
 10
46.7830496066
 20
-112.9442728495
 30
0.0
 11
44.2830496066
 21
-112.9442728495
 31
0.0
  0
LINE
  5
463
330
43A
100
AcDbEntity
  8
SLD-0_0
 62
     0
100
AcDbLine
 10
46.7830496066
 20
-112.9442728495
 30
0.0
 11
46.7830496066
 21
-115.4442728495
 31
0.0
  0
LINE
  5
464
330
43A
100
AcDbEntity
  8
SLD-0_0
 62
     0
100
AcDbLine
 10
46.7830496066
 20
-112.9442728495
 30
0.0
 11
49.2830496066
 21
-112.9442728495
 31
0.0
  0
LINE
  5
465
330
43A
100
AcDbEntity
  8
SLD-0_0
 62
     0
100
AcDbLine
 10
46.7830496066
 20
-107.9442728495
 30
0.0
 11
46.7830496066
 21
2.5
 31
0.0
  0
LINE
  5
466
330
43A
100
AcDbEntity
  8
SLD-0_0
 62
     0
100
AcDbLine
 10
41.7830496066
 20
-112.9442728495
 30
0.0
 11
-68.6612232429
 21
-112.9442728495
 31
0.0
  0
LINE
  5
467
330
43A
100
AcDbEntity
  8
SLD-0_0
 62
     0
100
AcDbLine
 10
46.7830496066
 20
-117.9442728495
 30
0.0
 11
46.7830496066
 21
-236.8532178061
 31
0.0
  0
LINE
  5
468
330
43A
100
AcDbEntity
  8
SLD-0_0
 62
     0
100
AcDbLine
 10
51.7830496066
 20
-112.9442728495
 30
0.0
 11
162.2273224561
 21
-112.9442728495
 31
0.0
  0
LINE
  5
469
330
43A
100
AcDbEntity
  8
SLD-0_0
 62
     0
100
AcDbLine
 10
159.7273224561
 20
-159.7273224561
 30
0.0
 11
162.0370212874
 21
-160.684031037
 31
0.0
  0
LINE
  5
46A
330
43A
100
AcDbEntity
  8
SLD-0_0
 62
     0
100
AcDbLine
 10
159.7273224561
 20
-159.7273224561
 30
0.0
 11
157.4176236249
 21
-158.7706138752
 31
0.0
  0
LINE
  5
46B
330
43A
100
AcDbEntity
  8
SLD-0_0
 62
     0
100
AcDbLine
 10
164.3467201187
 20
-161.640739618
 30
0.0
 11
164.5776900018
 21
-161.7364104761
 31
0.0
  0
LINE
  5
46C
330
43A
100
AcDbEntity
  8
SLD-0_0
 62
     0
100
AcDbLine
 10
155.1079247936
 20
-157.8139052943
 30
0.0
 11
154.8769549105
 21
-157.7182344362
 31
0.0
  0
LINE
  5
46D
330
43A
100
AcDbEntity
  8
SLD-0_0
 62
     0
100
AcDbLine
 10
-66.1612232429
 20
-66.1612232429
 30
0.0
 11
-68.4709220742
 21
-65.204514662
 31
0.0
  0
LINE
  5
46E
330
43A
100
AcDbEntity
  8
SLD-0_0
 62
     0
100
AcDbLine
 10
-66.1612232429
 20
-66.1612232429
 30
0.0
 11
-63.8515244116
 21
-67.1179318238
 31
0.0
  0
LINE
  5
46F
330
43A
100
AcDbEntity
  8
SLD-0_0
 62
     0
100
AcDbLine
 10
-70.7806209054
 20
-64.247806081
 30
0.0
 11
-71.0115907886
 21
-64.152135223
 31
0.0
  0
LINE
  5
470
330
43A
100
AcDbEntity
  8
SLD-0_0
 62
     0
100
AcDbLine
 10
-61.5418255803
 20
-68.0746404047
 30
0.0
 11
-61.3108556972
 21
-68.1703112628
 31
0.0
  0
LINE
  5
471
330
43A
100
AcDbEntity
  8
SLD-0_0
 62
     0
100
AcDbLine
 10
-66.1612232429
 20
-159.7273224561
 30
0.0
 11
-68.4709220742
 21
-160.684031037
 31
0.0
  0
LINE
  5
472
330
43A
100
AcDbEntity
  8
SLD-0_0
 62
     0
100
AcDbLine
 10
-66.1612232429
 20
-159.7273224561
 30
0.0
 11
-63.8515244116
 21
-158.7706138752
 31
0.0
  0
LINE
  5
473
330
43A
100
AcDbEntity
  8
SLD-0_0
 62
     0
100
AcDbLine
 10
-70.7806209054
 20
-161.640739618
 30
0.0
 11
-71.0115907886
 21
-161.7364104761
 31
0.0
  0
LINE
  5
474
330
43A
100
AcDbEntity
  8
SLD-0_0
 62
     0
100
AcDbLine
 10
-61.5418255803
 20
-157.8139052943
 30
0.0
 11
-61.3108556972
 21
-157.7182344362
 31
0.0
  0
LINE
  5
475
330
43A
100
AcDbEntity
  8
SLD-0_0
 62
     0
100
AcDbLine
 10
0.0
 20
-225.888545699
 30
0.0
 11
-0.9567085809
 21
-228.1982445303
 31
0.0
  0
LINE
  5
476
330
43A
100
AcDbEntity
  8
SLD-0_0
 62
     0
100
AcDbLine
 10
0.0
 20
-225.888545699
 30
0.0
 11
0.9567085809
 21
-223.5788468677
 31
0.0
  0
LINE
  5
477
330
43A
100
AcDbEntity
  8
SLD-0_0
 62
     0
100
AcDbLine
 10
-1.9134171618
 20
-230.5079433616
 30
0.0
 11
-2.0090880199
 21
-230.7389132447
 31
0.0
  0
LINE
  5
478
330
43A
100
AcDbEntity
  8
SLD-0_0
 62
     0
100
AcDbLine
 10
1.9134171618
 20
-221.2691480365
 30
0.0
 11
2.0090880199
 21
-221.0381781533
 31
0.0
  0
LINE
  5
479
330
43A
100
AcDbEntity
  8
SLD-0_0
 62
     0
100
AcDbLine
 10
93.5660992133
 20
-225.888545699
 30
0.0
 11
94.5228077942
 21
-228.1982445303
 31
0.0
  0
LINE
  5
47A
330
43A
100
AcDbEntity
  8
SLD-0_0
 62
     0
100
AcDbLine
 10
93.5660992133
 20
-225.888545699
 30
0.0
 11
92.6093906324
 21
-223.5788468677
 31
0.0
  0
LINE
  5
47B
330
43A
100
AcDbEntity
  8
SLD-0_0
 62
     0
100
AcDbLine
 10
95.4795163751
 20
-230.5079433616
 30
0.0
 11
95.5751872332
 21
-230.7389132447
 31
0.0
  0
LINE
  5
47C
330
43A
100
AcDbEntity
  8
SLD-0_0
 62
     0
100
AcDbLine
 10
91.6526820514
 20
-221.2691480365
 30
0.0
 11
91.5570111933
 21
-221.0381781533
 31
0.0
  0
ENDBLK
  5
43C
330
43A
100
AcDbEntity
  8
0
100
AcDbBlockEnd
  0
BLOCK
  5
486
330
485
100
AcDbEntity
  8
0
100
AcDbBlockBegin
  2
_D_32
 70
     0
 10
0.0
 20
0.0
 30
0.0
  3
_D_32
  1

  0
SOLID
  5
488
330
485
100
AcDbEntity
  8
SLD-0_0
100
AcDbTrace
 10
1010.4412822145
 20
748.8918132717
 30
0.0
 11
1009.9332822145
 21
745.5898132717
 31
0.0
 12
1010.9492822145
 22
745.5898132717
 32
0.0
 13
1010.9492822145
 23
745.5898132717
 33
0.0
  0
SOLID
  5
489
330
485
100
AcDbEntity
  8
SLD-0_0
100
AcDbTrace
 10
1010.4412822145
 20
763.8918132717
 30
0.0
 11
1010.9492822145
 21
767.1938132717
 31
0.0
 12
1009.9332822145
 22
767.1938132717
 32
0.0
 13
1009.9332822145
 23
767.1938132717
 33
0.0
  0
LINE
  5
48A
330
485
100
AcDbEntity
  8
SLD-0_0
100
AcDbLine
 10
998.7282174425
 20
748.8918132717
 30
0.0
 11
1011.4412822145
 21
748.8918132717
 31
0.0
  0
LINE
  5
48B
330
485
100
AcDbEntity
  8
SLD-0_0
100
AcDbLine
 10
997.5476918401
 20
763.8918132717
 30
0.0
 11
1011.4412822145
 21
763.8918132717
 31
0.0
  0
LINE
  5
48C
330
485
100
AcDbEntity
  8
SLD-0_0
100
AcDbLine
 10
1010.4412822145
 20
748.8918132717
 30
0.0
 11
1010.4412822145
 21
742.5418132717
 31
0.0
  0
LINE
  5
48D
330
485
100
AcDbEntity
  8
SLD-0_0
100
AcDbLine
 10
1010.4412822145
 20
748.8918132717
 30
0.0
 11
1010.4412822145
 21
763.8918132717
 31
0.0
  0
LINE
  5
48E
330
485
100
AcDbEntity
  8
SLD-0_0
100
AcDbLine
 10
1010.4412822145
 20
763.8918132717
 30
0.0
 11
1010.4412822145
 21
770.2418132717
 31
0.0
  0
MTEXT
  5
48F
330
485
100
AcDbEntity
  8
SLD-0_0
100
AcDbMText
 10
1005.9295451253
 20
752.0999227309
 30
0.0
 40
3.5
 41
0.0
 71
     1
 72
     1
  1
15
  7
SLDTEXTSTYLE0
 11
2.947812203982775E-15
 21
1.0
 31
0.0
 73
     1
 44
1.0
  0
ENDBLK
  5
487
330
485
100
AcDbEntity
  8
0
100
AcDbBlockEnd
  0
BLOCK
  5
492
330
491
100
AcDbEntity
  8
0
100
AcDbBlockBegin
  2
_D_33
 70
     0
 10
0.0
 20
0.0
 30
0.0
  3
_D_33
  1

  0
SOLID
  5
494
330
491
100
AcDbEntity
  8
SLD-0_0
100
AcDbTrace
 10
955.2282174425
 20
740.1803237818
 30
0.0
 11
958.5302174425
 21
739.6723237818
 31
0.0
 12
958.5302174425
 22
740.6883237818
 32
0.0
 13
958.5302174425
 23
740.6883237818
 33
0.0
  0
SOLID
  5
495
330
491
100
AcDbEntity
  8
SLD-0_0
100
AcDbTrace
 10
997.7282174425
 20
740.1803237818
 30
0.0
 11
994.4262174425
 21
740.6883237818
 31
0.0
 12
994.4262174425
 22
739.6723237818
 32
0.0
 13
994.4262174425
 23
739.6723237818
 33
0.0
  0
LINE
  5
496
330
491
100
AcDbEntity
  8
SLD-0_0
100
AcDbLine
 10
955.2282174425
 20
747.8918132717
 30
0.0
 11
955.2282174425
 21
739.1803237818
 31
0.0
  0
LINE
  5
497
330
491
100
AcDbEntity
  8
SLD-0_0
100
AcDbLine
 10
997.7282174425
 20
747.8918132717
 30
0.0
 11
997.7282174425
 21
739.1803237818
 31
0.0
  0
LINE
  5
498
330
491
100
AcDbEntity
  8
SLD-0_0
100
AcDbLine
 10
955.2282174425
 20
740.1803237818
 30
0.0
 11
997.7282174425
 21
740.1803237818
 31
0.0
  0
MTEXT
  5
499
330
491
100
AcDbEntity
  8
SLD-0_0
100
AcDbMText
 10
975.0371559063
 20
744.692060871
 30
0.0
 40
3.5
 41
0.0
 71
     1
 72
     1
  1
42.50
  7
SLDTEXTSTYLE0
 73
     1
 44
1.0
  0
ENDBLK
  5
493
330
491
100
AcDbEntity
  8
0
100
AcDbBlockEnd
  0
BLOCK
  5
4A0
330
49F
100
AcDbEntity
  8
0
100
AcDbBlockBegin
  2
_D_34
 70
     0
 10
0.0
 20
0.0
 30
0.0
  3
_D_34
  1

  0
SOLID
  5
4A2
330
49F
100
AcDbEntity
  8
SLD-0_0
100
AcDbTrace
 10
1103.4706489451
 20
701.1047572918
 30
0.0
 11
1103.9786489451
 21
704.4067572918
 31
0.0
 12
1102.9626489451
 22
704.4067572918
 32
0.0
 13
1102.9626489451
 23
704.4067572918
 33
0.0
  0
SOLID
  5
4A3
330
49F
100
AcDbEntity
  8
SLD-0_0
100
AcDbTrace
 10
1103.4706489451
 20
686.1047572918
 30
0.0
 11
1102.9626489451
 21
682.8027572918
 31
0.0
 12
1103.9786489451
 22
682.8027572918
 32
0.0
 13
1103.9786489451
 23
682.8027572918
 33
0.0
  0
LINE
  5
4A4
330
49F
100
AcDbEntity
  8
SLD-0_0
100
AcDbLine
 10
1079.6553238361
 20
701.1047572918
 30
0.0
 11
1104.4706489451
 21
701.1047572918
 31
0.0
  0
LINE
  5
4A5
330
49F
100
AcDbEntity
  8
SLD-0_0
100
AcDbLine
 10
1092.4665341181
 20
686.1047572918
 30
0.0
 11
1104.4706489451
 21
686.1047572918
 31
0.0
  0
LINE
  5
4A6
330
49F
100
AcDbEntity
  8
SLD-0_0
100
AcDbLine
 10
1103.4706489451
 20
701.1047572918
 30
0.0
 11
1103.4706489451
 21
707.4547572918
 31
0.0
  0
LINE
  5
4A7
330
49F
100
AcDbEntity
  8
SLD-0_0
100
AcDbLine
 10
1103.4706489451
 20
701.1047572918
 30
0.0
 11
1103.4706489451
 21
686.1047572918
 31
0.0
  0
LINE
  5
4A8
330
49F
100
AcDbEntity
  8
SLD-0_0
100
AcDbLine
 10
1103.4706489451
 20
686.1047572918
 30
0.0
 11
1103.4706489451
 21
679.7547572918
 31
0.0
  0
MTEXT
  5
4A9
330
49F
100
AcDbEntity
  8
SLD-0_0
100
AcDbMText
 10
1098.9589118559
 20
691.7292559792
 30
0.0
 40
3.5
 41
0.0
 71
     1
 72
     1
  1
15
  7
SLDTEXTSTYLE0
 11
-4.379659758543259E-15
 21
1.0
 31
0.0
 73
     1
 44
1.0
  0
ENDBLK
  5
4A1
330
49F
100
AcDbEntity
  8
0
100
AcDbBlockEnd
  0
BLOCK
  5
4AD
330
4AC
100
AcDbEntity
  8
0
100
AcDbBlockBegin
  2
_D_35
 70
     0
 10
0.0
 20
0.0
 30
0.0
  3
_D_35
  1

  0
SOLID
  5
4AF
330
4AC
100
AcDbEntity
  8
SLD-0_0
100
AcDbTrace
 10
867.205508756
 20
669.4289979773
 30
0.0
 11
870.507508756
 21
668.9209979773
 31
0.0
 12
870.507508756
 22
669.9369979773
 32
0.0
 13
870.507508756
 23
669.9369979773
 33
0.0
  0
SOLID
  5
4B0
330
4AC
100
AcDbEntity
  8
SLD-0_0
100
AcDbTrace
 10
1091.4665341181
 20
669.4289979773
 30
0.0
 11
1088.1645341181
 21
669.9369979773
 31
0.0
 12
1088.1645341181
 22
668.9209979773
 32
0.0
 13
1088.1645341181
 23
668.9209979773
 33
0.0
  0
LINE
  5
4B1
330
4AC
100
AcDbEntity
  8
SLD-0_0
100
AcDbLine
 10
867.205508756
 20
685.1047572918
 30
0.0
 11
867.205508756
 21
668.4289979773
 31
0.0
  0
LINE
  5
4B2
330
4AC
100
AcDbEntity
  8
SLD-0_0
100
AcDbLine
 10
1091.4665341181
 20
685.1047572918
 30
0.0
 11
1091.4665341181
 21
668.4289979773
 31
0.0
  0
LINE
  5
4B3
330
4AC
100
AcDbEntity
  8
SLD-0_0
100
AcDbLine
 10
867.205508756
 20
669.4289979773
 30
0.0
 11
1091.4665341181
 21
669.4289979773
 31
0.0
  0
MTEXT
  5
4B4
330
4AC
100
AcDbEntity
  8
SLD-0_0
100
AcDbMText
 10
976.4682403485
 20
673.9407350666
 30
0.0
 40
3.5
 41
0.0
 71
     1
 72
     1
  1
224.3
  7
SLDTEXTSTYLE0
 73
     1
 44
1.0
  0
ENDBLK
  5
4AE
330
4AC
100
AcDbEntity
  8
0
100
AcDbBlockEnd
  0
BLOCK
  5
4B6
330
4B5
100
AcDbEntity
  8
0
100
AcDbBlockBegin
  2
SW_ANGULAR_DIMENSION_0
 70
     0
 10
0.0
 20
0.0
 30
0.0
  3
SW_ANGULAR_DIMENSION_0
  1

  0
ARC
  5
4B8
330
4B5
100
AcDbEntity
  8
SLD-0_0
 62
     0
100
AcDbCircle
 10
3.8507861068
 20
-32.2829243662
 30
0.0
 40
32.01860827029105
100
AcDbArc
 50
85.5
 51
90.0
  0
ARC
  5
4B9
330
4B5
100
AcDbEntity
  8
SLD-0_0
 62
     0
100
AcDbCircle
 10
3.8507861068
 20
-32.2829243662
 30
0.0
 40
32.01860827029109
100
AcDbArc
 50
74.1846363993
 51
85.5
  0
ARC
  5
4BA
330
4B5
100
AcDbEntity
  8
SLD-0_0
 62
     0
100
AcDbCircle
 10
3.8507861068
 20
-32.2829243662
 30
0.0
 40
32.01860827029102
100
AcDbArc
 50
90.0
 51
101.3153636007
  0
SOLID
  5
4BB
330
4B5
100
AcDbEntity
  8
SLD-0_0
 62
     0
100
AcDbTrace
 10
6.3629371581
 20
-0.3630187795
 30
0.0
 11
9.5712931098
 21
-1.2945337215
 31
0.0
 12
9.7029227594
 22
-0.2870965595
 32
0.0
 13
9.7029227594
 23
-0.2870965595
 33
0.0
  0
SOLID
  5
4BC
330
4B5
100
AcDbEntity
  8
SLD-0_0
 62
     0
100
AcDbTrace
 10
3.8507861068
 20
-0.2643160959
 30
0.0
 11
0.5270533552
 21
0.0734243313
 31
0.0
 12
0.5792346257
 22
-0.9412347814
 32
0.0
 13
0.5792346257
 23
-0.9412347814
 33
0.0
  0
LINE
  5
4BD
330
4B5
100
AcDbEntity
  8
SLD-0_0
 62
     0
100
AcDbLine
 10
5.1097708049
 20
-16.2860070325
 30
0.0
 11
6.4413962539
 21
0.6338985542
 31
0.0
  0
LINE
  5
4BE
330
4B5
100
AcDbEntity
  8
SLD-0_0
 62
     0
100
AcDbLine
 10
3.8507861068
 20
-31.2829243662
 30
0.0
 11
3.8507861068
 21
0.7356839041
 31
0.0
  0
MTEXT
  5
4BF
330
4B5
100
AcDbEntity
  8
SLD-0_0
 62
     0
100
AcDbMText
 10
0.2510719634
 20
4.5047457677
 30
0.0
 40
3.5
 41
0.0
 71
     1
 72
     1
  1
4.50°
  7
SLDTEXTSTYLE0
 11
0.9984504146842762
 21
-0.05564862457237225
 31
0.0
 73
     1
 44
1.0
  0
ENDBLK
  5
4B7
330
4B5
100
AcDbEntity
  8
0
100
AcDbBlockEnd
  0
BLOCK
  5
4C2
330
4C1
100
AcDbEntity
  8
0
100
AcDbBlockBegin
  2
SW_ANGULAR_DIMENSION_1
 70
     0
 10
0.0
 20
0.0
 30
0.0
  3
SW_ANGULAR_DIMENSION_1
  1

  0
ARC
  5
4C4
330
4C1
100
AcDbEntity
  8
SLD-0_0
 62
     0
100
AcDbCircle
 10
16.075225576
 20
-35.6182840322
 30
0.0
 40
38.44971792298435
100
AcDbArc
 50
90.0
 51
130.5
  0
SOLID
  5
4C5
330
4C1
100
AcDbEntity
  8
SLD-0_0
 62
     0
100
AcDbTrace
 10
16.075225576
 20
2.8314338908
 30
0.0
 11
12.7545012321
 21
3.1975729781
 31
0.0
 12
12.798007372
 22
2.1825048938
 32
0.0
 13
12.798007372
 23
2.1825048938
 33
0.0
  0
SOLID
  5
4C6
330
4C1
100
AcDbEntity
  8
SLD-0_0
 62
     0
100
AcDbTrace
 10
-8.8958686879
 20
-6.3808891479
 30
0.0
 11
-5.9824067444
 21
-4.7459556619
 31
0.0
 12
-6.6085584023
 22
-3.9458368575
 32
0.0
 13
-6.6085584023
 23
-3.9458368575
 33
0.0
  0
LINE
  5
4C7
330
4C1
100
AcDbEntity
  8
SLD-0_0
 62
     0
100
AcDbLine
 10
16.075225576
 20
-34.6182840322
 30
0.0
 11
16.075225576
 21
3.8314338908
 31
0.0
  0
LINE
  5
4C8
330
4C1
100
AcDbEntity
  8
SLD-0_0
 62
     0
100
AcDbLine
 10
2.6145672458
 20
-19.8578780666
 30
0.0
 11
-9.5453167362
 21
-5.6204831823
 31
0.0
  0
MTEXT
  5
4C9
330
4C1
100
AcDbEntity
  8
SLD-0_0
 62
     0
100
AcDbMText
 10
-1.0918016651
 20
4.3776409956
 30
0.0
 40
3.5
 41
0.0
 71
     1
 72
     1
  1
40.50°
  7
SLDTEXTSTYLE0
 11
0.970278389237382
 21
0.2419914200522643
 31
0.0
 73
     1
 44
1.0
  0
ENDBLK
  5
4C3
330
4C1
100
AcDbEntity
  8
0
100
AcDbBlockEnd
  0
BLOCK
  5
4D1
330
4D0
100
AcDbEntity
  8
0
100
AcDbBlockBegin
  2
_D_36
 70
     0
 10
0.0
 20
0.0
 30
0.0
  3
_D_36
  1

  0
SOLID
  5
4D3
330
4D0
100
AcDbEntity
  8
SLD-0_0
100
AcDbTrace
 10
1041.2732438421
 20
610.0354504064
 30
0.0
 11
1037.9712438421
 21
610.5434504064
 31
0.0
 12
1037.9712438421
 22
609.5274504064
 32
0.0
 13
1037.9712438421
 23
609.5274504064
 33
0.0
  0
SOLID
  5
4D4
330
4D0
100
AcDbEntity
  8
SLD-0_0
100
AcDbTrace
 10
902.4967459797
 20
610.0354504064
 30
0.0
 11
905.7987459797
 21
609.5274504064
 31
0.0
 12
905.7987459797
 22
610.5434504064
 32
0.0
 13
905.7987459797
 23
610.5434504064
 33
0.0
  0
LINE
  5
4D5
330
4D0
100
AcDbEntity
  8
SLD-0_0
100
AcDbLine
 10
1041.2732438421
 20
618.543160409
 30
0.0
 11
1041.2732438421
 21
609.0354504064
 31
0.0
  0
LINE
  5
4D6
330
4D0
100
AcDbEntity
  8
SLD-0_0
100
AcDbLine
 10
902.4967459797
 20
618.543160409
 30
0.0
 11
902.4967459797
 21
609.0354504064
 31
0.0
  0
LINE
  5
4D7
330
4D0
100
AcDbEntity
  8
SLD-0_0
100
AcDbLine
 10
1041.2732438421
 20
610.0354504064
 30
0.0
 11
902.4967459797
 21
610.0354504064
 31
0.0
  0
MTEXT
  5
4D8
330
4D0
100
AcDbEntity
  8
SLD-0_0
100
AcDbMText
 10
971.6005938571
 20
614.5471874956
 30
0.0
 40
3.5
 41
0.0
 71
     1
 72
     1
  1
138.8
  7
SLDTEXTSTYLE0
 73
     1
 44
1.0
  0
ENDBLK
  5
4D2
330
4D0
100
AcDbEntity
  8
0
100
AcDbBlockEnd
  0
BLOCK
  5
4DA
330
4D9
100
AcDbEntity
  8
0
100
AcDbBlockBegin
  2
SW_ANGULAR_DIMENSION_2
 70
     0
 10
0.0
 20
0.0
 30
0.0
  3
SW_ANGULAR_DIMENSION_2
  1

  0
ARC
  5
4DC
330
4D9
100
AcDbEntity
  8
SLD-0_0
 62
     0
100
AcDbCircle
 10
-0.588553873
 20
-30.9492350197
 30
0.0
 40
30.15803902122794
100
AcDbArc
 50
49.5
 51
90.0
  0
ARC
  5
4DD
330
4D9
100
AcDbEntity
  8
SLD-0_0
 62
     0
100
AcDbCircle
 10
-0.588553873
 20
-30.9492350197
 30
0.0
 40
30.15803902122794
100
AcDbArc
 50
37.4929490237
 51
49.5
  0
ARC
  5
4DE
330
4D9
100
AcDbEntity
  8
SLD-0_0
 62
     0
100
AcDbCircle
 10
-0.588553873
 20
-30.9492350197
 30
0.0
 40
30.15803902122795
100
AcDbArc
 50
90.0
 51
102.0070509763
  0
SOLID
  5
4DF
330
4D9
100
AcDbEntity
  8
SLD-0_0
 62
     0
100
AcDbTrace
 10
18.9975257108
 20
-8.0168822372
 30
0.0
 11
21.0372966918
 21
-10.6627473784
 31
0.0
 12
21.7382609663
 22
-9.9272848804
 32
0.0
 13
21.7382609663
 23
-9.9272848804
 33
0.0
  0
SOLID
  5
4E0
330
4D9
100
AcDbEntity
  8
SLD-0_0
 62
     0
100
AcDbTrace
 10
-0.588553873
 20
-0.7911959985
 30
0.0
 11
-3.9133325796
 21
-0.4639124025
 31
0.0
 12
-3.8579598475
 22
-1.4784023534
 32
0.0
 13
-3.8579598475
 23
-1.4784023534
 33
0.0
  0
LINE
  5
4E1
330
4D9
100
AcDbEntity
  8
SLD-0_0
 62
     0
100
AcDbLine
 10
12.8721044573
 20
-15.1888290541
 30
0.0
 11
19.6469737591
 21
-7.2564762716
 31
0.0
  0
LINE
  5
4E2
330
4D9
100
AcDbEntity
  8
SLD-0_0
 62
     0
100
AcDbLine
 10
-0.588553873
 20
-29.9492350197
 30
0.0
 11
-0.588553873
 21
0.2088040015
 31
0.0
  0
MTEXT
  5
4E3
330
4D9
100
AcDbEntity
  8
SLD-0_0
 62
     0
100
AcDbMText
 10
1.1004687075
 20
4.3754702817
 30
0.0
 40
3.5
 41
0.0
 71
     1
 72
     1
  1
40.50°
  7
SLDTEXTSTYLE0
 11
0.9697972632659727
 21
-0.2439124190397645
 31
0.0
 73
     1
 44
1.0
  0
ENDBLK
  5
4DB
330
4D9
100
AcDbEntity
  8
0
100
AcDbBlockEnd
  0
BLOCK
  5
4E6
330
4E5
100
AcDbEntity
  8
0
100
AcDbBlockBegin
  2
SW_ANGULAR_DIMENSION_3
 70
     0
 10
0.0
 20
0.0
 30
0.0
  3
SW_ANGULAR_DIMENSION_3
  1

  0
ARC
  5
4E8
330
4E5
100
AcDbEntity
  8
SLD-0_0
 62
     0
100
AcDbCircle
 10
10.6710237138
 20
-31.2928777888
 30
0.0
 40
32.3174986817456
100
AcDbArc
 50
90.0
 51
106.5
  0
ARC
  5
4E9
330
4E5
100
AcDbEntity
  8
SLD-0_0
 62
     0
100
AcDbCircle
 10
10.6710237138
 20
-31.2928777888
 30
0.0
 40
32.31749868174561
100
AcDbArc
 50
78.788421831
 51
90.0
  0
ARC
  5
4EA
330
4E5
100
AcDbEntity
  8
SLD-0_0
 62
     0
100
AcDbCircle
 10
10.6710237138
 20
-31.2928777888
 30
0.0
 40
32.31749868174558
100
AcDbArc
 50
106.5
 51
117.711578169
  0
SOLID
  5
4EB
330
4E5
100
AcDbEntity
  8
SLD-0_0
 62
     0
100
AcDbTrace
 10
10.6710237138
 20
1.0246208929
 30
0.0
 11
13.9428942807
 21
0.3492461867
 31
0.0
 12
13.9945967095
 22
1.3639298118
 32
0.0
 13
13.9945967095
 23
1.3639298118
 33
0.0
  0
SOLID
  5
4EC
330
4E5
100
AcDbEntity
  8
SLD-0_0
 62
     0
100
AcDbTrace
 10
1.4923581857
 20
-0.3062222712
 30
0.0
 11
-1.7907181323
 21
-0.9248319136
 31
0.0
 12
-1.4529591037
 22
-1.8830463148
 32
0.0
 13
-1.4529591037
 23
-1.8830463148
 33
0.0
  0
LINE
  5
4ED
330
4E5
100
AcDbEntity
  8
SLD-0_0
 62
     0
100
AcDbLine
 10
10.6710237138
 20
-30.2928777888
 30
0.0
 11
10.6710237138
 21
2.0246208929
 31
0.0
  0
LINE
  5
4EE
330
4E5
100
AcDbEntity
  8
SLD-0_0
 62
     0
100
AcDbLine
 10
5.9438059447
 20
-15.334058054
 30
0.0
 11
1.208342841
 21
0.6525974637
 31
0.0
  0
MTEXT
  5
4EF
330
4E5
100
AcDbEntity
  8
SLD-0_0
 62
     0
100
AcDbMText
 10
-0.5220979068
 20
4.4814267078
 30
0.0
 40
3.5
 41
0.0
 71
     1
 72
     1
  1
16.50°
  7
SLDTEXTSTYLE0
 11
0.9932818821760143
 21
0.1157199314762778
 31
0.0
 73
     1
 44
1.0
  0
ENDBLK
  5
4E7
330
4E5
100
AcDbEntity
  8
0
100
AcDbBlockEnd
  0
BLOCK
  5
4F3
330
4F2
100
AcDbEntity
  8
0
100
AcDbBlockBegin
  2
_D_37
 70
     0
 10
0.0
 20
0.0
 30
0.0
  3
_D_37
  1

  0
SOLID
  5
4F5
330
4F2
100
AcDbEntity
  8
SLD-0_0
100
AcDbTrace
 10
1058.2732438421
 20
634.543160409
 30
0.0
 11
1058.7812438421
 21
637.845160409
 31
0.0
 12
1057.7652438421
 22
637.845160409
 32
0.0
 13
1057.7652438421
 23
637.845160409
 33
0.0
  0
SOLID
  5
4F6
330
4F2
100
AcDbEntity
  8
SLD-0_0
100
AcDbTrace
 10
1058.2732438421
 20
619.543160409
 30
0.0
 11
1057.7652438421
 21
616.241160409
 31
0.0
 12
1058.7812438421
 22
616.241160409
 32
0.0
 13
1058.7812438421
 23
616.241160409
 33
0.0
  0
LINE
  5
4F7
330
4F2
100
AcDbEntity
  8
SLD-0_0
100
AcDbLine
 10
1037.8300414176
 20
634.543160409
 30
0.0
 11
1059.2732438421
 21
634.543160409
 31
0.0
  0
LINE
  5
4F8
330
4F2
100
AcDbEntity
  8
SLD-0_0
100
AcDbLine
 10
1042.2732438421
 20
619.543160409
 30
0.0
 11
1059.2732438421
 21
619.543160409
 31
0.0
  0
LINE
  5
4F9
330
4F2
100
AcDbEntity
  8
SLD-0_0
100
AcDbLine
 10
1058.2732438421
 20
634.543160409
 30
0.0
 11
1058.2732438421
 21
640.893160409
 31
0.0
  0
LINE
  5
4FA
330
4F2
100
AcDbEntity
  8
SLD-0_0
100
AcDbLine
 10
1058.2732438421
 20
634.543160409
 30
0.0
 11
1058.2732438421
 21
619.543160409
 31
0.0
  0
LINE
  5
4FB
330
4F2
100
AcDbEntity
  8
SLD-0_0
100
AcDbLine
 10
1058.2732438421
 20
619.543160409
 30
0.0
 11
1058.2732438421
 21
613.193160409
 31
0.0
  0
MTEXT
  5
4FC
330
4F2
100
AcDbEntity
  8
SLD-0_0
100
AcDbMText
 10
1053.7615067529
 20
623.6770752795
 30
0.0
 40
3.5
 41
0.0
 71
     1
 72
     1
  1
15
  7
SLDTEXTSTYLE0
 11
-1.326144395554451E-14
 21
1.0
 31
0.0
 73
     1
 44
1.0
  0
ENDBLK
  5
4F4
330
4F2
100
AcDbEntity
  8
0
100
AcDbBlockEnd
  0
BLOCK
  5
503
330
502
100
AcDbEntity
  8
0
100
AcDbBlockBegin
  2
_D_38
 70
     0
 10
0.0
 20
0.0
 30
0.0
  3
_D_38
  1

  0
SOLID
  5
505
330
502
100
AcDbEntity
  8
SLD-0_0
100
AcDbTrace
 10
1050.7724424156
 20
572.0966499049
 30
0.0
 11
1051.2804424156
 21
575.3986499049
 31
0.0
 12
1050.2644424156
 22
575.3986499049
 32
0.0
 13
1050.2644424156
 23
575.3986499049
 33
0.0
  0
SOLID
  5
506
330
502
100
AcDbEntity
  8
SLD-0_0
100
AcDbTrace
 10
1050.7724424156
 20
557.0966499049
 30
0.0
 11
1050.2644424156
 21
553.7946499049
 31
0.0
 12
1051.2804424156
 22
553.7946499049
 32
0.0
 13
1051.2804424156
 23
553.7946499049
 33
0.0
  0
LINE
  5
507
330
502
100
AcDbEntity
  8
SLD-0_0
100
AcDbLine
 10
1030.223455187
 20
572.0966499049
 30
0.0
 11
1051.7724424156
 21
572.0966499049
 31
0.0
  0
LINE
  5
508
330
502
100
AcDbEntity
  8
SLD-0_0
100
AcDbLine
 10
1036.9018854666
 20
557.0966499049
 30
0.0
 11
1051.7724424156
 21
557.0966499049
 31
0.0
  0
LINE
  5
509
330
502
100
AcDbEntity
  8
SLD-0_0
100
AcDbLine
 10
1050.7724424156
 20
572.0966499049
 30
0.0
 11
1050.7724424156
 21
578.4466499049
 31
0.0
  0
LINE
  5
50A
330
502
100
AcDbEntity
  8
SLD-0_0
100
AcDbLine
 10
1050.7724424156
 20
572.0966499049
 30
0.0
 11
1050.7724424156
 21
557.0966499049
 31
0.0
  0
LINE
  5
50B
330
502
100
AcDbEntity
  8
SLD-0_0
100
AcDbLine
 10
1050.7724424156
 20
557.0966499049
 30
0.0
 11
1050.7724424156
 21
550.7466499049
 31
0.0
  0
MTEXT
  5
50C
330
502
100
AcDbEntity
  8
SLD-0_0
100
AcDbMText
 10
1046.2607053264
 20
563.1610351034
 30
0.0
 40
3.5
 41
0.0
 71
     1
 72
     1
  1
15
  7
SLDTEXTSTYLE0
 11
-1.059690869644414E-14
 21
1.0
 31
0.0
 73
     1
 44
1.0
  0
ENDBLK
  5
504
330
502
100
AcDbEntity
  8
0
100
AcDbBlockEnd
  0
BLOCK
  5
50F
330
50E
100
AcDbEntity
  8
0
100
AcDbBlockBegin
  2
_D_39
 70
     0
 10
0.0
 20
0.0
 30
0.0
  3
_D_39
  1

  0
SOLID
  5
511
330
50E
100
AcDbEntity
  8
SLD-0_0
100
AcDbTrace
 10
1035.9018854666
 20
539.9573182217
 30
0.0
 11
1032.5998854666
 21
540.4653182217
 31
0.0
 12
1032.5998854666
 22
539.4493182217
 32
0.0
 13
1032.5998854666
 23
539.4493182217
 33
0.0
  0
SOLID
  5
512
330
50E
100
AcDbEntity
  8
SLD-0_0
100
AcDbTrace
 10
912.8846287286
 20
539.9573182217
 30
0.0
 11
916.1866287286
 21
539.4493182217
 31
0.0
 12
916.1866287286
 22
540.4653182217
 32
0.0
 13
916.1866287286
 23
540.4653182217
 33
0.0
  0
LINE
  5
513
330
50E
100
AcDbEntity
  8
SLD-0_0
100
AcDbLine
 10
1035.9018854666
 20
556.0966499049
 30
0.0
 11
1035.9018854666
 21
538.9573182217
 31
0.0
  0
LINE
  5
514
330
50E
100
AcDbEntity
  8
SLD-0_0
100
AcDbLine
 10
912.8846287286
 20
556.0966499049
 30
0.0
 11
912.8846287286
 21
538.9573182217
 31
0.0
  0
LINE
  5
515
330
50E
100
AcDbEntity
  8
SLD-0_0
100
AcDbLine
 10
1035.9018854666
 20
539.9573182217
 30
0.0
 11
912.8846287286
 21
539.9573182217
 31
0.0
  0
MTEXT
  5
516
330
50E
100
AcDbEntity
  8
SLD-0_0
100
AcDbMText
 10
966.5519223616
 20
544.4690553109
 30
0.0
 40
3.5
 41
0.0
 71
     1
 72
     1
  1
123
  7
SLDTEXTSTYLE0
 73
     1
 44
1.0
  0
ENDBLK
  5
510
330
50E
100
AcDbEntity
  8
0
100
AcDbBlockEnd
  0
BLOCK
  5
518
330
517
100
AcDbEntity
  8
0
100
AcDbBlockBegin
  2
SW_ANGULAR_DIMENSION_4
 70
     0
 10
0.0
 20
0.0
 30
0.0
  3
SW_ANGULAR_DIMENSION_4
  1

  0
ARC
  5
51A
330
517
100
AcDbEntity
  8
SLD-0_0
 62
     0
100
AcDbCircle
 10
9.060338203
 20
-34.6298166864
 30
0.0
 40
35.61028824079104
100
AcDbArc
 50
90.0
 51
114.0
  0
SOLID
  5
51B
330
517
100
AcDbEntity
  8
SLD-0_0
 62
     0
100
AcDbTrace
 10
9.060338203
 20
0.9804715544
 30
0.0
 11
5.7383893505
 21
1.3353290206
 31
0.0
 12
5.7853431226
 22
0.3204145693
 32
0.0
 13
5.7853431226
 23
0.3204145693
 33
0.0
  0
SOLID
  5
51C
330
517
100
AcDbEntity
  8
SLD-0_0
 62
     0
100
AcDbTrace
 10
-5.423670895
 20
-2.0981996187
 30
0.0
 11
-2.1633446532
 21
-1.3691311741
 31
0.0
 12
-2.5332531448
 22
-0.4228628676
 32
0.0
 13
-2.5332531448
 23
-0.4228628676
 33
0.0
  0
LINE
  5
51D
330
517
100
AcDbEntity
  8
SLD-0_0
 62
     0
100
AcDbLine
 10
9.060338203
 20
-33.6298166864
 30
0.0
 11
9.060338203
 21
1.9804715544
 31
0.0
  0
LINE
  5
51E
330
517
100
AcDbEntity
  8
SLD-0_0
 62
     0
100
AcDbLine
 10
1.9751712803
 20
-18.7162712287
 30
0.0
 11
-5.8304075381
 21
-1.184654161
 31
0.0
  0
MTEXT
  5
51F
330
517
100
AcDbEntity
  8
SLD-0_0
 62
     0
100
AcDbMText
 10
-0.6926985033
 20
4.4582440877
 30
0.0
 40
3.5
 41
0.0
 71
     1
 72
     1
  1
24°
  7
SLDTEXTSTYLE0
 11
0.9881435907206026
 21
0.1535325506783308
 31
0.0
 73
     1
 44
1.0
  0
ENDBLK
  5
519
330
517
100
AcDbEntity
  8
0
100
AcDbBlockEnd
  0
BLOCK
  5
522
330
521
100
AcDbEntity
  8
0
100
AcDbBlockBegin
  2
SW_ANGULAR_DIMENSION_5
 70
     0
 10
0.0
 20
0.0
 30
0.0
  3
SW_ANGULAR_DIMENSION_5
  1

  0
ARC
  5
524
330
521
100
AcDbEntity
  8
SLD-0_0
 62
     0
100
AcDbCircle
 10
2.5426557516
 20
-34.6100959533
 30
0.0
 40
33.99455270780241
100
AcDbArc
 50
73.5
 51
90.0
  0
ARC
  5
525
330
521
100
AcDbEntity
  8
SLD-0_0
 62
     0
100
AcDbCircle
 10
2.5426557516
 20
-34.6100959533
 30
0.0
 40
33.99455270780241
100
AcDbArc
 50
62.8372996623
 51
73.5
  0
ARC
  5
526
330
521
100
AcDbEntity
  8
SLD-0_0
 62
     0
100
AcDbCircle
 10
2.5426557516
 20
-34.6100959533
 30
0.0
 40
33.99455270780238
100
AcDbArc
 50
90.0
 51
100.6627003377
  0
SOLID
  5
527
330
521
100
AcDbEntity
  8
SLD-0_0
 62
     0
100
AcDbTrace
 10
12.1976303569
 20
-2.015447939
 30
0.0
 11
15.1468734085
 21
-3.5849170922
 31
0.0
 12
15.4822401805
 22
-2.6258628037
 32
0.0
 13
15.4822401805
 23
-2.6258628037
 33
0.0
  0
SOLID
  5
528
330
521
100
AcDbEntity
  8
SLD-0_0
 62
     0
100
AcDbTrace
 10
2.5426557516
 20
-0.6155432455
 30
0.0
 11
-0.7800601568
 21
-0.267941473
 31
0.0
 12
-0.7308900117
 22
-1.2827509609
 32
0.0
 13
-0.7308900117
 23
-1.2827509609
 33
0.0
  0
LINE
  5
529
330
521
100
AcDbEntity
  8
SLD-0_0
 62
     0
100
AcDbLine
 10
7.2698735207
 20
-18.6512762184
 30
0.0
 11
12.4816457016
 21
-1.0566282042
 31
0.0
  0
LINE
  5
52A
330
521
100
AcDbEntity
  8
SLD-0_0
 62
     0
100
AcDbLine
 10
2.5426557516
 20
-33.6100959533
 30
0.0
 11
2.5426557516
 21
0.3844567545
 31
0.0
  0
MTEXT
  5
52B
330
521
100
AcDbEntity
  8
SLD-0_0
 62
     0
100
AcDbMText
 10
0.5809626909
 20
4.4741763392
 30
0.0
 40
3.5
 41
0.0
 71
     1
 72
     1
  1
16.50°
  7
SLDTEXTSTYLE0
 11
0.9916748805828353
 21
-0.1287669647891857
 31
0.0
 73
     1
 44
1.0
  0
ENDBLK
  5
523
330
521
100
AcDbEntity
  8
0
100
AcDbBlockEnd
  0
BLOCK
  5
533
330
532
100
AcDbEntity
  8
0
100
AcDbBlockBegin
  2
_D_40
 70
     0
 10
0.0
 20
0.0
 30
0.0
  3
_D_40
  1

  0
SOLID
  5
535
330
532
100
AcDbEntity
  8
SLD-0_0
100
AcDbTrace
 10
1052.132271315
 20
465.0105438915
 30
0.0
 11
1048.830271315
 21
465.5185438915
 31
0.0
 12
1048.830271315
 22
464.5025438915
 32
0.0
 13
1048.830271315
 23
464.5025438915
 33
0.0
  0
SOLID
  5
536
330
532
100
AcDbEntity
  8
SLD-0_0
100
AcDbTrace
 10
895.7064093807
 20
465.0105438915
 30
0.0
 11
899.0084093807
 21
464.5025438915
 31
0.0
 12
899.0084093807
 22
465.5185438915
 32
0.0
 13
899.0084093807
 23
465.5185438915
 33
0.0
  0
LINE
  5
537
330
532
100
AcDbEntity
  8
SLD-0_0
100
AcDbLine
 10
1052.132271315
 20
481.7341866692
 30
0.0
 11
1052.132271315
 21
464.0105438915
 31
0.0
  0
LINE
  5
538
330
532
100
AcDbEntity
  8
SLD-0_0
100
AcDbLine
 10
895.7064093807
 20
481.7341866692
 30
0.0
 11
895.7064093807
 21
464.0105438915
 31
0.0
  0
LINE
  5
539
330
532
100
AcDbEntity
  8
SLD-0_0
100
AcDbLine
 10
1052.132271315
 20
465.0105438915
 30
0.0
 11
895.7064093807
 21
465.0105438915
 31
0.0
  0
MTEXT
  5
53A
330
532
100
AcDbEntity
  8
SLD-0_0
100
AcDbMText
 10
967.0860453157
 20
469.5222809807
 30
0.0
 40
3.5
 41
0.0
 71
     1
 72
     1
  1
156.4
  7
SLDTEXTSTYLE0
 73
     1
 44
1.0
  0
ENDBLK
  5
534
330
532
100
AcDbEntity
  8
0
100
AcDbBlockEnd
  0
BLOCK
  5
53C
330
53B
100
AcDbEntity
  8
0
100
AcDbBlockBegin
  2
SW_ANGULAR_DIMENSION_6
 70
     0
 10
0.0
 20
0.0
 30
0.0
  3
SW_ANGULAR_DIMENSION_6
  1

  0
ARC
  5
53E
330
53B
100
AcDbEntity
  8
SLD-0_0
 62
     0
100
AcDbCircle
 10
-3.4482115881
 20
-33.2292052881
 30
0.0
 40
33.20916957318524
100
AcDbArc
 50
66.0
 51
90.0
  0
ARC
  5
53F
330
53B
100
AcDbEntity
  8
SLD-0_0
 62
     0
100
AcDbCircle
 10
-3.4482115881
 20
-33.2292052881
 30
0.0
 40
33.20916957318524
100
AcDbArc
 50
55.0870747473
 51
66.0
  0
ARC
  5
540
330
53B
100
AcDbEntity
  8
SLD-0_0
 62
     0
100
AcDbCircle
 10
-3.4482115881
 20
-33.2292052881
 30
0.0
 40
33.20916957318521
100
AcDbArc
 50
90.0
 51
100.9129252527
  0
SOLID
  5
541
330
53B
100
AcDbEntity
  8
SLD-0_0
 62
     0
100
AcDbTrace
 10
10.0591745635
 20
-2.8911192724
 30
0.0
 11
12.7761197809
 21
-4.8352068954
 31
0.0
 12
13.2348307326
 22
-3.9286528359
 32
0.0
 13
13.2348307326
 23
-3.9286528359
 33
0.0
  0
SOLID
  5
542
330
53B
100
AcDbEntity
  8
SLD-0_0
 62
     0
100
AcDbTrace
 10
-3.4482115881
 20
-0.0200357149
 30
0.0
 11
-6.7713207751
 21
0.3237859408
 31
0.0
 12
-6.7209962237
 22
-0.690966955
 32
0.0
 13
-6.7209962237
 23
-0.690966955
 33
0.0
  0
LINE
  5
543
330
53B
100
AcDbEntity
  8
SLD-0_0
 62
     0
100
AcDbLine
 10
3.6369553347
 20
-17.3156598304
 30
0.0
 11
10.4659112066
 21
-1.9775738148
 31
0.0
  0
LINE
  5
544
330
53B
100
AcDbEntity
  8
SLD-0_0
 62
     0
100
AcDbLine
 10
-3.4482115881
 20
-32.2292052881
 30
0.0
 11
-3.4482115881
 21
0.9799642851
 31
0.0
  0
MTEXT
  5
545
330
53B
100
AcDbEntity
  8
SLD-0_0
 62
     0
100
AcDbMText
 10
0.9513560044
 20
4.4102940168
 30
0.0
 40
3.5
 41
0.0
 71
     1
 72
     1
  1
24°
  7
SLDTEXTSTYLE0
 11
0.9775157394223547
 21
-0.210862465084631
 31
0.0
 73
     1
 44
1.0
  0
ENDBLK
  5
53D
330
53B
100
AcDbEntity
  8
0
100
AcDbBlockEnd
  0
BLOCK
  5
548
330
547
100
AcDbEntity
  8
0
100
AcDbBlockBegin
  2
SW_ANGULAR_DIMENSION_7
 70
     0
 10
0.0
 20
0.0
 30
0.0
  3
SW_ANGULAR_DIMENSION_7
  1

  0
ARC
  5
54A
330
547
100
AcDbEntity
  8
SLD-0_0
 62
     0
100
AcDbCircle
 10
6.617081757
 20
-29.9680392442
 30
0.0
 40
30.16694653773018
100
AcDbArc
 50
90.0
 51
94.5
  0
ARC
  5
54B
330
547
100
AcDbEntity
  8
SLD-0_0
 62
     0
100
AcDbCircle
 10
6.617081757
 20
-29.9680392442
 30
0.0
 40
30.16694653773016
100
AcDbArc
 50
77.9964609226
 51
90.0
  0
ARC
  5
54C
330
547
100
AcDbEntity
  8
SLD-0_0
 62
     0
100
AcDbCircle
 10
6.617081757
 20
-29.9680392442
 30
0.0
 40
30.16694653773022
100
AcDbArc
 50
94.5
 51
106.5035390774
  0
SOLID
  5
54D
330
547
100
AcDbEntity
  8
SLD-0_0
 62
     0
100
AcDbTrace
 10
6.617081757
 20
0.1989072936
 30
0.0
 11
9.886498708
 21
-0.4882468379
 31
0.0
 12
9.9418552353
 22
0.5262439974
 32
0.0
 13
9.9418552353
 23
0.5262439974
 33
0.0
  0
SOLID
  5
54E
330
547
100
AcDbEntity
  8
SLD-0_0
 62
     0
100
AcDbTrace
 10
4.2502104108
 20
0.1059126651
 30
0.0
 11
0.9100035577
 21
0.1713815785
 31
0.0
 12
1.0447854729
 22
-0.835638697
 32
0.0
 13
1.0447854729
 23
-0.835638697
 33
0.0
  0
LINE
  5
54F
330
547
100
AcDbEntity
  8
SLD-0_0
 62
     0
100
AcDbLine
 10
6.617081757
 20
-28.9680392442
 30
0.0
 11
6.617081757
 21
1.1989072936
 31
0.0
  0
LINE
  5
550
330
547
100
AcDbEntity
  8
SLD-0_0
 62
     0
100
AcDbLine
 10
5.3580970589
 20
-13.9711219104
 30
0.0
 11
4.171751315
 21
1.1028299988
 31
0.0
  0
MTEXT
  5
551
330
547
100
AcDbEntity
  8
SLD-0_0
 62
     0
100
AcDbMText
 10
-0.146378176
 20
4.5093619273
 30
0.0
 40
3.5
 41
0.0
 71
     1
 72
     1
  1
4.50°
  7
SLDTEXTSTYLE0
 11
0.999473559336017
 21
0.03244386210353654
 31
0.0
 73
     1
 44
1.0
  0
ENDBLK
  5
549
330
547
100
AcDbEntity
  8
0
100
AcDbBlockEnd
  0
BLOCK
  5
555
330
554
100
AcDbEntity
  8
0
100
AcDbBlockBegin
  2
_D_41
 70
     0
 10
0.0
 20
0.0
 30
0.0
  3
_D_41
  1

  0
SOLID
  5
557
330
554
100
AcDbEntity
  8
SLD-0_0
100
AcDbTrace
 10
1070.2982626882
 20
497.7341866692
 30
0.0
 11
1070.8062626882
 21
501.0361866692
 31
0.0
 12
1069.7902626882
 22
501.0361866692
 32
0.0
 13
1069.7902626882
 23
501.0361866692
 33
0.0
  0
SOLID
  5
558
330
554
100
AcDbEntity
  8
SLD-0_0
100
AcDbTrace
 10
1070.2982626882
 20
482.7341866692
 30
0.0
 11
1069.7902626882
 21
479.4321866692
 31
0.0
 12
1070.8062626882
 22
479.4321866692
 32
0.0
 13
1070.8062626882
 23
479.4321866692
 33
0.0
  0
LINE
  5
559
330
554
100
AcDbEntity
  8
SLD-0_0
100
AcDbLine
 10
1051.9517457126
 20
497.7341866692
 30
0.0
 11
1071.2982626882
 21
497.7341866692
 31
0.0
  0
LINE
  5
55A
330
554
100
AcDbEntity
  8
SLD-0_0
100
AcDbLine
 10
1053.132271315
 20
482.7341866692
 30
0.0
 11
1071.2982626882
 21
482.7341866692
 31
0.0
  0
LINE
  5
55B
330
554
100
AcDbEntity
  8
SLD-0_0
100
AcDbLine
 10
1070.2982626882
 20
497.7341866692
 30
0.0
 11
1070.2982626882
 21
504.0841866692
 31
0.0
  0
LINE
  5
55C
330
554
100
AcDbEntity
  8
SLD-0_0
100
AcDbLine
 10
1070.2982626882
 20
497.7341866692
 30
0.0
 11
1070.2982626882
 21
482.7341866692
 31
0.0
  0
LINE
  5
55D
330
554
100
AcDbEntity
  8
SLD-0_0
100
AcDbLine
 10
1070.2982626882
 20
482.7341866692
 30
0.0
 11
1070.2982626882
 21
476.3841866692
 31
0.0
  0
MTEXT
  5
55E
330
554
100
AcDbEntity
  8
SLD-0_0
100
AcDbMText
 10
1065.786525599
 20
487.0915636877
 30
0.0
 40
3.5
 41
0.0
 71
     1
 72
     1
  1
15
  7
SLDTEXTSTYLE0
 11
-1.059690869644414E-14
 21
1.0
 31
0.0
 73
     1
 44
1.0
  0
ENDBLK
  5
556
330
554
100
AcDbEntity
  8
0
100
AcDbBlockEnd
  0
BLOCK
  5
591
330
590
100
AcDbEntity
  8
0
100
AcDbBlockBegin
  2
SW_NOTE_16
 70
     0
 10
0.0
 20
0.0
 30
0.0
  3
SW_NOTE_16
  1

  0
CIRCLE
  5
593
330
590
100
AcDbEntity
  8
SLD-0_0
 62
     0
100
AcDbCircle
 10
-3.6854467084
 20
-0.2470047353
 30
0.0
 40
3.693714766971091
  0
MTEXT
  5
594
330
590
100
AcDbEntity
  8
SLD-0_0
 62
     0
100
AcDbMText
 10
-3.7028078208
 20
1.0491719319
 30
0.0
 40
2.5
 41
0.0
 71
     2
 72
     1
  1
8
  7
SLDTEXTSTYLE0
 73
     1
 44
1.0
  0
ENDBLK
  5
592
330
590
100
AcDbEntity
  8
0
100
AcDbBlockEnd
  0
BLOCK
  5
598
330
597
100
AcDbEntity
  8
0
100
AcDbBlockBegin
  2
SW_NOTE_17
 70
     0
 10
0.0
 20
0.0
 30
0.0
  3
SW_NOTE_17
  1

  0
CIRCLE
  5
59A
330
597
100
AcDbEntity
  8
SLD-0_0
 62
     0
100
AcDbCircle
 10
3.5394308773
 20
1.0563890594
 30
0.0
 40
3.693714766971176
  0
MTEXT
  5
59B
330
597
100
AcDbEntity
  8
SLD-0_0
 62
     0
100
AcDbMText
 10
3.5047086525
 20
2.3525657266
 30
0.0
 40
2.5
 41
0.0
 71
     2
 72
     1
  1
10
  7
SLDTEXTSTYLE0
 73
     1
 44
1.0
  0
ENDBLK
  5
599
330
597
100
AcDbEntity
  8
0
100
AcDbBlockEnd
  0
BLOCK
  5
59F
330
59E
100
AcDbEntity
  8
0
100
AcDbBlockBegin
  2
SW_NOTE_18
 70
     0
 10
0.0
 20
0.0
 30
0.0
  3
SW_NOTE_18
  1

  0
CIRCLE
  5
5A1
330
59E
100
AcDbEntity
  8
SLD-0_0
 62
     0
100
AcDbCircle
 10
3.6791283521
 20
0.3279380255
 30
0.0
 40
3.693714766971176
  0
MTEXT
  5
5A2
330
59E
100
AcDbEntity
  8
SLD-0_0
 62
     0
100
AcDbMText
 10
3.6444061273
 20
1.6241146927
 30
0.0
 40
2.5
 41
0.0
 71
     2
 72
     1
  1
11
  7
SLDTEXTSTYLE0
 73
     1
 44
1.0
  0
ENDBLK
  5
5A0
330
59E
100
AcDbEntity
  8
0
100
AcDbBlockEnd
  0
BLOCK
  5
5A6
330
5A5
100
AcDbEntity
  8
0
100
AcDbBlockBegin
  2
SW_NOTE_19
 70
     0
 10
0.0
 20
0.0
 30
0.0
  3
SW_NOTE_19
  1

  0
CIRCLE
  5
5A8
330
5A5
100
AcDbEntity
  8
SLD-0_0
 62
     0
100
AcDbCircle
 10
2.9101256391
 20
2.2747961545
 30
0.0
 40
3.693714766971084
  0
MTEXT
  5
5A9
330
5A5
100
AcDbEntity
  8
SLD-0_0
 62
     0
100
AcDbMText
 10
2.8927645267
 20
3.5709728217
 30
0.0
 40
2.5
 41
0.0
 71
     2
 72
     1
  1
8
  7
SLDTEXTSTYLE0
 73
     1
 44
1.0
  0
ENDBLK
  5
5A7
330
5A5
100
AcDbEntity
  8
0
100
AcDbBlockEnd
  0
BLOCK
  5
5AD
330
5AC
100
AcDbEntity
  8
0
100
AcDbBlockBegin
  2
SW_NOTE_20
 70
     0
 10
0.0
 20
0.0
 30
0.0
  3
SW_NOTE_20
  1

  0
CIRCLE
  5
5AF
330
5AC
100
AcDbEntity
  8
SLD-0_0
 62
     0
100
AcDbCircle
 10
-3.6885335652
 20
-0.1955733062
 30
0.0
 40
3.693714766971084
  0
MTEXT
  5
5B0
330
5AC
100
AcDbEntity
  8
SLD-0_0
 62
     0
100
AcDbMText
 10
-3.7058946776
 20
1.100603361
 30
0.0
 40
2.5
 41
0.0
 71
     2
 72
     1
  1
9
  7
SLDTEXTSTYLE0
 73
     1
 44
1.0
  0
ENDBLK
  5
5AE
330
5AC
100
AcDbEntity
  8
0
100
AcDbBlockEnd
  0
BLOCK
  5
5B9
330
5B8
100
AcDbEntity
  8
0
100
AcDbBlockBegin
  2
_D_42
 70
     0
 10
0.0
 20
0.0
 30
0.0
  3
_D_42
  1

  0
SOLID
  5
5BB
330
5B8
100
AcDbEntity
  8
SLD-0_0
100
AcDbTrace
 10
1077.776899168
 20
381.287274594
 30
0.0
 11
1081.078899168
 21
380.779274594
 31
0.0
 12
1081.078899168
 22
381.795274594
 32
0.0
 13
1081.078899168
 23
381.795274594
 33
0.0
  0
SOLID
  5
5BC
330
5B8
100
AcDbEntity
  8
SLD-0_0
100
AcDbTrace
 10
1157.8037391724
 20
381.287274594
 30
0.0
 11
1154.5017391724
 21
381.795274594
 31
0.0
 12
1154.5017391724
 22
380.779274594
 32
0.0
 13
1154.5017391724
 23
380.779274594
 33
0.0
  0
LINE
  5
5BD
330
5B8
100
AcDbEntity
  8
SLD-0_0
100
AcDbLine
 10
1077.776899168
 20
400.2685998008
 30
0.0
 11
1077.776899168
 21
380.287274594
 31
0.0
  0
LINE
  5
5BE
330
5B8
100
AcDbEntity
  8
SLD-0_0
100
AcDbLine
 10
1157.8037391724
 20
400.2685998008
 30
0.0
 11
1157.8037391724
 21
380.287274594
 31
0.0
  0
LINE
  5
5BF
330
5B8
100
AcDbEntity
  8
SLD-0_0
100
AcDbLine
 10
1077.776899168
 20
381.287274594
 30
0.0
 11
1157.8037391724
 21
381.287274594
 31
0.0
  0
MTEXT
  5
5C0
330
5B8
100
AcDbEntity
  8
SLD-0_0
100
AcDbMText
 10
1114.5623698328
 20
385.7990116832
 30
0.0
 40
3.5
 41
0.0
 71
     1
 72
     1
  1
80
  7
SLDTEXTSTYLE0
 73
     1
 44
1.0
  0
ENDBLK
  5
5BA
330
5B8
100
AcDbEntity
  8
0
100
AcDbBlockEnd
  0
BLOCK
  5
5C2
330
5C1
100
AcDbEntity
  8
0
100
AcDbBlockBegin
  2
SW_ANGULAR_DIMENSION_8
 70
     0
 10
0.0
 20
0.0
 30
0.0
  3
SW_ANGULAR_DIMENSION_8
  1

  0
ARC
  5
5C4
330
5C1
100
AcDbEntity
  8
SLD-0_0
 62
     0
100
AcDbCircle
 10
3.9044624299
 20
-29.1599556348
 30
0.0
 40
28.87426805619897
100
AcDbArc
 50
85.5
 51
90.0
  0
ARC
  5
5C5
330
5C1
100
AcDbEntity
  8
SLD-0_0
 62
     0
100
AcDbCircle
 10
3.9044624299
 20
-29.1599556348
 30
0.0
 40
28.87426805619897
100
AcDbArc
 50
72.9644876704
 51
85.5
  0
ARC
  5
5C6
330
5C1
100
AcDbEntity
  8
SLD-0_0
 62
     0
100
AcDbCircle
 10
3.9044624299
 20
-29.1599556348
 30
0.0
 40
28.87426805619901
100
AcDbArc
 50
90.0
 51
102.5355123296
  0
SOLID
  5
5C7
330
5C1
100
AcDbEntity
  8
SLD-0_0
 62
     0
100
AcDbTrace
 10
6.1699113914
 20
-0.3746973107
 30
0.0
 11
9.3730485284
 21
-1.3240025731
 31
0.0
 12
9.51026689
 22
-0.3173113984
 32
0.0
 13
9.51026689
 23
-0.3173113984
 33
0.0
  0
SOLID
  5
5C8
330
5C1
100
AcDbEntity
  8
SLD-0_0
 62
     0
100
AcDbTrace
 10
3.9044624299
 20
-0.2856875786
 30
0.0
 11
0.5789065793
 21
0.0336027039
 31
0.0
 12
0.6367178632
 22
-0.9807512064
 32
0.0
 13
0.6367178632
 23
-0.9807512064
 33
0.0
  0
LINE
  5
5C9
330
5C1
100
AcDbEntity
  8
SLD-0_0
 62
     0
100
AcDbLine
 10
5.163447128
 20
-13.1630383011
 30
0.0
 11
6.2483704871
 21
0.622220023
 31
0.0
  0
LINE
  5
5CA
330
5C1
100
AcDbEntity
  8
SLD-0_0
 62
     0
100
AcDbLine
 10
3.9044624299
 20
-28.1599556348
 30
0.0
 11
3.9044624299
 21
0.7143124214
 31
0.0
  0
MTEXT
  5
5CB
330
5C1
100
AcDbEntity
  8
SLD-0_0
 62
     0
100
AcDbMText
 10
0.2698142087
 20
4.5036620494
 30
0.0
 40
3.5
 41
0.0
 71
     1
 72
     1
  1
4.50°
  7
SLDTEXTSTYLE0
 11
0.9982102148954157
 21
-0.05980273303493717
 31
0.0
 73
     1
 44
1.0
  0
ENDBLK
  5
5C3
330
5C1
100
AcDbEntity
  8
0
100
AcDbBlockEnd
  0
BLOCK
  5
5CF
330
5CE
100
AcDbEntity
  8
0
100
AcDbBlockBegin
  2
_D_43
 70
     0
 10
0.0
 20
0.0
 30
0.0
  3
_D_43
  1

  0
SOLID
  5
5D1
330
5CE
100
AcDbEntity
  8
SLD-0_0
100
AcDbTrace
 10
1172.6702370003
 20
416.2685998008
 30
0.0
 11
1173.1782370003
 21
419.5705998008
 31
0.0
 12
1172.1622370003
 22
419.5705998008
 32
0.0
 13
1172.1622370003
 23
419.5705998008
 33
0.0
  0
SOLID
  5
5D2
330
5CE
100
AcDbEntity
  8
SLD-0_0
100
AcDbTrace
 10
1172.6702370003
 20
401.2685998008
 30
0.0
 11
1172.1622370003
 21
397.9665998008
 31
0.0
 12
1173.1782370003
 22
397.9665998008
 32
0.0
 13
1173.1782370003
 23
397.9665998008
 33
0.0
  0
LINE
  5
5D3
330
5CE
100
AcDbEntity
  8
SLD-0_0
100
AcDbLine
 10
1158.8037391724
 20
416.2685998008
 30
0.0
 11
1173.6702370003
 21
416.2685998008
 31
0.0
  0
LINE
  5
5D4
330
5CE
100
AcDbEntity
  8
SLD-0_0
100
AcDbLine
 10
1158.8037391724
 20
401.2685998008
 30
0.0
 11
1173.6702370003
 21
401.2685998008
 31
0.0
  0
LINE
  5
5D5
330
5CE
100
AcDbEntity
  8
SLD-0_0
100
AcDbLine
 10
1172.6702370003
 20
416.2685998008
 30
0.0
 11
1172.6702370003
 21
422.6185998008
 31
0.0
  0
LINE
  5
5D6
330
5CE
100
AcDbEntity
  8
SLD-0_0
100
AcDbLine
 10
1172.6702370003
 20
416.2685998008
 30
0.0
 11
1172.6702370003
 21
401.2685998008
 31
0.0
  0
LINE
  5
5D7
330
5CE
100
AcDbEntity
  8
SLD-0_0
100
AcDbLine
 10
1172.6702370003
 20
401.2685998008
 30
0.0
 11
1172.6702370003
 21
394.9185998008
 31
0.0
  0
MTEXT
  5
5D8
330
5CE
100
AcDbEntity
  8
SLD-0_0
100
AcDbMText
 10
1168.1584999111
 20
405.4814755784
 30
0.0
 40
3.5
 41
0.0
 71
     1
 72
     1
  1
15
  7
SLDTEXTSTYLE0
 11
-3.491481338843133E-15
 21
1.0
 31
0.0
 73
     1
 44
1.0
  0
ENDBLK
  5
5D0
330
5CE
100
AcDbEntity
  8
0
100
AcDbBlockEnd
  0
BLOCK
  5
5E2
330
5E1
100
AcDbEntity
  8
0
100
AcDbBlockBegin
  2
_D_44
 70
     0
 10
0.0
 20
0.0
 30
0.0
  3
_D_44
  1

  0
SOLID
  5
5E4
330
5E1
100
AcDbEntity
  8
SLD-0_0
100
AcDbTrace
 10
1169.4580638273
 20
166.4033677891
 30
0.0
 11
1169.9660638273
 21
169.7053677891
 31
0.0
 12
1168.9500638273
 22
169.7053677891
 32
0.0
 13
1168.9500638273
 23
169.7053677891
 33
0.0
  0
SOLID
  5
5E5
330
5E1
100
AcDbEntity
  8
SLD-0_0
100
AcDbTrace
 10
1169.4580638273
 20
368.4033677891
 30
0.0
 11
1168.9500638273
 21
365.1013677891
 31
0.0
 12
1169.9660638273
 22
365.1013677891
 32
0.0
 13
1169.9660638273
 23
365.1013677891
 33
0.0
  0
LINE
  5
5E6
330
5E1
100
AcDbEntity
  8
SLD-0_0
100
AcDbLine
 10
1158.8037391724
 20
166.4033677891
 30
0.0
 11
1170.4580638273
 21
166.4033677891
 31
0.0
  0
LINE
  5
5E7
330
5E1
100
AcDbEntity
  8
SLD-0_0
100
AcDbLine
 10
1158.8037391724
 20
368.4033677891
 30
0.0
 11
1170.4580638273
 21
368.4033677891
 31
0.0
  0
LINE
  5
5E8
330
5E1
100
AcDbEntity
  8
SLD-0_0
100
AcDbLine
 10
1169.4580638273
 20
166.4033677891
 30
0.0
 11
1169.4580638273
 21
368.4033677891
 31
0.0
  0
MTEXT
  5
5E9
330
5E1
100
AcDbEntity
  8
SLD-0_0
100
AcDbMText
 10
1164.9463267381
 20
268.7869567375
 30
0.0
 40
3.5
 41
0.0
 71
     1
 72
     1
  1
202
  7
SLDTEXTSTYLE0
 11
6.123233995736766E-17
 21
1.0
 31
0.0
 73
     1
 44
1.0
  0
ENDBLK
  5
5E3
330
5E1
100
AcDbEntity
  8
0
100
AcDbBlockEnd
  0
BLOCK
  5
5F3
330
5F2
100
AcDbEntity
  8
0
100
AcDbBlockBegin
  2
_D_45
 70
     0
 10
0.0
 20
0.0
 30
0.0
  3
_D_45
  1

  0
SOLID
  5
5F5
330
5F2
100
AcDbEntity
  8
SLD-0_0
100
AcDbTrace
 10
865.5680277152
 20
299.4408048636
 30
0.0
 11
868.8700277152
 21
298.9328048636
 31
0.0
 12
868.8700277152
 22
299.9488048636
 32
0.0
 13
868.8700277152
 23
299.9488048636
 33
0.0
  0
SOLID
  5
5F6
330
5F2
100
AcDbEntity
  8
SLD-0_0
100
AcDbTrace
 10
910.5680277152
 20
299.4408048636
 30
0.0
 11
907.2660277152
 21
299.9488048636
 31
0.0
 12
907.2660277152
 22
298.9328048636
 32
0.0
 13
907.2660277152
 23
298.9328048636
 33
0.0
  0
LINE
  5
5F7
330
5F2
100
AcDbEntity
  8
SLD-0_0
100
AcDbLine
 10
865.5680277152
 20
308.4296373404
 30
0.0
 11
865.5680277152
 21
298.4408048636
 31
0.0
  0
LINE
  5
5F8
330
5F2
100
AcDbEntity
  8
SLD-0_0
100
AcDbLine
 10
910.5680277152
 20
308.4296373404
 30
0.0
 11
910.5680277152
 21
298.4408048636
 31
0.0
  0
LINE
  5
5F9
330
5F2
100
AcDbEntity
  8
SLD-0_0
100
AcDbLine
 10
865.5680277152
 20
299.4408048636
 30
0.0
 11
910.5680277152
 21
299.4408048636
 31
0.0
  0
MTEXT
  5
5FA
330
5F2
100
AcDbEntity
  8
SLD-0_0
100
AcDbMText
 10
886.6195713484
 20
303.9525419528
 30
0.0
 40
3.5
 41
0.0
 71
     1
 72
     1
  1
45
  7
SLDTEXTSTYLE0
 73
     1
 44
1.0
  0
ENDBLK
  5
5F4
330
5F2
100
AcDbEntity
  8
0
100
AcDbBlockEnd
  0
BLOCK
  5
5FD
330
5FC
100
AcDbEntity
  8
0
100
AcDbBlockBegin
  2
_D_46
 70
     0
 10
0.0
 20
0.0
 30
0.0
  3
_D_46
  1

  0
SOLID
  5
5FF
330
5FC
100
AcDbEntity
  8
SLD-0_0
100
AcDbTrace
 10
910.5680277152
 20
292.4296373404
 30
0.0
 11
907.2660277152
 21
292.9376373404
 31
0.0
 12
907.2660277152
 22
291.9216373404
 32
0.0
 13
907.2660277152
 23
291.9216373404
 33
0.0
  0
SOLID
  5
600
330
5FC
100
AcDbEntity
  8
SLD-0_0
100
AcDbTrace
 10
853.2337467013
 20
292.4296373404
 30
0.0
 11
856.5357467013
 21
291.9216373404
 31
0.0
 12
856.5357467013
 22
292.9376373404
 32
0.0
 13
856.5357467013
 23
292.9376373404
 33
0.0
  0
LINE
  5
601
330
5FC
100
AcDbEntity
  8
SLD-0_0
100
AcDbLine
 10
910.5680277152
 20
308.4296373404
 30
0.0
 11
910.5680277152
 21
291.4296373404
 31
0.0
  0
LINE
  5
602
330
5FC
100
AcDbEntity
  8
SLD-0_0
100
AcDbLine
 10
853.2337467013
 20
424.0831203648
 30
0.0
 11
853.2337467013
 21
291.4296373404
 31
0.0
  0
LINE
  5
603
330
5FC
100
AcDbEntity
  8
SLD-0_0
100
AcDbLine
 10
910.5680277152
 20
292.4296373404
 30
0.0
 11
853.2337467013
 21
292.4296373404
 31
0.0
  0
MTEXT
  5
604
330
5FC
100
AcDbEntity
  8
SLD-0_0
100
AcDbMText
 10
876.1598930645
 20
296.9413744296
 30
0.0
 40
3.5
 41
0.0
 71
     1
 72
     1
  1
57.33
  7
SLDTEXTSTYLE0
 73
     1
 44
1.0
  0
ENDBLK
  5
5FE
330
5FC
100
AcDbEntity
  8
0
100
AcDbBlockEnd
  0
BLOCK
  5
607
330
606
100
AcDbEntity
  8
0
100
AcDbBlockBegin
  2
_D_47
 70
     0
 10
0.0
 20
0.0
 30
0.0
  3
_D_47
  1

  0
ARC
  5
609
330
606
100
AcDbEntity
  8
SLD-0_0
100
AcDbCircle
 10
910.5680277152
 20
350.749111738
 30
0.0
 40
60.9957674742653
100
AcDbArc
 50
90.0
 51
99.0
  0
ARC
  5
60A
330
606
100
AcDbEntity
  8
SLD-0_0
100
AcDbCircle
 10
910.5680277152
 20
350.749111738
 30
0.0
 40
60.99576747426528
100
AcDbArc
 50
84.0421064118
 51
90.0
  0
ARC
  5
60B
330
606
100
AcDbEntity
  8
SLD-0_0
100
AcDbCircle
 10
910.5680277152
 20
350.749111738
 30
0.0
 40
60.99576747426531
100
AcDbArc
 50
99.0
 51
104.9578935882
  0
SOLID
  5
60C
330
606
100
AcDbEntity
  8
SLD-0_0
100
AcDbTrace
 10
910.5680277152
 20
411.7448792123
 30
0.0
 11
913.8550853636
 21
411.1477862414
 31
0.0
 12
913.8825557295
 22
412.1634148049
 32
0.0
 13
913.8825557295
 23
412.1634148049
 33
0.0
  0
SOLID
  5
60D
330
606
100
AcDbEntity
  8
SLD-0_0
100
AcDbTrace
 10
901.0261874606
 20
410.993920098
 30
0.0
 11
897.6869933948
 21
410.8887964062
 31
0.0
 12
897.8730048659
 22
409.8899692276
 32
0.0
 13
897.8730048659
 23
409.8899692276
 33
0.0
  0
LINE
  5
60E
330
606
100
AcDbEntity
  8
SLD-0_0
100
AcDbLine
 10
910.5680277152
 20
351.749111738
 30
0.0
 11
910.5680277152
 21
412.7448792123
 31
0.0
  0
MTEXT
  5
60F
330
606
100
AcDbEntity
  8
SLD-0_0
100
AcDbMText
 10
904.0504410644
 20
415.9721216674
 30
0.0
 40
3.5
 41
0.0
 71
     1
 72
     1
  1
9°
  7
SLDTEXTSTYLE0
 11
0.9979198475644263
 21
0.06446687395082944
 31
0.0
 73
     1
 44
1.0
  0
ENDBLK
  5
608
330
606
100
AcDbEntity
  8
0
100
AcDbBlockEnd
  0
BLOCK
  5
612
330
611
100
AcDbEntity
  8
0
100
AcDbBlockBegin
  2
_D_48
 70
     0
 10
0.0
 20
0.0
 30
0.0
  3
_D_48
  1

  0
ARC
  5
614
330
611
100
AcDbEntity
  8
SLD-0_0
100
AcDbCircle
 10
868.0490718102
 20
427.4296373404
 30
0.0
 40
19.54042464598331
100
AcDbArc
 50
180.0
 51
189.0
  0
ARC
  5
615
330
611
100
AcDbEntity
  8
SLD-0_0
100
AcDbCircle
 10
868.0490718102
 20
427.4296373404
 30
0.0
 40
19.54042464598337
100
AcDbArc
 50
161.5887779333
 51
180.0
  0
ARC
  5
616
330
611
100
AcDbEntity
  8
SLD-0_0
100
AcDbCircle
 10
868.0490718102
 20
427.4296373404
 30
0.0
 40
19.54042464598336
100
AcDbArc
 50
189.0
 51
207.4112220667
  0
SOLID
  5
617
330
611
100
AcDbEntity
  8
SLD-0_0
100
AcDbTrace
 10
848.5086471642
 20
427.4296373404
 30
0.0
 11
849.290926131
 21
430.6776071091
 31
0.0
 12
848.2784830113
 22
430.7625478497
 32
0.0
 13
848.2784830113
 23
430.7625478497
 33
0.0
  0
SOLID
  5
618
330
611
100
AcDbEntity
  8
SLD-0_0
100
AcDbTrace
 10
848.7492222171
 20
424.3728414643
 30
0.0
 11
849.0432738394
 21
421.0449590079
 31
0.0
 12
850.0299644449
 22
421.2872349848
 32
0.0
 13
850.0299644449
 23
421.2872349848
 33
0.0
  0
LINE
  5
619
330
611
100
AcDbEntity
  8
SLD-0_0
100
AcDbLine
 10
867.0490718102
 20
427.4296373404
 30
0.0
 11
847.5086471642
 21
427.4296373404
 31
0.0
  0
LINE
  5
61A
330
611
100
AcDbEntity
  8
SLD-0_0
100
AcDbLine
 10
852.2460583607
 20
424.9266858998
 30
0.0
 11
847.7615338765
 21
424.2164069992
 31
0.0
  0
MTEXT
  5
61B
330
611
100
AcDbEntity
  8
SLD-0_0
100
AcDbMText
 10
844.0447966613
 20
424.6749931582
 30
0.0
 40
3.5
 41
0.0
 71
     1
 72
     1
  1
9°
  7
SLDTEXTSTYLE0
 11
-0.0189484622301351
 21
0.999820461772569
 31
0.0
 73
     1
 44
1.0
  0
ENDBLK
  5
613
330
611
100
AcDbEntity
  8
0
100
AcDbBlockEnd
  0
BLOCK
  5
61E
330
61D
100
AcDbEntity
  8
0
100
AcDbBlockBegin
  2
_D_49
 70
     0
 10
0.0
 20
0.0
 30
0.0
  3
_D_49
  1

  0
SOLID
  5
620
330
61D
100
AcDbEntity
  8
SLD-0_0
100
AcDbTrace
 10
898.4230255839
 20
437.4296373404
 30
0.0
 11
895.1210255839
 21
437.9376373404
 31
0.0
 12
895.1210255839
 22
436.9216373404
 32
0.0
 13
895.1210255839
 23
436.9216373404
 33
0.0
  0
SOLID
  5
621
330
61D
100
AcDbEntity
  8
SLD-0_0
100
AcDbTrace
 10
910.5680277152
 20
437.4296373404
 30
0.0
 11
913.8700277152
 21
436.9216373404
 31
0.0
 12
913.8700277152
 22
437.9376373404
 32
0.0
 13
913.8700277152
 23
437.9376373404
 33
0.0
  0
LINE
  5
622
330
61D
100
AcDbEntity
  8
SLD-0_0
100
AcDbLine
 10
898.4230255839
 20
428.4296373404
 30
0.0
 11
898.4230255839
 21
438.4296373404
 31
0.0
  0
LINE
  5
623
330
61D
100
AcDbEntity
  8
SLD-0_0
100
AcDbLine
 10
910.5680277152
 20
351.749111738
 30
0.0
 11
910.5680277152
 21
438.4296373404
 31
0.0
  0
LINE
  5
624
330
61D
100
AcDbEntity
  8
SLD-0_0
100
AcDbLine
 10
898.4230255839
 20
437.4296373404
 30
0.0
 11
892.0730255839
 21
437.4296373404
 31
0.0
  0
LINE
  5
625
330
61D
100
AcDbEntity
  8
SLD-0_0
100
AcDbLine
 10
898.4230255839
 20
437.4296373404
 30
0.0
 11
910.5680277152
 21
437.4296373404
 31
0.0
  0
LINE
  5
626
330
61D
100
AcDbEntity
  8
SLD-0_0
100
AcDbLine
 10
910.5680277152
 20
437.4296373404
 30
0.0
 11
916.9180277152
 21
437.4296373404
 31
0.0
  0
MTEXT
  5
627
330
61D
100
AcDbEntity
  8
SLD-0_0
100
AcDbMText
 10
902.9097391557
 20
441.9413744296
 30
0.0
 40
3.5
 41
0.0
 71
     1
 72
     1
  1
12.15
  7
SLDTEXTSTYLE0
 73
     1
 44
1.0
  0
ENDBLK
  5
61F
330
61D
100
AcDbEntity
  8
0
100
AcDbBlockEnd
  0
BLOCK
  5
62A
330
629
100
AcDbEntity
  8
0
100
AcDbBlockBegin
  2
_D_50
 70
     0
 10
0.0
 20
0.0
 30
0.0
  3
_D_50
  1

  0
SOLID
  5
62C
330
629
100
AcDbEntity
  8
SLD-0_0
100
AcDbTrace
 10
868.0490718102
 20
437.4296373404
 30
0.0
 11
871.3510718102
 21
436.9216373404
 31
0.0
 12
871.3510718102
 22
437.9376373404
 32
0.0
 13
871.3510718102
 23
437.9376373404
 33
0.0
  0
SOLID
  5
62D
330
629
100
AcDbEntity
  8
SLD-0_0
100
AcDbTrace
 10
898.4230255839
 20
437.4296373404
 30
0.0
 11
895.1210255839
 21
437.9376373404
 31
0.0
 12
895.1210255839
 22
436.9216373404
 32
0.0
 13
895.1210255839
 23
436.9216373404
 33
0.0
  0
LINE
  5
62E
330
629
100
AcDbEntity
  8
SLD-0_0
100
AcDbLine
 10
868.0490718102
 20
428.4296373404
 30
0.0
 11
868.0490718102
 21
438.4296373404
 31
0.0
  0
LINE
  5
62F
330
629
100
AcDbEntity
  8
SLD-0_0
100
AcDbLine
 10
898.4230255839
 20
428.4296373404
 30
0.0
 11
898.4230255839
 21
438.4296373404
 31
0.0
  0
LINE
  5
630
330
629
100
AcDbEntity
  8
SLD-0_0
100
AcDbLine
 10
868.0490718102
 20
437.4296373404
 30
0.0
 11
898.4230255839
 21
437.4296373404
 31
0.0
  0
MTEXT
  5
631
330
629
100
AcDbEntity
  8
SLD-0_0
100
AcDbMText
 10
876.6285660029
 20
441.9413744296
 30
0.0
 40
3.5
 41
0.0
 71
     1
 72
     1
  1
30.37
  7
SLDTEXTSTYLE0
 73
     1
 44
1.0
  0
ENDBLK
  5
62B
330
629
100
AcDbEntity
  8
0
100
AcDbBlockEnd
  0
BLOCK
  5
634
330
633
100
AcDbEntity
  8
0
100
AcDbBlockBegin
  2
_D_51
 70
     0
 10
0.0
 20
0.0
 30
0.0
  3
_D_51
  1

  0
SOLID
  5
636
330
633
100
AcDbEntity
  8
SLD-0_0
100
AcDbTrace
 10
919.173547353
 20
309.4296373404
 30
0.0
 11
919.681547353
 21
312.7316373404
 31
0.0
 12
918.665547353
 22
312.7316373404
 32
0.0
 13
918.665547353
 23
312.7316373404
 33
0.0
  0
SOLID
  5
637
330
633
100
AcDbEntity
  8
SLD-0_0
100
AcDbTrace
 10
919.173547353
 20
350.749111738
 30
0.0
 11
918.665547353
 21
347.447111738
 31
0.0
 12
919.681547353
 22
347.447111738
 32
0.0
 13
919.681547353
 23
347.447111738
 33
0.0
  0
LINE
  5
638
330
633
100
AcDbEntity
  8
SLD-0_0
100
AcDbLine
 10
911.5680277152
 20
309.4296373404
 30
0.0
 11
920.173547353
 21
309.4296373404
 31
0.0
  0
LINE
  5
639
330
633
100
AcDbEntity
  8
SLD-0_0
100
AcDbLine
 10
911.5680277152
 20
350.749111738
 30
0.0
 11
920.173547353
 21
350.749111738
 31
0.0
  0
LINE
  5
63A
330
633
100
AcDbEntity
  8
SLD-0_0
100
AcDbLine
 10
919.173547353
 20
309.4296373404
 30
0.0
 11
919.173547353
 21
350.749111738
 31
0.0
  0
MTEXT
  5
63B
330
633
100
AcDbEntity
  8
SLD-0_0
100
AcDbMText
 10
914.6618102638
 20
325.8481454235
 30
0.0
 40
3.5
 41
0.0
 71
     1
 72
     1
  1
41.32
  7
SLDTEXTSTYLE0
 11
6.123233995736766E-17
 21
1.0
 31
0.0
 73
     1
 44
1.0
  0
ENDBLK
  5
635
330
633
100
AcDbEntity
  8
0
100
AcDbBlockEnd
  0
BLOCK
  5
63E
330
63D
100
AcDbEntity
  8
0
100
AcDbBlockBegin
  2
_D_52
 70
     0
 10
0.0
 20
0.0
 30
0.0
  3
_D_52
  1

  0
SOLID
  5
640
330
63D
100
AcDbEntity
  8
SLD-0_0
100
AcDbTrace
 10
925.8299234756
 20
309.4296373404
 30
0.0
 11
926.3379234756
 21
312.7316373404
 31
0.0
 12
925.3219234756
 22
312.7316373404
 32
0.0
 13
925.3219234756
 23
312.7316373404
 33
0.0
  0
SOLID
  5
641
330
63D
100
AcDbEntity
  8
SLD-0_0
100
AcDbTrace
 10
925.8299234756
 20
427.4296373404
 30
0.0
 11
925.3219234756
 21
424.1276373404
 31
0.0
 12
926.3379234756
 22
424.1276373404
 32
0.0
 13
926.3379234756
 23
424.1276373404
 33
0.0
  0
LINE
  5
642
330
63D
100
AcDbEntity
  8
SLD-0_0
100
AcDbLine
 10
911.5680277152
 20
309.4296373404
 30
0.0
 11
926.8299234756
 21
309.4296373404
 31
0.0
  0
LINE
  5
643
330
63D
100
AcDbEntity
  8
SLD-0_0
100
AcDbLine
 10
899.4230255839
 20
427.4296373404
 30
0.0
 11
926.8299234756
 21
427.4296373404
 31
0.0
  0
LINE
  5
644
330
63D
100
AcDbEntity
  8
SLD-0_0
100
AcDbLine
 10
925.8299234756
 20
309.4296373404
 30
0.0
 11
925.8299234756
 21
427.4296373404
 31
0.0
  0
MTEXT
  5
645
330
63D
100
AcDbEntity
  8
SLD-0_0
100
AcDbMText
 10
921.3181863864
 20
366.6822144221
 30
0.0
 40
3.5
 41
0.0
 71
     1
 72
     1
  1
118
  7
SLDTEXTSTYLE0
 11
6.123233995736766E-17
 21
1.0
 31
0.0
 73
     1
 44
1.0
  0
ENDBLK
  5
63F
330
63D
100
AcDbEntity
  8
0
100
AcDbBlockEnd
  0
BLOCK
  5
648
330
647
100
AcDbEntity
  8
0
100
AcDbBlockBegin
  2
_D_53
 70
     0
 10
0.0
 20
0.0
 30
0.0
  3
_D_53
  1

  0
SOLID
  5
64A
330
647
100
AcDbEntity
  8
SLD-0_0
100
AcDbTrace
 10
844.0376213168
 20
309.4296373404
 30
0.0
 11
844.5456213168
 21
312.7316373404
 31
0.0
 12
843.5296213168
 22
312.7316373404
 32
0.0
 13
843.5296213168
 23
312.7316373404
 33
0.0
  0
SOLID
  5
64B
330
647
100
AcDbEntity
  8
SLD-0_0
100
AcDbTrace
 10
844.0376213168
 20
347.2075349309
 30
0.0
 11
843.5296213168
 21
343.9055349309
 31
0.0
 12
844.5456213168
 22
343.9055349309
 32
0.0
 13
844.5456213168
 23
343.9055349309
 33
0.0
  0
LINE
  5
64C
330
647
100
AcDbEntity
  8
SLD-0_0
100
AcDbLine
 10
864.5680277152
 20
309.4296373404
 30
0.0
 11
843.0376213168
 21
309.4296373404
 31
0.0
  0
LINE
  5
64D
330
647
100
AcDbEntity
  8
SLD-0_0
100
AcDbLine
 10
864.5680277152
 20
347.2075349309
 30
0.0
 11
843.0376213168
 21
347.2075349309
 31
0.0
  0
LINE
  5
64E
330
647
100
AcDbEntity
  8
SLD-0_0
100
AcDbLine
 10
844.0376213168
 20
309.4296373404
 30
0.0
 11
844.0376213168
 21
347.2075349309
 31
0.0
  0
MTEXT
  5
64F
330
647
100
AcDbEntity
  8
SLD-0_0
100
AcDbMText
 10
839.5258842276
 20
322.2426083571
 30
0.0
 40
3.5
 41
0.0
 71
     1
 72
     1
  1
37.78
  7
SLDTEXTSTYLE0
 11
6.123233995736766E-17
 21
1.0
 31
0.0
 73
     1
 44
1.0
  0
ENDBLK
  5
649
330
647
100
AcDbEntity
  8
0
100
AcDbBlockEnd
  0
BLOCK
  5
658
330
657
100
AcDbEntity
  8
0
100
AcDbBlockBegin
  2
_D_54
 70
     0
 10
0.0
 20
0.0
 30
0.0
  3
_D_54
  1

  0
SOLID
  5
65A
330
657
100
AcDbEntity
  8
SLD-0_0
100
AcDbTrace
 10
865.861221701
 20
124.1386328671
 30
0.0
 11
869.163221701
 21
123.6306328671
 31
0.0
 12
869.163221701
 22
124.6466328671
 32
0.0
 13
869.163221701
 23
124.6466328671
 33
0.0
  0
SOLID
  5
65B
330
657
100
AcDbEntity
  8
SLD-0_0
100
AcDbTrace
 10
895.861221701
 20
124.1386328671
 30
0.0
 11
892.559221701
 21
124.6466328671
 31
0.0
 12
892.559221701
 22
123.6306328671
 32
0.0
 13
892.559221701
 23
123.6306328671
 33
0.0
  0
LINE
  5
65C
330
657
100
AcDbEntity
  8
SLD-0_0
100
AcDbLine
 10
865.861221701
 20
129.9906087446
 30
0.0
 11
865.861221701
 21
123.1386328671
 31
0.0
  0
LINE
  5
65D
330
657
100
AcDbEntity
  8
SLD-0_0
100
AcDbLine
 10
895.861221701
 20
129.9906087446
 30
0.0
 11
895.861221701
 21
123.1386328671
 31
0.0
  0
LINE
  5
65E
330
657
100
AcDbEntity
  8
SLD-0_0
100
AcDbLine
 10
865.861221701
 20
124.1386328671
 30
0.0
 11
895.861221701
 21
124.1386328671
 31
0.0
  0
MTEXT
  5
65F
330
657
100
AcDbEntity
  8
SLD-0_0
100
AcDbMText
 10
879.311982283
 20
128.6503699563
 30
0.0
 40
3.5
 41
0.0
 71
     1
 72
     1
  1
30
  7
SLDTEXTSTYLE0
 73
     1
 44
1.0
  0
ENDBLK
  5
659
330
657
100
AcDbEntity
  8
0
100
AcDbBlockEnd
  0
BLOCK
  5
662
330
661
100
AcDbEntity
  8
0
100
AcDbBlockBegin
  2
_D_55
 70
     0
 10
0.0
 20
0.0
 30
0.0
  3
_D_55
  1

  0
SOLID
  5
664
330
661
100
AcDbEntity
  8
SLD-0_0
100
AcDbTrace
 10
905.861221701
 20
130.9906087446
 30
0.0
 11
906.369221701
 21
134.2926087446
 31
0.0
 12
905.353221701
 22
134.2926087446
 32
0.0
 13
905.353221701
 23
134.2926087446
 33
0.0
  0
SOLID
  5
665
330
661
100
AcDbEntity
  8
SLD-0_0
100
AcDbTrace
 10
905.861221701
 20
187.3100831422
 30
0.0
 11
905.353221701
 21
184.0080831422
 31
0.0
 12
906.369221701
 22
184.0080831422
 32
0.0
 13
906.369221701
 23
184.0080831422
 33
0.0
  0
LINE
  5
666
330
661
100
AcDbEntity
  8
SLD-0_0
100
AcDbLine
 10
896.861221701
 20
130.9906087446
 30
0.0
 11
906.861221701
 21
130.9906087446
 31
0.0
  0
LINE
  5
667
330
661
100
AcDbEntity
  8
SLD-0_0
100
AcDbLine
 10
896.861221701
 20
187.3100831422
 30
0.0
 11
906.861221701
 21
187.3100831422
 31
0.0
  0
LINE
  5
668
330
661
100
AcDbEntity
  8
SLD-0_0
100
AcDbLine
 10
905.861221701
 20
130.9906087446
 30
0.0
 11
905.861221701
 21
187.3100831422
 31
0.0
  0
MTEXT
  5
669
330
661
100
AcDbEntity
  8
SLD-0_0
100
AcDbMText
 10
901.3494846118
 20
155.4049756232
 30
0.0
 40
3.5
 41
0.0
 71
     1
 72
     1
  1
56.3
  7
SLDTEXTSTYLE0
 11
6.123233995736766E-17
 21
1.0
 31
0.0
 73
     1
 44
1.0
  0
ENDBLK
  5
663
330
661
100
AcDbEntity
  8
0
100
AcDbBlockEnd
  0
BLOCK
  5
66C
330
66B
100
AcDbEntity
  8
0
100
AcDbBlockBegin
  2
_D_56
 70
     0
 10
0.0
 20
0.0
 30
0.0
  3
_D_56
  1

  0
ARC
  5
66E
330
66B
100
AcDbEntity
  8
SLD-0_0
100
AcDbCircle
 10
895.861221701
 20
187.3100831422
 30
0.0
 40
46.0426993742976
100
AcDbArc
 50
90.0
 51
99.0
  0
ARC
  5
66F
330
66B
100
AcDbEntity
  8
SLD-0_0
100
AcDbCircle
 10
895.861221701
 20
187.3100831422
 30
0.0
 40
46.04269937429761
100
AcDbArc
 50
82.114092656
 51
90.0
  0
ARC
  5
670
330
66B
100
AcDbEntity
  8
SLD-0_0
100
AcDbCircle
 10
895.861221701
 20
187.3100831422
 30
0.0
 40
46.04269937429761
100
AcDbArc
 50
99.0
 51
106.885907344
  0
SOLID
  5
671
330
66B
100
AcDbEntity
  8
SLD-0_0
100
AcDbTrace
 10
895.861221701
 20
233.3527825165
 30
0.0
 11
899.1429254682
 21
232.7269323876
 31
0.0
 12
899.1792871825
 22
233.7422815028
 32
0.0
 13
899.1792871825
 23
233.7422815028
 33
0.0
  0
SOLID
  5
672
330
66B
100
AcDbEntity
  8
SLD-0_0
100
AcDbTrace
 10
888.6585566553
 20
232.7859204838
 30
0.0
 11
885.3204110003
 21
232.6515642926
 31
0.0
 12
885.5151606372
 22
231.6544040352
 32
0.0
 13
885.5151606372
 23
231.6544040352
 33
0.0
  0
LINE
  5
673
330
66B
100
AcDbEntity
  8
SLD-0_0
100
AcDbLine
 10
895.861221701
 20
188.3100831422
 30
0.0
 11
895.861221701
 21
234.3527825165
 31
0.0
  0
MTEXT
  5
674
330
66B
100
AcDbEntity
  8
SLD-0_0
100
AcDbMText
 10
890.815158922
 20
237.6645775041
 30
0.0
 40
3.5
 41
0.0
 71
     1
 72
     1
  1
9°
  7
SLDTEXTSTYLE0
 11
0.9985192229210976
 21
0.05440001339197839
 31
0.0
 73
     1
 44
1.0
  0
ENDBLK
  5
66D
330
66B
100
AcDbEntity
  8
0
100
AcDbBlockEnd
  0
BLOCK
  5
677
330
676
100
AcDbEntity
  8
0
100
AcDbBlockBegin
  2
_D_57
 70
     0
 10
0.0
 20
0.0
 30
0.0
  3
_D_57
  1

  0
SOLID
  5
679
330
676
100
AcDbEntity
  8
SLD-0_0
100
AcDbTrace
 10
895.861221701
 20
270.4868056484
 30
0.0
 11
899.163221701
 21
269.9788056484
 31
0.0
 12
899.163221701
 22
270.9948056484
 32
0.0
 13
899.163221701
 23
270.9948056484
 33
0.0
  0
SOLID
  5
67A
330
676
100
AcDbEntity
  8
SLD-0_0
100
AcDbTrace
 10
883.7162195696
 20
270.4868056484
 30
0.0
 11
880.4142195696
 21
270.9948056484
 31
0.0
 12
880.4142195696
 22
269.9788056484
 32
0.0
 13
880.4142195696
 23
269.9788056484
 33
0.0
  0
LINE
  5
67B
330
676
100
AcDbEntity
  8
SLD-0_0
100
AcDbLine
 10
895.861221701
 20
188.3100831422
 30
0.0
 11
895.861221701
 21
271.4868056484
 31
0.0
  0
LINE
  5
67C
330
676
100
AcDbEntity
  8
SLD-0_0
100
AcDbLine
 10
883.7162195696
 20
264.9906087446
 30
0.0
 11
883.7162195696
 21
271.4868056484
 31
0.0
  0
LINE
  5
67D
330
676
100
AcDbEntity
  8
SLD-0_0
100
AcDbLine
 10
895.861221701
 20
270.4868056484
 30
0.0
 11
902.211221701
 21
270.4868056484
 31
0.0
  0
LINE
  5
67E
330
676
100
AcDbEntity
  8
SLD-0_0
100
AcDbLine
 10
895.861221701
 20
270.4868056484
 30
0.0
 11
883.7162195696
 21
270.4868056484
 31
0.0
  0
LINE
  5
67F
330
676
100
AcDbEntity
  8
SLD-0_0
100
AcDbLine
 10
883.7162195696
 20
270.4868056484
 30
0.0
 11
877.3662195696
 21
270.4868056484
 31
0.0
  0
MTEXT
  5
680
330
676
100
AcDbEntity
  8
SLD-0_0
100
AcDbMText
 10
885.3201958383
 20
274.9985427376
 30
0.0
 40
3.5
 41
0.0
 71
     1
 72
     1
  1
12.15
  7
SLDTEXTSTYLE0
 73
     1
 44
1.0
  0
ENDBLK
  5
678
330
676
100
AcDbEntity
  8
0
100
AcDbBlockEnd
  0
BLOCK
  5
683
330
682
100
AcDbEntity
  8
0
100
AcDbBlockBegin
  2
_D_58
 70
     0
 10
0.0
 20
0.0
 30
0.0
  3
_D_58
  1

  0
SOLID
  5
685
330
682
100
AcDbEntity
  8
SLD-0_0
100
AcDbTrace
 10
895.861221701
 20
113.9906087446
 30
0.0
 11
892.559221701
 21
114.4986087446
 31
0.0
 12
892.559221701
 22
113.4826087446
 32
0.0
 13
892.559221701
 23
113.4826087446
 33
0.0
  0
SOLID
  5
686
330
682
100
AcDbEntity
  8
SLD-0_0
100
AcDbTrace
 10
853.342265796
 20
113.9906087446
 30
0.0
 11
856.644265796
 21
113.4826087446
 31
0.0
 12
856.644265796
 22
114.4986087446
 32
0.0
 13
856.644265796
 23
114.4986087446
 33
0.0
  0
LINE
  5
687
330
682
100
AcDbEntity
  8
SLD-0_0
100
AcDbLine
 10
895.861221701
 20
129.9906087446
 30
0.0
 11
895.861221701
 21
112.9906087446
 31
0.0
  0
LINE
  5
688
330
682
100
AcDbEntity
  8
SLD-0_0
100
AcDbLine
 10
853.342265796
 20
262.9906087446
 30
0.0
 11
853.342265796
 21
112.9906087446
 31
0.0
  0
LINE
  5
689
330
682
100
AcDbEntity
  8
SLD-0_0
100
AcDbLine
 10
895.861221701
 20
113.9906087446
 30
0.0
 11
853.342265796
 21
113.9906087446
 31
0.0
  0
MTEXT
  5
68A
330
682
100
AcDbEntity
  8
SLD-0_0
100
AcDbMText
 10
869.9229244199
 20
118.5023458338
 30
0.0
 40
3.5
 41
0.0
 71
     1
 72
     1
  1
42.5
  7
SLDTEXTSTYLE0
 73
     1
 44
1.0
  0
ENDBLK
  5
684
330
682
100
AcDbEntity
  8
0
100
AcDbBlockEnd
  0
BLOCK
  5
68D
330
68C
100
AcDbEntity
  8
0
100
AcDbBlockBegin
  2
_D_59
 70
     0
 10
0.0
 20
0.0
 30
0.0
  3
_D_59
  1

  0
SOLID
  5
68F
330
68C
100
AcDbEntity
  8
SLD-0_0
100
AcDbTrace
 10
848.2339183211
 20
130.9906087446
 30
0.0
 11
848.7419183211
 21
134.2926087446
 31
0.0
 12
847.7259183211
 22
134.2926087446
 32
0.0
 13
847.7259183211
 23
134.2926087446
 33
0.0
  0
SOLID
  5
690
330
68C
100
AcDbEntity
  8
SLD-0_0
100
AcDbTrace
 10
848.2339183211
 20
184.9490319375
 30
0.0
 11
847.7259183211
 21
181.6470319375
 31
0.0
 12
848.7419183211
 22
181.6470319375
 32
0.0
 13
848.7419183211
 23
181.6470319375
 33
0.0
  0
LINE
  5
691
330
68C
100
AcDbEntity
  8
SLD-0_0
100
AcDbLine
 10
864.861221701
 20
130.9906087446
 30
0.0
 11
847.2339183211
 21
130.9906087446
 31
0.0
  0
LINE
  5
692
330
68C
100
AcDbEntity
  8
SLD-0_0
100
AcDbLine
 10
864.861221701
 20
184.9490319375
 30
0.0
 11
847.2339183211
 21
184.9490319375
 31
0.0
  0
LINE
  5
693
330
68C
100
AcDbEntity
  8
SLD-0_0
100
AcDbLine
 10
848.2339183211
 20
130.9906087446
 30
0.0
 11
848.2339183211
 21
184.9490319375
 31
0.0
  0
MTEXT
  5
694
330
68C
100
AcDbEntity
  8
SLD-0_0
100
AcDbMText
 10
843.7221812319
 20
157.4101839068
 30
0.0
 40
3.5
 41
0.0
 71
     1
 72
     1
  1
54
  7
SLDTEXTSTYLE0
 11
6.123233995736766E-17
 21
1.0
 31
0.0
 73
     1
 44
1.0
  0
ENDBLK
  5
68E
330
68C
100
AcDbEntity
  8
0
100
AcDbBlockEnd
  0
BLOCK
  5
697
330
696
100
AcDbEntity
  8
0
100
AcDbBlockBegin
  2
_D_60
 70
     0
 10
0.0
 20
0.0
 30
0.0
  3
_D_60
  1

  0
SOLID
  5
699
330
696
100
AcDbEntity
  8
SLD-0_0
100
AcDbTrace
 10
914.8595678855
 20
263.9906087446
 30
0.0
 11
914.3515678855
 21
260.6886087446
 31
0.0
 12
915.3675678855
 22
260.6886087446
 32
0.0
 13
915.3675678855
 23
260.6886087446
 33
0.0
  0
SOLID
  5
69A
330
696
100
AcDbEntity
  8
SLD-0_0
100
AcDbTrace
 10
914.8595678855
 20
130.9906087446
 30
0.0
 11
915.3675678855
 21
134.2926087446
 31
0.0
 12
914.3515678855
 22
134.2926087446
 32
0.0
 13
914.3515678855
 23
134.2926087446
 33
0.0
  0
LINE
  5
69B
330
696
100
AcDbEntity
  8
SLD-0_0
100
AcDbLine
 10
884.7162195696
 20
263.9906087446
 30
0.0
 11
915.8595678855
 21
263.9906087446
 31
0.0
  0
LINE
  5
69C
330
696
100
AcDbEntity
  8
SLD-0_0
100
AcDbLine
 10
896.861221701
 20
130.9906087446
 30
0.0
 11
915.8595678855
 21
130.9906087446
 31
0.0
  0
LINE
  5
69D
330
696
100
AcDbEntity
  8
SLD-0_0
100
AcDbLine
 10
914.8595678855
 20
263.9906087446
 30
0.0
 11
914.8595678855
 21
130.9906087446
 31
0.0
  0
MTEXT
  5
69E
330
696
100
AcDbEntity
  8
SLD-0_0
100
AcDbMText
 10
910.3478307963
 20
188.9104773734
 30
0.0
 40
3.5
 41
0.0
 71
     1
 72
     1
  1
133
  7
SLDTEXTSTYLE0
 11
-7.044195017643634E-15
 21
1.0
 31
0.0
 73
     1
 44
1.0
  0
ENDBLK
  5
698
330
696
100
AcDbEntity
  8
0
100
AcDbBlockEnd
  0
BLOCK
  5
6A5
330
6A4
100
AcDbEntity
  8
0
100
AcDbBlockBegin
  2
_D_61
 70
     0
 10
0.0
 20
0.0
 30
0.0
  3
_D_61
  1

  0
SOLID
  5
6A7
330
6A4
100
AcDbEntity
  8
SLD-0_0
100
AcDbTrace
 10
1036.2456913454
 20
367.6824736712
 30
0.0
 11
1035.7376913454
 21
364.3804736712
 31
0.0
 12
1036.7536913454
 22
364.3804736712
 32
0.0
 13
1036.7536913454
 23
364.3804736712
 33
0.0
  0
SOLID
  5
6A8
330
6A4
100
AcDbEntity
  8
SLD-0_0
100
AcDbTrace
 10
1036.2456913454
 20
165.6824736712
 30
0.0
 11
1036.7536913454
 21
168.9844736712
 31
0.0
 12
1035.7376913454
 22
168.9844736712
 32
0.0
 13
1035.7376913454
 23
168.9844736712
 33
0.0
  0
LINE
  5
6A9
330
6A4
100
AcDbEntity
  8
SLD-0_0
100
AcDbLine
 10
1027.2456913454
 20
367.6824736712
 30
0.0
 11
1037.2456913454
 21
367.6824736712
 31
0.0
  0
LINE
  5
6AA
330
6A4
100
AcDbEntity
  8
SLD-0_0
100
AcDbLine
 10
1027.2456913454
 20
165.6824736712
 30
0.0
 11
1037.2456913454
 21
165.6824736712
 31
0.0
  0
LINE
  5
6AB
330
6A4
100
AcDbEntity
  8
SLD-0_0
100
AcDbLine
 10
1036.2456913454
 20
367.6824736712
 30
0.0
 11
1036.2456913454
 21
165.6824736712
 31
0.0
  0
MTEXT
  5
6AC
330
6A4
100
AcDbEntity
  8
SLD-0_0
100
AcDbMText
 10
1031.7339542562
 20
271.7499516752
 30
0.0
 40
3.5
 41
0.0
 71
     1
 72
     1
  1
202
  7
SLDTEXTSTYLE0
 11
-7.044195017643634E-15
 21
1.0
 31
0.0
 73
     1
 44
1.0
  0
ENDBLK
  5
6A6
330
6A4
100
AcDbEntity
  8
0
100
AcDbBlockEnd
  0
BLOCK
  5
6B3
330
6B2
100
AcDbEntity
  8
0
100
AcDbBlockBegin
  2
_D_62
 70
     0
 10
0.0
 20
0.0
 30
0.0
  3
_D_62
  1

  0
SOLID
  5
6B5
330
6B2
100
AcDbEntity
  8
SLD-0_0
100
AcDbTrace
 10
987.2872681525
 20
395.0394902552
 30
0.0
 11
990.5892681525
 21
394.5314902552
 31
0.0
 12
990.5892681525
 22
395.5474902552
 32
0.0
 13
990.5892681525
 23
395.5474902552
 33
0.0
  0
SOLID
  5
6B6
330
6B2
100
AcDbEntity
  8
SLD-0_0
100
AcDbTrace
 10
1026.2456913454
 20
395.0394902552
 30
0.0
 11
1022.9436913454
 21
395.5474902552
 31
0.0
 12
1022.9436913454
 22
394.5314902552
 32
0.0
 13
1022.9436913454
 23
394.5314902552
 33
0.0
  0
LINE
  5
6B7
330
6B2
100
AcDbEntity
  8
SLD-0_0
100
AcDbLine
 10
987.2872681525
 20
404.0394902552
 30
0.0
 11
987.2872681525
 21
394.0394902552
 31
0.0
  0
LINE
  5
6B8
330
6B2
100
AcDbEntity
  8
SLD-0_0
100
AcDbLine
 10
1026.2456913454
 20
404.0394902552
 30
0.0
 11
1026.2456913454
 21
394.0394902552
 31
0.0
  0
LINE
  5
6B9
330
6B2
100
AcDbEntity
  8
SLD-0_0
100
AcDbLine
 10
987.2872681525
 20
395.0394902552
 30
0.0
 11
1026.2456913454
 21
395.0394902552
 31
0.0
  0
MTEXT
  5
6BA
330
6B2
100
AcDbEntity
  8
SLD-0_0
100
AcDbMText
 10
1003.9159463981
 20
399.5512273444
 30
0.0
 40
3.5
 41
0.0
 71
     1
 72
     1
  1
39
  7
SLDTEXTSTYLE0
 73
     1
 44
1.0
  0
ENDBLK
  5
6B4
330
6B2
100
AcDbEntity
  8
0
100
AcDbBlockEnd
  0
BLOCK
  5
6BC
330
6BB
100
AcDbEntity
  8
0
100
AcDbBlockBegin
  2
SW_ANGULAR_DIMENSION_9
 70
     0
 10
0.0
 20
0.0
 30
0.0
  3
SW_ANGULAR_DIMENSION_9
  1

  0
ARC
  5
6BE
330
6BB
100
AcDbEntity
  8
SLD-0_0
 62
     0
100
AcDbCircle
 10
7.0732892887
 20
-29.7298197477
 30
0.0
 40
30.03446553357292
100
AcDbArc
 50
90.0
 51
94.5
  0
ARC
  5
6BF
330
6BB
100
AcDbEntity
  8
SLD-0_0
 62
     0
100
AcDbCircle
 10
7.0732892887
 20
-29.7298197477
 30
0.0
 40
30.03446553357292
100
AcDbArc
 50
77.9440168076
 51
90.0
  0
ARC
  5
6C0
330
6BB
100
AcDbEntity
  8
SLD-0_0
 62
     0
100
AcDbCircle
 10
7.0732892887
 20
-29.7298197477
 30
0.0
 40
30.0344655335729
100
AcDbArc
 50
94.5
 51
106.5559831924
  0
SOLID
  5
6C1
330
6BB
100
AcDbEntity
  8
SLD-0_0
 62
     0
100
AcDbTrace
 10
7.0732892887
 20
0.3046457858
 30
0.0
 11
10.3425422355
 21
-0.3832882005
 31
0.0
 12
10.3981407541
 22
0.6311894014
 32
0.0
 13
10.3981407541
 23
0.6311894014
 33
0.0
  0
SOLID
  5
6C2
330
6BB
100
AcDbEntity
  8
SLD-0_0
 62
     0
100
AcDbTrace
 10
4.7168122823
 20
0.2120595521
 30
0.0
 11
1.3765899075
 21
0.2767317032
 31
0.0
 12
1.5116120297
 22
-0.7302563933
 32
0.0
 13
1.5116120297
 23
-0.7302563933
 33
0.0
  0
LINE
  5
6C3
330
6BB
100
AcDbEntity
  8
SLD-0_0
 62
     0
100
AcDbLine
 10
7.0732892887
 20
-28.7298197477
 30
0.0
 11
7.0732892887
 21
1.3046457858
 31
0.0
  0
LINE
  5
6C4
330
6BB
100
AcDbEntity
  8
SLD-0_0
 62
     0
100
AcDbLine
 10
5.8143045906
 20
-13.732902414
 30
0.0
 11
4.6383531865
 21
1.2089768858
 31
0.0
  0
MTEXT
  5
6C5
330
6BB
100
AcDbEntity
  8
SLD-0_0
 62
     0
100
AcDbMText
 10
-0.216081061
 20
4.506559723
 30
0.0
 40
3.5
 41
0.0
 71
     1
 72
     1
  1
4.50°
  7
SLDTEXTSTYLE0
 11
0.99885246722524
 21
0.04789309676822776
 31
0.0
 73
     1
 44
1.0
  0
ENDBLK
  5
6BD
330
6BB
100
AcDbEntity
  8
0
100
AcDbBlockEnd
  0
BLOCK
  5
6C9
330
6C8
100
AcDbEntity
  8
0
100
AcDbBlockBegin
  2
_D_63
 70
     0
 10
0.0
 20
0.0
 30
0.0
  3
_D_63
  1

  0
SOLID
  5
6CB
330
6C8
100
AcDbEntity
  8
SLD-0_0
100
AcDbTrace
 10
1038.0138207212
 20
420.0394902552
 30
0.0
 11
1038.5218207212
 21
423.3414902552
 31
0.0
 12
1037.5058207212
 22
423.3414902552
 32
0.0
 13
1037.5058207212
 23
423.3414902552
 33
0.0
  0
SOLID
  5
6CC
330
6C8
100
AcDbEntity
  8
SLD-0_0
100
AcDbTrace
 10
1038.0138207212
 20
405.0394902552
 30
0.0
 11
1037.5058207212
 21
401.7374902552
 31
0.0
 12
1038.5218207212
 22
401.7374902552
 32
0.0
 13
1038.5218207212
 23
401.7374902552
 33
0.0
  0
LINE
  5
6CD
330
6C8
100
AcDbEntity
  8
SLD-0_0
100
AcDbLine
 10
1026.065165743
 20
420.0394902552
 30
0.0
 11
1039.0138207212
 21
420.0394902552
 31
0.0
  0
LINE
  5
6CE
330
6C8
100
AcDbEntity
  8
SLD-0_0
100
AcDbLine
 10
1027.2456913454
 20
405.0394902552
 30
0.0
 11
1039.0138207212
 21
405.0394902552
 31
0.0
  0
LINE
  5
6CF
330
6C8
100
AcDbEntity
  8
SLD-0_0
100
AcDbLine
 10
1038.0138207212
 20
420.0394902552
 30
0.0
 11
1038.0138207212
 21
426.3894902552
 31
0.0
  0
LINE
  5
6D0
330
6C8
100
AcDbEntity
  8
SLD-0_0
100
AcDbLine
 10
1038.0138207212
 20
420.0394902552
 30
0.0
 11
1038.0138207212
 21
405.0394902552
 31
0.0
  0
LINE
  5
6D1
330
6C8
100
AcDbEntity
  8
SLD-0_0
100
AcDbLine
 10
1038.0138207212
 20
405.0394902552
 30
0.0
 11
1038.0138207212
 21
398.6894902552
 31
0.0
  0
MTEXT
  5
6D2
330
6C8
100
AcDbEntity
  8
SLD-0_0
100
AcDbMText
 10
1033.502083632
 20
409.3907025424
 30
0.0
 40
3.5
 41
0.0
 71
     1
 72
     1
  1
15
  7
SLDTEXTSTYLE0
 11
-7.044195017643634E-15
 21
1.0
 31
0.0
 73
     1
 44
1.0
  0
ENDBLK
  5
6CA
330
6C8
100
AcDbEntity
  8
0
100
AcDbBlockEnd
  0
BLOCK
  5
6DC
330
6DB
100
AcDbEntity
  8
0
100
AcDbBlockBegin
  2
_D_64
 70
     0
 10
0.0
 20
0.0
 30
0.0
  3
_D_64
  1

  0
SOLID
  5
6DE
330
6DB
100
AcDbEntity
  8
SLD-0_0
100
AcDbTrace
 10
922.1741641082
 20
271.5681707226
 30
0.0
 11
918.8721641082
 21
272.0761707226
 31
0.0
 12
918.8721641082
 22
271.0601707226
 32
0.0
 13
918.8721641082
 23
271.0601707226
 33
0.0
  0
SOLID
  5
6DF
330
6DB
100
AcDbEntity
  8
SLD-0_0
100
AcDbTrace
 10
937.1741641082
 20
271.5681707226
 30
0.0
 11
940.4761641082
 21
271.0601707226
 31
0.0
 12
940.4761641082
 22
272.0761707226
 32
0.0
 13
940.4761641082
 23
272.0761707226
 33
0.0
  0
LINE
  5
6E0
330
6DB
100
AcDbEntity
  8
SLD-0_0
100
AcDbLine
 10
922.1741641082
 20
264.9906087446
 30
0.0
 11
922.1741641082
 21
272.5681707226
 31
0.0
  0
LINE
  5
6E1
330
6DB
100
AcDbEntity
  8
SLD-0_0
100
AcDbLine
 10
937.1741641082
 20
264.9906087446
 30
0.0
 11
937.1741641082
 21
272.5681707226
 31
0.0
  0
LINE
  5
6E2
330
6DB
100
AcDbEntity
  8
SLD-0_0
100
AcDbLine
 10
922.1741641082
 20
271.5681707226
 30
0.0
 11
915.8241641082
 21
271.5681707226
 31
0.0
  0
LINE
  5
6E3
330
6DB
100
AcDbEntity
  8
SLD-0_0
100
AcDbLine
 10
922.1741641082
 20
271.5681707226
 30
0.0
 11
937.1741641082
 21
271.5681707226
 31
0.0
  0
LINE
  5
6E4
330
6DB
100
AcDbEntity
  8
SLD-0_0
100
AcDbLine
 10
937.1741641082
 20
271.5681707226
 30
0.0
 11
943.5241641082
 21
271.5681707226
 31
0.0
  0
MTEXT
  5
6E5
330
6DB
100
AcDbEntity
  8
SLD-0_0
100
AcDbMText
 10
925.0067957839
 20
276.0799078118
 30
0.0
 40
3.5
 41
0.0
 71
     1
 72
     1
  1
15
  7
SLDTEXTSTYLE0
 73
     1
 44
1.0
  0
ENDBLK
  5
6DD
330
6DB
100
AcDbEntity
  8
0
100
AcDbBlockEnd
  0
BLOCK
  5
6F2
330
6F1
100
AcDbEntity
  8
0
100
AcDbBlockBegin
  2
_D_65
 70
     0
 10
0.0
 20
0.0
 30
0.0
  3
_D_65
  1

  0
SOLID
  5
6F4
330
6F1
100
AcDbEntity
  8
SLD-0_0
100
AcDbTrace
 10
923.0187571698
 20
437.4938946548
 30
0.0
 11
919.7167571698
 21
438.0018946548
 31
0.0
 12
919.7167571698
 22
436.9858946548
 32
0.0
 13
919.7167571698
 23
436.9858946548
 33
0.0
  0
SOLID
  5
6F5
330
6F1
100
AcDbEntity
  8
SLD-0_0
100
AcDbTrace
 10
938.0187571698
 20
437.4938946548
 30
0.0
 11
941.3207571698
 21
436.9858946548
 31
0.0
 12
941.3207571698
 22
438.0018946548
 32
0.0
 13
941.3207571698
 23
438.0018946548
 33
0.0
  0
LINE
  5
6F6
330
6F1
100
AcDbEntity
  8
SLD-0_0
100
AcDbLine
 10
923.0187571698
 20
426.0831203648
 30
0.0
 11
923.0187571698
 21
438.4938946548
 31
0.0
  0
LINE
  5
6F7
330
6F1
100
AcDbEntity
  8
SLD-0_0
100
AcDbLine
 10
938.0187571698
 20
426.0831203648
 30
0.0
 11
938.0187571698
 21
438.4938946548
 31
0.0
  0
LINE
  5
6F8
330
6F1
100
AcDbEntity
  8
SLD-0_0
100
AcDbLine
 10
923.0187571698
 20
437.4938946548
 30
0.0
 11
916.6687571698
 21
437.4938946548
 31
0.0
  0
LINE
  5
6F9
330
6F1
100
AcDbEntity
  8
SLD-0_0
100
AcDbLine
 10
923.0187571698
 20
437.4938946548
 30
0.0
 11
938.0187571698
 21
437.4938946548
 31
0.0
  0
LINE
  5
6FA
330
6F1
100
AcDbEntity
  8
SLD-0_0
100
AcDbLine
 10
938.0187571698
 20
437.4938946548
 30
0.0
 11
944.3687571698
 21
437.4938946548
 31
0.0
  0
MTEXT
  5
6FB
330
6F1
100
AcDbEntity
  8
SLD-0_0
100
AcDbMText
 10
927.94281707
 20
442.005631744
 30
0.0
 40
3.5
 41
0.0
 71
     1
 72
     1
  1
15
  7
SLDTEXTSTYLE0
 73
     1
 44
1.0
  0
ENDBLK
  5
6F3
330
6F1
100
AcDbEntity
  8
0
100
AcDbBlockEnd
  0
ENDSEC
  0
SECTION
  2
ENTITIES
  0
LINE
  5
7B
330
1F
100
AcDbEntity
  8
PREDETERMINADO
100
AcDbLine
 10
1173.9292449682
 20
17.1119227295
 30
0.0
 11
1171.9811752381
 21
17.1119227295
 31
0.0
  0
LINE
  5
7C
330
1F
100
AcDbEntity
  8
PREDETERMINADO
100
AcDbLine
 10
1170.7106949794
 20
10.8018707777
 30
0.0
 11
1171.8964765542
 21
10.8018707777
 31
0.0
  0
LINE
  5
7D
330
1F
100
AcDbEntity
  8
PREDETERMINADO
100
AcDbLine
 10
1178.5876725836
 20
17.1119227295
 30
0.0
 11
1176.8090002213
 21
17.1119227295
 31
0.0
  0
LINE
  5
7E
330
1F
100
AcDbEntity
  8
PREDETERMINADO
100
AcDbLine
 10
1175.6864886873
 20
11.3524122232
 30
0.0
 11
1177.4490518163
 21
11.3524122232
 31
0.0
  0
LINE
  5
7F
330
1F
100
AcDbEntity
  8
PREDETERMINADO
100
AcDbLine
 10
1118.5811366242
 20
35.1459591004
 30
0.0
 11
1118.5811366242
 21
25.9497274364
 31
0.0
  0
LINE
  5
80
330
1F
100
AcDbEntity
  8
PREDETERMINADO
100
AcDbLine
 10
1118.5811366242
 20
25.9497274364
 30
0.0
 11
1010.3642702672
 21
25.9497274364
 31
0.0
  0
LINE
  5
81
330
1F
100
AcDbEntity
  8
PREDETERMINADO
100
AcDbLine
 10
1010.3642702672
 20
25.9497274364
 30
0.0
 11
1010.3642702672
 21
25.0077274364
 31
0.0
  0
LINE
  5
82
330
1F
100
AcDbEntity
  8
PREDETERMINADO
100
AcDbLine
 10
1010.3642702672
 20
25.0077274364
 30
0.0
 11
1119.5231366242
 21
25.0077274364
 31
0.0
  0
LINE
  5
83
330
1F
100
AcDbEntity
  8
PREDETERMINADO
100
AcDbLine
 10
1119.5231366242
 20
25.0077274364
 30
0.0
 11
1119.5231366242
 21
35.1459591004
 31
0.0
  0
LINE
  5
84
330
1F
100
AcDbEntity
  8
PREDETERMINADO
100
AcDbLine
 10
1119.5231366242
 20
35.1459591004
 30
0.0
 11
1118.5811366242
 21
35.1459591004
 31
0.0
  0
LINE
  5
85
330
1F
100
AcDbEntity
  8
PREDETERMINADO
100
AcDbLine
 10
1175.6864886873
 20
11.3524122232
 30
0.0
 11
1177.4490518163
 21
11.3524122232
 31
0.0
  0
LINE
  5
86
330
1F
100
AcDbEntity
  8
PREDETERMINADO
100
AcDbLine
 10
1178.5876725836
 20
17.1119227295
 30
0.0
 11
1176.8090002213
 21
17.1119227295
 31
0.0
  0
LINE
  5
87
330
1F
100
AcDbEntity
  8
PREDETERMINADO
100
AcDbLine
 10
1173.9292449682
 20
17.1119227295
 30
0.0
 11
1171.9811752381
 21
17.1119227295
 31
0.0
  0
LINE
  5
88
330
1F
100
AcDbEntity
  8
PREDETERMINADO
100
AcDbLine
 10
1170.7106949794
 20
10.8018707777
 30
0.0
 11
1171.8964765542
 21
10.8018707777
 31
0.0
  0
LINE
  5
89
330
1F
100
AcDbEntity
  8
PREDETERMINADO
  6
Continuous
 62
   179
100
AcDbLine
 10
1014.7014399179
 20
4.8481090331
 30
0.0
 11
1014.7014399179
 21
2.0221090331
 31
0.0
  0
LINE
  5
8A
330
1F
100
AcDbEntity
  8
PREDETERMINADO
  6
Continuous
 62
   179
370
    15
100
AcDbLine
 10
1010.3642702672
 20
55.1211592459
 30
0.0
 11
1010.3642702672
 21
36.0879591004
 31
0.0
  0
LINE
  5
8B
330
1F
100
AcDbEntity
  8
SLD-0_0
100
AcDbLine
 10
1052.3079381305
 20
25.0077274364
 30
0.0
 11
1052.3079381305
 21
8.0211592459
 31
0.0
  0
LINE
  5
8C
330
1F
100
AcDbEntity
  8
FORMATO
  6
Continuous
 62
   179
100
AcDbLine
 10
1053.5831366242
 20
36.0879591004
 30
0.0
 11
1053.5831366242
 21
55.1211592459
 31
0.0
  0
LINE
  5
8D
330
1F
100
AcDbEntity
  8
FORMATO
  6
Continuous
 62
   179
100
AcDbLine
 10
1035.6958401464
 20
36.0879591004
 30
0.0
 11
1053.5831366242
 21
36.0879591004
 31
0.0
  0
LINE
  5
8E
330
1F
100
AcDbEntity
  8
FORMATO
  6
Continuous
 62
   179
100
AcDbLine
 10
1035.6958401464
 20
36.0879591004
 30
0.0
 11
1035.6958401464
 21
55.1211592459
 31
0.0
  0
LINE
  5
8F
330
1F
100
AcDbEntity
  8
FORMATO
  6
Continuous
 62
   179
100
AcDbLine
 10
1010.3642702672
 20
40.7979591004
 30
0.0
 11
1072.4231366242
 21
40.7979591004
 31
0.0
  0
LINE
  5
90
330
1F
100
AcDbEntity
  8
FORMATO
  6
Continuous
 62
   179
100
AcDbLine
 10
1010.3642702672
 20
45.5079591004
 30
0.0
 11
1072.4231366242
 21
45.5079591004
 31
0.0
  0
LINE
  5
91
330
1F
100
AcDbEntity
  8
FORMATO
  6
Continuous
 62
   179
100
AcDbLine
 10
1072.4231366242
 20
36.0879591004
 30
0.0
 11
1072.4231366242
 21
55.1211592459
 31
0.0
  0
LINE
  5
92
330
1F
100
AcDbEntity
  8
FORMATO
  6
Continuous
 62
   179
100
AcDbLine
 10
1180.7531366242
 20
50.2179591004
 30
0.0
 11
1010.3642702672
 21
50.2179591004
 31
0.0
  0
LINE
  5
93
330
1F
100
AcDbEntity
  8
FORMATO
  6
Continuous
 62
   179
100
AcDbLine
 10
1140.6318916904
 20
55.1211592459
 30
0.0
 11
1140.6318916904
 21
44.5209646447
 31
0.0
  0
LINE
  5
94
330
1F
100
AcDbEntity
  8
FORMATO
  6
Continuous
 62
   179
100
AcDbLine
 10
1128.9431366242
 20
55.1211592459
 30
0.0
 11
1128.9431366242
 21
44.5209646447
 31
0.0
  0
LINE
  5
95
330
1F
100
AcDbEntity
  8
FORMATO
  6
Continuous
 62
   179
100
AcDbLine
 10
1119.5231366242
 20
44.5209646447
 30
0.0
 11
1180.7531366242
 21
44.5209646447
 31
0.0
  0
LINE
  5
96
330
1F
100
AcDbEntity
  8
FORMATO
  6
Continuous
 62
   179
100
AcDbLine
 10
1156.0467510169
 20
35.1459591004
 30
0.0
 11
1156.0467510169
 21
55.1211592459
 31
0.0
  0
LINE
  5
97
330
1F
100
AcDbEntity
  8
PREDETERMINADO
370
    15
100
AcDbLine
 10
1010.3642702672
 20
25.9497274364
 30
0.0
 11
1010.3642702672
 21
8.0211592459
 31
0.0
  0
LINE
  5
98
330
1F
100
AcDbEntity
  8
FORMATO
  6
Continuous
 62
   179
100
AcDbLine
 10
1147.7831366242
 20
22.8488603764
 30
0.0
 11
1180.7531366242
 21
22.8488603764
 31
0.0
  0
LINE
  5
99
330
1F
100
AcDbEntity
  8
FORMATO
  6
Continuous
 62
   179
100
AcDbLine
 10
1147.7831366242
 20
8.0211592459
 30
0.0
 11
1147.7831366242
 21
35.1459591004
 31
0.0
  0
LINE
  5
9A
330
1F
100
AcDbEntity
  8
FORMATO
  6
Continuous
 62
   179
370
    15
100
AcDbLine
 10
1009.4222702672
 20
36.0879591004
 30
0.0
 11
1118.5811366242
 21
36.0879591004
 31
0.0
  0
LINE
  5
9B
330
1F
100
AcDbEntity
  8
FORMATO
  6
Continuous
 62
   179
370
    15
100
AcDbLine
 10
1119.5231366242
 20
25.0077274364
 30
0.0
 11
1119.5231366242
 21
35.1459591004
 31
0.0
  0
LINE
  5
9C
330
1F
100
AcDbEntity
  8
FORMATO
  6
Continuous
 62
   179
100
AcDbLine
 10
1088.1184189791
 20
25.0077274364
 30
0.0
 11
1088.1184189791
 21
8.0211592459
 31
0.0
  0
LINE
  5
9D
330
1F
100
AcDbEntity
  8
SLD-0
  6
Continuous
 62
   179
100
AcDbLine
 10
1176.8090002213
 20
17.1119227295
 30
0.0
 11
1178.5876725836
 21
17.1119227295
 31
0.0
  0
LINE
  5
9E
330
1F
100
AcDbEntity
  8
SLD-0
  6
Continuous
 62
   179
100
AcDbLine
 10
1175.6232186465
 20
11.3524122232
 30
0.0
 11
1177.4490518163
 21
11.3524122232
 31
0.0
  0
LINE
  5
9F
330
1F
100
AcDbEntity
  8
SLD-0
  6
Continuous
 62
   179
100
AcDbLine
 10
1171.9811752381
 20
17.1119227295
 30
0.0
 11
1173.9292449682
 21
17.1119227295
 31
0.0
  0
LINE
  5
A0
330
1F
100
AcDbEntity
  8
FORMATO
  6
Continuous
 62
   179
100
AcDbLine
 10
1073.2405820456
 20
45.8116808589
 30
0.0
 11
1074.727556189
 21
45.8116808589
 31
0.0
  0
LINE
  5
A1
330
1F
100
AcDbEntity
  8
FORMATO
  6
Continuous
 62
   179
100
AcDbLine
 10
1073.2405820456
 20
42.0436808589
 30
0.0
 11
1074.727556189
 21
42.0436808589
 31
0.0
  0
LINE
  5
A2
330
1F
100
AcDbEntity
  8
FORMATO
  6
Continuous
 62
   179
100
AcDbLine
 10
1073.2405820456
 20
38.2756808589
 30
0.0
 11
1074.727556189
 21
38.2756808589
 31
0.0
  0
LINE
  5
A3
330
1F
100
AcDbEntity
  8
FORMATO
  6
Continuous
 62
   179
100
AcDbLine
 10
1120.1147653913
 20
26.1939863726
 30
0.0
 11
1121.6017395347
 21
26.1939863726
 31
0.0
  0
LINE
  5
A4
330
1F
100
AcDbEntity
  8
FORMATO
  6
Continuous
 62
   179
100
AcDbLine
 10
1120.1147653913
 20
21.3800493934
 30
0.0
 11
1121.6017395347
 21
21.3800493934
 31
0.0
  0
LINE
  5
A5
330
1F
100
AcDbEntity
  8
FORMATO
  6
Continuous
 62
   179
100
AcDbLine
 10
1120.1147653913
 20
16.5661124142
 30
0.0
 11
1121.6017395347
 21
16.5661124142
 31
0.0
  0
LINE
  5
A6
330
1F
100
AcDbEntity
  8
FORMATO
  6
Continuous
 62
   179
100
AcDbLine
 10
1120.1147653913
 20
11.7521754349
 30
0.0
 11
1121.6017395347
 21
11.7521754349
 31
0.0
  0
LINE
  5
A7
330
1F
100
AcDbEntity
  8
PREDETERMINADO
100
AcDbLine
 10
1119.5231366242
 20
35.1459591004
 30
0.0
 11
1180.8318164819
 21
35.1459591004
 31
0.0
  0
LINE
  5
A8
330
1F
100
AcDbEntity
  8
FORMATO
  6
Continuous
 62
   179
370
    15
100
AcDbLine
 10
1010.3642702672
 20
55.1211592459
 30
0.0
 11
1180.7531366242
 21
55.1211592459
 31
0.0
  0
LINE
  5
A9
330
1F
100
AcDbEntity
  8
FORMATO
  6
Continuous
 62
   179
370
    15
100
AcDbLine
 10
1119.5231366242
 20
25.0077274364
 30
0.0
 11
1010.3642702672
 21
25.0077274364
 31
0.0
  0
LINE
  5
AA
330
1F
100
AcDbEntity
  8
PREDETERMINADO
  6
Continuous
 62
   179
100
AcDbLine
 10
1018.3804047692
 20
54.2659456735
 30
0.0
 11
1018.3804047692
 21
50.635732388
 31
0.0
  0
LINE
  5
AB
330
1F
100
AcDbEntity
  8
PREDETERMINADO
  6
Continuous
 62
   179
100
AcDbLine
 10
1014.7368974329
 20
53.4331056343
 30
0.0
 11
1014.7368974329
 21
51.4685724272
 31
0.0
  0
LINE
  5
AC
330
1F
100
AcDbEntity
  8
PREDETERMINADO
  6
CENTER
 62
   179
100
AcDbLine
 10
1022.8466395685
 20
54.4984615122
 30
0.0
 11
1022.8466395685
 21
50.3623359208
 31
0.0
  0
LINE
  5
AD
330
1F
100
AcDbEntity
  8
PREDETERMINADO
  6
Continuous
 62
   179
100
AcDbLine
 10
1018.3804047692
 20
54.2659456735
 30
0.0
 11
1014.7368974329
 21
53.4331056343
 31
0.0
  0
LINE
  5
AE
330
1F
100
AcDbEntity
  8
PREDETERMINADO
  6
Continuous
 62
   179
100
AcDbLine
 10
1014.7368974329
 20
51.4685724272
 30
0.0
 11
1018.3804047692
 21
50.635732388
 31
0.0
  0
LINE
  5
AF
330
1F
100
AcDbEntity
  8
PREDETERMINADO
  6
CENTER
 62
   179
100
AcDbLine
 10
1025.0307594319
 20
52.4508390307
 30
0.0
 11
1014.3611360909
 21
52.4508390307
 31
0.0
  0
LINE
  5
B0
330
1F
100
AcDbEntity
  8
PREDETERMINADO
370
    15
100
AcDbLine
 10
1010.3642702672
 20
8.0211592459
 30
0.0
 11
1180.7531366242
 21
8.0211592459
 31
0.0
  0
LINE
  5
B1
330
1F
100
AcDbEntity
  8
PREDETERMINADO
370
    15
100
AcDbLine
 10
1180.7531366242
 20
8.0211592459
 30
0.0
 11
1180.7531366242
 21
55.1211592459
 31
0.0
  0
LINE
  5
B2
330
1F
100
AcDbEntity
  8
PREDETERMINADO
370
    15
100
AcDbLine
 10
1118.5811366242
 20
35.1459591004
 30
0.0
 11
1119.5231366242
 21
35.1459591004
 31
0.0
  0
LINE
  5
B3
330
1F
100
AcDbEntity
  8
PREDETERMINADO
100
AcDbLine
 10
1119.5231366242
 20
35.1459591004
 30
0.0
 11
1119.5231366242
 21
55.1211592459
 31
0.0
  0
LINE
  5
B4
330
1F
100
AcDbEntity
  8
PREDETERMINADO
100
AcDbLine
 10
1119.5231366242
 20
25.0077274364
 30
0.0
 11
1119.5231366242
 21
8.0211592459
 31
0.0
  0
LINE
  5
B5
330
1F
100
AcDbEntity
  8
PREDETERMINADO
370
    15
100
AcDbLine
 10
1009.4222702672
 20
36.0879591004
 30
0.0
 11
1009.4222702672
 21
25.9497274364
 31
0.0
  0
LINE
  5
B6
330
1F
100
AcDbEntity
  8
PREDETERMINADO
370
    15
100
AcDbLine
 10
1009.4222702672
 20
25.9497274364
 30
0.0
 11
1118.5811366242
 21
25.9497274364
 31
0.0
  0
LINE
  5
B7
330
1F
100
AcDbEntity
  8
PREDETERMINADO
370
    15
100
AcDbLine
 10
1118.5811366242
 20
25.9497274364
 30
0.0
 11
1118.5811366242
 21
36.0879591004
 31
0.0
  0
LINE
  5
B8
330
1F
100
AcDbEntity
  8
SLD-0
  6
Continuous
 62
   179
100
AcDbLine
 10
1170.7106949794
 20
10.8018707777
 30
0.0
 11
1171.8964765542
 21
10.8018707777
 31
0.0
  0
LINE
  5
B9
330
1F
100
AcDbEntity
  8
NONPLOT
100
AcDbLine
 10
20.2752616314
 20
271.0131637688
 30
0.0
 11
414.1539079938
 21
271.0131637688
 31
0.0
  0
LINE
  5
BA
330
1F
100
AcDbEntity
  8
NONPLOT
100
AcDbLine
 10
20.2752616314
 20
261.0131637688
 30
0.0
 11
414.1539079938
 21
261.0131637688
 31
0.0
  0
LINE
  5
BB
330
1F
100
AcDbEntity
  8
NONPLOT
100
AcDbLine
 10
20.2752616314
 20
15.5413915315
 30
0.0
 11
414.1501634689
 21
15.5413915315
 31
0.0
  0
LINE
  5
BC
330
1F
100
AcDbEntity
  8
NONPLOT
100
AcDbLine
 10
35.2752616314
 20
271.0131637688
 30
0.0
 11
35.2752616314
 21
261.0131637688
 31
0.0
  0
LINE
  5
BD
330
1F
100
AcDbEntity
  8
NONPLOT
100
AcDbLine
 10
399.1539079938
 20
5.5413915315
 30
0.0
 11
399.1539079938
 21
15.5413915315
 31
0.0
  0
LINE
  5
BE
330
1F
100
AcDbEntity
  8
NONPLOT
100
AcDbLine
 10
414.1539079938
 20
105.5413915315
 30
0.0
 11
294.1539079938
 21
105.5413915315
 31
0.0
  0
LINE
  5
BF
330
1F
100
AcDbEntity
  8
NONPLOT
100
AcDbLine
 10
294.1539079938
 20
105.5413915315
 30
0.0
 11
294.1539079938
 21
5.5413915315
 31
0.0
  0
LINE
  5
C0
330
1F
100
AcDbEntity
  8
NONPLOT
  6
Continuous
 62
   179
370
    15
100
AcDbLine
 10
414.1539079938
 20
5.5413915315
 30
0.0
 11
414.1539079938
 21
291.0131637688
 31
0.0
  0
LINE
  5
C1
330
1F
100
AcDbEntity
  8
NONPLOT
  6
Continuous
 62
   179
370
    15
100
AcDbLine
 10
414.1539079938
 20
291.0131637688
 30
0.0
 11
20.2752616314
 21
291.0131637688
 31
0.0
  0
LINE
  5
C2
330
1F
100
AcDbEntity
  8
NONPLOT
  6
Continuous
 62
     7
370
    15
100
AcDbLine
 10
20.2752616314
 20
291.0131637688
 30
0.0
 11
20.2752616314
 21
5.5413915315
 31
0.0
  0
LINE
  5
C3
330
1F
100
AcDbEntity
  8
NONPLOT
  6
Continuous
 62
     7
100
AcDbLine
 10
-0.0123065099
 20
140.7183915315
 30
0.0
 11
20.2752616314
 21
140.7183915315
 31
0.0
  0
LINE
  5
C4
330
1F
100
AcDbEntity
  8
NONPLOT
  6
Continuous
 62
   179
100
AcDbLine
 10
244.5621101288
 20
5.5413915315
 30
0.0
 11
244.5621101288
 21
2.7153915315
 31
0.0
  0
LINE
  5
C5
330
1F
100
AcDbEntity
  8
NONPLOT
  6
Continuous
 62
   179
100
AcDbLine
 10
246.359907498
 20
293.8391637688
 30
0.0
 11
246.359907498
 21
291.0131637688
 31
0.0
  0
LINE
  5
C6
330
1F
100
AcDbEntity
  8
NONPLOT
  6
Continuous
 62
   179
370
    15
100
AcDbLine
 10
20.2752616314
 20
5.5413915315
 30
0.0
 11
414.1501634689
 21
5.5413915315
 31
0.0
  0
LINE
  5
C7
330
1F
100
AcDbEntity
  8
NONPLOT
100
AcDbLine
 10
399.1539079938
 20
261.0131637688
 30
0.0
 11
399.1539079938
 21
271.0131637688
 31
0.0
  0
LINE
  5
C8
330
1F
100
AcDbEntity
  8
NONPLOT
100
AcDbLine
 10
35.2752616314
 20
15.5413915315
 30
0.0
 11
35.2752616314
 21
5.5413915315
 31
0.0
  0
ARC
  5
C9
330
1F
100
AcDbEntity
  8
PREDETERMINADO
100
AcDbCircle
 10
1155.675972762
 20
17.1119227295
 30
0.0
 40
16.30520247611812
100
AcDbArc
 50
337.2322750577
 51
0.0
  0
ARC
  5
CA
330
1F
100
AcDbEntity
  8
PREDETERMINADO
100
AcDbCircle
 10
1163.1191342944
 20
17.1119227295
 30
0.0
 40
10.81011067375698
100
AcDbArc
 50
324.2875534854
 51
0.0
  0
ARC
  5
CB
330
1F
100
AcDbEntity
  8
PREDETERMINADO
100
AcDbCircle
 10
1161.4719669829
 20
17.1119227295
 30
0.0
 40
15.33703323841023
100
AcDbArc
 50
337.9429486592
 51
0.0
  0
ARC
  5
CC
330
1F
100
AcDbEntity
  8
PREDETERMINADO
100
AcDbCircle
 10
1163.4516327738
 20
17.1119227295
 30
0.0
 40
15.13603980980914
100
AcDbArc
 50
337.634330245
 51
0.0
  0
ARC
  5
CD
330
1F
100
AcDbEntity
  8
PREDETERMINADO
100
AcDbCircle
 10
1163.4516327738
 20
17.1119227295
 30
0.0
 40
15.13603980980914
100
AcDbArc
 50
337.634330245
 51
0.0
  0
ARC
  5
CE
330
1F
100
AcDbEntity
  8
PREDETERMINADO
100
AcDbCircle
 10
1161.4719669829
 20
17.1119227295
 30
0.0
 40
15.33703323841023
100
AcDbArc
 50
337.9429486592
 51
0.0
  0
ARC
  5
CF
330
1F
100
AcDbEntity
  8
PREDETERMINADO
100
AcDbCircle
 10
1163.1191342944
 20
17.1119227295
 30
0.0
 40
10.81011067375698
100
AcDbArc
 50
324.2875534854
 51
0.0
  0
ARC
  5
D0
330
1F
100
AcDbEntity
  8
PREDETERMINADO
100
AcDbCircle
 10
1155.675972762
 20
17.1119227295
 30
0.0
 40
16.30520247611812
100
AcDbArc
 50
337.2322750577
 51
0.0
  0
CIRCLE
  5
D1
330
1F
100
AcDbEntity
  8
PREDETERMINADO
  6
Continuous
 62
   179
100
AcDbCircle
 10
1022.8466395685
 20
52.4508390307
 30
0.0
 40
1.815106642745945
  0
CIRCLE
  5
D2
330
1F
100
AcDbEntity
  8
PREDETERMINADO
  6
Continuous
 62
   179
100
AcDbCircle
 10
1022.8441452657
 20
52.4508390307
 30
0.0
 40
0.9822666035553311
  0
ARC
  5
D3
330
1F
100
AcDbEntity
  8
SLD-0
  6
Continuous
 62
   179
100
AcDbCircle
 10
1161.4719669829
 20
17.1119227295
 30
0.0
 40
15.33703323841023
100
AcDbArc
 50
337.9429486592
 51
0.0
  0
ARC
  5
D4
330
1F
100
AcDbEntity
  8
SLD-0
  6
Continuous
 62
   179
100
AcDbCircle
 10
1163.4516327738
 20
17.1119227295
 30
0.0
 40
15.13603980980914
100
AcDbArc
 50
337.634330245
 51
0.0
  0
ARC
  5
D5
330
1F
100
AcDbEntity
  8
SLD-0
  6
Continuous
 62
   179
100
AcDbCircle
 10
1163.1191342944
 20
17.1119227295
 30
0.0
 40
10.81011067375698
100
AcDbArc
 50
324.2875534854
 51
0.0
  0
ARC
  5
D6
330
1F
100
AcDbEntity
  8
SLD-0
  6
Continuous
 62
   179
100
AcDbCircle
 10
1155.675972762
 20
17.1119227295
 30
0.0
 40
16.30520247611812
100
AcDbArc
 50
337.2322750577
 51
0.0
  0
HATCH
  5
D7
330
1F
100
AcDbEntity
  8
0
  6
Continuous
 62
   179
100
AcDbHatch
 10
0.0
 20
0.0
 30
0.0
210
0.0
220
0.0
230
1.0
  2
ANSI31
 70
     0
 71
     0
 91
        1
 92
        0
 93
        4
 72
     1
 10
1170.710694979386
 20
10.80187077773695
 11
1171.89647655421
 21
10.80187077773695
 72
     2
 10
1163.119134294436
 20
17.11192272947823
 40
10.81011067375701
 50
324.2875534853721
 51
360.0000000000008
 73
     1
 72
     1
 10
1173.929244968193
 20
17.11192272947823
 11
1171.981175238132
 21
17.11192272947823
 72
     2
 10
1155.675972762014
 20
17.11192272947823
 40
16.30520247611782
 50
0.0
 51
22.76772494225637
 73
     0
 97
        0
 75
     0
 76
     1
 52
90.0
 41
0.03125
 77
     0
 78
     1
 53
135.0000000000002
 43
0.0
 44
0.0
 45
-0.0701582509458525
 46
-0.070158250945853
 79
     0
 98
        1
 10
0.0
 20
0.0
  0
HATCH
  5
D8
330
1F
100
AcDbEntity
  8
0
  6
Continuous
 62
   179
100
AcDbHatch
 10
0.0
 20
0.0
 30
0.0
210
0.0
220
0.0
230
1.0
  2
ANSI31
 70
     0
 71
     0
 91
        1
 92
        0
 93
        4
 72
     1
 10
1175.686488687299
 20
11.35241222319097
 11
1177.44905181629
 21
11.35241222319097
 72
     2
 10
1163.451632773763
 20
17.11192272947823
 40
15.13603980980891
 50
337.6343302449536
 51
360.0000000000008
 73
     1
 72
     1
 10
1178.587672583572
 20
17.11192272947823
 11
1176.809000221337
 21
17.11192272947823
 72
     2
 10
1161.471966982927
 20
17.11192272947823
 40
15.33703323841007
 50
0.0
 51
22.05705134075557
 73
     0
 97
        0
 75
     0
 76
     1
 52
90.0
 41
0.03125
 77
     0
 78
     1
 53
135.0000000000002
 43
0.0
 44
0.0
 45
-0.0701582509458525
 46
-0.070158250945853
 79
     0
 98
        1
 10
0.0
 20
0.0
  0
HATCH
  5
D9
330
1F
100
AcDbEntity
  8
0
  6
Continuous
 62
   179
100
AcDbHatch
 10
0.0
 20
0.0
 30
0.0
210
0.0
220
0.0
230
1.0
  2
ANSI31
 70
     0
 71
     0
 91
        1
 92
        0
 93
        6
 72
     1
 10
1119.523136624177
 20
25.00772743636828
 11
1119.523136624177
 21
35.14595910044289
 72
     1
 10
1119.523136624177
 20
35.14595910044289
 11
1118.581136624177
 21
35.14595910044289
 72
     1
 10
1118.581136624177
 20
35.14595910044289
 11
1118.581136624177
 21
25.94972743636828
 72
     1
 10
1118.581136624177
 20
25.94972743636828
 11
1010.364270267163
 21
25.94972743636828
 72
     1
 10
1010.364270267163
 20
25.94972743636828
 11
1010.364270267163
 21
25.00772743636827
 72
     1
 10
1010.364270267163
 20
25.00772743636827
 11
1119.523136624177
 21
25.00772743636828
 97
        0
 75
     0
 76
     1
 52
0.0
 41
0.0625
 77
     0
 78
     1
 53
45.0
 43
0.0
 44
0.0
 45
-0.1403165018917055
 46
0.1403165018917055
 79
     0
 98
        1
 10
0.0
 20
0.0
  0
INSERT
  5
E0
330
1F
100
AcDbEntity
  8
CAJETIN
100
AcDbBlockReference
  2
SW_NOTE_0
 10
1123.8936618791
 20
26.2104983111
 30
0.0
  0
MTEXT
  5
E1
330
1F
100
AcDbEntity
  8
CAJETIN
100
AcDbMText
 10
1170.8726678525
 20
39.1858166958
 30
0.0
 40
2.5
 41
0.0
 71
     1
 72
     1
  1
g.
  7
SLDTEXTSTYLE0
 73
     1
 44
1.0
  0
MTEXT
  5
E2
330
1F
100
AcDbEntity
  8
CAJETIN
100
AcDbMText
 10
1038.3957610798
 20
48.8780790403
 30
0.0
 40
2.0
 41
0.0
 71
     1
 72
     1
  1
R&D Dep.
  7
SLDTEXTSTYLE0
 73
     1
 44
1.0
  0
MTEXT
  5
E4
330
1F
100
AcDbEntity
  8
PREDETERMINADO
100
AcDbMText
 10
1150.1089881386
 20
17.6961183816
 30
0.0
 40
4.71
 41
0.0
 71
     1
 72
     1
  1
beyma
  7
SLDTEXTSTYLE1
 73
     1
 44
1.0
  0
MTEXT
  5
E5
330
1F
100
AcDbEntity
  8
CAJETIN
100
AcDbMText
 10
1133.7298783263
 20
48.299135292
 30
0.0
 40
2.0
 41
0.0
 71
     1
 72
     1
  1
01
  7
SLDTEXTSTYLE0
 73
     1
 44
1.0
  0
MTEXT
  5
E6
330
1F
100
AcDbEntity
  8
CAJETIN
100
AcDbMText
 10
1129.9881502054
 20
39.1858166958
 30
0.0
 40
2.5
 41
0.0
 71
     1
 72
     1
  1
FR-10CM
  7
SLDTEXTSTYLE0
 73
     1
 44
1.0
  0
MTEXT
  5
E7
330
1F
100
AcDbEntity
  8
CAJETIN
100
AcDbMText
 10
1168.324830155
 20
48.6452261658
 30
0.0
 40
2.5
 41
0.0
 71
     2
 72
     1
  1
1:1
  7
SLDTEXTSTYLE0
 73
     1
 44
1.0
  0
MTEXT
  5
E8
330
1F
100
AcDbEntity
  8
CAJETIN
100
AcDbMText
 10
1041.2800114377
 20
54.1452435724
 30
0.0
 40
2.5
 41
0.0
 71
     1
 72
     1
  1
NAME
  7
SLDTEXTSTYLE0
 73
     1
 44
1.0
  0
MTEXT
  5
E9
330
1F
100
AcDbEntity
  8
CAJETIN
100
AcDbMText
 10
1162.1504486166
 20
43.2269839458
 30
0.0
 40
2.5
 41
0.0
 71
     1
 72
     1
  1
WEIGHT
  7
SLDTEXTSTYLE0
 73
     1
 44
1.0
  0
MTEXT
  5
EA
330
1F
100
AcDbEntity
  8
CAJETIN
100
AcDbMText
 10
1024.7892597926
 20
53.9518378279
 30
0.0
 40
2.5
 41
0.0
 71
     1
 72
     1
  1
CAD
  7
SLDTEXTSTYLE0
 73
     1
 44
1.0
  0
MTEXT
  5
EB
330
1F
100
AcDbEntity
  8
CAJETIN
100
AcDbMText
 10
1060.2156851592
 20
54.1452435724
 30
0.0
 40
2.5
 41
0.0
 71
     1
 72
     1
  1
DATE
  7
SLDTEXTSTYLE0
 73
     1
 44
1.0
  0
MTEXT
  5
EC
330
1F
100
AcDbEntity
  8
CAJETIN
100
AcDbMText
 10
1011.4980360078
 20
49.0706456776
 30
0.0
 40
2.5
 41
0.0
 71
     1
 72
     1
  1
DESIGNED BY
  7
SLDTEXTSTYLE0
 73
     1
 44
1.0
  0
MTEXT
  5
ED
330
1F
100
AcDbEntity
  8
CAJETIN
100
AcDbMText
 10
1011.4980360078
 20
39.9043081803
 30
0.0
 40
2.5
 41
0.0
 71
     1
 72
     1
  1
REVISED BY
  7
SLDTEXTSTYLE0
 73
     1
 44
1.0
  0
MTEXT
  5
EE
330
1F
100
AcDbEntity
  8
CAJETIN
100
AcDbMText
 10
1011.4980360078
 20
44.6251514577
 30
0.0
 40
2.5
 41
0.0
 71
     1
 72
     1
  1
DRAWN BY
  7
SLDTEXTSTYLE0
 73
     1
 44
1.0
  0
MTEXT
  5
EF
330
1F
100
AcDbEntity
  8
CAJETIN
100
AcDbMText
 10
1010.2789771432
 20
34.8225314817
 30
0.0
 40
2.5
 41
0.0
 71
     1
 72
     1
  1
TITLE:
  7
SLDTEXTSTYLE0
 73
     1
 44
1.0
  0
MTEXT
  5
F0
330
1F
100
AcDbEntity
  8
CAJETIN
100
AcDbMText
 10
1011.4980360078
 20
23.6510984531
 30
0.0
 40
2.5
 41
0.0
 71
     1
 72
     1
  1
MODEL CODE:
  7
SLDTEXTSTYLE0
 73
     1
 44
1.0
  0
MTEXT
  5
F1
330
1F
100
AcDbEntity
  8
CAJETIN
100
AcDbMText
 10
1090.5830574529
 20
23.7519974382
 30
0.0
 40
2.5
 41
0.0
 71
     1
 72
     1
  1
PART NUMBER
  7
SLDTEXTSTYLE0
 73
     1
 44
1.0
  0
MTEXT
  5
F2
330
1F
100
AcDbEntity
  8
CAJETIN
100
AcDbMText
 10
1088.1844952494
 20
54.1452435724
 30
0.0
 40
2.5
 41
0.0
 71
     1
 72
     1
  1
NOTES
  7
SLDTEXTSTYLE0
 73
     1
 44
1.0
  0
MTEXT
  5
F3
330
1F
100
AcDbEntity
  8
CAJETIN
100
AcDbMText
 10
1120.2341145011
 20
53.8472307527
 30
0.0
 40
2.2
 41
0.0
 71
     1
 72
     1
  1
UNIT
  7
SLDTEXTSTYLE0
 73
     1
 44
1.0
  0
MTEXT
  5
F4
330
1F
100
AcDbEntity
  8
CAJETIN
100
AcDbMText
 10
1129.9212331791
 20
53.8472307527
 30
0.0
 40
2.2
 41
0.0
 71
     1
 72
     1
  1
LEVEL
  7
SLDTEXTSTYLE0
 73
     1
 44
1.0
  0
MTEXT
  5
F5
330
1F
100
AcDbEntity
  8
CAJETIN
100
AcDbMText
 10
1143.9885214097
 20
53.8472307527
 30
0.0
 40
2.2
 41
0.0
 71
     1
 72
     1
  1
DATE
  7
SLDTEXTSTYLE0
 73
     1
 44
1.0
  0
MTEXT
  5
F6
330
1F
100
AcDbEntity
  8
CAJETIN
100
AcDbMText
 10
1163.3848230914
 20
54.1452435724
 30
0.0
 40
2.5
 41
0.0
 71
     1
 72
     1
  1
SCALE
  7
SLDTEXTSTYLE0
 73
     1
 44
1.0
  0
MTEXT
  5
F7
330
1F
100
AcDbEntity
  8
CAJETIN
100
AcDbMText
 10
1122.2254470147
 20
43.2269839458
 30
0.0
 40
2.5
 41
0.0
 71
     1
 72
     1
  1
DRAWING NUMBER
  7
SLDTEXTSTYLE0
 73
     1
 44
1.0
  0
MTEXT
  5
F8
330
1F
100
AcDbEntity
  8
CAJETIN
100
AcDbMText
 10
1062.730904338
 20
23.7519974382
 30
0.0
 40
2.5
 41
0.0
 71
     1
 72
     1
  1
SIGNED
  7
SLDTEXTSTYLE0
 73
     1
 44
1.0
  0
MTEXT
  5
F9
330
1F
100
AcDbEntity
  8
CAJETIN
100
AcDbMText
 10
1125.4348613865
 20
33.8302822726
 30
0.0
 40
2.5
 41
0.0
 71
     1
 72
     1
  1
MATERIAL
  7
SLDTEXTSTYLE0
 73
     1
 44
1.0
  0
MTEXT
  5
FA
330
1F
100
AcDbEntity
  8
CAJETIN
100
AcDbMText
 10
1056.2504865743
 20
48.8780790403
 30
0.0
 40
2.0
 41
0.0
 71
     1
 72
     1
  1
18/01/2019
  7
SLDTEXTSTYLE0
 73
     1
 44
1.0
  0
MTEXT
  5
FB
330
1F
100
AcDbEntity
  8
CAJETIN
100
AcDbMText
 10
1038.701316375
 20
44.2444281039
 30
0.0
 40
2.0
 41
0.0
 71
     1
 72
     1
  1
R. Climent
  7
SLDTEXTSTYLE0
 73
     1
 44
1.0
  0
MTEXT
  5
FC
330
1F
100
AcDbEntity
  8
CAJETIN
100
AcDbMText
 10
1038.701316375
 20
39.5163805273
 30
0.0
 40
2.0
 41
0.0
 71
     1
 72
     1
  1
J. Serrano
  7
SLDTEXTSTYLE0
 73
     1
 44
1.0
  0
MTEXT
  5
FD
330
1F
100
AcDbEntity
  8
CAJETIN
100
AcDbMText
 10
1056.2504865743
 20
44.2444281039
 30
0.0
 40
2.0
 41
0.0
 71
     1
 72
     1
  1
18/01/2019
  7
SLDTEXTSTYLE0
 73
     1
 44
1.0
  0
MTEXT
  5
FE
330
1F
100
AcDbEntity
  8
CAJETIN
100
AcDbMText
 10
1056.2504865743
 20
39.5163805273
 30
0.0
 40
2.0
 41
0.0
 71
     1
 72
     1
  1
18/01/2019
  7
SLDTEXTSTYLE0
 73
     1
 44
1.0
  0
MTEXT
  5
FF
330
1F
100
AcDbEntity
  8
CAJETIN
100
AcDbMText
 10
1121.4698088928
 20
48.299135292
 30
0.0
 40
2.0
 41
0.0
 71
     1
 72
     1
  1
mm
  7
SLDTEXTSTYLE0
 73
     1
 44
1.0
  0
INSERT
  5
105
330
1F
100
AcDbEntity
  8
CAJETIN
100
AcDbBlockReference
  2
SW_NOTE_1
 10
1058.7664965302
 20
30.6176732854
 30
0.0
  0
INSERT
  5
142
330
1F
100
AcDbEntity
  8
CAJETIN
100
AcDbBlockReference
  2
SW_TABLEANNOTATION_0
 10
879.8101456784
 20
99.4508400637
 30
0.0
  0
SPLINE
  5
143
330
1F
100
AcDbEntity
  8
0
  6
Continuous
 62
     7
100
AcDbSpline
210
0.0
220
0.0
230
1.0
 70
     8
 71
     3
 72
    24
 73
    20
 74
     0
 42
0.000000001
 43
0.00000001
 40
0.0
 40
0.0
 40
0.0
 40
0.0
 40
0.0329634141272924
 40
0.0956106774182345
 40
0.1582560663535866
 40
0.220898928485473
 40
0.2835394083600893
 40
0.3461776442590114
 40
0.4088137685502409
 40
0.4714479080525685
 40
0.5340801843867647
 40
0.5967107143129755
 40
0.6593396100543933
 40
0.7219669796077681
 40
0.7845929270407993
 40
0.847217552776862
 40
0.9098409538680163
 40
0.9724632242564202
 40
1.0
 40
1.0
 40
1.0
 40
1.0
 10
120.9044678120743
 20
32.72784252847902
 30
0.0
 10
122.2758542505523
 20
32.47787318009074
 30
0.0
 10
126.2535728775952
 20
31.75283484999219
 30
0.0
 10
132.8949126616735
 20
30.58825412046406
 30
0.0
 10
140.8501558349134
 20
29.24990334911015
 30
0.0
 10
148.8759287317112
 20
27.95961300175623
 30
0.0
 10
156.9683667790337
 20
26.71698787980178
 30
0.0
 10
165.1252946319347
 20
25.52261963597005
 30
0.0
 10
173.3440668698556
 20
24.3768159226857
 30
0.0
 10
181.6221383974259
 20
23.27994209322659
 30
0.0
 10
189.9569129452238
 20
22.23232987700288
 30
0.0
 10
198.3457836757813
 20
21.23430002205476
 30
0.0
 10
206.7861272733761
 20
20.28616212453266
 30
0.0
 10
215.2752920407844
 20
19.38819180054749
 30
0.0
 10
223.8106565145937
 20
18.54072134587359
 30
0.0
 10
232.3894120412597
 20
17.74379916418986
 30
0.0
 10
241.0093789917948
 20
16.99846063354255
 30
0.0
 10
248.0493329009064
 20
16.43205270131698
 30
0.0
 10
252.2179115413466
 20
16.11856218894297
 30
0.0
 10
253.4910973182151
 20
16.0228145262587
 30
0.0
  0
SPLINE
  5
144
330
1F
100
AcDbEntity
  8
0
  6
Continuous
 62
     7
100
AcDbSpline
210
0.0
220
0.0
230
1.0
 70
     8
 71
     3
 72
    14
 73
    10
 74
     0
 42
0.000000001
 43
0.00000001
 40
0.0
 40
0.0
 40
0.0
 40
0.0
 40
0.0829304305840687
 40
0.2383860374874087
 40
0.3955643793280748
 40
0.5590996941694529
 40
0.7396193656713469
 40
0.8778831061602812
 40
1.0
 40
1.0
 40
1.0
 40
1.0
 10
253.4910973182153
 20
16.02281452625873
 30
0.0
 10
253.6359113550571
 20
16.01402975315075
 30
0.0
 10
254.0521836952844
 20
15.98877765646331
 30
0.0
 10
254.7546555957819
 20
15.99919662760604
 30
0.0
 10
255.5779272154614
 20
16.07790490397396
 30
0.0
 10
256.3954313519008
 20
16.2362805877766
 30
0.0
 10
257.1169064602395
 20
16.47495690745676
 30
0.0
 10
257.7335230559538
 20
16.77991004621185
 30
0.0
 10
258.0599305865205
 20
17.0384059566045
 30
0.0
 10
258.2130136829708
 20
17.15963892667085
 30
0.0
  0
LINE
  5
145
330
1F
100
AcDbEntity
  8
0
  6
Continuous
 62
     7
100
AcDbLine
 10
258.213013683
 20
17.1596389267
 30
0.0
 11
269.7715126508
 21
27.3532768596
 31
0.0
  0
LINE
  5
146
330
1F
100
AcDbEntity
  8
0
  6
Continuous
 62
     7
100
AcDbLine
 10
270.1574064745
 20
27.8094948918
 30
0.0
 11
292.8425175921
 21
64.3081469209
 31
0.0
  0
LINE
  5
147
330
1F
100
AcDbEntity
  8
0
  6
Continuous
 62
     7
100
AcDbLine
 10
117.5613139453
 20
39.6160366183
 30
0.0
 11
117.5613139453
 21
35.9168133196
 31
0.0
  0
SPLINE
  5
148
330
1F
100
AcDbEntity
  8
0
  6
Continuous
 62
     7
100
AcDbSpline
210
0.0
220
0.0
230
1.0
 70
     8
 71
     3
 72
    16
 73
    12
 74
     0
 42
0.000000001
 43
0.00000001
 40
0.0
 40
0.0
 40
0.0
 40
0.0
 40
0.0060206564127907
 40
0.1315493196377293
 40
0.2484807763905982
 40
0.3603128829035264
 40
0.4708588931001356
 40
0.5847230696590701
 40
0.7087382929342994
 40
0.8526766456606787
 40
1.0
 40
1.0
 40
1.0
 40
1.0
 10
117.5647001418814
 20
35.91682433619847
 30
0.0
 10
117.5635801240323
 20
35.90634617996924
 30
0.0
 10
117.5391081103632
 20
35.67740198709243
 30
0.0
 10
117.6296538208778
 20
35.23942345770536
 30
0.0
 10
117.8354781161874
 20
34.65853151478648
 30
0.0
 10
118.1533707818478
 20
34.16296724501175
 30
0.0
 10
118.5431722697082
 20
33.74865430585181
 30
0.0
 10
119.0029562305708
 20
33.40403080519408
 30
0.0
 10
119.5471267426441
 20
33.11610913611845
 30
0.0
 10
120.1759718608328
 20
32.88293393703879
 30
0.0
 10
120.6597616499089
 20
32.77993866341134
 30
0.0
 10
120.9044678120744
 20
32.7278425284791
 30
0.0
  0
SPLINE
  5
149
330
1F
100
AcDbEntity
  8
0
  6
Continuous
 62
     7
100
AcDbSpline
210
0.0
220
0.0
230
1.0
 70
     8
 71
     3
 72
    11
 73
     7
 74
     0
 42
0.000000001
 43
0.00000001
 40
0.0
 40
0.0
 40
0.0
 40
0.0
 40
0.2630800237393009
 40
0.5139279336766899
 40
0.764941752240057
 40
1.0
 40
1.0
 40
1.0
 40
1.0
 10
118.5691835090514
 20
378.4012678655832
 30
0.0
 10
118.4194210265
 20
378.2541082472975
 30
0.0
 10
118.1268593864866
 20
377.9666313135825
 30
0.0
 10
117.8065763905391
 20
377.4227011988884
 30
0.0
 10
117.5991729881555
 20
376.8425889332742
 30
0.0
 10
117.576624472847
 20
376.4375296137311
 30
0.0
 10
117.5657202986201
 20
376.2416480963857
 30
0.0
  0
LINE
  5
14A
330
1F
100
AcDbEntity
  8
0
  6
Continuous
 62
     7
100
AcDbLine
 10
117.5613139453
 20
376.2316400402
 30
0.0
 11
117.5613139453
 21
371.5175948322
 31
0.0
  0
LINE
  5
14B
330
1F
100
AcDbEntity
  8
0
  6
Continuous
 62
     7
100
AcDbLine
 10
130.1276824769
 20
388.5949057985
 30
0.0
 11
118.5691835091
 21
378.4012678656
 31
0.0
  0
LINE
  5
14C
330
1F
100
AcDbEntity
  8
0
  6
Continuous
 62
     7
100
AcDbLine
 10
168.8991534554
 20
411.2880098749
 30
0.0
 11
130.414256771
 21
388.8019951431
 31
0.0
  0
LINE
  5
14D
330
1F
100
AcDbEntity
  8
0
  6
Continuous
 62
     7
100
AcDbLine
 10
228.1918009059
 20
415.6880731805
 30
0.0
 11
169.2888134866
 21
411.4088241274
 31
0.0
  0
LINE
  5
14E
330
1F
100
AcDbEntity
  8
0
  6
Continuous
 62
     7
100
AcDbLine
 10
291.3621614539
 20
407.7296088795
 30
0.0
 11
228.1943420032
 21
415.6880060721
 31
0.0
  0
LINE
  5
14F
330
1F
100
AcDbEntity
  8
0
  6
Continuous
 62
     7
100
AcDbLine
 10
258.8979549803
 20
23.4540563093
 30
0.0
 11
270.4768285196
 21
33.6656629253
 31
0.0
  0
LWPOLYLINE
  5
150
330
1F
100
AcDbEntity
  8
0
  6
Continuous
 62
     7
100
AcDbPolyline
 90
        9
 70
   128
 43
0.0
 10
253.1321282669
 20
22.4166380331
 10
254.0164790694
 20
22.3780385784
 10
254.9073338952
 20
22.3924271638
 10
255.7763462566
 20
22.4593459526
 10
256.5958646808
 20
22.5766656277
 10
257.3398125635
 20
22.7406531444
 10
257.9845179114
 20
22.9460905145
 10
258.5094665717
 20
23.1864408391
 10
258.8979549803
 20
23.4540563093
  0
LWPOLYLINE
  5
151
330
1F
100
AcDbEntity
  8
0
  6
Continuous
 62
     7
100
AcDbPolyline
 90
       16
 70
   128
 43
0.0
 10
120.1500491739
 20
39.1708051727
 10
128.5235040878
 20
37.6685033133
 10
136.9807012941
 20
36.2192598133
 10
145.5186153018
 20
34.8235931274
 10
154.1341917442
 20
33.4820025435
 10
162.8243484715
 20
32.1949680044
 10
171.5859766533
 20
30.9629499358
 10
180.4159418911
 20
29.7863890818
 10
189.3110853393
 20
28.6657063472
 10
198.2682248353
 20
27.6013026466
 10
207.2841560379
 20
26.5935587616
 10
216.3556535739
 20
25.642835204
 10
225.4794721914
 20
24.7494720872
 10
234.6523479214
 20
23.9137890043
 10
243.8709992448
 20
23.1360849139
 10
253.1321282669
 20
22.4166380331
  0
LWPOLYLINE
  5
152
330
1F
100
AcDbEntity
  8
0
  6
Continuous
 62
     7
100
AcDbPolyline
 90
        3
 70
   128
 43
0.0
 10
119.1310701146
 20
39.4182659307
 10
119.4101926536
 20
39.3368366062
 10
120.1500491739
 20
39.1708051727
  0
LINE
  5
153
330
1F
100
AcDbEntity
  8
0
  6
Continuous
 62
     7
100
AcDbLine
 10
134.642703045
 20
54.4580580392
 30
0.0
 11
168.2200949263
 21
74.0767083031
 31
0.0
  0
LINE
  5
154
330
1F
100
AcDbEntity
  8
0
  6
Continuous
 62
     7
100
AcDbLine
 10
168.2200949263
 20
74.0767083031
 30
0.0
 11
201.2349081076
 21
76.4752047841
 31
0.0
  0
LINE
  5
155
330
1F
100
AcDbEntity
  8
0
  6
Continuous
 62
     7
100
AcDbLine
 10
223.6033652972
 20
78.1002530786
 30
0.0
 11
228.3179281107
 21
78.4427618263
 31
0.0
  0
LINE
  5
156
330
1F
100
AcDbEntity
  8
0
  6
Continuous
 62
     7
100
AcDbLine
 10
228.3179281107
 20
78.4427618263
 30
0.0
 11
293.224691655
 21
70.2652782711
 31
0.0
  0
LINE
  5
157
330
1F
100
AcDbEntity
  8
0
  6
Continuous
 62
     7
100
AcDbLine
 10
270.4768285196
 20
33.6656629253
 30
0.0
 11
293.224691655
 21
70.2652782711
 31
0.0
  0
LINE
  5
158
330
1F
100
AcDbEntity
  8
0
  6
Continuous
 62
     7
100
AcDbLine
 10
270.4768285196
 20
33.6656629253
 30
0.0
 11
270.4768285196
 21
28.9516177173
 31
0.0
  0
ELLIPSE
  5
159
330
1F
100
AcDbEntity
  8
0
  6
Continuous
 62
     7
100
AcDbEllipse
 10
268.0687295146
 20
29.1848966212
 30
0.0
 11
1.912425487080725
 21
-1.617632648564928
 31
0.0
210
0.0
220
0.0
230
1.0
 40
0.904661671
 41
6.150952836108913
 42
6.936350999525473
  0
LINE
  5
15A
330
1F
100
AcDbEntity
  8
0
  6
Continuous
 62
     7
100
AcDbLine
 10
293.224691655
 20
70.2652782711
 30
0.0
 11
293.224691655
 21
65.5512330631
 31
0.0
  0
ELLIPSE
  5
15B
330
1F
100
AcDbEntity
  8
0
  6
Continuous
 62
     7
100
AcDbEllipse
 10
290.3435098626
 20
65.0233570427
 30
0.0
 11
2.712141454871357
 21
1.292374206441096
 31
0.0
210
0.0
220
0.0
230
1.0
 40
0.7523879878
 41
5.418004095048242
 42
5.938937316323431
  0
LWPOLYLINE
  5
15C
330
1F
100
AcDbEntity
  8
0
  6
Continuous
 62
     7
100
AcDbPolyline
 90
       16
 70
   128
 43
0.0
 10
120.1500491739
 20
370.0575414773
 10
128.5235040878
 20
368.5552396179
 10
136.9807012941
 20
367.1059961179
 10
145.5186153018
 20
365.710329432
 10
154.1341917442
 20
364.3687388481
 10
162.8243484715
 20
363.081704309
 10
171.5859766533
 20
361.8496862404
 10
180.4159418911
 20
360.6731253864
 10
189.3110853393
 20
359.5524426517
 10
198.2682248353
 20
358.4880389511
 10
207.2841560379
 20
357.4802950661
 10
216.3556535739
 20
356.5295715086
 10
225.4794721914
 20
355.6362083918
 10
234.6523479214
 20
354.8005253089
 10
243.8709992448
 20
354.0228212185
 10
253.1321282669
 20
353.3033743376
  0
LWPOLYLINE
  5
15D
330
1F
100
AcDbEntity
  8
0
  6
Continuous
 62
     7
100
AcDbPolyline
 90
        9
 70
   128
 43
0.0
 10
253.1321282669
 20
353.3033743376
 10
254.0164790694
 20
353.264774883
 10
254.9073338952
 20
353.2791634683
 10
255.7763462566
 20
353.3460822572
 10
256.5958646808
 20
353.4634019322
 10
257.3398125635
 20
353.627389449
 10
257.9845179114
 20
353.8328268191
 10
258.5094665717
 20
354.0731771437
 10
258.8979549803
 20
354.3407926139
  0
ELLIPSE
  5
15E
330
1F
100
AcDbEntity
  8
0
  6
Continuous
 62
     7
100
AcDbEllipse
 10
268.0687295146
 20
369.4997233419
 30
0.0
 11
1.912425487080725
 21
-1.617632648564949
 31
0.0
210
0.0
220
0.0
230
1.0
 40
0.904661671
 41
0.6531656923458877
 42
2.223962019140795
  0
LINE
  5
15F
330
1F
100
AcDbEntity
  8
0
  6
Continuous
 62
     7
100
AcDbLine
 10
270.4768285196
 20
369.2664444379
 30
0.0
 11
270.4768285196
 21
364.5523992299
 31
0.0
  0
LINE
  5
160
330
1F
100
AcDbEntity
  8
0
  6
Continuous
 62
     7
100
AcDbLine
 10
258.8979549803
 20
354.3407926139
 30
0.0
 11
270.4768285196
 21
364.5523992299
 31
0.0
  0
ELLIPSE
  5
161
330
1F
100
AcDbEntity
  8
0
  6
Continuous
 62
     7
100
AcDbEllipse
 10
290.3435098626
 20
405.3381837633
 30
0.0
 11
2.712141454871356
 21
1.292374206441081
 31
0.0
210
0.0
220
0.0
230
1.0
 40
0.7523879878
 41
5.938937316323456
 42
7.5097336431183
  0
LINE
  5
162
330
1F
100
AcDbEntity
  8
0
  6
Continuous
 62
     7
100
AcDbLine
 10
293.224691655
 20
405.8660597837
 30
0.0
 11
293.224691655
 21
401.1520145757
 31
0.0
  0
LINE
  5
163
330
1F
100
AcDbEntity
  8
0
  6
Continuous
 62
     7
100
AcDbLine
 10
270.4768285196
 20
364.5523992299
 30
0.0
 11
293.224691655
 21
401.1520145757
 31
0.0
  0
LWPOLYLINE
  5
164
330
1F
100
AcDbEntity
  8
0
  6
Continuous
 62
     7
100
AcDbPolyline
 90
        7
 70
   128
 43
0.0
 10
117.5613139453
 20
371.5175948322
 10
117.6372335052
 20
371.2282599974
 10
117.8697917768
 20
370.9412442694
 10
118.251631582
 20
370.6725676844
 10
118.7706029981
 20
370.4307793766
 10
119.4101926536
 20
370.2235729108
 10
120.1500491739
 20
370.0575414773
  0
ELLIPSE
  5
165
330
1F
100
AcDbEntity
  8
0
  6
Continuous
 62
     7
100
AcDbEllipse
 10
131.7320884795
 20
386.6765255602
 30
0.0
 11
-1.466146693452202
 21
2.028882531147076
 31
0.0
210
0.0
220
0.0
230
1.0
 40
0.853504995
 41
5.580627337083856
 42
6.366025500462174
  0
ELLIPSE
  5
166
330
1F
100
AcDbEntity
  8
0
  6
Continuous
 62
     7
100
AcDbEllipse
 10
169.8400074853
 20
408.942279193
 30
0.0
 11
-0.7530037748080645
 21
2.42864950408034
 31
0.0
210
0.0
220
0.0
230
1.0
 40
0.5905586995
 41
5.799728890316556
 42
6.419446667129625
  0
ELLIPSE
  5
167
330
1F
100
AcDbEntity
  8
0
  6
Continuous
 62
     7
100
AcDbEllipse
 10
228.1267505166
 20
413.1767586456
 30
0.0
 11
0.06632260300443704
 21
2.511344030069722
 31
0.0
210
0.0
220
0.0
230
1.0
 40
0.0713979144
 41
0.0070860334472155
 42
0.3542810903603015
  0
LINE
  5
168
330
1F
100
AcDbEntity
  8
0
  6
Continuous
 62
     7
100
AcDbLine
 10
211.1165682134
 20
304.0371125404
 30
0.0
 11
219.1143251391
 21
316.9049069951
 31
0.0
  0
LINE
  5
169
330
1F
100
AcDbEntity
  8
0
  6
Continuous
 62
     7
100
AcDbLine
 10
219.1143251391
 20
316.9049069951
 30
0.0
 11
226.4583684845
 21
316.3977331986
 31
0.0
  0
LINE
  5
16A
330
1F
100
AcDbEntity
  8
0
  6
Continuous
 62
     7
100
AcDbLine
 10
218.3408652285
 20
303.3372758285
 30
0.0
 11
226.4583684845
 21
316.3977331986
 31
0.0
  0
LINE
  5
16B
330
1F
100
AcDbEntity
  8
0
  6
Continuous
 62
     7
100
AcDbLine
 10
218.3408652285
 20
303.3372758285
 30
0.0
 11
211.1165682134
 21
304.0371125404
 31
0.0
  0
LINE
  5
16C
330
1F
100
AcDbEntity
  8
0
  6
Continuous
 62
     7
100
AcDbLine
 10
211.1165682134
 20
304.0371125404
 30
0.0
 11
211.1165682134
 21
297.7541240806
 31
0.0
  0
LINE
  5
16D
330
1F
100
AcDbEntity
  8
0
  6
Continuous
 62
     7
100
AcDbLine
 10
218.3408652285
 20
303.3372758285
 30
0.0
 11
218.3408652285
 21
269.0651156151
 31
0.0
  0
LINE
  5
16E
330
1F
100
AcDbEntity
  8
0
  6
Continuous
 62
     7
100
AcDbLine
 10
213.9361072679
 20
208.5402631507
 30
0.0
 11
212.1917205316
 21
208.7092464962
 31
0.0
  0
LINE
  5
16F
330
1F
100
AcDbEntity
  8
0
  6
Continuous
 62
     7
100
AcDbLine
 10
226.4583684845
 20
316.3977331986
 30
0.0
 11
226.4583684845
 21
221.174019996
 31
0.0
  0
LINE
  5
170
330
1F
100
AcDbEntity
  8
0
  6
Continuous
 62
     7
100
AcDbLine
 10
223.6033652972
 20
216.5805327816
 30
0.0
 11
226.4583684845
 21
221.174019996
 31
0.0
  0
LINE
  5
171
330
1F
100
AcDbEntity
  8
0
  6
Continuous
 62
     7
100
AcDbLine
 10
205.3047792271
 20
291.5762599103
 30
0.0
 11
205.3047792271
 21
270.7075080728
 31
0.0
  0
LINE
  5
172
330
1F
100
AcDbEntity
  8
0
  6
Continuous
 62
     7
100
AcDbLine
 10
205.3047792271
 20
257.4282939363
 30
0.0
 11
205.3047792271
 21
196.3525467077
 31
0.0
  0
LINE
  5
173
330
1F
100
AcDbEntity
  8
0
  6
Continuous
 62
     7
100
AcDbLine
 10
205.3047792271
 20
291.5762599103
 30
0.0
 11
212.1917205316
 21
297.649971239
 31
0.0
  0
LINE
  5
174
330
1F
100
AcDbEntity
  8
0
  6
Continuous
 62
     7
100
AcDbLine
 10
212.1917205316
 20
297.649971239
 30
0.0
 11
212.1917205316
 21
269.8398350263
 31
0.0
  0
LINE
  5
175
330
1F
100
AcDbEntity
  8
0
  6
Continuous
 62
     7
100
AcDbLine
 10
212.1917205316
 20
256.5606208898
 30
0.0
 11
212.1917205316
 21
202.4262580363
 31
0.0
  0
LINE
  5
176
330
1F
100
AcDbEntity
  8
0
  6
Continuous
 62
     7
100
AcDbLine
 10
205.3047792271
 20
196.3525467077
 30
0.0
 11
212.1917205316
 21
202.4262580363
 31
0.0
  0
LINE
  5
177
330
1F
100
AcDbEntity
  8
0
  6
Continuous
 62
     7
100
AcDbLine
 10
198.2891716267
 20
292.4601433864
 30
0.0
 11
205.3047792271
 21
291.5762599103
 31
0.0
  0
LINE
  5
178
330
1F
100
AcDbEntity
  8
0
  6
Continuous
 62
     7
100
AcDbLine
 10
198.2891716267
 20
292.4601433864
 30
0.0
 11
204.9674235165
 21
298.3498079509
 31
0.0
  0
LINE
  5
179
330
1F
100
AcDbEntity
  8
0
  6
Continuous
 62
     7
100
AcDbLine
 10
212.1917205316
 20
297.649971239
 30
0.0
 11
204.9674235165
 21
298.3498079509
 31
0.0
  0
LINE
  5
17A
330
1F
100
AcDbEntity
  8
0
  6
Continuous
 62
     7
100
AcDbLine
 10
198.2891716267
 20
292.4601433864
 30
0.0
 11
198.2891716267
 21
271.5913915489
 31
0.0
  0
LINE
  5
17B
330
1F
100
AcDbEntity
  8
0
  6
Continuous
 62
     7
100
AcDbLine
 10
202.5565424959
 20
196.6987919902
 30
0.0
 11
205.3047792271
 21
196.3525467077
 31
0.0
  0
LINE
  5
17C
330
1F
100
AcDbEntity
  8
0
  6
Continuous
 62
     7
100
AcDbLine
 10
256.9214407304
 20
270.2176549454
 30
0.0
 11
271.1275567937
 21
268.4278525559
 31
0.0
  0
LINE
  5
17D
330
1F
100
AcDbEntity
  8
0
  6
Continuous
 62
     7
100
AcDbLine
 10
263.2525315045
 20
255.7575241515
 30
0.0
 11
271.1275567937
 21
268.4278525559
 31
0.0
  0
LINE
  5
17E
330
1F
100
AcDbEntity
  8
0
  6
Continuous
 62
     7
100
AcDbLine
 10
253.296560942
 20
246.9771834284
 30
0.0
 11
263.2525315045
 21
255.7575241515
 31
0.0
  0
LINE
  5
17F
330
1F
100
AcDbEntity
  8
0
  6
Continuous
 62
     7
100
AcDbLine
 10
239.2653457411
 20
248.7449503805
 30
0.0
 11
253.296560942
 21
246.9771834284
 31
0.0
  0
LINE
  5
180
330
1F
100
AcDbEntity
  8
0
  6
Continuous
 62
     7
100
AcDbLine
 10
239.2653457411
 20
248.7449503805
 30
0.0
 11
248.8039374744
 21
257.1571975754
 31
0.0
  0
LINE
  5
181
330
1F
100
AcDbEntity
  8
0
  6
Continuous
 62
     7
100
AcDbLine
 10
248.8039374744
 20
257.1571975754
 30
0.0
 11
256.9214407304
 21
270.2176549454
 31
0.0
  0
LINE
  5
182
330
1F
100
AcDbEntity
  8
0
  6
Continuous
 62
     7
100
AcDbLine
 10
239.2653457411
 20
248.7449503805
 30
0.0
 11
239.2653457411
 21
241.6738825684
 31
0.0
  0
LINE
  5
183
330
1F
100
AcDbEntity
  8
0
  6
Continuous
 62
     7
100
AcDbLine
 10
253.296560942
 20
246.9771834284
 30
0.0
 11
253.296560942
 21
239.9061156163
 31
0.0
  0
LINE
  5
184
330
1F
100
AcDbEntity
  8
0
  6
Continuous
 62
     7
100
AcDbLine
 10
239.2653457411
 20
241.6738825684
 30
0.0
 11
253.296560942
 21
239.9061156163
 31
0.0
  0
LINE
  5
185
330
1F
100
AcDbEntity
  8
0
  6
Continuous
 62
     7
100
AcDbLine
 10
263.2525315045
 20
255.7575241515
 30
0.0
 11
263.2525315045
 21
248.6864563394
 31
0.0
  0
LINE
  5
186
330
1F
100
AcDbEntity
  8
0
  6
Continuous
 62
     7
100
AcDbLine
 10
253.296560942
 20
239.9061156163
 30
0.0
 11
263.2525315045
 21
248.6864563394
 31
0.0
  0
LINE
  5
187
330
1F
100
AcDbEntity
  8
0
  6
Continuous
 62
     7
100
AcDbLine
 10
271.1275567937
 20
268.4278525559
 30
0.0
 11
271.1275567937
 21
261.3567847438
 31
0.0
  0
LINE
  5
188
330
1F
100
AcDbEntity
  8
0
  6
Continuous
 62
     7
100
AcDbLine
 10
263.2525315045
 20
248.6864563394
 30
0.0
 11
271.1275567937
 21
261.3567847438
 31
0.0
  0
LINE
  5
189
330
1F
100
AcDbEntity
  8
0
  6
Continuous
 62
     7
100
AcDbLine
 10
255.9482113708
 20
179.8058488973
 30
0.0
 11
255.9482113708
 21
172.7347810852
 31
0.0
  0
LINE
  5
18A
330
1F
100
AcDbEntity
  8
0
  6
Continuous
 62
     7
100
AcDbLine
 10
255.9482113708
 20
179.8058488973
 30
0.0
 11
263.2525315045
 21
186.2476537542
 31
0.0
  0
LINE
  5
18B
330
1F
100
AcDbEntity
  8
0
  6
Continuous
 62
     7
100
AcDbLine
 10
263.2525315045
 20
186.2476537542
 30
0.0
 11
263.2525315045
 21
179.1765859421
 31
0.0
  0
LINE
  5
18C
330
1F
100
AcDbEntity
  8
0
  6
Continuous
 62
     7
100
AcDbLine
 10
255.9482113708
 20
172.7347810852
 30
0.0
 11
263.2525315045
 21
179.1765859421
 31
0.0
  0
LINE
  5
18D
330
1F
100
AcDbEntity
  8
0
  6
Continuous
 62
     7
100
AcDbLine
 10
234.9013885695
 20
182.4574993255
 30
0.0
 11
234.9013885695
 21
175.3864315134
 31
0.0
  0
LINE
  5
18E
330
1F
100
AcDbEntity
  8
0
  6
Continuous
 62
     7
100
AcDbLine
 10
234.9013885695
 20
182.4574993255
 30
0.0
 11
255.9482113708
 21
179.8058488973
 31
0.0
  0
LINE
  5
18F
330
1F
100
AcDbEntity
  8
0
  6
Continuous
 62
     7
100
AcDbLine
 10
234.9013885695
 20
175.3864315134
 30
0.0
 11
255.9482113708
 21
172.7347810852
 31
0.0
  0
LINE
  5
190
330
1F
100
AcDbEntity
  8
0
  6
Continuous
 62
     7
100
AcDbLine
 10
263.2525315045
 20
186.2476537542
 30
0.0
 11
271.1275567937
 21
198.9179821585
 31
0.0
  0
LINE
  5
191
330
1F
100
AcDbEntity
  8
0
  6
Continuous
 62
     7
100
AcDbLine
 10
234.9013885695
 20
182.4574993255
 30
0.0
 11
241.5796404593
 21
188.34716389
 31
0.0
  0
LINE
  5
192
330
1F
100
AcDbEntity
  8
0
  6
Continuous
 62
     7
100
AcDbLine
 10
241.5796404593
 20
188.34716389
 30
0.0
 11
249.577397385
 21
201.2149583446
 31
0.0
  0
LINE
  5
193
330
1F
100
AcDbEntity
  8
0
  6
Continuous
 62
     7
100
AcDbLine
 10
249.577397385
 20
201.2149583446
 30
0.0
 11
256.9214407304
 21
200.7077845481
 31
0.0
  0
LINE
  5
194
330
1F
100
AcDbEntity
  8
0
  6
Continuous
 62
     7
100
AcDbLine
 10
256.9214407304
 20
200.7077845481
 30
0.0
 11
271.1275567937
 21
198.9179821585
 31
0.0
  0
LINE
  5
195
330
1F
100
AcDbEntity
  8
0
  6
Continuous
 62
     7
100
AcDbLine
 10
271.1275567937
 20
198.9179821585
 30
0.0
 11
271.1275567937
 21
191.8469143465
 31
0.0
  0
LINE
  5
196
330
1F
100
AcDbEntity
  8
0
  6
Continuous
 62
     7
100
AcDbLine
 10
263.2525315045
 20
179.1765859421
 30
0.0
 11
271.1275567937
 21
191.8469143465
 31
0.0
  0
LINE
  5
197
330
1F
100
AcDbEntity
  8
0
  6
Continuous
 62
     7
100
AcDbLine
 10
255.9482113708
 20
324.3039203169
 30
0.0
 11
255.9482113708
 21
317.2328525048
 31
0.0
  0
LINE
  5
198
330
1F
100
AcDbEntity
  8
0
  6
Continuous
 62
     7
100
AcDbLine
 10
255.9482113708
 20
324.3039203169
 30
0.0
 11
263.2525315045
 21
330.7457251738
 31
0.0
  0
LINE
  5
199
330
1F
100
AcDbEntity
  8
0
  6
Continuous
 62
     7
100
AcDbLine
 10
263.2525315045
 20
330.7457251738
 30
0.0
 11
263.2525315045
 21
323.6746573617
 31
0.0
  0
LINE
  5
19A
330
1F
100
AcDbEntity
  8
0
  6
Continuous
 62
     7
100
AcDbLine
 10
255.9482113708
 20
317.2328525048
 30
0.0
 11
263.2525315045
 21
323.6746573617
 31
0.0
  0
LINE
  5
19B
330
1F
100
AcDbEntity
  8
0
  6
Continuous
 62
     7
100
AcDbLine
 10
234.9013885695
 20
326.9555707451
 30
0.0
 11
234.9013885695
 21
319.8845029331
 31
0.0
  0
LINE
  5
19C
330
1F
100
AcDbEntity
  8
0
  6
Continuous
 62
     7
100
AcDbLine
 10
234.9013885695
 20
326.9555707451
 30
0.0
 11
255.9482113708
 21
324.3039203169
 31
0.0
  0
LINE
  5
19D
330
1F
100
AcDbEntity
  8
0
  6
Continuous
 62
     7
100
AcDbLine
 10
234.9013885695
 20
319.8845029331
 30
0.0
 11
255.9482113708
 21
317.2328525048
 31
0.0
  0
LINE
  5
19E
330
1F
100
AcDbEntity
  8
0
  6
Continuous
 62
     7
100
AcDbLine
 10
263.2525315045
 20
330.7457251738
 30
0.0
 11
271.1275567937
 21
343.4160535782
 31
0.0
  0
LINE
  5
19F
330
1F
100
AcDbEntity
  8
0
  6
Continuous
 62
     7
100
AcDbLine
 10
234.9013885695
 20
326.9555707451
 30
0.0
 11
241.5796404593
 21
332.8452353096
 31
0.0
  0
LINE
  5
1A0
330
1F
100
AcDbEntity
  8
0
  6
Continuous
 62
     7
100
AcDbLine
 10
241.5796404593
 20
332.8452353096
 30
0.0
 11
249.577397385
 21
345.7130297643
 31
0.0
  0
LINE
  5
1A1
330
1F
100
AcDbEntity
  8
0
  6
Continuous
 62
     7
100
AcDbLine
 10
249.577397385
 20
345.7130297643
 30
0.0
 11
256.9214407304
 21
345.2058559677
 31
0.0
  0
LINE
  5
1A2
330
1F
100
AcDbEntity
  8
0
  6
Continuous
 62
     7
100
AcDbLine
 10
256.9214407304
 20
345.2058559677
 30
0.0
 11
271.1275567937
 21
343.4160535782
 31
0.0
  0
LINE
  5
1A3
330
1F
100
AcDbEntity
  8
0
  6
Continuous
 62
     7
100
AcDbLine
 10
271.1275567937
 20
343.4160535782
 30
0.0
 11
271.1275567937
 21
336.3449857661
 31
0.0
  0
LINE
  5
1A4
330
1F
100
AcDbEntity
  8
0
  6
Continuous
 62
     7
100
AcDbLine
 10
263.2525315045
 20
323.6746573617
 30
0.0
 11
271.1275567937
 21
336.3449857661
 31
0.0
  0
LINE
  5
1A5
330
1F
100
AcDbEntity
  8
0
  6
Continuous
 62
     7
100
AcDbLine
 10
65.5613547223
 20
339.885202121
 30
0.0
 11
58.7544365365
 21
340.9531323612
 31
0.0
  0
LINE
  5
1A6
330
1F
100
AcDbEntity
  8
0
  6
Continuous
 62
     7
100
AcDbLine
 10
58.7544365365
 20
340.9531323612
 30
0.0
 11
97.5114157119
 21
363.59811987
 31
0.0
  0
LINE
  5
1A7
330
1F
100
AcDbEntity
  8
0
  6
Continuous
 62
     7
100
AcDbLine
 10
102.3711533887
 20
361.3924880018
 30
0.0
 11
97.5114157119
 21
363.59811987
 31
0.0
  0
LINE
  5
1A8
330
1F
100
AcDbEntity
  8
0
  6
Continuous
 62
     7
100
AcDbLine
 10
65.5613547223
 20
339.885202121
 30
0.0
 11
102.3711533887
 21
361.3924880018
 31
0.0
  0
LINE
  5
1A9
330
1F
100
AcDbEntity
  8
0
  6
Continuous
 62
     7
100
AcDbLine
 10
65.5613547223
 20
339.885202121
 30
0.0
 11
65.5613547223
 21
100.411705552
 31
0.0
  0
LINE
  5
1AA
330
1F
100
AcDbEntity
  8
0
  6
Continuous
 62
     7
100
AcDbLine
 10
102.3711533887
 20
361.3924880018
 30
0.0
 11
102.3711533887
 21
283.675925948
 31
0.0
  0
LINE
  5
1AB
330
1F
100
AcDbEntity
  8
0
  6
Continuous
 62
     7
100
AcDbLine
 10
102.3711533887
 20
127.4721539338
 30
0.0
 11
102.3711533887
 21
121.9189914329
 31
0.0
  0
LINE
  5
1AC
330
1F
100
AcDbEntity
  8
0
  6
Continuous
 62
     7
100
AcDbLine
 10
65.5613547223
 20
100.411705552
 30
0.0
 11
79.9380020997
 21
108.8117152331
 31
0.0
  0
LINE
  5
1AD
330
1F
100
AcDbEntity
  8
0
  6
Continuous
 62
     7
100
AcDbLine
 10
100.4520247961
 20
120.7976800218
 30
0.0
 11
102.3711533887
 21
121.9189914329
 31
0.0
  0
LINE
  5
1AE
330
1F
100
AcDbEntity
  8
0
  6
Continuous
 62
     7
100
AcDbLine
 10
65.5613547223
 20
100.411705552
 30
0.0
 11
61.8057672211
 21
101.000915728
 31
0.0
  0
LINE
  5
1AF
330
1F
100
AcDbEntity
  8
0
  6
Continuous
 62
     7
100
AcDbLine
 10
58.7544365365
 20
340.9531323612
 30
0.0
 11
58.7544365365
 21
336.299075317
 31
0.0
  0
LINE
  5
1B0
330
1F
100
AcDbEntity
  8
0
  6
Continuous
 62
     7
100
AcDbLine
 10
154.8333932821
 20
364.2627497403
 30
0.0
 11
154.8333932821
 21
277.0663049999
 31
0.0
  0
LINE
  5
1B1
330
1F
100
AcDbEntity
  8
0
  6
Continuous
 62
     7
100
AcDbLine
 10
154.8333932821
 20
255.0661072285
 30
0.0
 11
154.8333932821
 21
179.9569737141
 31
0.0
  0
LINE
  5
1B2
330
1F
100
AcDbEntity
  8
0
  6
Continuous
 62
     7
100
AcDbLine
 10
154.8333932821
 20
154.1933502336
 30
0.0
 11
154.8333932821
 21
136.3790291044
 31
0.0
  0
LINE
  5
1B3
330
1F
100
AcDbEntity
  8
0
  6
Continuous
 62
     7
100
AcDbLine
 10
209.4979560074
 20
357.2424752625
 30
0.0
 11
209.4979560074
 21
297.9109233155
 31
0.0
  0
LINE
  5
1B4
330
1F
100
AcDbEntity
  8
0
  6
Continuous
 62
     7
100
AcDbLine
 10
209.4979560074
 20
200.0505810291
 30
0.0
 11
209.4979560074
 21
164.348902535
 31
0.0
  0
LINE
  5
1B5
330
1F
100
AcDbEntity
  8
0
  6
Continuous
 62
     7
100
AcDbLine
 10
154.8333932821
 20
136.3790291044
 30
0.0
 11
184.3546160999
 21
138.523719388
 31
0.0
  0
LINE
  5
1B6
330
1F
100
AcDbEntity
  8
0
  6
Continuous
 62
     7
100
AcDbLine
 10
154.8333932821
 20
136.3790291044
 30
0.0
 11
149.9736556053
 21
138.5846609726
 31
0.0
  0
LINE
  5
1B7
330
1F
100
AcDbEntity
  8
0
  6
Continuous
 62
     7
100
AcDbLine
 10
149.9736556053
 20
365.0083437232
 30
0.0
 11
149.9736556053
 21
277.6785743962
 31
0.0
  0
LINE
  5
1B8
330
1F
100
AcDbEntity
  8
0
  6
Continuous
 62
     7
100
AcDbLine
 10
149.9736556053
 20
255.6783766248
 30
0.0
 11
149.9736556053
 21
180.5692431104
 31
0.0
  0
LINE
  5
1B9
330
1F
100
AcDbEntity
  8
0
  6
Continuous
 62
     7
100
AcDbLine
 10
149.9736556053
 20
154.9842906039
 30
0.0
 11
149.9736556053
 21
138.5846609726
 31
0.0
  0
LINE
  5
1BA
330
1F
100
AcDbEntity
  8
0
  6
Continuous
 62
     7
100
AcDbLine
 10
210.0714887896
 20
357.1814768215
 30
0.0
 11
210.0714887896
 21
297.8553636817
 31
0.0
  0
LINE
  5
1BB
330
1F
100
AcDbEntity
  8
0
  6
Continuous
 62
     7
100
AcDbLine
 10
210.0714887896
 20
200.5563893993
 30
0.0
 11
210.0714887896
 21
164.2766441965
 31
0.0
  0
LINE
  5
1BC
330
1F
100
AcDbEntity
  8
0
  6
Continuous
 62
     7
100
AcDbLine
 10
313.4498030746
 20
370.2163613278
 30
0.0
 11
313.4498030746
 21
130.7428647589
 31
0.0
  0
LINE
  5
1BD
330
1F
100
AcDbEntity
  8
0
  6
Continuous
 62
     7
100
AcDbLine
 10
313.4498030746
 20
370.2163613278
 30
0.0
 11
322.0933484518
 21
371.799989389
 31
0.0
  0
LINE
  5
1BE
330
1F
100
AcDbEntity
  8
0
  6
Continuous
 62
     7
100
AcDbLine
 10
322.0933484518
 20
371.799989389
 30
0.0
 11
322.0933484518
 21
132.32649282
 31
0.0
  0
LINE
  5
1BF
330
1F
100
AcDbEntity
  8
0
  6
Continuous
 62
     7
100
AcDbLine
 10
313.4498030746
 20
130.7428647589
 30
0.0
 11
322.0933484518
 21
132.32649282
 31
0.0
  0
LINE
  5
1C0
330
1F
100
AcDbEntity
  8
0
  6
Continuous
 62
     7
100
AcDbLine
 10
278.4026759804
 20
377.3044967182
 30
0.0
 11
322.0933484518
 21
371.799989389
 31
0.0
  0
LINE
  5
1C1
330
1F
100
AcDbEntity
  8
0
  6
Continuous
 62
     7
100
AcDbLine
 10
276.8621886349
 20
374.8259674623
 30
0.0
 11
313.4498030746
 21
370.2163613278
 31
0.0
  0
LINE
  5
1C2
330
1F
100
AcDbEntity
  8
0
  6
Continuous
 62
     7
100
AcDbLine
 10
256.6130521252
 20
353.4665088696
 30
0.0
 11
256.6130521252
 21
345.2271530397
 31
0.0
  0
LINE
  5
1C3
330
1F
100
AcDbEntity
  8
0
  6
Continuous
 62
     7
100
AcDbLine
 10
256.6130521252
 20
317.8191869374
 30
0.0
 11
256.6130521252
 21
269.721480678
 31
0.0
  0
LINE
  5
1C4
330
1F
100
AcDbEntity
  8
0
  6
Continuous
 62
     7
100
AcDbLine
 10
256.6130521252
 20
242.8309859151
 30
0.0
 11
256.6130521252
 21
200.7290816201
 31
0.0
  0
LINE
  5
1C5
330
1F
100
AcDbEntity
  8
0
  6
Continuous
 62
     7
100
AcDbLine
 10
256.6130521252
 20
173.3211155178
 30
0.0
 11
256.6130521252
 21
137.9036222953
 31
0.0
  0
LINE
  5
1C6
330
1F
100
AcDbEntity
  8
0
  6
Continuous
 62
     7
100
AcDbLine
 10
256.6130521252
 20
137.9036222953
 30
0.0
 11
313.4498030746
 21
130.7428647589
 31
0.0
  0
LINE
  5
1C7
330
1F
100
AcDbEntity
  8
0
  6
Continuous
 62
     7
100
AcDbLine
 10
350.8552734122
 20
304.3906728336
 30
0.0
 11
350.8552734122
 21
299.4705471397
 31
0.0
  0
LINE
  5
1C8
330
1F
100
AcDbEntity
  8
0
  6
Continuous
 62
     7
100
AcDbLine
 10
350.8552734122
 20
304.3906728336
 30
0.0
 11
358.0795704273
 21
303.6908361217
 31
0.0
  0
LINE
  5
1C9
330
1F
100
AcDbEntity
  8
0
  6
Continuous
 62
     7
100
AcDbLine
 10
358.0795704273
 20
303.6908361217
 30
0.0
 11
358.0795704273
 21
64.2173395527
 31
0.0
  0
LINE
  5
1CA
330
1F
100
AcDbEntity
  8
0
  6
Continuous
 62
     7
100
AcDbLine
 10
355.7781644856
 20
64.4402828181
 30
0.0
 11
358.0795704273
 21
64.2173395527
 31
0.0
  0
LINE
  5
1CB
330
1F
100
AcDbEntity
  8
0
  6
Continuous
 62
     7
100
AcDbLine
 10
372.1838881855
 20
338.7068234063
 30
0.0
 11
380.8274335626
 21
340.2904514675
 31
0.0
  0
LINE
  5
1CC
330
1F
100
AcDbEntity
  8
0
  6
Continuous
 62
     7
100
AcDbLine
 10
358.0795704273
 20
303.6908361217
 30
0.0
 11
380.8274335626
 21
340.2904514675
 31
0.0
  0
LINE
  5
1CD
330
1F
100
AcDbEntity
  8
0
  6
Continuous
 62
     7
100
AcDbLine
 10
350.8552734122
 20
304.3906728336
 30
0.0
 11
372.1838881855
 21
338.7068234063
 31
0.0
  0
LINE
  5
1CE
330
1F
100
AcDbEntity
  8
0
  6
Continuous
 62
     7
100
AcDbLine
 10
380.8274335626
 20
340.2904514675
 30
0.0
 11
380.8274335626
 21
100.8169548985
 31
0.0
  0
LINE
  5
1CF
330
1F
100
AcDbEntity
  8
0
  6
Continuous
 62
     7
100
AcDbLine
 10
358.0795704273
 20
64.2173395527
 30
0.0
 11
380.8274335626
 21
100.8169548985
 31
0.0
  0
LINE
  5
1D0
330
1F
100
AcDbEntity
  8
0
  6
Continuous
 62
     7
100
AcDbLine
 10
54.5014470874
 20
89.9050538269
 30
0.0
 11
54.5014470874
 21
329.3785503959
 31
0.0
  0
LINE
  5
1D1
330
1F
100
AcDbEntity
  8
0
  6
Continuous
 62
     7
100
AcDbLine
 10
54.5014470874
 20
89.9050538269
 30
0.0
 11
47.4858394869
 21
90.788937303
 31
0.0
  0
LINE
  5
1D2
330
1F
100
AcDbEntity
  8
0
  6
Continuous
 62
     7
100
AcDbLine
 10
47.4858394869
 20
90.788937303
 30
0.0
 11
47.4858394869
 21
330.262433872
 31
0.0
  0
LINE
  5
1D3
330
1F
100
AcDbEntity
  8
0
  6
Continuous
 62
     7
100
AcDbLine
 10
54.5014470874
 20
329.3785503959
 30
0.0
 11
47.4858394869
 21
330.262433872
 31
0.0
  0
LINE
  5
1D4
330
1F
100
AcDbEntity
  8
0
  6
Continuous
 62
     7
100
AcDbLine
 10
61.8057672211
 20
96.3468586838
 30
0.0
 11
61.8057672211
 21
335.8203552528
 31
0.0
  0
LINE
  5
1D5
330
1F
100
AcDbEntity
  8
0
  6
Continuous
 62
     7
100
AcDbLine
 10
54.5014470874
 20
89.9050538269
 30
0.0
 11
61.8057672211
 21
96.3468586838
 31
0.0
  0
LINE
  5
1D6
330
1F
100
AcDbEntity
  8
0
  6
Continuous
 62
     7
100
AcDbLine
 10
54.5014470874
 20
329.3785503959
 30
0.0
 11
61.8057672211
 21
335.8203552528
 31
0.0
  0
LINE
  5
1D7
330
1F
100
AcDbEntity
  8
0
  6
Continuous
 62
     7
100
AcDbLine
 10
47.4858394869
 20
330.262433872
 30
0.0
 11
54.9988490353
 21
336.888285493
 31
0.0
  0
LINE
  5
1D8
330
1F
100
AcDbEntity
  8
0
  6
Continuous
 62
     7
100
AcDbLine
 10
61.8057672211
 20
335.8203552528
 30
0.0
 11
54.9988490353
 21
336.888285493
 31
0.0
  0
LINE
  5
1D9
330
1F
100
AcDbEntity
  8
0
  6
Continuous
 62
     7
100
AcDbLine
 10
348.2651549372
 20
292.3678020722
 30
0.0
 11
348.2651549372
 21
52.8943055032
 31
0.0
  0
LINE
  5
1DA
330
1F
100
AcDbEntity
  8
0
  6
Continuous
 62
     7
100
AcDbLine
 10
348.2651549372
 20
292.3678020722
 30
0.0
 11
355.7781644856
 21
298.9936536932
 31
0.0
  0
LINE
  5
1DB
330
1F
100
AcDbEntity
  8
0
  6
Continuous
 62
     7
100
AcDbLine
 10
355.7781644856
 20
298.9936536932
 30
0.0
 11
355.7781644856
 21
59.5201571243
 31
0.0
  0
LINE
  5
1DC
330
1F
100
AcDbEntity
  8
0
  6
Continuous
 62
     7
100
AcDbLine
 10
348.2651549372
 20
52.8943055032
 30
0.0
 11
355.7781644856
 21
59.5201571243
 31
0.0
  0
LINE
  5
1DD
330
1F
100
AcDbEntity
  8
0
  6
Continuous
 62
     7
100
AcDbLine
 10
341.2495473367
 20
293.2516855483
 30
0.0
 11
341.2495473367
 21
53.7781889793
 31
0.0
  0
LINE
  5
1DE
330
1F
100
AcDbEntity
  8
0
  6
Continuous
 62
     7
100
AcDbLine
 10
341.2495473367
 20
293.2516855483
 30
0.0
 11
348.2651549372
 21
292.3678020722
 31
0.0
  0
LINE
  5
1DF
330
1F
100
AcDbEntity
  8
0
  6
Continuous
 62
     7
100
AcDbLine
 10
341.2495473367
 20
53.7781889793
 30
0.0
 11
348.2651549372
 21
52.8943055032
 31
0.0
  0
LINE
  5
1E0
330
1F
100
AcDbEntity
  8
0
  6
Continuous
 62
     7
100
AcDbLine
 10
341.2495473367
 20
293.2516855483
 30
0.0
 11
348.5538674705
 21
299.6934904052
 31
0.0
  0
LINE
  5
1E1
330
1F
100
AcDbEntity
  8
0
  6
Continuous
 62
     7
100
AcDbLine
 10
348.5538674705
 20
299.6934904052
 30
0.0
 11
355.7781644856
 21
298.9936536932
 31
0.0
  0
LINE
  5
1E2
330
1F
100
AcDbEntity
  8
0
  6
Continuous
 62
     7
100
AcDbLine
 10
220.9517148684
 20
26.5900704918
 30
0.0
 11
223.6033652972
 21
28.9286063581
 31
0.0
  0
LINE
  5
1E3
330
1F
100
AcDbEntity
  8
0
  6
Continuous
 62
     7
100
AcDbLine
 10
220.9517148684
 20
26.5900704918
 30
0.0
 11
220.9517148684
 21
266.0635670608
 31
0.0
  0
LINE
  5
1E4
330
1F
100
AcDbEntity
  8
0
  6
Continuous
 62
     7
100
AcDbLine
 10
220.9517148684
 20
266.0635670608
 30
0.0
 11
223.6033652972
 21
268.402102927
 31
0.0
  0
LINE
  5
1E5
330
1F
100
AcDbEntity
  8
0
  6
Continuous
 62
     7
100
AcDbLine
 10
223.6033652972
 20
28.9286063581
 30
0.0
 11
223.6033652972
 21
268.402102927
 31
0.0
  0
LINE
  5
1E6
330
1F
100
AcDbEntity
  8
0
  6
Continuous
 62
     7
100
AcDbLine
 10
213.9361072679
 20
161.1171356161
 30
0.0
 11
213.9361072679
 21
256.3408488187
 31
0.0
  0
LINE
  5
1E7
330
1F
100
AcDbEntity
  8
0
  6
Continuous
 62
     7
100
AcDbLine
 10
213.9361072679
 20
256.3408488187
 30
0.0
 11
199.9048920671
 21
258.1086157709
 31
0.0
  0
LINE
  5
1E8
330
1F
100
AcDbEntity
  8
0
  6
Continuous
 62
     7
100
AcDbLine
 10
199.9048920671
 20
258.1086157709
 30
0.0
 11
199.9048920671
 21
162.8849025683
 31
0.0
  0
LINE
  5
1E9
330
1F
100
AcDbEntity
  8
0
  6
Continuous
 62
     7
100
AcDbLine
 10
199.9048920671
 20
162.8849025683
 30
0.0
 11
213.9361072679
 21
161.1171356161
 31
0.0
  0
LWPOLYLINE
  5
1EA
330
1F
100
AcDbEntity
  8
0
  6
Continuous
 62
     7
100
AcDbPolyline
 90
       18
 70
   128
 43
0.0
 10
204.5558998127
 20
115.9518757842
 10
204.4690459502
 20
116.4311184673
 10
204.2202144583
 20
116.8675218867
 10
203.8430114086
 20
117.2021473424
 10
203.3883801633
 20
117.3898018124
 10
202.9177211912
 20
117.4051415207
 10
202.4945995945
 20
117.2460947547
 10
202.1761602894
 20
116.9341416614
 10
202.0054102686
 20
116.5114132347
 10
202.0054102686
 20
116.035001291
 10
202.1761602894
 20
115.5692479032
 10
202.4945995945
 20
115.1770556472
 10
202.9177211912
 20
114.9113922604
 10
203.3883801633
 20
114.8081370552
 10
203.8430114086
 20
114.8812352192
 10
204.2202144583
 20
115.1208144404
 10
204.4690459502
 20
115.4945182173
 10
204.5558998127
 20
115.9518757842
  0
LWPOLYLINE
  5
1EB
330
1F
100
AcDbEntity
  8
0
  6
Continuous
 62
     7
100
AcDbPolyline
 90
       18
 70
   128
 43
0.0
 10
173.6118211036
 20
44.5542813477
 10
173.5249672411
 20
45.0335240308
 10
173.2761357492
 20
45.4699274502
 10
172.8989326995
 20
45.8045529059
 10
172.4443014542
 20
45.9922073759
 10
171.9736424821
 20
46.0075470842
 10
171.5505208854
 20
45.8485003181
 10
171.2320815803
 20
45.5365472249
 10
171.0613315595
 20
45.1138187982
 10
171.0613315595
 20
44.6374068545
 10
171.2320815803
 20
44.1716534667
 10
171.5505208854
 20
43.7794612107
 10
171.9736424821
 20
43.5137978239
 10
172.4443014542
 20
43.4105426186
 10
172.8989326995
 20
43.4836407827
 10
173.2761357492
 20
43.7232200038
 10
173.5249672411
 20
44.0969237808
 10
173.6118211036
 20
44.5542813477
  0
LWPOLYLINE
  5
1EC
330
1F
100
AcDbEntity
  8
0
  6
Continuous
 62
     7
100
AcDbPolyline
 90
       18
 70
   128
 43
0.0
 10
98.9062066089
 20
85.1550038194
 10
98.8193527465
 20
85.6342465025
 10
98.5705212545
 20
86.0706499219
 10
98.1933182049
 20
86.4052753776
 10
97.7386869596
 20
86.5929298476
 10
97.2680279874
 20
86.6082695559
 10
96.8449063907
 20
86.4492227899
 10
96.5264670856
 20
86.1372696966
 10
96.3557170648
 20
85.7145412699
 10
96.3557170648
 20
85.2381293262
 10
96.5264670856
 20
84.7723759385
 10
96.8449063907
 20
84.3801836825
 10
97.2680279874
 20
84.1145202956
 10
97.7386869596
 20
84.0112650904
 10
98.1933182049
 20
84.0843632544
 10
98.5705212545
 20
84.3239424756
 10
98.8193527465
 20
84.6976462525
 10
98.9062066089
 20
85.1550038194
  0
LWPOLYLINE
  5
1ED
330
1F
100
AcDbEntity
  8
0
  6
Continuous
 62
     7
100
AcDbPolyline
 90
       18
 70
   128
 43
0.0
 10
173.6118211036
 20
151.0391629883
 10
173.5249672411
 20
151.5184056714
 10
173.2761357492
 20
151.9548090908
 10
172.8989326995
 20
152.2894345465
 10
172.4443014542
 20
152.4770890165
 10
171.9736424821
 20
152.4924287248
 10
171.5505208854
 20
152.3333819587
 10
171.2320815803
 20
152.0214288655
 10
171.0613315595
 20
151.5987004388
 10
171.0613315595
 20
151.1222884951
 10
171.2320815803
 20
150.6565351073
 10
171.5505208854
 20
150.2643428513
 10
171.9736424821
 20
149.9986794645
 10
172.4443014542
 20
149.8954242592
 10
172.8989326995
 20
149.9685224233
 10
173.2761357492
 20
150.2081016444
 10
173.5249672411
 20
150.5818054214
 10
173.6118211036
 20
151.0391629883
  0
LWPOLYLINE
  5
1EE
330
1F
100
AcDbEntity
  8
0
  6
Continuous
 62
     7
100
AcDbPolyline
 90
       18
 70
   128
 43
0.0
 10
187.2767983863
 20
255.9283698614
 10
187.1899445239
 20
256.4076125445
 10
186.9411130319
 20
256.8440159639
 10
186.5639099823
 20
257.1786414196
 10
186.109278737
 20
257.3662958896
 10
185.6386197648
 20
257.3816355979
 10
185.2154981681
 20
257.2225888318
 10
184.897058863
 20
256.9106357386
 10
184.7263088422
 20
256.4879073119
 10
184.7263088422
 20
256.0114953682
 10
184.897058863
 20
255.5457419804
 10
185.2154981681
 20
255.1535497244
 10
185.6386197648
 20
254.8878863376
 10
186.109278737
 20
254.7846311323
 10
186.5639099823
 20
254.8577292964
 10
186.9411130319
 20
255.0973085175
 10
187.1899445239
 20
255.4710122945
 10
187.2767983863
 20
255.9283698614
  0
LWPOLYLINE
  5
1EF
330
1F
100
AcDbEntity
  8
0
  6
Continuous
 62
     7
100
AcDbPolyline
 90
       18
 70
   128
 43
0.0
 10
100.283264141
 20
179.2072840949
 10
100.1964102785
 20
179.686526778
 10
99.9475787866
 20
180.1229301974
 10
99.5703757369
 20
180.4575556531
 10
99.1157444916
 20
180.6452101231
 10
98.6450855195
 20
180.6605498314
 10
98.2219639228
 20
180.5015030654
 10
97.9035246177
 20
180.1895499721
 10
97.7327745969
 20
179.7668215454
 10
97.7327745969
 20
179.2904096017
 10
97.9035246177
 20
178.824656214
 10
98.2219639228
 20
178.432463958
 10
98.6450855195
 20
178.1668005711
 10
99.1157444916
 20
178.0635453659
 10
99.5703757369
 20
178.1366435299
 10
99.9475787866
 20
178.3762227511
 10
100.1964102785
 20
178.749926528
 10
100.283264141
 20
179.2072840949
  0
LWPOLYLINE
  5
1F0
330
1F
100
AcDbEntity
  8
0
  6
Continuous
 62
     7
100
AcDbPolyline
 90
      114
 70
   128
 43
0.0
 10
204.2311834207
 20
93.9390451225
 10
204.1480581967
 20
96.9623102512
 10
203.89893946
 20
99.9971762283
 10
203.4845972223
 20
103.0342624569
 10
202.9063121918
 20
106.0641814776
 10
202.1658718143
 20
109.0775679844
 10
201.2655647486
 20
112.0651077722
 10
200.2081737922
 20
115.0175665268
 10
198.9969672801
 20
117.9258183673
 10
197.6356889821
 20
120.780874054
 10
196.1285465314
 20
123.5739087733
 10
194.4801984189
 20
126.296289415
 10
192.6957395943
 20
128.9396012566
 10
190.7806857175
 20
131.4956739727
 10
188.7409561103
 20
133.9566068889
 10
186.58285546
 20
136.3147934026
 10
184.313054332
 20
138.5629444945
 10
181.9385685515
 20
140.6941112584
 10
179.466737518
 20
142.7017063799
 10
176.9052015197
 20
144.5795244976
 10
174.2618781174
 20
146.3217613833
 10
171.5449376723
 20
147.9230318826
 10
168.7627780916
 20
149.3783865602
 10
165.9239988712
 20
150.6833269981
 10
163.0373745149
 20
151.8338197003
 10
160.1118274132
 20
152.8263085597
 10
157.1564002645
 20
153.6577258502
 10
154.1802281248
 20
154.3255017085
 10
151.1925101717
 20
154.8275720778
 10
148.20248127
 20
155.1623850872
 10
145.2193834277
 20
155.3289058491
 10
142.2524372294
 20
155.3266196572
 10
139.3108133358
 20
155.1555335781
 10
136.4036041376
 20
154.8161764289
 10
133.5397956519
 20
154.3095971433
 10
130.7282397466
 20
153.6373615287
 10
127.97762678
 20
152.8015474269
 10
125.296458739
 20
151.8047382914
 10
122.6930229604
 20
150.6500152022
 10
120.175366515
 20
149.340947342
 10
117.7512713346
 20
147.8815809646
 10
115.4282301586
 20
146.276426888
 10
113.2134233739
 20
144.5304465513
 10
111.1136968215
 20
142.6490366797
 10
109.1355406359
 20
140.6380126033
 10
107.2850691843
 20
138.5035902822
 10
105.5680021681
 20
136.2523670936
 10
103.989646943
 20
133.8913014393
 10
102.5548821146
 20
131.427691238
 10
101.2681424586
 20
128.8691513676
 10
100.1334052137
 20
126.2235901281
 10
99.1541777875
 20
123.4991847979
 10
98.3334869161
 20
120.7043563576
 10
97.6738693078
 20
117.8477434617
 10
97.1773638029
 20
114.9381757371
 10
96.8455050713
 20
111.9846464908
 10
96.6793188696
 20
108.9962849125
 10
96.6793188696
 20
105.9823278565
 10
96.8455050713
 20
102.9520912914
 10
97.1773638029
 20
99.9149415048
 10
97.6738693078
 20
96.8802661526
 10
98.3334869161
 20
93.8574452423
 10
99.1541777875
 20
90.8558221403
 10
100.1334052137
 20
87.8846746915
 10
101.2681424586
 20
84.9531865423
 10
102.5548821146
 20
82.0704187547
 10
103.989646943
 20
79.2452817987
 10
105.5680021681
 20
76.4865080107
 10
107.2850691843
 20
73.8026246024
 10
109.1355406359
 20
71.2019273036
 10
111.1136968215
 20
68.6924547206
 10
113.2134233739
 20
66.2819634894
 10
115.4282301586
 20
63.9779043002
 10
117.7512713346
 20
61.7873988679
 10
120.175366515
 20
59.7172179193
 10
122.6930229604
 20
57.773760265
 10
125.296458739
 20
55.9630330213
 10
127.97762678
 20
54.2906330424
 10
130.7282397466
 20
52.7617296207
 10
133.5397956519
 20
51.3810485091
 10
136.4036041376
 20
50.1528573138
 10
139.3108133358
 20
49.0809523033
 10
142.2524372294
 20
48.1686466747
 10
145.2193834277
 20
47.4187603123
 10
148.20248127
 20
46.833611072
 10
151.1925101717
 20
46.4150076164
 10
154.1802281248
 20
46.164243825
 10
157.1564002645
 20
46.0820947941
 10
160.1118274132
 20
46.1688144418
 10
163.0373745149
 20
46.4241347225
 10
165.9239988712
 20
46.847266456
 10
168.7627780916
 20
47.4369017663
 10
171.5449376723
 20
48.1912181243
 10
174.2618781174
 20
49.1078839816
 10
176.9052015197
 20
50.1840659765
 10
179.466737518
 20
51.416437692
 10
181.9385685515
 20
52.8011899379
 10
184.313054332
 20
54.3340425243
 10
186.58285546
 20
56.0102574917
 10
188.7409561103
 20
57.8246537557
 10
190.7806857175
 20
59.7716231214
 10
192.6957395943
 20
61.8451476181
 10
194.4801984189
 20
64.0388181005
 10
196.1285465314
 20
66.3458540587
 10
197.6356889821
 20
68.7591245768
 10
198.9969672801
 20
71.2711703739
 10
200.2081737922
 20
73.8742268606
 10
201.2655647486
 20
76.5602481382
 10
202.1658718143
 20
79.320931869
 10
202.9063121918
 20
82.1477449378
 10
203.4845972223
 20
85.0319498274
 10
203.89893946
 20
87.9646316258
 10
204.1480581967
 20
90.9367255815
 10
204.2311834207
 20
93.9390451225
  0
LINE
  5
1F1
330
1F
100
AcDbEntity
  8
0
  6
Continuous
 62
     7
100
AcDbLine
 10
79.9380020997
 20
44.3561283608
 30
0.0
 11
220.9517148684
 21
26.5900704918
 31
0.0
  0
LINE
  5
1F2
330
1F
100
AcDbEntity
  8
0
  6
Continuous
 62
     7
100
AcDbLine
 10
79.9380020997
 20
283.8296249298
 30
0.0
 11
79.9380020997
 21
44.3561283608
 31
0.0
  0
LINE
  5
1F3
330
1F
100
AcDbEntity
  8
0
  6
Continuous
 62
     7
100
AcDbLine
 10
220.9517148684
 20
266.0635670608
 30
0.0
 11
79.9380020997
 21
283.8296249298
 31
0.0
  0
LWPOLYLINE
  5
1F4
330
1F
100
AcDbEntity
  8
0
  6
Continuous
 62
     7
100
AcDbPolyline
 90
       18
 70
   128
 43
0.0
 10
129.850285318
 20
156.5525982559
 10
129.7634314556
 20
157.031840939
 10
129.5145999636
 20
157.4682443584
 10
129.137396914
 20
157.8028698141
 10
128.6827656687
 20
157.9905242841
 10
128.2121066965
 20
158.0058639924
 10
127.7889850998
 20
157.8468172264
 10
127.4705457947
 20
157.5348641331
 10
127.2997957739
 20
157.1121357064
 10
127.2997957739
 20
156.6357237627
 10
127.4705457947
 20
156.169970375
 10
127.7889850998
 20
155.777778119
 10
128.2121066965
 20
155.5121147321
 10
128.6827656687
 20
155.4088595269
 10
129.137396914
 20
155.4819576909
 10
129.5145999636
 20
155.7215369121
 10
129.7634314556
 20
156.095240689
 10
129.850285318
 20
156.5525982559
  0
LWPOLYLINE
  5
1F5
330
1F
100
AcDbEntity
  8
0
  6
Continuous
 62
     7
100
AcDbPolyline
 90
       18
 70
   128
 43
0.0
 10
100.283264141
 20
266.8885249646
 10
100.1964102785
 20
267.3677676477
 10
99.9475787866
 20
267.8041710671
 10
99.5703757369
 20
268.1387965229
 10
99.1157444916
 20
268.3264509929
 10
98.6450855195
 20
268.3417907011
 10
98.2219639228
 20
268.1827439351
 10
97.9035246177
 20
267.8707908418
 10
97.7327745969
 20
267.4480624151
 10
97.7327745969
 20
266.9716504715
 10
97.9035246177
 20
266.5058970837
 10
98.2219639228
 20
266.1137048277
 10
98.6450855195
 20
265.8480414408
 10
99.1157444916
 20
265.7447862356
 10
99.5703757369
 20
265.8178843996
 10
99.9475787866
 20
266.0574636208
 10
100.1964102785
 20
266.4311673978
 10
100.283264141
 20
266.8885249646
  0
LWPOLYLINE
  5
1F6
330
1F
100
AcDbEntity
  8
0
  6
Continuous
 62
     7
100
AcDbPolyline
 90
       18
 70
   128
 43
0.0
 10
187.2767983863
 20
168.2471289916
 10
187.1899445239
 20
168.7263716747
 10
186.9411130319
 20
169.1627750941
 10
186.5639099823
 20
169.4974005498
 10
186.109278737
 20
169.6850550198
 10
185.6386197648
 20
169.7003947281
 10
185.2154981681
 20
169.5413479621
 10
184.897058863
 20
169.2293948688
 10
184.7263088422
 20
168.8066664421
 10
184.7263088422
 20
168.3302544985
 10
184.897058863
 20
167.8645011107
 10
185.2154981681
 20
167.4723088547
 10
185.6386197648
 20
167.2066454678
 10
186.109278737
 20
167.1033902626
 10
186.5639099823
 20
167.1764884266
 10
186.9411130319
 20
167.4160676478
 10
187.1899445239
 20
167.7897714247
 10
187.2767983863
 20
168.2471289916
  0
ARC
  5
1F7
330
1F
100
AcDbEntity
  8
0
  6
Continuous
 62
     7
100
AcDbCircle
 10
112.0819059728
 20
190.9090705595
 30
0.0
 40
8.175070084587814
100
AcDbArc
 50
180.9647392397
 51
261.8545049821
  0
LINE
  5
1F8
330
1F
100
AcDbEntity
  8
0
  6
Continuous
 62
     7
100
AcDbLine
 10
110.923602335
 20
182.816474958
 30
0.0
 11
174.0640707388
 21
174.8615236733
 31
0.0
  0
ARC
  5
1F9
330
1F
100
AcDbEntity
  8
0
  6
Continuous
 62
     7
100
AcDbCircle
 10
174.9649735683
 20
180.9110636959
 30
0.0
 40
6.116253787461415
100
AcDbArc
 50
261.5297123691
 51
1.2895318533
  0
LINE
  5
1FA
330
1F
100
AcDbEntity
  8
0
  6
Continuous
 62
     7
100
AcDbLine
 10
181.0796783393
 20
181.0487080094
 30
0.0
 11
181.0796783393
 21
244.688318318
 31
0.0
  0
ARC
  5
1FB
330
1F
100
AcDbEntity
  8
0
  6
Continuous
 62
     7
100
AcDbCircle
 10
172.905767101
 20
244.5506740046
 30
0.0
 40
8.175070084587766
100
AcDbArc
 50
0.9647392397
 51
81.8545049821
  0
LINE
  5
1FC
330
1F
100
AcDbEntity
  8
0
  6
Continuous
 62
     7
100
AcDbLine
 10
174.0640707388
 20
252.6432696062
 30
0.0
 11
110.923602335
 21
260.5982208908
 31
0.0
  0
ARC
  5
1FD
330
1F
100
AcDbEntity
  8
0
  6
Continuous
 62
     7
100
AcDbCircle
 10
110.0226995054
 20
254.5486808683
 30
0.0
 40
6.116253787461319
100
AcDbArc
 50
81.5297123691
 51
181.2895318533
  0
LINE
  5
1FE
330
1F
100
AcDbEntity
  8
0
  6
Continuous
 62
     7
100
AcDbLine
 10
103.9079947345
 20
254.4110365548
 30
0.0
 11
103.9079947345
 21
190.7714262461
 31
0.0
  0
LWPOLYLINE
  5
1FF
330
1F
100
AcDbEntity
  8
0
  6
Continuous
 62
     7
100
AcDbPolyline
 90
       18
 70
   128
 43
0.0
 10
98.9062066089
 20
129.2624859826
 10
98.8193527465
 20
129.7417286657
 10
98.5705212545
 20
130.1781320851
 10
98.1933182049
 20
130.5127575409
 10
97.7386869596
 20
130.7004120109
 10
97.2680279874
 20
130.7157517191
 10
96.8449063907
 20
130.5567049531
 10
96.5264670856
 20
130.2447518598
 10
96.3557170648
 20
129.8220234331
 10
96.3557170648
 20
129.3456114895
 10
96.5264670856
 20
128.8798581017
 10
96.8449063907
 20
128.4876658457
 10
97.2680279874
 20
128.2220024588
 10
97.7386869596
 20
128.1187472536
 10
98.1933182049
 20
128.1918454176
 10
98.5705212545
 20
128.4314246388
 10
98.8193527465
 20
128.8051284158
 10
98.9062066089
 20
129.2624859826
  0
LWPOLYLINE
  5
200
330
1F
100
AcDbEntity
  8
0
  6
Continuous
 62
     7
100
AcDbPolyline
 90
       18
 70
   128
 43
0.0
 10
129.850285318
 20
50.0677166153
 10
129.7634314556
 20
50.5469592984
 10
129.5145999636
 20
50.9833627178
 10
129.137396914
 20
51.3179881735
 10
128.6827656687
 20
51.5056426435
 10
128.2121066965
 20
51.5209823518
 10
127.7889850998
 20
51.3619355858
 10
127.4705457947
 20
51.0499824925
 10
127.2997957739
 20
50.6272540658
 10
127.2997957739
 20
50.1508421222
 10
127.4705457947
 20
49.6850887344
 10
127.7889850998
 20
49.2928964784
 10
128.2121066965
 20
49.0272330915
 10
128.6827656687
 20
48.9239778863
 10
129.137396914
 20
48.9970760503
 10
129.5145999636
 20
49.2366552715
 10
129.7634314556
 20
49.6103590484
 10
129.850285318
 20
50.0677166153
  0
LWPOLYLINE
  5
201
330
1F
100
AcDbEntity
  8
0
  6
Continuous
 62
     7
100
AcDbPolyline
 90
       18
 70
   128
 43
0.0
 10
204.5558998127
 20
71.844393621
 10
204.4690459502
 20
72.3236363041
 10
204.2202144583
 20
72.7600397235
 10
203.8430114086
 20
73.0946651792
 10
203.3883801633
 20
73.2823196492
 10
202.9177211912
 20
73.2976593575
 10
202.4945995945
 20
73.1386125914
 10
202.1761602894
 20
72.8266594981
 10
202.0054102686
 20
72.4039310714
 10
202.0054102686
 20
71.9275191278
 10
202.1761602894
 20
71.46176574
 10
202.4945995945
 20
71.069573484
 10
202.9177211912
 20
70.8039100972
 10
203.3883801633
 20
70.7006548919
 10
203.8430114086
 20
70.773753056
 10
204.2202144583
 20
71.0133322771
 10
204.4690459502
 20
71.3870360541
 10
204.5558998127
 20
71.844393621
  0
LINE
  5
202
330
1F
100
AcDbEntity
  8
0
  6
Continuous
 62
     7
100
AcDbLine
 10
79.9380020997
 20
283.8296249298
 30
0.0
 11
82.5896525286
 21
286.1681607961
 31
0.0
  0
LINE
  5
203
330
1F
100
AcDbEntity
  8
0
  6
Continuous
 62
     7
100
AcDbLine
 10
223.6033652972
 20
268.402102927
 30
0.0
 11
82.5896525286
 21
286.1681607961
 31
0.0
  0
LINE
  5
204
330
1F
100
AcDbEntity
  8
0
  6
Continuous
 62
     7
100
AcDbLine
 10
199.9048920671
 20
162.8849025683
 30
0.0
 11
202.5565424959
 21
165.2234384345
 31
0.0
  0
LINE
  5
205
330
1F
100
AcDbEntity
  8
0
  6
Continuous
 62
     7
100
AcDbLine
 10
202.5565424959
 20
257.7745392187
 30
0.0
 11
202.5565424959
 21
165.2234384345
 31
0.0
  0
LINE
  5
206
330
1F
100
AcDbEntity
  8
0
  6
Continuous
 62
     7
100
AcDbLine
 10
202.5565424959
 20
165.2234384345
 30
0.0
 11
213.9361072679
 21
163.7897480345
 31
0.0
  0
ARC
  5
207
330
1F
100
AcDbEntity
  8
0
  6
Continuous
 62
     7
100
AcDbCircle
 10
177.5853418871
 20
183.5949151299
 30
0.0
 40
6.45371352142237
100
AcDbArc
 50
262.2559900517
 51
293.6111118868
  0
ARC
  5
208
330
1F
100
AcDbEntity
  8
0
  6
Continuous
 62
     7
100
AcDbCircle
 10
113.0130468391
 20
256.8130155322
 30
0.0
 40
6.453713521477783
100
AcDbArc
 50
149.2081323331
 51
180.5632541704
  0
LWPOLYLINE
  5
209
330
1F
100
AcDbEntity
  8
0
  6
Continuous
 62
     7
100
AcDbPolyline
 90
       57
 70
   128
 43
0.0
 10
113.7611248673
 20
144.9835416567
 10
111.7871910647
 20
142.9765484695
 10
109.9367196132
 20
140.8421261485
 10
108.219652597
 20
138.5909029599
 10
106.6412973719
 20
136.2298373056
 10
105.2065325434
 20
133.7662271043
 10
103.9197928874
 20
131.2076872338
 10
102.7850556425
 20
128.5621259944
 10
101.8058282164
 20
125.8377206641
 10
100.9851373449
 20
123.0428922238
 10
100.3255197366
 20
120.186279328
 10
99.8290142317
 20
117.2767116033
 10
99.4971555002
 20
114.3231823571
 10
99.3309692984
 20
111.3348207787
 10
99.3309692984
 20
108.3208637228
 10
99.4971555002
 20
105.2906271577
 10
99.8290142317
 20
102.2534773711
 10
100.3255197366
 20
99.2188020188
 10
100.9851373449
 20
96.1959811086
 10
101.8058282164
 20
93.1943580066
 10
102.7850556425
 20
90.2232105577
 10
103.9197928874
 20
87.2917224086
 10
105.2065325434
 20
84.408954621
 10
106.6412973719
 20
81.583817665
 10
108.219652597
 20
78.825043877
 10
109.9367196132
 20
76.1411604687
 10
111.7871910647
 20
73.5404631699
 10
113.7653472504
 20
71.0309905869
 10
115.8650738027
 20
68.6204993556
 10
118.0798805874
 20
66.3164401664
 10
120.4029217635
 20
64.1259347341
 10
122.8270169439
 20
62.0557537855
 10
125.3446733892
 20
60.1122961313
 10
127.9481091678
 20
58.3015688876
 10
130.6292772088
 20
56.6291689087
 10
133.3798901755
 20
55.100265487
 10
136.1914460807
 20
53.7195843753
 10
139.0552545664
 20
52.49139318
 10
141.9624637646
 20
51.4194881696
 10
144.9040876583
 20
50.5071825409
 10
147.8710338566
 20
49.7572961786
 10
150.8541316988
 20
49.1721469382
 10
153.8441606005
 20
48.7535434827
 10
156.8318785537
 20
48.5027796912
 10
159.8080506934
 20
48.4206306603
 10
162.763477842
 20
48.507350308
 10
165.6890249437
 20
48.7626705888
 10
168.5756493
 20
49.1858023222
 10
171.4144285204
 20
49.7754376325
 10
174.1965881011
 20
50.5297539906
 10
176.9135285462
 20
51.4464198479
 10
179.5568519485
 20
52.5226018427
 10
182.1183879469
 20
53.7549735583
 10
184.5902189803
 20
55.1397258042
 10
186.9647047608
 20
56.6725783906
 10
189.2345058888
 20
58.3487933579
 10
189.7802425296
 20
58.7859644211
  0
LINE
  5
20A
330
1F
100
AcDbEntity
  8
0
  6
Continuous
 62
     7
100
AcDbLine
 10
113.5752527638
 20
185.1550108242
 30
0.0
 11
176.7157211677
 21
177.2000595396
 31
0.0
  0
LINE
  5
20B
330
1F
100
AcDbEntity
  8
0
  6
Continuous
 62
     7
100
AcDbLine
 10
106.5596451634
 20
256.7495724211
 30
0.0
 11
106.5596451634
 21
193.1099621124
 31
0.0
  0
ARC
  5
20C
330
1F
100
AcDbEntity
  8
0
  6
Continuous
 62
     7
100
AcDbCircle
 10
114.7335564016
 20
193.2476064258
 30
0.0
 40
8.1750700845878
100
AcDbArc
 50
180.9647392397
 51
261.8545049821
  0
LINE
  5
20D
330
1F
100
AcDbEntity
  8
0
  6
Continuous
 62
     8
370
     0
100
AcDbLine
 10
253.1321282669
 20
22.4166380331
 30
0.0
 11
253.1321282669
 21
17.702592825
 31
0.0
  0
LWPOLYLINE
  5
20E
330
1F
100
AcDbEntity
  8
0
  6
Continuous
 62
     8
370
     0
100
AcDbPolyline
 90
       16
 70
   128
 43
0.0
 10
120.1500491739
 20
34.4567599647
 10
128.5235040878
 20
32.9544581053
 10
136.9807012941
 20
31.5052146053
 10
145.5186153018
 20
30.1095479194
 10
154.1341917442
 20
28.7679573355
 10
162.8243484715
 20
27.4809227964
 10
171.5859766533
 20
26.2489047278
 10
180.4159418911
 20
25.0723438738
 10
189.3110853393
 20
23.9516611391
 10
198.2682248353
 20
22.8872574385
 10
207.2841560379
 20
21.8795135535
 10
216.3556535739
 20
20.928789996
 10
225.4794721914
 20
20.0354268792
 10
234.6523479214
 20
19.1997437963
 10
243.8709992448
 20
18.4220397059
 10
253.1321282669
 20
17.702592825
  0
LINE
  5
20F
330
1F
100
AcDbEntity
  8
0
  6
Continuous
 62
     8
370
     0
100
AcDbLine
 10
120.1500491739
 20
39.1708051727
 30
0.0
 11
120.1500491739
 21
34.4567599647
 31
0.0
  0
LWPOLYLINE
  5
210
330
1F
100
AcDbEntity
  8
0
  6
Continuous
 62
     8
370
     0
100
AcDbPolyline
 90
        8
 70
   128
 43
0.0
 10
253.1321282669
 20
17.702592825
 10
253.1425883277
 20
17.2583885679
 10
253.1735665359
 20
16.8625109146
 10
253.2238724163
 20
16.5301732215
 10
253.2915727421
 20
16.2741470395
 10
253.3740658279
 20
16.1042713114
 10
253.4681815104
 20
16.0270742661
 10
253.4909942954
 20
16.0228222387
  0
LWPOLYLINE
  5
211
330
1F
100
AcDbEntity
  8
0
  6
Continuous
 62
     8
370
     0
100
AcDbPolyline
 90
        8
 70
   128
 43
0.0
 10
120.1500491739
 20
34.4567599647
 10
120.1732150622
 20
34.0109549237
 10
120.2418224748
 20
33.6103364364
 10
120.3532348673
 20
33.2703000463
 10
120.5031707241
 20
33.0039131613
 10
120.6858680942
 20
32.8214128801
 10
120.8943060201
 20
32.7298125859
 10
120.9046659513
 20
32.72780621
  0
LINE
  5
212
330
1F
100
AcDbEntity
  8
0
  6
Continuous
 62
     8
370
     0
100
AcDbLine
 10
258.8979549803
 20
23.4540563093
 30
0.0
 11
258.8979549803
 21
18.7400111013
 31
0.0
  0
LWPOLYLINE
  5
213
330
1F
100
AcDbEntity
  8
0
  6
Continuous
 62
     8
370
     0
100
AcDbPolyline
 90
        9
 70
   128
 43
0.0
 10
253.1321282669
 20
17.702592825
 10
254.0164790694
 20
17.6639933704
 10
254.9073338952
 20
17.6783819557
 10
255.7763462566
 20
17.7453007446
 10
256.5958646808
 20
17.8626204196
 10
257.3398125635
 20
18.0266079364
 10
257.9845179114
 20
18.2320453065
 10
258.5094665717
 20
18.4723956311
 10
258.8979549803
 20
18.7400111013
  0
ARC
  5
214
330
1F
100
AcDbEntity
  8
0
  6
Continuous
 62
     8
370
     0
100
AcDbCircle
 10
256.8332088868
 20
18.6962847699
 30
0.0
 40
2.065209050602252
100
AcDbArc
 50
311.8817514614
 51
1.2132047682
  0
LINE
  5
215
330
1F
100
AcDbEntity
  8
0
  6
Continuous
 62
     8
370
     0
100
AcDbLine
 10
258.8979549803
 20
18.7400111013
 30
0.0
 11
270.4768285196
 21
28.9516177173
 31
0.0
  0
LINE
  5
216
330
1F
100
AcDbEntity
  8
0
  6
Continuous
 62
     8
370
     0
100
AcDbLine
 10
270.4768285196
 20
28.9516177173
 30
0.0
 11
293.224691655
 21
65.5512330631
 31
0.0
  0
LWPOLYLINE
  5
217
330
1F
100
AcDbEntity
  8
0
  6
Continuous
 62
     8
370
     0
100
AcDbPolyline
 90
        7
 70
   128
 43
0.0
 10
117.5613139453
 20
35.9168133196
 10
117.6372335052
 20
35.6274784848
 10
117.8697917768
 20
35.3404627568
 10
118.251631582
 20
35.0717861718
 10
118.7706029981
 20
34.829997864
 10
119.4101926536
 20
34.6227913982
 10
120.1500491739
 20
34.4567599647
  0
LWPOLYLINE
  5
218
330
1F
100
AcDbEntity
  8
0
  6
Continuous
 62
     8
370
     0
100
AcDbPolyline
 90
       16
 70
   128
 43
0.0
 10
121.3556815596
 20
377.8586359668
 10
129.687499374
 20
376.3638043204
 10
138.1026430713
 20
374.9217672002
 10
146.5981022049
 20
373.5330404827
 10
155.1708375957
 20
372.1981209732
 10
163.8177824202
 20
370.9174862279
 10
172.5358433065
 20
369.6915943831
 10
181.3219014421
 20
368.5208839913
 10
190.1728136886
 20
367.4057738642
 10
199.0854137069
 20
366.3466629231
 10
208.0565130895
 20
365.343930056
 10
217.0829025011
 20
364.3979339821
 10
226.1613528272
 20
363.5090131236
 10
235.2886163286
 20
362.6774854843
 10
244.4614278038
 20
361.9036485363
 10
253.6765057568
 20
361.1877791132
  0
ARC
  5
219
330
1F
100
AcDbEntity
  8
0
  6
Continuous
 62
     8
370
     0
100
AcDbCircle
 10
260.6071263099
 20
358.3658161941
 30
0.0
 40
7.483112719188027
100
AcDbArc
 50
157.8451641769
 51
182.6685253709
  0
LWPOLYLINE
  5
21A
330
1F
100
AcDbEntity
  8
0
  6
Continuous
 62
     8
370
     0
100
AcDbPolyline
 90
       16
 70
   128
 43
0.0
 10
253.1321282669
 20
358.0174195457
 10
243.8709992448
 20
358.7368664265
 10
234.6523479214
 20
359.514570517
 10
225.4794721914
 20
360.3502535998
 10
216.3556535739
 20
361.2436167166
 10
207.2841560379
 20
362.1943402742
 10
198.2682248353
 20
363.2020841592
 10
189.3110853393
 20
364.2664878598
 10
180.4159418911
 20
365.3871705944
 10
171.5859766533
 20
366.5637314484
 10
162.8243484715
 20
367.795749517
 10
154.1341917442
 20
369.0827840561
 10
145.5186153018
 20
370.42437464
 10
136.9807012941
 20
371.8200413259
 10
128.5235040878
 20
373.2692848259
 10
120.1500491739
 20
374.7715866853
  0
ARC
  5
21B
330
1F
100
AcDbEntity
  8
0
  6
Continuous
 62
     8
370
     0
100
AcDbCircle
 10
124.055851366
 20
375.0251458843
 30
0.0
 40
3.914023892492834
100
AcDbArc
 50
133.6198624701
 51
183.7143495307
  0
LINE
  5
21C
330
1F
100
AcDbEntity
  8
0
  6
Continuous
 62
     8
370
     0
100
AcDbLine
 10
120.1500491739
 20
374.7715866853
 30
0.0
 11
120.1500491739
 21
370.0575414773
 31
0.0
  0
LINE
  5
21D
330
1F
100
AcDbEntity
  8
0
  6
Continuous
 62
     8
370
     0
100
AcDbLine
 10
253.1321282669
 20
358.0174195457
 30
0.0
 11
253.1321282669
 21
353.3033743376
 31
0.0
  0
LWPOLYLINE
  5
21E
330
1F
100
AcDbEntity
  8
0
  6
Continuous
 62
     8
370
     0
100
AcDbPolyline
 90
        9
 70
   128
 43
0.0
 10
120.2227780785
 20
378.8832904696
 10
120.1029447388
 20
378.7401078468
 10
120.0613352915
 20
378.5921063248
 10
120.0992737253
 20
378.4439952269
 10
120.215552861
 20
378.3004873629
 10
120.4064727636
 20
378.1661490704
 10
120.6659584717
 20
378.0452549165
 10
120.9857532995
 20
377.9416516836
 10
121.3556815596
 20
377.8586359668
  0
LINE
  5
21F
330
1F
100
AcDbEntity
  8
0
  6
Continuous
 62
     8
370
     0
100
AcDbLine
 10
131.7320884795
 20
389.0335481642
 30
0.0
 11
120.2227780785
 21
378.8832904696
 31
0.0
  0
LINE
  5
220
330
1F
100
AcDbEntity
  8
0
  6
Continuous
 62
     8
370
     0
100
AcDbLine
 10
169.8400074853
 20
411.2993017971
 30
0.0
 11
131.7320884795
 21
389.0335481642
 31
0.0
  0
LINE
  5
221
330
1F
100
AcDbEntity
  8
0
  6
Continuous
 62
     8
370
     0
100
AcDbLine
 10
228.1267505166
 20
415.5337812496
 30
0.0
 11
169.8400074853
 21
411.2993017971
 31
0.0
  0
LINE
  5
222
330
1F
100
AcDbEntity
  8
0
  6
Continuous
 62
     8
370
     0
100
AcDbLine
 10
290.3435098626
 20
407.6952063674
 30
0.0
 11
228.1267505166
 21
415.5337812496
 31
0.0
  0
LINE
  5
223
330
1F
100
AcDbEntity
  8
0
  6
Continuous
 62
     8
370
     0
100
AcDbLine
 10
268.0687295146
 20
371.8567459459
 30
0.0
 11
290.3435098626
 21
407.6952063674
 31
0.0
  0
LINE
  5
224
330
1F
100
AcDbEntity
  8
0
  6
Continuous
 62
     8
370
     0
100
AcDbLine
 10
256.5594191135
 20
361.7064882513
 30
0.0
 11
268.0687295146
 21
371.8567459459
 31
0.0
  0
ARC
  5
225
330
1F
100
AcDbEntity
  8
0
  6
Continuous
 62
     8
370
     0
100
AcDbCircle
 10
254.3421552173
 20
365.7589624632
 30
0.0
 40
4.619394594939428
100
AcDbArc
 50
261.7149007762
 51
298.6847585804
  0
ARC
  5
226
330
1F
100
AcDbEntity
  8
0
  6
Continuous
 62
     8
370
     0
100
AcDbCircle
 10
256.1681408887
 20
359.0043906885
 30
0.0
 40
2.730280184894074
100
AcDbArc
 50
1.0587090425
 51
81.7605351794
  0
LWPOLYLINE
  5
227
330
1F
100
AcDbEntity
  8
0
  6
Continuous
 62
     8
370
     0
100
AcDbPolyline
 90
        9
 70
   128
 43
0.0
 10
258.8979549803
 20
359.054837822
 10
258.5094665717
 20
358.7872223517
 10
257.9845179114
 20
358.5468720271
 10
257.3398125635
 20
358.341434657
 10
256.5958646808
 20
358.1774471403
 10
255.7763462566
 20
358.0601274652
 10
254.9073338952
 20
357.9932086764
 10
254.0164790694
 20
357.978820091
 10
253.1321282669
 20
358.0174195457
  0
LINE
  5
228
330
1F
100
AcDbEntity
  8
0
  6
Continuous
 62
     8
370
     0
100
AcDbLine
 10
258.8979549803
 20
359.054837822
 30
0.0
 11
258.8979549803
 21
354.3407926139
 31
0.0
  0
LINE
  5
229
330
1F
100
AcDbEntity
  8
0
  6
Continuous
 62
     8
370
     0
100
AcDbLine
 10
270.4768285196
 20
369.2664444379
 30
0.0
 11
258.8979549803
 21
359.054837822
 31
0.0
  0
LINE
  5
22A
330
1F
100
AcDbEntity
  8
0
  6
Continuous
 62
     8
370
     0
100
AcDbLine
 10
293.224691655
 20
405.8660597837
 30
0.0
 11
270.4768285196
 21
369.2664444379
 31
0.0
  0
LWPOLYLINE
  5
22B
330
1F
100
AcDbEntity
  8
0
  6
Continuous
 62
     8
370
     0
100
AcDbPolyline
 90
        7
 70
   128
 43
0.0
 10
120.1500491739
 20
374.7715866853
 10
119.4101926536
 20
374.9376181188
 10
118.7706029981
 20
375.1448245847
 10
118.251631582
 20
375.3866128925
 10
117.8697917768
 20
375.6552894775
 10
117.6372335052
 20
375.9423052055
 10
117.5613196805
 20
376.2341644036
  0
ARC
  5
22C
330
1F
100
AcDbEntity
  8
0
  6
Continuous
 62
     8
370
     0
100
AcDbCircle
 10
119.9212991488
 20
376.8402242014
 30
0.0
 40
2.065189899618578
100
AcDbArc
 50
81.6058967317
 51
130.9463562384
  0
LINE
  5
22D
330
1F
100
AcDbEntity
  8
0
  6
Continuous
 62
     8
370
     0
100
AcDbLine
 10
174.0640707388
 20
174.8615236733
 30
0.0
 11
176.7157211677
 21
177.2000595396
 31
0.0
  0
LINE
  5
22E
330
1F
100
AcDbEntity
  8
0
  6
Continuous
 62
     8
370
     0
100
AcDbLine
 10
103.9079947345
 20
254.4110365548
 30
0.0
 11
106.5596451634
 21
256.7495724211
 31
0.0
  0
LINE
  5
22F
330
1F
100
AcDbEntity
  8
0
  6
Continuous
 62
     8
370
     0
100
AcDbLine
 10
110.923602335
 20
182.816474958
 30
0.0
 11
113.5752527638
 21
185.1550108242
 31
0.0
  0
LINE
  5
230
330
1F
100
AcDbEntity
  8
0
  6
Continuous
 62
     8
370
     0
100
AcDbLine
 10
103.9079947345
 20
190.7714262461
 30
0.0
 11
106.5596451634
 21
193.1099621124
 31
0.0
  0
INSERT
  5
236
330
1F
100
AcDbEntity
  8
SLD-0_0
100
AcDbBlockReference
  2
SW_NOTE_2
 10
239.3773426116
 20
342.9202446914
 30
0.0
  0
LEADER
  5
240
330
1F
100
AcDbEntity
  8
SLD-0_0
100
AcDbLeader
  3
SLDDIMSTYLE0
 76
     2
 10
251.6723850697
 20
337.1395177975
 30
0.0
 10
239.3773426116
 20
342.9202446914
 30
0.0
  0
INSERT
  5
246
330
1F
100
AcDbEntity
  8
SLD-0_0
100
AcDbBlockReference
  2
SW_NOTE_3
 10
130.6334687505
 20
339.1382006915
 30
0.0
  0
LEADER
  5
247
330
1F
100
AcDbEntity
  8
SLD-0_0
100
AcDbLeader
  3
SLDDIMSTYLE0
 76
     2
 10
159.6357673143
 20
298.3978106306
 30
0.0
 10
130.6334687505
 20
339.1382006915
 30
0.0
  0
INSERT
  5
24D
330
1F
100
AcDbEntity
  8
SLD-0_0
100
AcDbBlockReference
  2
SW_NOTE_4
 10
392.7688106633
 20
226.045306555
 30
0.0
  0
LEADER
  5
24E
330
1F
100
AcDbEntity
  8
SLD-0_0
100
AcDbLeader
  3
SLDDIMSTYLE0
 76
     2
 10
368.5471235057
 20
215.9324687117
 30
0.0
 10
392.7688106633
 20
226.045306555
 30
0.0
  0
INSERT
  5
254
330
1F
100
AcDbEntity
  8
SLD-0_0
100
AcDbBlockReference
  2
SW_NOTE_5
 10
393.8091124756
 20
111.815536876
 30
0.0
  0
LEADER
  5
255
330
1F
100
AcDbEntity
  8
SLD-0_0
100
AcDbLeader
  3
SLDDIMSTYLE0
 76
     2
 10
352.8007768253
 20
112.3194365331
 30
0.0
 10
393.8091124756
 20
111.815536876
 30
0.0
  0
INSERT
  5
25B
330
1F
100
AcDbEntity
  8
SLD-0_0
100
AcDbBlockReference
  2
SW_NOTE_6
 10
249.6975790615
 20
234.2400117741
 30
0.0
  0
LEADER
  5
25C
330
1F
100
AcDbEntity
  8
SLD-0_0
100
AcDbLeader
  3
SLDDIMSTYLE0
 76
     2
 10
258.3702717487
 20
249.3552453432
 30
0.0
 10
249.6975790615
 20
234.2400117741
 30
0.0
  0
INSERT
  5
262
330
1F
100
AcDbEntity
  8
SLD-0_0
100
AcDbBlockReference
  2
SW_NOTE_7
 10
233.6933575516
 20
293.4154337826
 30
0.0
  0
LEADER
  5
263
330
1F
100
AcDbEntity
  8
SLD-0_0
100
AcDbLeader
  3
SLDDIMSTYLE0
 76
     2
 10
220.5442934132
 20
286.3984419907
 30
0.0
 10
233.6933575516
 20
293.4154337826
 30
0.0
  0
INSERT
  5
269
330
1F
100
AcDbEntity
  8
SLD-0_0
100
AcDbBlockReference
  2
SW_NOTE_8
 10
319.0442033774
 20
19.7885652514
 30
0.0
  0
LEADER
  5
26A
330
1F
100
AcDbEntity
  8
SLD-0_0
100
AcDbLeader
  3
SLDDIMSTYLE0
 76
     2
 10
258.8122997794
 20
48.6555847665
 30
0.0
 10
319.0442033774
 20
19.7885652514
 30
0.0
  0
INSERT
  5
270
330
1F
100
AcDbEntity
  8
SLD-0_0
100
AcDbBlockReference
  2
SW_NOTE_9
 10
79.095643578
 20
31.6955869126
 30
0.0
  0
LEADER
  5
271
330
1F
100
AcDbEntity
  8
SLD-0_0
100
AcDbLeader
  3
SLDDIMSTYLE0
 76
     2
 10
105.9516835739
 20
52.9214749831
 30
0.0
 10
79.095643578
 20
31.6955869126
 30
0.0
  0
INSERT
  5
277
330
1F
100
AcDbEntity
  8
SLD-0_0
100
AcDbBlockReference
  2
SW_NOTE_10
 10
66.5383740794
 20
354.0424325568
 30
0.0
  0
LEADER
  5
278
330
1F
100
AcDbEntity
  8
SLD-0_0
100
AcDbLeader
  3
SLDDIMSTYLE0
 76
     2
 10
92.4471635621
 20
309.573563018
 30
0.0
 10
66.5383740794
 20
354.0424325568
 30
0.0
  0
INSERT
  5
27E
330
1F
100
AcDbEntity
  8
SLD-0_0
100
AcDbBlockReference
  2
SW_NOTE_11
 10
42.5062366037
 20
310.7930352372
 30
0.0
  0
LEADER
  5
27F
330
1F
100
AcDbEntity
  8
SLD-0_0
100
AcDbLeader
  3
SLDDIMSTYLE0
 76
     2
 10
57.6700745838
 20
301.0511880443
 30
0.0
 10
42.5062366037
 20
310.7930352372
 30
0.0
  0
INSERT
  5
285
330
1F
100
AcDbEntity
  8
SLD-0_0
100
AcDbBlockReference
  2
SW_NOTE_12
 10
232.3457570855
 20
280.7967321314
 30
0.0
  0
LEADER
  5
286
330
1F
100
AcDbEntity
  8
SLD-0_0
100
AcDbLeader
  3
SLDDIMSTYLE0
 76
     2
 10
207.20147977
 20
279.5118284975
 30
0.0
 10
232.3457570855
 20
280.7967321314
 30
0.0
  0
INSERT
  5
28C
330
1F
100
AcDbEntity
  8
SLD-0_0
100
AcDbBlockReference
  2
SW_NOTE_13
 10
315.0094313194
 20
386.0019060354
 30
0.0
  0
LEADER
  5
28D
330
1F
100
AcDbEntity
  8
SLD-0_0
100
AcDbLeader
  3
SLDDIMSTYLE0
 76
     2
 10
278.2610356655
 20
342.097346456
 30
0.0
 10
315.0094313194
 20
386.0019060354
 30
0.0
  0
INSERT
  5
293
330
1F
100
AcDbEntity
  8
SLD-0_0
100
AcDbBlockReference
  2
SW_NOTE_14
 10
244.2969845443
 20
164.5821933879
 30
0.0
  0
LEADER
  5
294
330
1F
100
AcDbEntity
  8
SLD-0_0
100
AcDbLeader
  3
SLDDIMSTYLE0
 76
     2
 10
250.1516054139
 20
187.2715141495
 30
0.0
 10
244.2969845443
 20
164.5821933879
 30
0.0
  0
INSERT
  5
29A
330
1F
100
AcDbEntity
  8
SLD-0_0
100
AcDbBlockReference
  2
SW_NOTE_15
 10
178.7717238717
 20
420.4756441242
 30
0.0
  0
LEADER
  5
29B
330
1F
100
AcDbEntity
  8
SLD-0_0
100
AcDbLeader
  3
SLDDIMSTYLE0
 76
     2
 10
206.6459832647
 20
384.6483316345
 30
0.0
 10
178.7717238717
 20
420.4756441242
 30
0.0
  0
LINE
  5
29C
330
1F
100
AcDbEntity
  8
0
  6
Continuous
 62
     7
100
AcDbLine
 10
397.8903150939
 20
472.3546377473
 30
0.0
 11
397.8903150939
 21
537.8546377473
 31
0.0
  0
ARC
  5
29D
330
1F
100
AcDbEntity
  8
0
  6
Continuous
 62
     7
100
AcDbCircle
 10
387.8903150939
 20
472.3546377473
 30
0.0
 40
10.0
100
AcDbArc
 50
278.1278386268
 51
0.0
  0
ARC
  5
29E
330
1F
100
AcDbEntity
  8
0
  6
Continuous
 62
     7
100
AcDbCircle
 10
247.1403150939
 20
1457.8827627473
 30
0.0
 40
1005.528125000006
100
AcDbArc
 50
261.8721613732
 51
278.1278386268
  0
ARC
  5
29F
330
1F
100
AcDbEntity
  8
0
  6
Continuous
 62
     7
100
AcDbCircle
 10
106.3903150939
 20
472.3546377473
 30
0.0
 40
10.00000000000001
100
AcDbArc
 50
180.0
 51
261.8721613732
  0
LINE
  5
2A0
330
1F
100
AcDbEntity
  8
0
  6
Continuous
 62
     7
100
AcDbLine
 10
96.3903150939
 20
472.3546377473
 30
0.0
 11
96.3903150939
 21
537.8546377473
 31
0.0
  0
LINE
  5
2A1
330
1F
100
AcDbEntity
  8
0
  6
Continuous
 62
     7
100
AcDbLine
 10
96.3903150939
 20
537.8546377473
 30
0.0
 11
120.8607111241
 21
692.3546377473
 31
0.0
  0
LINE
  5
2A2
330
1F
100
AcDbEntity
  8
0
  6
Continuous
 62
     7
100
AcDbLine
 10
120.8607111241
 20
692.3546377473
 30
0.0
 11
224.0316636996
 21
759.3546377473
 31
0.0
  0
LINE
  5
2A3
330
1F
100
AcDbEntity
  8
0
  6
Continuous
 62
     7
100
AcDbLine
 10
224.0316636996
 20
759.3546377473
 30
0.0
 11
362.808161562
 21
759.3546377473
 31
0.0
  0
LINE
  5
2A4
330
1F
100
AcDbEntity
  8
0
  6
Continuous
 62
     7
100
AcDbLine
 10
397.8903150939
 20
537.8546377473
 30
0.0
 11
362.808161562
 21
759.3546377473
 31
0.0
  0
DIMENSION
  5
2A5
330
1F
100
AcDbEntity
  8
SLD-0_0
100
AcDbDimension
  2
_D
 10
120.8607111241
 20
692.3546377473
 30
0.0
 11
167.6111840495
 21
665.4356194296
 31
0.0
 70
   162
  1
<>
 71
     1
 42
-1.0
  3
SLDDIMSTYLE1
100
AcDb2LineAngularDimension
 13
120.8607111241
 23
692.3546377473
 33
0.0
 14
224.0316636996
 24
759.3546377473
 34
0.0
 15
96.3903150939
 25
537.8546377473
 35
0.0
 16
166.1041726531
 26
662.9731902878
 36
0.0
  0
DIMENSION
  5
2AE
330
1F
100
AcDbEntity
  8
SLD-0_0
100
AcDbDimension
  2
_D_1
 10
224.0316636996
 20
759.3546377473
 30
0.0
 11
239.6424898673
 21
710.4551855658
 31
0.0
 70
   162
  1
<>
 71
     1
 42
-1.0
  3
SLDDIMSTYLE1
100
AcDb2LineAngularDimension
 13
224.0316636996
 23
759.3546377473
 33
0.0
 14
362.808161562
 24
759.3546377473
 34
0.0
 15
120.8607111241
 25
692.3546377473
 35
0.0
 16
238.6104076537
 26
710.137622986
 36
0.0
  0
DIMENSION
  5
2B6
330
1F
100
AcDbEntity
  8
SLD-0_0
100
AcDbDimension
  2
_D_2
 10
362.808161562
 20
759.3546377473
 30
0.0
 11
325.1796655259
 21
713.1563595339
 31
0.0
 70
   162
  1
<>
 71
     1
 42
-1.0
  3
SLDDIMSTYLE1
100
AcDb2LineAngularDimension
 13
224.0316636996
 23
759.3546377473
 33
0.0
 14
362.808161562
 24
759.3546377473
 34
0.0
 15
397.8903150939
 25
537.8546377473
 35
0.0
 16
324.1118219974
 26
714.0470453579
 36
0.0
  0
DIMENSION
  5
2BE
330
1F
100
AcDbEntity
  8
SLD-0_0
100
AcDbDimension
  2
_D_3
 10
362.808161562
 20
759.3546377473
 30
0.0
 11
353.992187853
 21
534.8788776349
 31
0.0
 70
   162
  1
<>
 71
     1
 42
-1.0
  3
SLDDIMSTYLE1
100
AcDb2LineAngularDimension
 13
397.8903150939
 23
472.3546377473
 33
0.0
 14
397.8903150939
 24
537.8546377473
 34
0.0
 15
397.8903150939
 25
537.8546377473
 35
0.0
 16
354.0270770884
 26
534.4025260494
 36
0.0
  0
DIMENSION
  5
2C6
330
1F
100
AcDbEntity
  8
SLD-0_0
100
AcDbDimension
  2
_D_4
 10
407.8903150939
 20
452.3546377473
 30
0.0
 11
407.8903150939
 21
494.6271046151
 31
0.0
 70
   160
  1
<>
 71
     2
 42
-1.0
  3
SLDDIMSTYLE2
100
AcDbAlignedDimension
 13
397.8903150939
 23
537.8546377473
 33
0.0
 14
247.1403150939
 24
452.3546377473
 34
0.0
 50
90.0
100
AcDbRotatedDimension
  0
DIMENSION
  5
2D1
330
1F
100
AcDbEntity
  8
SLD-0_0
100
AcDbDimension
  2
_D_5
 10
414.8903150939
 20
452.3546377473
 30
0.0
 11
414.8903150939
 21
618.0558191002
 31
0.0
 70
   160
  1
<>
 71
     2
 42
-1.0
  3
SLDDIMSTYLE3
100
AcDbAlignedDimension
 13
362.808161562
 23
759.3546377473
 33
0.0
 14
247.1403150939
 24
452.3546377473
 34
0.0
 50
90.0
100
AcDbRotatedDimension
  0
DIMENSION
  5
2DC
330
1F
100
AcDbEntity
  8
SLD-0_0
100
AcDbDimension
  2
_D_6
 10
72.3903150939
 20
452.3546377473
 30
0.0
 11
72.3903150939
 21
563.2537335792
 31
0.0
 70
   160
  1
<>
 71
     2
 42
-1.0
  3
SLDDIMSTYLE3
100
AcDbAlignedDimension
 13
120.8607111241
 23
692.3546377473
 33
0.0
 14
247.1403150939
 24
452.3546377473
 34
0.0
 50
90.0
100
AcDbRotatedDimension
  0
DIMENSION
  5
2E6
330
1F
100
AcDbEntity
  8
SLD-0_0
100
AcDbDimension
  2
_D_7
 10
397.8903150939
 20
435.3546377473
 30
0.0
 11
254.1384157099
 21
435.3546377473
 31
0.0
 70
   160
  1
<>
 71
     2
 42
-1.0
  3
SLDDIMSTYLE2
100
AcDbAlignedDimension
 13
96.3903150939
 23
472.3546377473
 33
0.0
 14
397.8903150939
 24
472.3546377473
 34
0.0
 50
0.0
100
AcDbRotatedDimension
  0
LARGE_RADIAL_DIMENSION
  5
2F0
330
1F
100
AcDbEntity
  8
SLD-0_0
 92
      596
310
540200000700000054000000200000000200000032FD06402DCA6840E3A8CB44A6587C40000000000000000033ABB5D7E1576940311A431318058140000000000000000000000000000000000000000000000000000000000000F03F54000000200000000200000033ABB5D7E1576940311A43131805814000000000000000
310
0096DD34369FC667406F1FC0B7A8AE8040000000000000000000000000000000000000000000000000000000000000F03F54000000200000000200000096DD34369FC667406F1FC0B7A8AE804000000000000000001689205C0CEA6740E070F7F3D96481400000000000000000000000000000000000000000000000000000
310
00000000F03F5400000020000000020000001689205C0CEA67402721411B527A814000000000000000001689205C0CEA674099C0ADCC614F8140000000000000000000000000000000000000000000000000000000000000F03F540000002000000002000000F8C7F9BE2B946740E070F7F3D9648140000000000000000033
310
4A47F9EC3F6840E070F7F3D9648140000000000000000000000000000000000000000000000000000000000000F03F0C00000012000000000000009C0000000B0000005CDAD1F3A4016940662C3C4BE1D37F40000000000000000000000000000000000000000000000000000000000000F03F371BF5D80DDCA83FBCA7948B
310
56F6EF3F000000000000000052313030352E350007000000010000000000000000000C405C8FC2F5285CE33F0000000000000000000000000000F03F00000000000000000000000000000000000000005458540000000000
100
AcDbDimension
  2
_D_8
 10
27.0
 20
11.28
 30
0.0
 11
201.4805669135
 21
518.5984881777
 31
0.0
 70
   169
  1
<>
 71
     1
 42
-1.0
  3
SLDDIMSTYLE4
100
AcDbRadialDimensionLarge
 13
27.0
 23
11.28
 33
0.0
 14
27.07
 24
12.1
 34
0.0
 15
27.15
 25
13.0
 35
0.0
 40
0.0
  0
DIMENSION
  5
2FC
330
1F
100
AcDbEntity
  8
SLD-0_0
100
AcDbDimension
  2
_D_9
 10
120.8607111241
 20
765.5096422627
 30
0.0
 11
110.4166701556
 21
765.5096422627
 31
0.0
 70
   160
  1
<>
 71
     2
 42
-1.0
  3
SLDDIMSTYLE5
100
AcDbAlignedDimension
 13
96.3903150939
 23
537.8546377473
 33
0.0
 14
120.8607111241
 24
692.3546377473
 34
0.0
100
AcDbRotatedDimension
  0
DIMENSION
  5
307
330
1F
100
AcDbEntity
  8
SLD-0_0
100
AcDbDimension
  2
_D_10
 10
224.0316636996
 20
776.3546377473
 30
0.0
 11
156.1455781619
 21
776.3546377473
 31
0.0
 70
   160
  1
<>
 71
     2
 42
-1.0
  3
SLDDIMSTYLE6
100
AcDbAlignedDimension
 13
96.3903150939
 23
537.8546377473
 33
0.0
 14
224.0316636996
 24
759.3546377473
 34
0.0
100
AcDbRotatedDimension
  0
DIMENSION
  5
312
330
1F
100
AcDbEntity
  8
SLD-0_0
100
AcDbDimension
  2
_D_11
 10
362.808161562
 20
776.3546377473
 30
0.0
 11
380.6828189112
 21
776.3546377473
 31
0.0
 70
   160
  1
<>
 71
     2
 42
-1.0
  3
SLDDIMSTYLE7
100
AcDbAlignedDimension
 13
397.8903150939
 23
537.8546377473
 33
0.0
 14
362.808161562
 24
759.3546377473
 34
0.0
100
AcDbRotatedDimension
  0
DIMENSION
  5
31D
330
1F
100
AcDbEntity
  8
SLD-0_0
100
AcDbDimension
  2
_D_12
 10
86.3903150939
 20
452.3546377473
 30
0.0
 11
86.3903150939
 21
577.8486039854
 31
0.0
 70
   160
  1
<>
 71
     2
 42
-1.0
  3
SLDDIMSTYLE2
100
AcDbAlignedDimension
 13
96.3903150939
 23
537.8546377473
 33
0.0
 14
247.1403150939
 24
452.3546377473
 34
0.0
 50
90.0
100
AcDbRotatedDimension
  0
LINE
  5
328
330
1F
100
AcDbEntity
  8
0
  6
Continuous
 62
     7
100
AcDbLine
 10
775.6372954113
 20
544.1702391972
 30
0.0
 11
775.6372954113
 21
746.1702391972
 31
0.0
  0
LINE
  5
329
330
1F
100
AcDbEntity
  8
0
  6
Continuous
 62
     7
100
AcDbLine
 10
775.6372954113
 20
746.1702391972
 30
0.0
 11
745.6372954113
 21
746.1702391972
 31
0.0
  0
LINE
  5
32A
330
1F
100
AcDbEntity
  8
0
  6
Continuous
 62
     7
100
AcDbLine
 10
745.6372954113
 20
746.1702391972
 30
0.0
 11
745.6372954113
 21
544.1702391972
 31
0.0
  0
LINE
  5
32B
330
1F
100
AcDbEntity
  8
0
  6
Continuous
 62
     7
100
AcDbLine
 10
745.6372954113
 20
544.1702391972
 30
0.0
 11
775.6372954113
 21
544.1702391972
 31
0.0
  0
CIRCLE
  5
32C
330
1F
100
AcDbEntity
  8
0
  6
Continuous
 62
     7
100
AcDbCircle
 10
752.8315682608
 20
445.8532888038
 30
0.0
 40
2.75
  0
CIRCLE
  5
32D
330
1F
100
AcDbEntity
  8
0
  6
Continuous
 62
     7
100
AcDbCircle
 10
686.6703450179
 20
286.1259663477
 30
0.0
 40
2.75
  0
CIRCLE
  5
32E
330
1F
100
AcDbEntity
  8
0
  6
Continuous
 62
     7
100
AcDbCircle
 10
526.9430225618
 20
352.2871895905
 30
0.0
 40
2.75
  0
CIRCLE
  5
32F
330
1F
100
AcDbEntity
  8
0
  6
Continuous
 62
     7
100
AcDbCircle
 10
686.6703450179
 20
512.0145120467
 30
0.0
 40
2.75
  0
CIRCLE
  5
330
330
1F
100
AcDbEntity
  8
0
  6
Continuous
 62
     7
100
AcDbCircle
 10
715.8872954113
 20
738.1702391972
 30
0.0
 40
2.75
  0
CIRCLE
  5
331
330
1F
100
AcDbEntity
  8
0
  6
Continuous
 62
     7
100
AcDbCircle
 10
529.8872954113
 20
552.1702391972
 30
0.0
 40
2.750000000000114
  0
CIRCLE
  5
332
330
1F
100
AcDbEntity
  8
0
  6
Continuous
 62
     7
100
AcDbCircle
 10
639.8872954113
 20
399.0702391972
 30
0.0
 40
115.0
  0
LINE
  5
333
330
1F
100
AcDbEntity
  8
0
  6
Continuous
 62
     7
100
AcDbLine
 10
489.1372954113
 20
260.6702391972
 30
0.0
 11
790.6372954113
 21
260.6702391972
 31
0.0
  0
LINE
  5
334
330
1F
100
AcDbEntity
  8
0
  6
Continuous
 62
     7
100
AcDbLine
 10
489.1372954113
 20
768.6702391972
 30
0.0
 11
489.1372954113
 21
260.6702391972
 31
0.0
  0
LINE
  5
335
330
1F
100
AcDbEntity
  8
0
  6
Continuous
 62
     7
100
AcDbLine
 10
790.6372954113
 20
768.6702391972
 30
0.0
 11
489.1372954113
 21
768.6702391972
 31
0.0
  0
LINE
  5
336
330
1F
100
AcDbEntity
  8
0
  6
Continuous
 62
     7
100
AcDbLine
 10
790.6372954113
 20
260.6702391972
 30
0.0
 11
790.6372954113
 21
768.6702391972
 31
0.0
  0
CIRCLE
  5
337
330
1F
100
AcDbEntity
  8
0
  6
Continuous
 62
     7
100
AcDbCircle
 10
593.1042458047
 20
512.0145120467
 30
0.0
 40
2.750000000000114
  0
CIRCLE
  5
338
330
1F
100
AcDbEntity
  8
0
  6
Continuous
 62
     7
100
AcDbCircle
 10
529.8872954113
 20
738.1702391972
 30
0.0
 40
2.750000000000114
  0
CIRCLE
  5
339
330
1F
100
AcDbEntity
  8
0
  6
Continuous
 62
     7
100
AcDbCircle
 10
715.8872954113
 20
552.1702391972
 30
0.0
 40
2.75
  0
ARC
  5
33A
330
1F
100
AcDbEntity
  8
0
  6
Continuous
 62
     7
100
AcDbCircle
 10
555.3872954113
 20
577.6702391972
 30
0.0
 40
15.00000000000011
100
AcDbArc
 50
180.0
 51
270.0
  0
LINE
  5
33B
330
1F
100
AcDbEntity
  8
0
  6
Continuous
 62
     7
100
AcDbLine
 10
555.3872954113
 20
562.6702391972
 30
0.0
 11
690.3872954113
 21
562.6702391972
 31
0.0
  0
ARC
  5
33C
330
1F
100
AcDbEntity
  8
0
  6
Continuous
 62
     7
100
AcDbCircle
 10
690.3872954113
 20
577.6702391972
 30
0.0
 40
15.00000000000011
100
AcDbArc
 50
270.0
 51
0.0
  0
LINE
  5
33D
330
1F
100
AcDbEntity
  8
0
  6
Continuous
 62
     7
100
AcDbLine
 10
705.3872954113
 20
577.6702391972
 30
0.0
 11
705.3872954113
 21
712.6702391972
 31
0.0
  0
ARC
  5
33E
330
1F
100
AcDbEntity
  8
0
  6
Continuous
 62
     7
100
AcDbCircle
 10
690.3872954113
 20
712.6702391972
 30
0.0
 40
15.00000000000011
100
AcDbArc
 50
0.0
 51
90.0
  0
LINE
  5
33F
330
1F
100
AcDbEntity
  8
0
  6
Continuous
 62
     7
100
AcDbLine
 10
690.3872954113
 20
727.6702391972
 30
0.0
 11
555.3872954113
 21
727.6702391972
 31
0.0
  0
ARC
  5
340
330
1F
100
AcDbEntity
  8
0
  6
Continuous
 62
     7
100
AcDbCircle
 10
555.3872954113
 20
712.6702391972
 30
0.0
 40
15.00000000000011
100
AcDbArc
 50
90.0
 51
180.0
  0
LINE
  5
341
330
1F
100
AcDbEntity
  8
0
  6
Continuous
 62
     7
100
AcDbLine
 10
540.3872954113
 20
712.6702391972
 30
0.0
 11
540.3872954113
 21
577.6702391972
 31
0.0
  0
CIRCLE
  5
342
330
1F
100
AcDbEntity
  8
0
  6
Continuous
 62
     7
100
AcDbCircle
 10
526.9430225618
 20
445.8532888038
 30
0.0
 40
2.75
  0
CIRCLE
  5
343
330
1F
100
AcDbEntity
  8
0
  6
Continuous
 62
     7
100
AcDbCircle
 10
593.1042458047
 20
286.1259663477
 30
0.0
 40
2.75
  0
CIRCLE
  5
344
330
1F
100
AcDbEntity
  8
0
  6
Continuous
 62
     7
100
AcDbCircle
 10
752.8315682608
 20
352.2871895905
 30
0.0
 40
2.75
  0
DIMENSION
  5
345
330
1F
100
AcDbEntity
  8
SLD-0_0
100
AcDbDimension
  2
_D_13
 10
735.5701396996
 20
462.8651708838
 30
0.0
 11
695.1615250376
 21
435.9234081027
 31
0.0
 70
   163
  1
<>
 71
     1
 42
-1.0
  3
SLDDIMSTYLE8
100
AcDbDiametricDimension
 15
544.204451123
 25
335.2753075106
 35
0.0
 40
0.0
  0
DIMENSION
  5
34F
330
1F
100
AcDbEntity
  8
SLD-0_0
100
AcDbDimension
  2
_D_14
 10
545.7195442754
 20
477.0285430911
 30
0.0
 11
584.6440497083
 21
444.804276656
 31
0.0
 70
   163
  1
<>
 71
     1
 42
-1.0
  3
SLDDIMSTYLE9
100
AcDbDiametricDimension
 15
734.0550465471
 25
321.1119353033
 35
0.0
 40
0.0
  0
DIMENSION
  5
359
330
1F
100
AcDbEntity
  8
SLD-0_0
100
AcDbDimension
  2
_D_15
 10
790.6372954113
 20
250.6702391972
 30
0.0
 11
639.8872954113
 21
250.6702391972
 31
0.0
 70
   160
  1
<>
 71
     2
 42
-1.0
  3
SLDDIMSTYLE2
100
AcDbAlignedDimension
 13
489.1372954113
 23
260.6702391972
 33
0.0
 14
790.6372954113
 24
260.6702391972
 34
0.0
100
AcDbRotatedDimension
  0
DIMENSION
  5
363
330
1F
100
AcDbEntity
  8
SLD-0_0
100
AcDbDimension
  2
_D_16
 10
807.6372954113
 20
768.6702391972
 30
0.0
 11
807.6372954113
 21
514.6702391972
 31
0.0
 70
   160
  1
<>
 71
     2
 42
-1.0
  3
SLDDIMSTYLE3
100
AcDbAlignedDimension
 13
790.6372954113
 23
260.6702391972
 33
0.0
 14
790.6372954113
 24
768.6702391972
 34
0.0
 50
90.0
100
AcDbRotatedDimension
  0
DIMENSION
  5
36D
330
1F
100
AcDbEntity
  8
SLD-0_0
100
AcDbDimension
  2
_D_17
 10
800.6372954113
 20
746.1702391972
 30
0.0
 11
800.6372954113
 21
645.1702391972
 31
0.0
 70
   160
  1
<>
 71
     2
 42
-1.0
  3
SLDDIMSTYLE3
100
AcDbAlignedDimension
 13
775.6372954113
 23
544.1702391972
 33
0.0
 14
775.6372954113
 24
746.1702391972
 34
0.0
 50
90.0
100
AcDbRotatedDimension
  0
DIMENSION
  5
377
330
1F
100
AcDbEntity
  8
SLD-0_0
100
AcDbDimension
  2
_D_18
 10
800.6372954113
 20
768.6702391972
 30
0.0
 11
800.6372954113
 21
757.4816630328
 31
0.0
 70
   160
  1
<>
 71
     2
 42
-1.0
  3
SLDDIMSTYLE10
100
AcDbAlignedDimension
 13
775.6372954113
 23
746.1702391972
 33
0.0
 14
790.6372954113
 24
768.6702391972
 34
0.0
 50
90.0
100
AcDbRotatedDimension
  0
DIMENSION
  5
384
330
1F
100
AcDbEntity
  8
SLD-0_0
100
AcDbDimension
  2
_D_19
 10
790.6372954113
 20
785.6702391972
 30
0.0
 11
781.5671266346
 21
785.6702391972
 31
0.0
 70
   160
  1
<>
 71
     2
 42
-1.0
  3
SLDDIMSTYLE11
100
AcDbAlignedDimension
 13
775.6372954113
 23
746.1702391972
 33
0.0
 14
790.6372954113
 24
768.6702391972
 34
0.0
100
AcDbRotatedDimension
  0
DIMENSION
  5
391
330
1F
100
AcDbEntity
  8
SLD-0_0
100
AcDbDimension
  2
_D_20
 10
745.6372954113
 20
785.6702391972
 30
0.0
 11
761.5226532875
 21
785.6702391972
 31
0.0
 70
   160
  1
<>
 71
     2
 42
-1.0
  3
SLDDIMSTYLE12
100
AcDbAlignedDimension
 13
775.6372954113
 23
746.1702391972
 33
0.0
 14
745.6372954113
 24
746.1702391972
 34
0.0
100
AcDbRotatedDimension
  0
DIMENSION
  5
39C
330
1F
100
AcDbEntity
  8
SLD-0_0
100
AcDbDimension
  2
_D_21
 10
705.3872954113
 20
778.6702391972
 30
0.0
 11
620.6739007207
 21
778.6702391972
 31
0.0
 70
   160
  1
<>
 71
     2
 42
-1.0
  3
SLDDIMSTYLE3
100
AcDbAlignedDimension
 13
540.3872954113
 23
712.6702391972
 33
0.0
 14
705.3872954113
 24
712.6702391972
 34
0.0
100
AcDbRotatedDimension
  0
DIMENSION
  5
3A6
330
1F
100
AcDbEntity
  8
SLD-0_0
100
AcDbDimension
  2
_D_22
 10
529.8872954113
 20
785.6702391972
 30
0.0
 11
620.6739007207
 21
785.6702391972
 31
0.0
 70
   160
  1
<>
 71
     2
 42
-1.0
  3
SLDDIMSTYLE3
100
AcDbAlignedDimension
 13
715.8872954113
 23
743.4202391972
 33
0.0
 14
529.8872954113
 24
743.4202391972
 34
0.0
100
AcDbRotatedDimension
  0
DIMENSION
  5
3B0
330
1F
100
AcDbEntity
  8
SLD-0_0
100
AcDbDimension
  2
_D_23
 10
469.728884216
 20
738.1702391972
 30
0.0
 11
469.728884216
 21
645.1702391972
 31
0.0
 70
   160
  1
<>
 71
     2
 42
-1.0
  3
SLDDIMSTYLE3
100
AcDbAlignedDimension
 13
524.6372954113
 23
552.1702391972
 33
0.0
 14
524.6372954113
 24
738.1702391972
 34
0.0
 50
90.0
100
AcDbRotatedDimension
  0
DIMENSION
  5
3BA
330
1F
100
AcDbEntity
  8
SLD-0_0
100
AcDbDimension
  2
_D_24
 10
479.1372954113
 20
562.6702391972
 30
0.0
 11
479.1372954113
 21
645.1702391972
 31
0.0
 70
   160
  1
<>
 71
     2
 42
-1.0
  3
SLDDIMSTYLE3
100
AcDbAlignedDimension
 13
555.3872954113
 23
727.6702391972
 33
0.0
 14
555.3872954113
 24
562.6702391972
 34
0.0
 50
90.0
100
AcDbRotatedDimension
  0
DIMENSION
  5
3C4
330
1F
100
AcDbEntity
  8
SLD-0_0
100
AcDbDimension
  2
_D_25
 10
489.1372954113
 20
673.1200735784
 30
0.0
 11
515.3039148816
 21
673.1200735784
 31
0.0
 70
   160
  1
<>
 71
     2
 42
-1.0
  3
SLDDIMSTYLE3
100
AcDbAlignedDimension
 13
540.3872954113
 23
712.6702391972
 33
0.0
 14
489.1372954113
 24
768.6702391972
 34
0.0
100
AcDbRotatedDimension
  0
DIMENSION
  5
3CC
330
1F
100
AcDbEntity
  8
SLD-0_0
100
AcDbDimension
  2
_D_26
 10
591.5632952162
 20
768.6702391972
 30
0.0
 11
591.5632952162
 21
744.9319758756
 31
0.0
 70
   160
  1
<>
 71
     2
 42
-1.0
  3
SLDDIMSTYLE3
100
AcDbAlignedDimension
 13
555.3872954113
 23
727.6702391972
 33
0.0
 14
489.1372954113
 24
768.6702391972
 34
0.0
 50
90.0
100
AcDbRotatedDimension
  0
DIMENSION
  5
3D4
330
1F
100
AcDbEntity
  8
SLD-0_0
100
AcDbDimension
  2
_D_27
 10
555.3872954113
 20
712.6702391972
 30
0.0
 11
566.8884216838
 21
705.0746323837
 31
0.0
 70
   164
  1
<>
 71
     1
 42
-1.0
  3
SLDDIMSTYLE13
100
AcDbRadialDimension
 15
542.8705965278
 25
720.9365714588
 35
0.0
 40
0.0
  0
DIMENSION
  5
3DC
330
1F
100
AcDbEntity
  8
SLD-0_0
100
AcDbDimension
  2
_D_28
 10
479.1372954113
 20
260.6702391972
 30
0.0
 11
479.1372954113
 21
329.8702391972
 31
0.0
 70
   160
  1
<>
 71
     2
 42
-1.0
  3
SLDDIMSTYLE2
100
AcDbAlignedDimension
 13
524.4430225618
 23
399.0702391972
 33
0.0
 14
489.1372954113
 24
260.6702391972
 34
0.0
 50
90.0
100
AcDbRotatedDimension
  0
DIMENSION
  5
3E6
330
1F
100
AcDbEntity
  8
SLD-0_0
100
AcDbDimension
  2
_D_29
 10
528.4761606488
 20
443.5703110102
 30
0.0
 11
508.2951901269
 21
463.261914926
 31
0.0
 70
   163
  1
<>
 71
     1
 42
-1.0
  3
SLDDIMSTYLE14
100
AcDbDiametricDimension
 15
525.4098844747
 25
448.1362665974
 35
0.0
 40
0.0
  0
DIMENSION
  5
3F4
330
1F
100
AcDbEntity
  8
SLD-0_0
100
AcDbDimension
  2
_D_30
 10
531.5496545837
 20
735.97956305
 30
0.0
 11
515.3039148816
 21
748.5390281147
 31
0.0
 70
   163
  1
<>
 71
     1
 42
-1.0
  3
SLDDIMSTYLE14
100
AcDbDiametricDimension
 15
528.2249362388
 25
740.3609153443
 35
0.0
 40
0.0
  0
DIMENSION
  5
3FE
330
1F
100
AcDbEntity
  8
SLD-0_0
100
AcDbDimension
  2
_D_31
 10
639.8872954113
 20
578.1015594686
 30
0.0
 11
631.3775377295
 21
578.1015594686
 31
0.0
 70
   160
  1
<>
 71
     2
 42
-1.0
  3
SLDDIMSTYLE15
100
AcDbAlignedDimension
 13
622.8872954113
 23
575.6702391972
 33
0.0
 14
639.8872954113
 24
514.5145120467
 34
0.0
100
AcDbRotatedDimension
  0
INSERT
  5
415
330
1F
100
AcDbEntity
  8
SLD-0_0
100
AcDbBlockReference
  2
SW_CENTERMARKSYMBOL_0
 10
529.8872954113
 20
552.1702391972
 30
0.0
  0
INSERT
  5
421
330
1F
100
AcDbEntity
  8
SLD-0_0
100
AcDbBlockReference
  2
SW_CENTERMARKSYMBOL_1
 10
529.8872954113
 20
738.1702391972
 30
0.0
  0
INSERT
  5
42D
330
1F
100
AcDbEntity
  8
SLD-0_0
100
AcDbBlockReference
  2
SW_CENTERMARKSYMBOL_2
 10
715.8872954113
 20
738.1702391972
 30
0.0
  0
INSERT
  5
439
330
1F
100
AcDbEntity
  8
SLD-0_0
100
AcDbBlockReference
  2
SW_CENTERMARKSYMBOL_3
 10
715.8872954113
 20
552.1702391972
 30
0.0
  0
INSERT
  5
47D
330
1F
100
AcDbEntity
  8
SLD-0_0
100
AcDbBlockReference
  2
SW_CENTERMARKSYMBOL_4
 10
593.1042458047
 20
512.0145120467
 30
0.0
  0
LINE
  5
47E
330
1F
100
AcDbEntity
  8
SLD-0_0
  6
CENTERX2
370
     0
100
AcDbLine
 10
622.8872954113
 20
575.6702391972
 30
0.0
 11
622.8872954113
 21
714.6702391972
 31
0.0
  0
LINE
  5
47F
330
1F
100
AcDbEntity
  8
SLD-0_0
  6
CENTERX2
370
     0
100
AcDbLine
 10
553.3872954113
 20
645.1702391972
 30
0.0
 11
692.3872954113
 21
645.1702391972
 31
0.0
  0
LINE
  5
480
330
1F
100
AcDbEntity
  8
0
  6
Continuous
 62
     7
100
AcDbLine
 10
955.2282174425
 20
748.8918132717
 30
0.0
 11
997.7282174425
 21
748.8918132717
 31
0.0
  0
LINE
  5
481
330
1F
100
AcDbEntity
  8
0
  6
Continuous
 62
     7
100
AcDbLine
 10
955.2282174425
 20
763.8918132717
 30
0.0
 11
955.2282174425
 21
748.8918132717
 31
0.0
  0
LINE
  5
482
330
1F
100
AcDbEntity
  8
0
  6
Continuous
 62
     7
100
AcDbLine
 10
955.2282174425
 20
763.8918132717
 30
0.0
 11
996.5476918401
 21
763.8918132717
 31
0.0
  0
LINE
  5
483
330
1F
100
AcDbEntity
  8
0
  6
Continuous
 62
     7
100
AcDbLine
 10
996.5476918401
 20
763.8918132717
 30
0.0
 11
997.7282174425
 21
748.8918132717
 31
0.0
  0
DIMENSION
  5
484
330
1F
100
AcDbEntity
  8
SLD-0_0
100
AcDbDimension
  2
_D_32
 10
1010.4412822145
 20
763.8918132717
 30
0.0
 11
1010.4412822145
 21
754.7735337758
 31
0.0
 70
   160
  1
<>
 71
     2
 42
-1.0
  3
SLDDIMSTYLE15
100
AcDbAlignedDimension
 13
997.7282174425
 23
748.8918132717
 33
0.0
 14
996.5476918401
 24
763.8918132717
 34
0.0
 50
90.0
100
AcDbRotatedDimension
  0
DIMENSION
  5
490
330
1F
100
AcDbEntity
  8
SLD-0_0
100
AcDbDimension
  2
_D_33
 10
997.7282174425
 20
740.1803237818
 30
0.0
 11
981.0527807573
 21
740.1803237818
 31
0.0
 70
   160
  1
<>
 71
     2
 42
-1.0
  3
SLDDIMSTYLE2
100
AcDbAlignedDimension
 13
955.2282174425
 23
748.8918132717
 33
0.0
 14
997.7282174425
 24
748.8918132717
 34
0.0
 50
0.0
100
AcDbRotatedDimension
  0
LINE
  5
49A
330
1F
100
AcDbEntity
  8
0
  6
Continuous
 62
     7
100
AcDbLine
 10
1078.6553238361
 20
701.1047572918
 30
0.0
 11
1091.4665341181
 21
686.1047572918
 31
0.0
  0
LINE
  5
49B
330
1F
100
AcDbEntity
  8
0
  6
Continuous
 62
     7
100
AcDbLine
 10
867.205508756
 20
686.1047572918
 30
0.0
 11
1091.4665341181
 21
686.1047572918
 31
0.0
  0
LINE
  5
49C
330
1F
100
AcDbEntity
  8
0
  6
Continuous
 62
     7
100
AcDbLine
 10
868.3860343584
 20
701.1047572918
 30
0.0
 11
867.205508756
 21
686.1047572918
 31
0.0
  0
LINE
  5
49D
330
1F
100
AcDbEntity
  8
0
  6
Continuous
 62
     7
100
AcDbLine
 10
868.3860343584
 20
701.1047572918
 30
0.0
 11
1078.6553238361
 21
701.1047572918
 31
0.0
  0
DIMENSION
  5
49E
330
1F
100
AcDbEntity
  8
SLD-0_0
100
AcDbDimension
  2
_D_34
 10
1103.4706489451
 20
686.1047572918
 30
0.0
 11
1103.4706489451
 21
694.4028670241
 31
0.0
 70
   160
  1
<>
 71
     2
 42
-1.0
  3
SLDDIMSTYLE15
100
AcDbAlignedDimension
 13
1078.6553238361
 23
701.1047572918
 33
0.0
 14
1091.4665341181
 24
686.1047572918
 34
0.0
 50
90.0
100
AcDbRotatedDimension
  0
DIMENSION
  5
4AA
330
1F
100
AcDbEntity
  8
SLD-0_0
100
AcDbDimension
  2
_D_35
 10
1091.4665341181
 20
669.4289979774
 30
0.0
 11
982.4838651994
 21
669.4289979774
 31
0.0
 70
   160
  1
<>
 71
     2
 42
-1.0
  3
SLDDIMSTYLE16
100
AcDbAlignedDimension
 13
867.205508756
 23
686.1047572918
 33
0.0
 14
1091.4665341181
 24
686.1047572918
 34
0.0
 50
0.0
100
AcDbRotatedDimension
  0
INSERT
  5
4C0
330
1F
100
AcDbEntity
  8
SLD-0_0
100
AcDbBlockReference
  2
SW_ANGULAR_DIMENSION_0
 10
863.3547226493
 20
718.387681658
 30
0.0
  0
INSERT
  5
4CA
330
1F
100
AcDbEntity
  8
SLD-0_0
100
AcDbBlockReference
  2
SW_ANGULAR_DIMENSION_1
 10
1075.391308542
 20
721.723041324
 30
0.0
  0
LINE
  5
4CB
330
1F
100
AcDbEntity
  8
0
  6
Continuous
 62
     7
100
AcDbLine
 10
1036.8300414176
 20
634.543160409
 30
0.0
 11
1041.2732438421
 21
619.543160409
 31
0.0
  0
LINE
  5
4CC
330
1F
100
AcDbEntity
  8
0
  6
Continuous
 62
     7
100
AcDbLine
 10
1041.2732438421
 20
619.543160409
 30
0.0
 11
902.4967459797
 21
619.543160409
 31
0.0
  0
LINE
  5
4CD
330
1F
100
AcDbEntity
  8
0
  6
Continuous
 62
     7
100
AcDbLine
 10
915.3079562616
 20
634.543160409
 30
0.0
 11
902.4967459797
 21
619.543160409
 31
0.0
  0
LINE
  5
4CE
330
1F
100
AcDbEntity
  8
0
  6
Continuous
 62
     7
100
AcDbLine
 10
1036.8300414176
 20
634.543160409
 30
0.0
 11
915.3079562616
 21
634.543160409
 31
0.0
  0
DIMENSION
  5
4CF
330
1F
100
AcDbEntity
  8
SLD-0_0
100
AcDbDimension
  2
_D_36
 10
902.4967459797
 20
610.0354504064
 30
0.0
 11
977.6162187081
 21
610.0354504064
 31
0.0
 70
   160
  1
<>
 71
     2
 42
-1.0
  3
SLDDIMSTYLE16
100
AcDbAlignedDimension
 13
1041.2732438421
 23
619.543160409
 33
0.0
 14
902.4967459797
 24
619.543160409
 34
0.0
 50
0.0
100
AcDbRotatedDimension
  0
INSERT
  5
4E4
330
1F
100
AcDbEntity
  8
SLD-0_0
100
AcDbBlockReference
  2
SW_ANGULAR_DIMENSION_2
 10
903.0852998527
 20
650.4923954287
 30
0.0
  0
INSERT
  5
4F0
330
1F
100
AcDbEntity
  8
SLD-0_0
100
AcDbBlockReference
  2
SW_ANGULAR_DIMENSION_3
 10
1030.6022201283
 20
650.8360381978
 30
0.0
  0
DIMENSION
  5
4F1
330
1F
100
AcDbEntity
  8
SLD-0_0
100
AcDbDimension
  2
_D_37
 10
1058.2732438421
 20
619.543160409
 30
0.0
 11
1058.2732438421
 21
626.3506863244
 31
0.0
 70
   160
  1
<>
 71
     2
 42
-1.0
  3
SLDDIMSTYLE15
100
AcDbAlignedDimension
 13
1036.8300414176
 23
634.543160409
 33
0.0
 14
1041.2732438421
 24
619.543160409
 34
0.0
 50
90.0
100
AcDbRotatedDimension
  0
LINE
  5
4FD
330
1F
100
AcDbEntity
  8
0
  6
Continuous
 62
     7
100
AcDbLine
 10
1029.223455187
 20
572.0966499049
 30
0.0
 11
1035.9018854666
 21
557.0966499049
 31
0.0
  0
LINE
  5
4FE
330
1F
100
AcDbEntity
  8
0
  6
Continuous
 62
     7
100
AcDbLine
 10
1035.9018854666
 20
557.0966499049
 30
0.0
 11
912.8846287286
 21
557.0966499049
 31
0.0
  0
LINE
  5
4FF
330
1F
100
AcDbEntity
  8
0
  6
Continuous
 62
     7
100
AcDbLine
 10
917.327831153
 20
572.0966499049
 30
0.0
 11
912.8846287286
 21
557.0966499049
 31
0.0
  0
LINE
  5
500
330
1F
100
AcDbEntity
  8
0
  6
Continuous
 62
     7
100
AcDbLine
 10
1029.223455187
 20
572.0966499049
 30
0.0
 11
917.327831153
 21
572.0966499049
 31
0.0
  0
DIMENSION
  5
501
330
1F
100
AcDbEntity
  8
SLD-0_0
100
AcDbDimension
  2
_D_38
 10
1050.7724424156
 20
557.0966499049
 30
0.0
 11
1050.7724424156
 21
565.8346461483
 31
0.0
 70
   160
  1
<>
 71
     2
 42
-1.0
  3
SLDDIMSTYLE15
100
AcDbAlignedDimension
 13
1029.223455187
 23
572.0966499049
 33
0.0
 14
1035.9018854666
 24
557.0966499049
 34
0.0
 50
90.0
100
AcDbRotatedDimension
  0
DIMENSION
  5
50D
330
1F
100
AcDbEntity
  8
SLD-0_0
100
AcDbDimension
  2
_D_39
 10
912.8846287286
 20
539.9573182217
 30
0.0
 11
970.5623389289
 21
539.9573182217
 31
0.0
 70
   160
  1
<>
 71
     2
 42
-1.0
  3
SLDDIMSTYLE16
100
AcDbAlignedDimension
 13
1035.9018854666
 23
557.0966499049
 33
0.0
 14
912.8846287286
 24
557.0966499049
 34
0.0
 50
0.0
100
AcDbRotatedDimension
  0
INSERT
  5
520
330
1F
100
AcDbEntity
  8
SLD-0_0
100
AcDbBlockReference
  2
SW_ANGULAR_DIMENSION_4
 10
1026.8415472636
 20
591.7264665913
 30
0.0
  0
INSERT
  5
52C
330
1F
100
AcDbEntity
  8
SLD-0_0
100
AcDbBlockReference
  2
SW_ANGULAR_DIMENSION_5
 10
910.341972977
 20
591.7067458582
 30
0.0
  0
LINE
  5
52D
330
1F
100
AcDbEntity
  8
0
  6
Continuous
 62
     7
100
AcDbLine
 10
1050.9517457126
 20
497.7341866692
 30
0.0
 11
1052.132271315
 21
482.7341866692
 31
0.0
  0
LINE
  5
52E
330
1F
100
AcDbEntity
  8
0
  6
Continuous
 62
     7
100
AcDbLine
 10
1052.132271315
 20
482.7341866692
 30
0.0
 11
895.7064093807
 21
482.7341866692
 31
0.0
  0
LINE
  5
52F
330
1F
100
AcDbEntity
  8
0
  6
Continuous
 62
     7
100
AcDbLine
 10
902.3848396604
 20
497.7341866692
 30
0.0
 11
895.7064093807
 21
482.7341866692
 31
0.0
  0
LINE
  5
530
330
1F
100
AcDbEntity
  8
0
  6
Continuous
 62
     7
100
AcDbLine
 10
1050.9517457126
 20
497.7341866692
 30
0.0
 11
902.3848396604
 21
497.7341866692
 31
0.0
  0
DIMENSION
  5
531
330
1F
100
AcDbEntity
  8
SLD-0_0
100
AcDbDimension
  2
_D_40
 10
895.7064093807
 20
465.0105438915
 30
0.0
 11
973.1016701666
 21
465.0105438915
 31
0.0
 70
   160
  1
<>
 71
     2
 42
-1.0
  3
SLDDIMSTYLE16
100
AcDbAlignedDimension
 13
1052.132271315
 23
482.7341866692
 33
0.0
 14
895.7064093807
 24
482.7341866692
 34
0.0
 50
0.0
100
AcDbRotatedDimension
  0
INSERT
  5
546
330
1F
100
AcDbEntity
  8
SLD-0_0
100
AcDbBlockReference
  2
SW_ANGULAR_DIMENSION_6
 10
899.1546209688
 20
515.9633919573
 30
0.0
  0
INSERT
  5
552
330
1F
100
AcDbEntity
  8
SLD-0_0
100
AcDbBlockReference
  2
SW_ANGULAR_DIMENSION_7
 10
1045.515189558
 20
512.7022259134
 30
0.0
  0
DIMENSION
  5
553
330
1F
100
AcDbEntity
  8
SLD-0_0
100
AcDbDimension
  2
_D_41
 10
1070.2982626882
 20
482.7341866692
 30
0.0
 11
1070.2982626882
 21
489.7651747326
 31
0.0
 70
   160
  1
<>
 71
     2
 42
-1.0
  3
SLDDIMSTYLE15
100
AcDbAlignedDimension
 13
1050.9517457126
 23
497.7341866692
 33
0.0
 14
1052.132271315
 24
482.7341866692
 34
0.0
 50
90.0
100
AcDbRotatedDimension
  0
LINE
  5
55F
330
1F
100
AcDbEntity
  8
0
  6
Continuous
 62
     7
100
AcDbLine
 10
730.4666802192
 20
179.7340426693
 30
0.0
 11
730.8063322866
 21
126.4314393049
 31
0.0
  0
LINE
  5
560
330
1F
100
AcDbEntity
  8
0
  6
Continuous
 62
     7
100
AcDbLine
 10
730.9131944033
 20
109.6612513079
 30
0.0
 11
731.2528464706
 21
56.3586479434
 31
0.0
  0
LINE
  5
561
330
1F
100
AcDbEntity
  8
0
  6
Continuous
 62
     7
100
AcDbLine
 10
761.3445232672
 20
189.239521323
 30
0.0
 11
761.6748119826
 21
137.4063364581
 31
0.0
  0
LINE
  5
562
330
1F
100
AcDbEntity
  8
0
  6
Continuous
 62
     7
100
AcDbLine
 10
761.7910374512
 20
119.1667299615
 30
0.0
 11
762.1213261667
 21
67.3335450966
 31
0.0
  0
LINE
  5
563
330
1F
100
AcDbEntity
  8
0
  6
Continuous
 62
     7
100
AcDbLine
 10
731.2528464706
 20
56.3586479434
 30
0.0
 11
762.1213261667
 21
67.3335450966
 31
0.0
  0
LINE
  5
564
330
1F
100
AcDbEntity
  8
0
  6
Continuous
 62
     7
100
AcDbLine
 10
712.26552862
 20
182.1028879954
 30
0.0
 11
712.6503127325
 21
121.7175793106
 31
0.0
  0
LINE
  5
565
330
1F
100
AcDbEntity
  8
0
  6
Continuous
 62
     7
100
AcDbLine
 10
712.7341740785
 20
108.5569702869
 30
0.0
 11
713.0968269165
 21
51.6447879492
 31
0.0
  0
LINE
  5
566
330
1F
100
AcDbEntity
  8
0
  6
Continuous
 62
     7
100
AcDbLine
 10
713.0968269165
 20
51.6447879492
 30
0.0
 11
731.2528464706
 21
56.3586479434
 31
0.0
  0
LINE
  5
567
330
1F
100
AcDbEntity
  8
0
  6
Continuous
 62
     7
100
AcDbLine
 10
705.1151031909
 20
183.7936295565
 30
0.0
 11
712.26552862
 21
182.1028879954
 31
0.0
  0
LINE
  5
568
330
1F
100
AcDbEntity
  8
0
  6
Continuous
 62
     7
100
AcDbLine
 10
705.1151031909
 20
183.7936295565
 30
0.0
 11
705.9464014875
 21
53.3355295103
 31
0.0
  0
LINE
  5
569
330
1F
100
AcDbEntity
  8
0
  6
Continuous
 62
     7
100
AcDbLine
 10
705.9464014875
 20
53.3355295103
 30
0.0
 11
713.0968269165
 21
51.6447879492
 31
0.0
  0
LINE
  5
56A
330
1F
100
AcDbEntity
  8
0
  6
Continuous
 62
     7
100
AcDbLine
 10
719.9606267313
 20
116.5211382379
 30
0.0
 11
720.0223568028
 21
106.8336555612
 31
0.0
  0
LINE
  5
56B
330
1F
100
AcDbEntity
  8
0
  6
Continuous
 62
     7
100
AcDbLine
 10
719.9606267313
 20
116.5211382379
 30
0.0
 11
746.2075175096
 21
123.3356367597
 31
0.0
  0
LINE
  5
56C
330
1F
100
AcDbEntity
  8
0
  6
Continuous
 62
     7
100
AcDbLine
 10
746.2075175096
 20
123.3356367597
 30
0.0
 11
746.2692475811
 21
113.648154083
 31
0.0
  0
LINE
  5
56D
330
1F
100
AcDbEntity
  8
0
  6
Continuous
 62
     7
100
AcDbLine
 10
720.0223568028
 20
106.8336555612
 30
0.0
 11
746.2692475811
 21
113.648154083
 31
0.0
  0
LINE
  5
56E
330
1F
100
AcDbEntity
  8
0
  6
Continuous
 62
     7
100
AcDbLine
 10
761.6748119826
 20
137.4063364581
 30
0.0
 11
776.1539247456
 21
133.9827027234
 31
0.0
  0
LINE
  5
56F
330
1F
100
AcDbEntity
  8
0
  6
Continuous
 62
     7
100
AcDbLine
 10
746.2075175096
 20
123.3356367597
 30
0.0
 11
776.1539247456
 21
133.9827027234
 31
0.0
  0
LINE
  5
570
330
1F
100
AcDbEntity
  8
0
  6
Continuous
 62
     7
100
AcDbLine
 10
705.6597758732
 20
119.9026213601
 30
0.0
 11
719.9606267313
 21
116.5211382379
 31
0.0
  0
LINE
  5
571
330
1F
100
AcDbEntity
  8
0
  6
Continuous
 62
     7
100
AcDbLine
 10
705.6597758732
 20
119.9026213601
 30
0.0
 11
730.8063322866
 21
126.4314393049
 31
0.0
  0
LINE
  5
572
330
1F
100
AcDbEntity
  8
0
  6
Continuous
 62
     7
100
AcDbLine
 10
730.8063322866
 20
126.4314393049
 30
0.0
 11
761.6748119826
 21
137.4063364581
 31
0.0
  0
LINE
  5
573
330
1F
100
AcDbEntity
  8
0
  6
Continuous
 62
     7
100
AcDbLine
 10
705.6597758732
 20
119.9026213601
 30
0.0
 11
705.7215059447
 21
110.2151386834
 31
0.0
  0
LINE
  5
574
330
1F
100
AcDbEntity
  8
0
  6
Continuous
 62
     7
100
AcDbLine
 10
705.7215059447
 20
110.2151386834
 30
0.0
 11
720.0223568028
 21
106.8336555612
 31
0.0
  0
LINE
  5
575
330
1F
100
AcDbEntity
  8
0
  6
Continuous
 62
     7
100
AcDbLine
 10
776.1539247456
 20
133.9827027234
 30
0.0
 11
776.2156548171
 21
124.2952200467
 31
0.0
  0
LINE
  5
576
330
1F
100
AcDbEntity
  8
0
  6
Continuous
 62
     7
100
AcDbLine
 10
746.2692475811
 20
113.648154083
 30
0.0
 11
776.2156548171
 21
124.2952200467
 31
0.0
  0
LINE
  5
577
330
1F
100
AcDbEntity
  8
0
  6
Continuous
 62
     7
100
AcDbLine
 10
745.7610033255
 20
193.4084281211
 30
0.0
 11
775.7074105615
 21
204.0554940848
 31
0.0
  0
LINE
  5
578
330
1F
100
AcDbEntity
  8
0
  6
Continuous
 62
     7
100
AcDbLine
 10
726.5046494066
 20
188.4088875498
 30
0.0
 11
745.7610033255
 21
193.4084281211
 31
0.0
  0
LINE
  5
579
330
1F
100
AcDbEntity
  8
0
  6
Continuous
 62
     7
100
AcDbLine
 10
705.0533731194
 20
193.4811122332
 30
0.0
 11
726.5046494066
 21
188.4088875498
 31
0.0
  0
LINE
  5
57A
330
1F
100
AcDbEntity
  8
0
  6
Continuous
 62
     7
100
AcDbLine
 10
705.0533731194
 20
193.4811122332
 30
0.0
 11
722.659225491
 21
198.0521319389
 31
0.0
  0
LINE
  5
57B
330
1F
100
AcDbEntity
  8
0
  6
Continuous
 62
     7
100
AcDbLine
 10
722.659225491
 20
198.0521319389
 30
0.0
 11
753.0723450781
 21
208.8651315704
 31
0.0
  0
LINE
  5
57C
330
1F
100
AcDbEntity
  8
0
  6
Continuous
 62
     7
100
AcDbLine
 10
753.0723450781
 20
208.8651315704
 30
0.0
 11
761.2282977986
 21
207.4791278195
 31
0.0
  0
LINE
  5
57D
330
1F
100
AcDbEntity
  8
0
  6
Continuous
 62
     7
100
AcDbLine
 10
761.2282977986
 20
207.4791278195
 30
0.0
 11
775.7074105615
 21
204.0554940848
 31
0.0
  0
LINE
  5
57E
330
1F
100
AcDbEntity
  8
0
  6
Continuous
 62
     7
100
AcDbLine
 10
705.0533731194
 20
193.4811122332
 30
0.0
 11
705.1151031909
 21
183.7936295565
 31
0.0
  0
LINE
  5
57F
330
1F
100
AcDbEntity
  8
0
  6
Continuous
 62
     7
100
AcDbLine
 10
726.5046494066
 20
188.4088875498
 30
0.0
 11
726.5663794781
 21
178.7214048731
 31
0.0
  0
LINE
  5
580
330
1F
100
AcDbEntity
  8
0
  6
Continuous
 62
     7
100
AcDbLine
 10
705.1151031909
 20
183.7936295565
 30
0.0
 11
726.5663794781
 21
178.7214048731
 31
0.0
  0
LINE
  5
581
330
1F
100
AcDbEntity
  8
0
  6
Continuous
 62
     7
100
AcDbLine
 10
745.7610033255
 20
193.4084281211
 30
0.0
 11
745.8227333971
 21
183.7209454444
 31
0.0
  0
LINE
  5
582
330
1F
100
AcDbEntity
  8
0
  6
Continuous
 62
     7
100
AcDbLine
 10
726.5663794781
 20
178.7214048731
 30
0.0
 11
745.8227333971
 21
183.7209454444
 31
0.0
  0
LINE
  5
583
330
1F
100
AcDbEntity
  8
0
  6
Continuous
 62
     7
100
AcDbLine
 10
775.7074105615
 20
204.0554940848
 30
0.0
 11
775.7691406331
 21
194.3680114081
 31
0.0
  0
LINE
  5
584
330
1F
100
AcDbEntity
  8
0
  6
Continuous
 62
     7
100
AcDbLine
 10
745.8227333971
 20
183.7209454444
 30
0.0
 11
775.7691406331
 21
194.3680114081
 31
0.0
  0
LINE
  5
585
330
1F
100
AcDbEntity
  8
0
  6
Continuous
 62
     7
100
AcDbLine
 10
746.6540316936
 20
53.2628453982
 30
0.0
 11
776.6004389296
 21
63.9099113619
 31
0.0
  0
LINE
  5
586
330
1F
100
AcDbEntity
  8
0
  6
Continuous
 62
     7
100
AcDbLine
 10
727.3976777747
 20
48.2633048269
 30
0.0
 11
746.6540316936
 21
53.2628453982
 31
0.0
  0
LINE
  5
587
330
1F
100
AcDbEntity
  8
0
  6
Continuous
 62
     7
100
AcDbLine
 10
705.9464014875
 20
53.3355295103
 30
0.0
 11
727.3976777747
 21
48.2633048269
 31
0.0
  0
LINE
  5
588
330
1F
100
AcDbEntity
  8
0
  6
Continuous
 62
     7
100
AcDbLine
 10
762.1213261667
 20
67.3335450966
 30
0.0
 11
776.6004389296
 21
63.9099113619
 31
0.0
  0
LINE
  5
589
330
1F
100
AcDbEntity
  8
0
  6
Continuous
 62
     7
100
AcDbLine
 10
705.9464014875
 20
53.3355295103
 30
0.0
 11
706.008131559
 21
43.6480468336
 31
0.0
  0
LINE
  5
58A
330
1F
100
AcDbEntity
  8
0
  6
Continuous
 62
     7
100
AcDbLine
 10
727.3976777747
 20
48.2633048269
 30
0.0
 11
727.4594078462
 21
38.5758221502
 31
0.0
  0
LINE
  5
58B
330
1F
100
AcDbEntity
  8
0
  6
Continuous
 62
     7
100
AcDbLine
 10
706.008131559
 20
43.6480468336
 30
0.0
 11
727.4594078462
 21
38.5758221502
 31
0.0
  0
LINE
  5
58C
330
1F
100
AcDbEntity
  8
0
  6
Continuous
 62
     7
100
AcDbLine
 10
746.6540316936
 20
53.2628453982
 30
0.0
 11
746.7157617652
 21
43.5753627215
 31
0.0
  0
LINE
  5
58D
330
1F
100
AcDbEntity
  8
0
  6
Continuous
 62
     7
100
AcDbLine
 10
727.4594078462
 20
38.5758221502
 30
0.0
 11
746.7157617652
 21
43.5753627215
 31
0.0
  0
LINE
  5
58E
330
1F
100
AcDbEntity
  8
0
  6
Continuous
 62
     7
100
AcDbLine
 10
776.6004389296
 20
63.9099113619
 30
0.0
 11
776.6621690012
 21
54.2224286852
 31
0.0
  0
LINE
  5
58F
330
1F
100
AcDbEntity
  8
0
  6
Continuous
 62
     7
100
AcDbLine
 10
746.7157617652
 20
43.5753627215
 30
0.0
 11
776.6621690012
 21
54.2224286852
 31
0.0
  0
INSERT
  5
595
102
{ACAD_REACTORS
330
596
102
}
330
1F
100
AcDbEntity
  8
SLD-0_0
100
AcDbBlockReference
  2
SW_NOTE_16
 10
698.4357015504
 20
196.318890566
 30
0.0
  0
LEADER
  5
596
330
1F
100
AcDbEntity
  8
SLD-0_0
100
AcDbLeader
  3
SLDDIMSTYLE0
 73
     2
 76
     2
 10
750.531165936
 20
199.8104147711
 30
0.0
 10
698.4357015504
 20
196.318890566
 30
0.0
340
595
  0
INSERT
  5
59C
330
1F
100
AcDbEntity
  8
SLD-0_0
100
AcDbBlockReference
  2
SW_NOTE_17
 10
777.6532296732
 20
166.2693194014
 30
0.0
  0
LEADER
  5
59D
330
1F
100
AcDbEntity
  8
SLD-0_0
100
AcDbLeader
  3
SLDDIMSTYLE0
 76
     2
 10
747.6600201365
 20
157.3174569385
 30
0.0
 10
777.6532296732
 20
166.2693194014
 30
0.0
  0
INSERT
  5
5A3
330
1F
100
AcDbEntity
  8
SLD-0_0
100
AcDbBlockReference
  2
SW_NOTE_18
 10
780.3677625755
 20
135.0915522905
 30
0.0
  0
LEADER
  5
5A4
330
1F
100
AcDbEntity
  8
SLD-0_0
100
AcDbLeader
  3
SLDDIMSTYLE0
 76
     2
 10
759.1446033345
 20
133.1998322227
 30
0.0
 10
780.3677625755
 20
135.0915522905
 30
0.0
  0
INSERT
  5
5AA
330
1F
100
AcDbEntity
  8
SLD-0_0
100
AcDbBlockReference
  2
SW_NOTE_19
 10
780.2193340959
 20
77.8949490035
 30
0.0
  0
LEADER
  5
5AB
330
1F
100
AcDbEntity
  8
SLD-0_0
100
AcDbLeader
  3
SLDDIMSTYLE0
 76
     2
 10
759.1446033345
 20
61.4211872353
 30
0.0
 10
780.2193340959
 20
77.8949490035
 30
0.0
  0
INSERT
  5
5B1
102
{ACAD_REACTORS
330
5B2
102
}
330
1F
100
AcDbEntity
  8
SLD-0_0
100
AcDbBlockReference
  2
SW_NOTE_20
 10
698.1329780096
 20
87.0931472104
 30
0.0
  0
LEADER
  5
5B2
330
1F
100
AcDbEntity
  8
SLD-0_0
100
AcDbLeader
  3
SLDDIMSTYLE0
 73
     2
 76
     2
 10
722.9681662608
 20
88.4099577506
 30
0.0
 10
698.1329780096
 20
87.0931472104
 30
0.0
340
5B1
  0
LINE
  5
5B3
330
1F
100
AcDbEntity
  8
0
  6
Continuous
 62
     7
100
AcDbLine
 10
1078.9574247703
 20
416.2685998008
 30
0.0
 11
1157.8037391724
 21
416.2685998008
 31
0.0
  0
LINE
  5
5B4
330
1F
100
AcDbEntity
  8
0
  6
Continuous
 62
     7
100
AcDbLine
 10
1157.8037391724
 20
416.2685998008
 30
0.0
 11
1157.8037391724
 21
401.2685998008
 31
0.0
  0
LINE
  5
5B5
330
1F
100
AcDbEntity
  8
0
  6
Continuous
 62
     7
100
AcDbLine
 10
1077.776899168
 20
401.2685998008
 30
0.0
 11
1157.8037391724
 21
401.2685998008
 31
0.0
  0
LINE
  5
5B6
330
1F
100
AcDbEntity
  8
0
  6
Continuous
 62
     7
100
AcDbLine
 10
1077.776899168
 20
401.2685998008
 30
0.0
 11
1078.9574247703
 21
416.2685998008
 31
0.0
  0
DIMENSION
  5
5B7
330
1F
100
AcDbEntity
  8
SLD-0_0
100
AcDbDimension
  2
_D_42
 10
1157.8037391724
 20
381.287274594
 30
0.0
 11
1117.2359808777
 21
381.287274594
 31
0.0
 70
   160
  1
<>
 71
     2
 42
-1.0
  3
SLDDIMSTYLE16
100
AcDbAlignedDimension
 13
1077.776899168
 23
401.2685998008
 33
0.0
 14
1157.8037391724
 24
401.2685998008
 34
0.0
 50
0.0
100
AcDbRotatedDimension
  0
INSERT
  5
5CC
330
1F
100
AcDbEntity
  8
SLD-0_0
100
AcDbBlockReference
  2
SW_ANGULAR_DIMENSION_8
 10
1073.8724367381
 20
430.4285554356
 30
0.0
  0
DIMENSION
  5
5CD
330
1F
100
AcDbEntity
  8
SLD-0_0
100
AcDbDimension
  2
_D_43
 10
1172.6702370003
 20
401.2685998008
 30
0.0
 11
1172.6702370003
 21
408.1550866233
 31
0.0
 70
   160
  1
<>
 71
     2
 42
-1.0
  3
SLDDIMSTYLE15
100
AcDbAlignedDimension
 13
1157.8037391724
 23
416.2685998008
 33
0.0
 14
1157.8037391724
 24
401.2685998008
 34
0.0
 50
90.0
100
AcDbRotatedDimension
  0
LINE
  5
5D9
330
1F
100
AcDbEntity
  8
0
  6
Continuous
 62
     7
100
AcDbLine
 10
1157.8037391724
 20
166.4033677891
 30
0.0
 11
1157.8037391724
 21
368.4033677891
 31
0.0
  0
LINE
  5
5DA
330
1F
100
AcDbEntity
  8
0
  6
Continuous
 62
     7
100
AcDbLine
 10
1078.9574247703
 20
166.4033677891
 30
0.0
 11
1157.8037391724
 21
166.4033677891
 31
0.0
  0
LINE
  5
5DB
330
1F
100
AcDbEntity
  8
0
  6
Continuous
 62
     7
100
AcDbLine
 10
1078.9574247703
 20
166.4033677891
 30
0.0
 11
1078.9574247703
 21
368.4033677891
 31
0.0
  0
LINE
  5
5DC
330
1F
100
AcDbEntity
  8
0
  6
Continuous
 62
     7
100
AcDbLine
 10
1078.9574247703
 20
368.4033677891
 30
0.0
 11
1157.8037391724
 21
368.4033677891
 31
0.0
  0
LINE
  5
5DD
330
1F
100
AcDbEntity
  8
0
  6
Continuous
 62
     7
100
AcDbLine
 10
1077.776899168
 20
166.4033677891
 30
0.0
 11
1077.776899168
 21
368.4033677891
 31
0.0
  0
LINE
  5
5DE
330
1F
100
AcDbEntity
  8
0
  6
Continuous
 62
     7
100
AcDbLine
 10
1077.776899168
 20
166.4033677891
 30
0.0
 11
1078.9574247703
 21
166.4033677891
 31
0.0
  0
LINE
  5
5DF
330
1F
100
AcDbEntity
  8
0
  6
Continuous
 62
     7
100
AcDbLine
 10
1077.776899168
 20
368.4033677891
 30
0.0
 11
1078.9574247703
 21
368.4033677891
 31
0.0
  0
DIMENSION
  5
5E0
330
1F
100
AcDbEntity
  8
SLD-0_0
100
AcDbDimension
  2
_D_44
 10
1169.4580638273
 20
368.4033677891
 30
0.0
 11
1169.4580638273
 21
272.7973733048
 31
0.0
 70
   160
  1
<>
 71
     2
 42
-1.0
  3
SLDDIMSTYLE3
100
AcDbAlignedDimension
 13
1157.8037391724
 23
166.4033677891
 33
0.0
 14
1157.8037391724
 24
368.4033677891
 34
0.0
 50
90.0
100
AcDbRotatedDimension
  0
LINE
  5
5EA
330
1F
100
AcDbEntity
  8
0
  6
Continuous
 62
     7
100
AcDbLine
 10
910.5680277152
 20
350.749111738
 30
0.0
 11
898.4230255839
 21
427.4296373404
 31
0.0
  0
LINE
  5
5EB
330
1F
100
AcDbEntity
  8
0
  6
Continuous
 62
     7
100
AcDbLine
 10
910.5680277152
 20
309.4296373404
 30
0.0
 11
910.5680277152
 21
350.749111738
 31
0.0
  0
LINE
  5
5EC
330
1F
100
AcDbEntity
  8
0
  6
Continuous
 62
     7
100
AcDbLine
 10
865.5680277152
 20
309.4296373404
 30
0.0
 11
910.5680277152
 21
309.4296373404
 31
0.0
  0
LINE
  5
5ED
330
1F
100
AcDbEntity
  8
0
  6
Continuous
 62
     7
100
AcDbLine
 10
865.5680277152
 20
309.4296373404
 30
0.0
 11
865.5680277152
 21
347.2075349309
 31
0.0
  0
LINE
  5
5EE
330
1F
100
AcDbEntity
  8
0
  6
Continuous
 62
     7
100
AcDbLine
 10
865.5680277152
 20
347.2075349309
 30
0.0
 11
853.2337467013
 21
425.0831203648
 31
0.0
  0
LINE
  5
5EF
330
1F
100
AcDbEntity
  8
0
  6
Continuous
 62
     7
100
AcDbLine
 10
853.2337467013
 20
425.0831203648
 30
0.0
 11
868.0490718102
 21
427.4296373404
 31
0.0
  0
LINE
  5
5F0
330
1F
100
AcDbEntity
  8
0
  6
Continuous
 62
     7
100
AcDbLine
 10
868.0490718102
 20
427.4296373404
 30
0.0
 11
898.4230255839
 21
427.4296373404
 31
0.0
  0
DIMENSION
  5
5F1
330
1F
100
AcDbEntity
  8
SLD-0_0
100
AcDbDimension
  2
_D_45
 10
910.5680277152
 20
299.4408048636
 30
0.0
 11
889.2931823933
 21
299.4408048636
 31
0.0
 70
   160
  1
<>
 71
     2
 42
-1.0
  3
SLDDIMSTYLE3
100
AcDbAlignedDimension
 13
865.5680277152
 23
309.4296373404
 33
0.0
 14
910.5680277152
 24
309.4296373404
 34
0.0
100
AcDbRotatedDimension
  0
DIMENSION
  5
5FB
330
1F
100
AcDbEntity
  8
SLD-0_0
100
AcDbDimension
  2
_D_46
 10
853.2337467013
 20
292.4296373404
 30
0.0
 11
882.1755179155
 21
292.4296373404
 31
0.0
 70
   160
  1
<>
 71
     2
 42
-1.0
  3
SLDDIMSTYLE3
100
AcDbAlignedDimension
 13
910.5680277152
 23
309.4296373404
 33
0.0
 14
853.2337467013
 24
425.0831203648
 34
0.0
100
AcDbRotatedDimension
  0
DIMENSION
  5
605
330
1F
100
AcDbEntity
  8
SLD-0_0
100
AcDbDimension
  2
_D_47
 10
910.5680277152
 20
350.749111738
 30
0.0
 11
906.6358212619
 21
411.617998718
 31
0.0
 70
   162
  1
<>
 71
     1
 42
-1.0
  3
SLDDIMSTYLE1
100
AcDb2LineAngularDimension
 13
910.5680277152
 23
309.4296373404
 33
0.0
 14
910.5680277152
 24
350.749111738
 34
0.0
 15
898.4230255839
 25
427.4296373404
 35
0.0
 16
905.7823549559
 26
411.5568496175
 36
0.0
  0
DIMENSION
  5
610
330
1F
100
AcDbEntity
  8
SLD-0_0
100
AcDbDimension
  2
_D_48
 10
868.0490718102
 20
427.4296373404
 30
0.0
 11
848.5121554174
 21
427.0593763421
 31
0.0
 70
   162
  1
<>
 71
     1
 42
-1.0
  3
SLDDIMSTYLE1
100
AcDb2LineAngularDimension
 13
853.2337467013
 23
425.0831203648
 33
0.0
 14
868.0490718102
 24
427.4296373404
 34
0.0
 15
898.4230255839
 25
427.4296373404
 35
0.0
 16
848.5688837721
 26
425.8965132926
 36
0.0
  0
DIMENSION
  5
61C
330
1F
100
AcDbEntity
  8
SLD-0_0
100
AcDbDimension
  2
_D_49
 10
910.5680277152
 20
437.4296373404
 30
0.0
 11
908.9253640067
 21
437.4296373404
 31
0.0
 70
   160
  1
<>
 71
     2
 42
-1.0
  3
SLDDIMSTYLE15
100
AcDbAlignedDimension
 13
898.4230255839
 23
427.4296373404
 33
0.0
 14
910.5680277152
 24
350.749111738
 34
0.0
100
AcDbRotatedDimension
  0
DIMENSION
  5
628
330
1F
100
AcDbEntity
  8
SLD-0_0
100
AcDbDimension
  2
_D_50
 10
898.4230255839
 20
437.4296373404
 30
0.0
 11
882.6441908539
 21
437.4296373404
 31
0.0
 70
   160
  1
<>
 71
     2
 42
-1.0
  3
SLDDIMSTYLE3
100
AcDbAlignedDimension
 13
868.0490718102
 23
427.4296373404
 33
0.0
 14
898.4230255839
 24
427.4296373404
 34
0.0
100
AcDbRotatedDimension
  0
DIMENSION
  5
632
330
1F
100
AcDbEntity
  8
SLD-0_0
100
AcDbDimension
  2
_D_51
 10
919.173547353
 20
350.749111738
 30
0.0
 11
919.173547353
 21
331.8637702745
 31
0.0
 70
   160
  1
<>
 71
     2
 42
-1.0
  3
SLDDIMSTYLE3
100
AcDbAlignedDimension
 13
910.5680277152
 23
309.4296373404
 33
0.0
 14
910.5680277152
 24
350.749111738
 34
0.0
 50
90.0
100
AcDbRotatedDimension
  0
DIMENSION
  5
63C
330
1F
100
AcDbEntity
  8
SLD-0_0
100
AcDbDimension
  2
_D_52
 10
925.8299234756
 20
427.4296373404
 30
0.0
 11
925.8299234756
 21
370.6926309894
 31
0.0
 70
   160
  1
<>
 71
     2
 42
-1.0
  3
SLDDIMSTYLE3
100
AcDbAlignedDimension
 13
910.5680277152
 23
309.4296373404
 33
0.0
 14
898.4230255839
 24
427.4296373404
 34
0.0
 50
90.0
100
AcDbRotatedDimension
  0
DIMENSION
  5
646
330
1F
100
AcDbEntity
  8
SLD-0_0
100
AcDbDimension
  2
_D_53
 10
844.0376213168
 20
347.2075349309
 30
0.0
 11
844.0376213168
 21
328.2582332081
 31
0.0
 70
   160
  1
<>
 71
     2
 42
-1.0
  3
SLDDIMSTYLE3
100
AcDbAlignedDimension
 13
865.5680277152
 23
309.4296373404
 33
0.0
 14
865.5680277152
 24
347.2075349309
 34
0.0
 50
90.0
100
AcDbRotatedDimension
  0
LINE
  5
650
330
1F
100
AcDbEntity
  8
0
  6
Continuous
 62
     7
100
AcDbLine
 10
853.342265796
 20
263.9906087446
 30
0.0
 11
883.7162195696
 21
263.9906087446
 31
0.0
  0
LINE
  5
651
330
1F
100
AcDbEntity
  8
0
  6
Continuous
 62
     7
100
AcDbLine
 10
895.861221701
 20
187.3100831422
 30
0.0
 11
883.7162195696
 21
263.9906087446
 31
0.0
  0
LINE
  5
652
330
1F
100
AcDbEntity
  8
0
  6
Continuous
 62
     7
100
AcDbLine
 10
895.861221701
 20
130.9906087446
 30
0.0
 11
895.861221701
 21
187.3100831422
 31
0.0
  0
LINE
  5
653
330
1F
100
AcDbEntity
  8
0
  6
Continuous
 62
     7
100
AcDbLine
 10
865.861221701
 20
130.9906087446
 30
0.0
 11
895.861221701
 21
130.9906087446
 31
0.0
  0
LINE
  5
654
330
1F
100
AcDbEntity
  8
0
  6
Continuous
 62
     7
100
AcDbLine
 10
865.861221701
 20
130.9906087446
 30
0.0
 11
865.861221701
 21
184.9490319375
 31
0.0
  0
LINE
  5
655
330
1F
100
AcDbEntity
  8
0
  6
Continuous
 62
     7
100
AcDbLine
 10
865.861221701
 20
184.9490319375
 30
0.0
 11
853.342265796
 21
263.9906087446
 31
0.0
  0
DIMENSION
  5
656
330
1F
100
AcDbEntity
  8
SLD-0_0
100
AcDbDimension
  2
_D_54
 10
895.861221701
 20
124.1386328671
 30
0.0
 11
881.9855933279
 21
124.1386328671
 31
0.0
 70
   160
  1
<>
 71
     2
 42
-1.0
  3
SLDDIMSTYLE3
100
AcDbAlignedDimension
 13
865.861221701
 23
130.9906087446
 33
0.0
 14
895.861221701
 24
130.9906087446
 34
0.0
100
AcDbRotatedDimension
  0
DIMENSION
  5
660
330
1F
100
AcDbEntity
  8
SLD-0_0
100
AcDbDimension
  2
_D_55
 10
905.861221701
 20
187.3100831422
 30
0.0
 11
905.861221701
 21
160.0837949517
 31
0.0
 70
   160
  1
<>
 71
     2
 42
-1.0
  3
SLDDIMSTYLE16
100
AcDbAlignedDimension
 13
895.861221701
 23
130.9906087446
 33
0.0
 14
895.861221701
 24
187.3100831422
 34
0.0
 50
90.0
100
AcDbRotatedDimension
  0
DIMENSION
  5
66A
330
1F
100
AcDbEntity
  8
SLD-0_0
100
AcDbDimension
  2
_D_56
 10
895.861221701
 20
187.3100831422
 30
0.0
 11
893.3564982384
 21
233.2846035427
 31
0.0
 70
   162
  1
<>
 71
     1
 42
-1.0
  3
SLDDIMSTYLE1
100
AcDb2LineAngularDimension
 13
883.7162195696
 23
263.9906087446
 33
0.0
 14
895.861221701
 24
187.3100831422
 34
0.0
 15
895.861221701
 25
130.9906087446
 35
0.0
 16
892.2487531432
 26
233.2108482403
 36
0.0
  0
DIMENSION
  5
675
330
1F
100
AcDbEntity
  8
SLD-0_0
100
AcDbDimension
  2
_D_57
 10
883.7162195696
 20
270.4868056484
 30
0.0
 11
891.3358206893
 21
270.4868056484
 31
0.0
 70
   160
  1
<>
 71
     2
 42
-1.0
  3
SLDDIMSTYLE15
100
AcDbAlignedDimension
 13
895.861221701
 23
187.3100831422
 33
0.0
 14
883.7162195696
 24
263.9906087446
 34
0.0
100
AcDbRotatedDimension
  0
DIMENSION
  5
681
330
1F
100
AcDbEntity
  8
SLD-0_0
100
AcDbDimension
  2
_D_58
 10
853.342265796
 20
113.9906087446
 30
0.0
 11
874.6017437485
 21
113.9906087446
 31
0.0
 70
   160
  1
<>
 71
     2
 42
-1.0
  3
SLDDIMSTYLE16
100
AcDbAlignedDimension
 13
895.861221701
 23
130.9906087446
 33
0.0
 14
853.342265796
 24
263.9906087446
 34
0.0
100
AcDbRotatedDimension
  0
DIMENSION
  5
68B
330
1F
100
AcDbEntity
  8
SLD-0_0
100
AcDbDimension
  2
_D_59
 10
848.2339183211
 20
184.9490319375
 30
0.0
 11
848.2339183211
 21
160.0837949517
 31
0.0
 70
   160
  1
<>
 71
     2
 42
-1.0
  3
SLDDIMSTYLE16
100
AcDbAlignedDimension
 13
865.861221701
 23
130.9906087446
 33
0.0
 14
865.861221701
 24
184.9490319375
 34
0.0
 50
90.0
100
AcDbRotatedDimension
  0
DIMENSION
  5
695
330
1F
100
AcDbEntity
  8
SLD-0_0
100
AcDbDimension
  2
_D_60
 10
914.8595678855
 20
130.9906087446
 30
0.0
 11
914.8595678855
 21
192.9208939407
 31
0.0
 70
   160
  1
<>
 71
     2
 42
-1.0
  3
SLDDIMSTYLE3
100
AcDbAlignedDimension
 13
883.7162195696
 23
263.9906087446
 33
0.0
 14
895.861221701
 24
130.9906087446
 34
0.0
 50
90.0
100
AcDbRotatedDimension
  0
LINE
  5
69F
330
1F
100
AcDbEntity
  8
0
  6
Continuous
 62
     7
100
AcDbLine
 10
987.2872681525
 20
367.6824736712
 30
0.0
 11
987.2872681525
 21
165.6824736712
 31
0.0
  0
LINE
  5
6A0
330
1F
100
AcDbEntity
  8
0
  6
Continuous
 62
     7
100
AcDbLine
 10
987.2872681525
 20
367.6824736712
 30
0.0
 11
1026.2456913454
 21
367.6824736712
 31
0.0
  0
LINE
  5
6A1
330
1F
100
AcDbEntity
  8
0
  6
Continuous
 62
     7
100
AcDbLine
 10
1026.2456913454
 20
367.6824736712
 30
0.0
 11
1026.2456913454
 21
165.6824736712
 31
0.0
  0
LINE
  5
6A2
330
1F
100
AcDbEntity
  8
0
  6
Continuous
 62
     7
100
AcDbLine
 10
987.2872681525
 20
165.6824736712
 30
0.0
 11
1026.2456913454
 21
165.6824736712
 31
0.0
  0
DIMENSION
  5
6A3
330
1F
100
AcDbEntity
  8
SLD-0_0
100
AcDbDimension
  2
_D_61
 10
1036.2456913454
 20
165.6824736712
 30
0.0
 11
1036.2456913454
 21
275.7603682425
 31
0.0
 70
   160
  1
<>
 71
     2
 42
-1.0
  3
SLDDIMSTYLE3
100
AcDbAlignedDimension
 13
1026.2456913454
 23
367.6824736712
 33
0.0
 14
1026.2456913454
 24
165.6824736712
 34
0.0
 50
90.0
100
AcDbRotatedDimension
  0
LINE
  5
6AD
330
1F
100
AcDbEntity
  8
0
  6
Continuous
 62
     7
100
AcDbLine
 10
987.2872681525
 20
405.0394902552
 30
0.0
 11
1026.2456913454
 21
405.0394902552
 31
0.0
  0
LINE
  5
6AE
330
1F
100
AcDbEntity
  8
0
  6
Continuous
 62
     7
100
AcDbLine
 10
987.2872681525
 20
420.0394902552
 30
0.0
 11
1025.065165743
 21
420.0394902552
 31
0.0
  0
LINE
  5
6AF
330
1F
100
AcDbEntity
  8
0
  6
Continuous
 62
     7
100
AcDbLine
 10
1026.2456913454
 20
405.0394902552
 30
0.0
 11
1025.065165743
 21
420.0394902552
 31
0.0
  0
LINE
  5
6B0
330
1F
100
AcDbEntity
  8
0
  6
Continuous
 62
     7
100
AcDbLine
 10
987.2872681525
 20
420.0394902552
 30
0.0
 11
987.2872681525
 21
405.0394902552
 31
0.0
  0
DIMENSION
  5
6B1
330
1F
100
AcDbEntity
  8
SLD-0_0
100
AcDbDimension
  2
_D_62
 10
1026.2456913454
 20
395.0394902552
 30
0.0
 11
1006.589557443
 21
395.0394902552
 31
0.0
 70
   160
  1
<>
 71
     2
 42
-1.0
  3
SLDDIMSTYLE16
100
AcDbAlignedDimension
 13
987.2872681525
 23
405.0394902552
 33
0.0
 14
1026.2456913454
 24
405.0394902552
 34
0.0
100
AcDbRotatedDimension
  0
INSERT
  5
6C6
330
1F
100
AcDbEntity
  8
SLD-0_0
100
AcDbBlockReference
  2
SW_ANGULAR_DIMENSION_9
 10
1019.1724020567
 20
434.7693100029
 30
0.0
  0
DIMENSION
  5
6C7
330
1F
100
AcDbEntity
  8
SLD-0_0
100
AcDbDimension
  2
_D_63
 10
1038.0138207212
 20
405.0394902552
 30
0.0
 11
1038.0138207212
 21
412.0643135873
 31
0.0
 70
   160
  1
<>
 71
     2
 42
-1.0
  3
SLDDIMSTYLE15
100
AcDbAlignedDimension
 13
1025.065165743
 23
420.0394902552
 33
0.0
 14
1026.2456913454
 24
405.0394902552
 34
0.0
 50
90.0
100
AcDbRotatedDimension
  0
LINE
  5
6D3
330
1F
100
AcDbEntity
  8
0
  6
Continuous
 62
     7
100
AcDbLine
 10
937.1741641082
 20
263.9906087446
 30
0.0
 11
922.1741641082
 21
263.9906087446
 31
0.0
  0
LINE
  5
6D4
330
1F
100
AcDbEntity
  8
0
  6
Continuous
 62
     7
100
AcDbLine
 10
937.1741641082
 20
184.9490319375
 30
0.0
 11
937.1741641082
 21
263.9906087446
 31
0.0
  0
LINE
  5
6D5
330
1F
100
AcDbEntity
  8
0
  6
Continuous
 62
     7
100
AcDbLine
 10
937.1741641082
 20
184.9490319375
 30
0.0
 11
922.1741641082
 21
184.9490319375
 31
0.0
  0
LINE
  5
6D6
330
1F
100
AcDbEntity
  8
0
  6
Continuous
 62
     7
100
AcDbLine
 10
922.1741641082
 20
184.9490319375
 30
0.0
 11
922.1741641082
 21
263.9906087446
 31
0.0
  0
LINE
  5
6D7
330
1F
100
AcDbEntity
  8
0
  6
Continuous
 62
     7
100
AcDbLine
 10
937.1741641082
 20
130.9906087446
 30
0.0
 11
922.1741641082
 21
130.9906087446
 31
0.0
  0
LINE
  5
6D8
330
1F
100
AcDbEntity
  8
0
  6
Continuous
 62
     7
100
AcDbLine
 10
937.1741641082
 20
130.9906087446
 30
0.0
 11
937.1741641082
 21
184.9490319375
 31
0.0
  0
LINE
  5
6D9
330
1F
100
AcDbEntity
  8
0
  6
Continuous
 62
     7
100
AcDbLine
 10
922.1741641082
 20
130.9906087446
 30
0.0
 11
922.1741641082
 21
184.9490319375
 31
0.0
  0
DIMENSION
  5
6DA
330
1F
100
AcDbEntity
  8
SLD-0_0
100
AcDbDimension
  2
_D_64
 10
937.1741641082
 20
271.5681707226
 30
0.0
 11
927.6804068287
 21
271.5681707226
 31
0.0
 70
   160
  1
<>
 71
     2
 42
-1.0
  3
SLDDIMSTYLE15
100
AcDbAlignedDimension
 13
922.1741641082
 23
263.9906087446
 33
0.0
 14
937.1741641082
 24
263.9906087446
 34
0.0
100
AcDbRotatedDimension
  0
LINE
  5
6E6
330
1F
100
AcDbEntity
  8
0
  6
Continuous
 62
     7
100
AcDbLine
 10
938.0187571698
 20
427.4296373404
 30
0.0
 11
923.0187571698
 21
427.4296373404
 31
0.0
  0
LINE
  5
6E7
330
1F
100
AcDbEntity
  8
0
  6
Continuous
 62
     7
100
AcDbLine
 10
938.0187571698
 20
425.0831203648
 30
0.0
 11
938.0187571698
 21
427.4296373404
 31
0.0
  0
LINE
  5
6E8
330
1F
100
AcDbEntity
  8
0
  6
Continuous
 62
     7
100
AcDbLine
 10
938.0187571698
 20
425.0831203648
 30
0.0
 11
923.0187571698
 21
425.0831203648
 31
0.0
  0
LINE
  5
6E9
330
1F
100
AcDbEntity
  8
0
  6
Continuous
 62
     7
100
AcDbLine
 10
923.0187571698
 20
425.0831203648
 30
0.0
 11
923.0187571698
 21
427.4296373404
 31
0.0
  0
LINE
  5
6EA
330
1F
100
AcDbEntity
  8
0
  6
Continuous
 62
     7
100
AcDbLine
 10
938.0187571698
 20
347.2075349309
 30
0.0
 11
938.0187571698
 21
425.0831203648
 31
0.0
  0
LINE
  5
6EB
330
1F
100
AcDbEntity
  8
0
  6
Continuous
 62
     7
100
AcDbLine
 10
938.0187571698
 20
347.2075349309
 30
0.0
 11
923.0187571698
 21
347.2075349309
 31
0.0
  0
LINE
  5
6EC
330
1F
100
AcDbEntity
  8
0
  6
Continuous
 62
     7
100
AcDbLine
 10
923.0187571698
 20
347.2075349309
 30
0.0
 11
923.0187571698
 21
425.0831203648
 31
0.0
  0
LINE
  5
6ED
330
1F
100
AcDbEntity
  8
0
  6
Continuous
 62
     7
100
AcDbLine
 10
938.0187571698
 20
309.4296373404
 30
0.0
 11
923.0187571698
 21
309.4296373404
 31
0.0
  0
LINE
  5
6EE
330
1F
100
AcDbEntity
  8
0
  6
Continuous
 62
     7
100
AcDbLine
 10
938.0187571698
 20
309.4296373404
 30
0.0
 11
938.0187571698
 21
347.2075349309
 31
0.0
  0
LINE
  5
6EF
330
1F
100
AcDbEntity
  8
0
  6
Continuous
 62
     7
100
AcDbLine
 10
923.0187571698
 20
309.4296373404
 30
0.0
 11
923.0187571698
 21
347.2075349309
 31
0.0
  0
DIMENSION
  5
6F0
330
1F
100
AcDbEntity
  8
SLD-0_0
100
AcDbDimension
  2
_D_65
 10
938.0187571698
 20
437.4938946548
 30
0.0
 11
930.6164281149
 21
437.4938946548
 31
0.0
 70
   160
  1
<>
 71
     2
 42
-1.0
  3
SLDDIMSTYLE15
100
AcDbAlignedDimension
 13
923.0187571698
 23
425.0831203648
 33
0.0
 14
938.0187571698
 24
425.0831203648
 34
0.0
100
AcDbRotatedDimension
  0
ENDSEC
  0
SECTION
  2
OBJECTS
  0
DICTIONARY
  5
C
330
0
100
AcDbDictionary
281
     1
  3
ACAD_GROUP
350
D
  3
ACAD_LAYOUT
350
1A
  3
ACAD_MLINESTYLE
350
17
  3
ACAD_PLOTSETTINGS
350
19
  3
ACAD_PLOTSTYLENAME
350
E
  3
ACAD_SCALELIST
350
47
  0
DICTIONARY
  5
D
102
{ACAD_REACTORS
330
C
102
}
330
C
100
AcDbDictionary
281
     1
  0
DICTIONARY
  5
1A
102
{ACAD_REACTORS
330
C
102
}
330
C
100
AcDbDictionary
281
     1
  3
Layout1
350
1E
  3
Layout2
350
26
  3
Model
350
22
  0
DICTIONARY
  5
17
102
{ACAD_REACTORS
330
C
102
}
330
C
100
AcDbDictionary
281
     1
  3
Standard
350
18
  0
DICTIONARY
  5
19
102
{ACAD_REACTORS
330
C
102
}
330
C
100
AcDbDictionary
281
     1
  0
ACDBDICTIONARYWDFLT
  5
E
102
{ACAD_REACTORS
330
C
102
}
330
C
100
AcDbDictionary
281
     1
  3
Normal
350
F
100
AcDbDictionaryWithDefault
340
F
  0
DICTIONARY
  5
47
102
{ACAD_REACTORS
330
C
102
}
330
C
100
AcDbDictionary
281
     1
  3
A0
350
48
  3
A1
350
49
  3
A2
350
4A
  3
A3
350
4B
  3
A4
350
4C
  3
A5
350
4D
  3
A6
350
4E
  3
A7
350
4F
  3
A8
350
50
  3
A9
350
51
  3
B0
350
52
  3
B1
350
53
  3
B2
350
54
  3
B3
350
55
  3
B4
350
56
  3
B5
350
57
  3
B6
350
58
  3
B7
350
59
  3
B8
350
5A
  3
B9
350
5B
  3
C0
350
5C
  3
C1
350
5D
  3
C2
350
5E
  3
C3
350
5F
  3
C4
350
60
  3
C5
350
61
  3
C6
350
62
  3
C7
350
63
  3
C8
350
64
  3
C9
350
65
  3
D0
350
66
  3
D1
350
67
  3
D2
350
68
  0
LAYOUT
  5
1E
102
{ACAD_REACTORS
330
1A
102
}
330
1A
100
AcDbPlotSettings
  1

  2
none_device
  4

  6

 40
0.0
 41
0.0
 42
0.0
 43
0.0
 44
0.0
 45
0.0
 46
0.0
 47
0.0
 48
0.0
 49
0.0
140
0.0
141
0.0
142
1.0
143
1.0
 70
   688
 72
     1
 73
     0
 74
     5
  7

 75
    16
147
1.0
148
0.0
149
0.0
100
AcDbLayout
  1
Layout1
 70
     1
 71
     1
 10
0.0
 20
0.0
 11
420.0
 21
297.0
 12
0.0
 22
0.0
 32
0.0
 14
1.0000000000E+20
 24
1.0000000000E+20
 34
1.0000000000E+20
 15
-1.0000000000E+20
 25
-1.0000000000E+20
 35
-1.0000000000E+20
146
0.0
 13
0.0
 23
0.0
 33
0.0
 16
1.0
 26
0.0
 36
0.0
 17
0.0
 27
1.0
 37
0.0
 76
     0
330
1B
  0
LAYOUT
  5
26
102
{ACAD_REACTORS
330
1A
102
}
330
1A
100
AcDbPlotSettings
  1

  2
none_device
  4

  6

 40
0.0
 41
0.0
 42
0.0
 43
0.0
 44
0.0
 45
0.0
 46
0.0
 47
0.0
 48
0.0
 49
0.0
140
0.0
141
0.0
142
1.0
143
1.0
 70
   688
 72
     1
 73
     0
 74
     5
  7

 75
    16
147
1.0
148
0.0
149
0.0
100
AcDbLayout
  1
Layout2
 70
     1
 71
     2
 10
0.0
 20
0.0
 11
0.0
 21
0.0
 12
0.0
 22
0.0
 32
0.0
 14
0.0
 24
0.0
 34
0.0
 15
0.0
 25
0.0
 35
0.0
146
0.0
 13
0.0
 23
0.0
 33
0.0
 16
1.0
 26
0.0
 36
0.0
 17
0.0
 27
1.0
 37
0.0
 76
     0
330
23
  0
LAYOUT
  5
22
102
{ACAD_REACTORS
330
1A
102
}
330
1A
100
AcDbPlotSettings
  1

  2
none_device
  4
Letter_(8.50_x_11.00_Inches)
  6

 40
6.35
 41
6.35
 42
6.35000508
 43
6.35000508
 44
215.9
 45
279.4
 46
0.0
 47
0.0
 48
0.0
 49
0.0
140
0.0
141
0.0
142
1.0
143
1.0
 70
  1712
 72
     1
 73
     0
 74
     0
  7

 75
     0
147
1.0
148
0.0
149
0.0
100
AcDbLayout
  1
Model
 70
     1
 71
     0
 10
0.0
 20
0.0
 11
1188.0
 21
841.0
 12
0.0
 22
0.0
 32
0.0
 14
0.0
 24
0.0
 34
0.0
 15
1188.0
 25
841.0
 35
0.0
146
0.0
 13
0.0
 23
0.0
 33
0.0
 16
1.0
 26
0.0
 36
0.0
 17
0.0
 27
1.0
 37
0.0
 76
     0
330
1F
331
29
  0
MLINESTYLE
  5
18
102
{ACAD_REACTORS
330
17
102
}
330
17
100
AcDbMlineStyle
  2
Standard
 70
     0
  3

 62
   256
 51
90.0
 52
90.0
 71
     2
 49
0.5
 62
   256
  6
BYLAYER
 49
-0.5
 62
   256
  6
BYLAYER
  0
ACDBPLACEHOLDER
  5
F
102
{ACAD_REACTORS
330
E
102
}
330
E
  0
SCALE
  5
48
102
{ACAD_REACTORS
330
47
102
}
330
47
100
AcDbScale
 70
     0
300
1:1
140
1.0
141
1.0
290
     1
  0
SCALE
  5
49
102
{ACAD_REACTORS
330
47
102
}
330
47
100
AcDbScale
 70
     0
300
1:2
140
1.0
141
2.0
290
     0
  0
SCALE
  5
4A
102
{ACAD_REACTORS
330
47
102
}
330
47
100
AcDbScale
 70
     0
300
1:4
140
1.0
141
4.0
290
     0
  0
SCALE
  5
4B
102
{ACAD_REACTORS
330
47
102
}
330
47
100
AcDbScale
 70
     0
300
1:5
140
1.0
141
5.0
290
     0
  0
SCALE
  5
4C
102
{ACAD_REACTORS
330
47
102
}
330
47
100
AcDbScale
 70
     0
300
1:8
140
1.0
141
8.0
290
     0
  0
SCALE
  5
4D
102
{ACAD_REACTORS
330
47
102
}
330
47
100
AcDbScale
 70
     0
300
1:10
140
1.0
141
10.0
290
     0
  0
SCALE
  5
4E
102
{ACAD_REACTORS
330
47
102
}
330
47
100
AcDbScale
 70
     0
300
1:16
140
1.0
141
16.0
290
     0
  0
SCALE
  5
4F
102
{ACAD_REACTORS
330
47
102
}
330
47
100
AcDbScale
 70
     0
300
1:20
140
1.0
141
20.0
290
     0
  0
SCALE
  5
50
102
{ACAD_REACTORS
330
47
102
}
330
47
100
AcDbScale
 70
     0
300
1:30
140
1.0
141
30.0
290
     0
  0
SCALE
  5
51
102
{ACAD_REACTORS
330
47
102
}
330
47
100
AcDbScale
 70
     0
300
1:40
140
1.0
141
40.0
290
     0
  0
SCALE
  5
52
102
{ACAD_REACTORS
330
47
102
}
330
47
100
AcDbScale
 70
     0
300
1:50
140
1.0
141
50.0
290
     0
  0
SCALE
  5
53
102
{ACAD_REACTORS
330
47
102
}
330
47
100
AcDbScale
 70
     0
300
1:100
140
1.0
141
100.0
290
     0
  0
SCALE
  5
54
102
{ACAD_REACTORS
330
47
102
}
330
47
100
AcDbScale
 70
     0
300
2:1
140
2.0
141
1.0
290
     0
  0
SCALE
  5
55
102
{ACAD_REACTORS
330
47
102
}
330
47
100
AcDbScale
 70
     0
300
4:1
140
4.0
141
1.0
290
     0
  0
SCALE
  5
56
102
{ACAD_REACTORS
330
47
102
}
330
47
100
AcDbScale
 70
     0
300
8:1
140
8.0
141
1.0
290
     0
  0
SCALE
  5
57
102
{ACAD_REACTORS
330
47
102
}
330
47
100
AcDbScale
 70
     0
300
10:1
140
10.0
141
1.0
290
     0
  0
SCALE
  5
58
102
{ACAD_REACTORS
330
47
102
}
330
47
100
AcDbScale
 70
     0
300
100:1
140
100.0
141
1.0
290
     0
  0
SCALE
  5
59
102
{ACAD_REACTORS
330
47
102
}
330
47
100
AcDbScale
 70
     0
300
1/128" = 1'-0"
140
0.0078125
141
12.0
290
     0
  0
SCALE
  5
5A
102
{ACAD_REACTORS
330
47
102
}
330
47
100
AcDbScale
 70
     0
300
1/64" = 1'-0"
140
0.015625
141
12.0
290
     0
  0
SCALE
  5
5B
102
{ACAD_REACTORS
330
47
102
}
330
47
100
AcDbScale
 70
     0
300
1/32" = 1'-0"
140
0.03125
141
12.0
290
     0
  0
SCALE
  5
5C
102
{ACAD_REACTORS
330
47
102
}
330
47
100
AcDbScale
 70
     0
300
1/16" = 1'-0"
140
0.0625
141
12.0
290
     0
  0
SCALE
  5
5D
102
{ACAD_REACTORS
330
47
102
}
330
47
100
AcDbScale
 70
     0
300
3/32" = 1'-0"
140
0.09375
141
12.0
290
     0
  0
SCALE
  5
5E
102
{ACAD_REACTORS
330
47
102
}
330
47
100
AcDbScale
 70
     0
300
1/8" = 1'-0"
140
0.125
141
12.0
290
     0
  0
SCALE
  5
5F
102
{ACAD_REACTORS
330
47
102
}
330
47
100
AcDbScale
 70
     0
300
3/16" = 1'-0"
140
0.1875
141
12.0
290
     0
  0
SCALE
  5
60
102
{ACAD_REACTORS
330
47
102
}
330
47
100
AcDbScale
 70
     0
300
1/4" = 1'-0"
140
0.25
141
12.0
290
     0
  0
SCALE
  5
61
102
{ACAD_REACTORS
330
47
102
}
330
47
100
AcDbScale
 70
     0
300
3/8" = 1'-0"
140
0.375
141
12.0
290
     0
  0
SCALE
  5
62
102
{ACAD_REACTORS
330
47
102
}
330
47
100
AcDbScale
 70
     0
300
1/2" = 1'-0"
140
0.5
141
12.0
290
     0
  0
SCALE
  5
63
102
{ACAD_REACTORS
330
47
102
}
330
47
100
AcDbScale
 70
     0
300
3/4" = 1'-0"
140
0.75
141
12.0
290
     0
  0
SCALE
  5
64
102
{ACAD_REACTORS
330
47
102
}
330
47
100
AcDbScale
 70
     0
300
1" = 1'-0"
140
1.0
141
12.0
290
     0
  0
SCALE
  5
65
102
{ACAD_REACTORS
330
47
102
}
330
47
100
AcDbScale
 70
     0
300
1-1/2" = 1'-0"
140
1.5
141
12.0
290
     0
  0
SCALE
  5
66
102
{ACAD_REACTORS
330
47
102
}
330
47
100
AcDbScale
 70
     0
300
3" = 1'-0"
140
3.0
141
12.0
290
     0
  0
SCALE
  5
67
102
{ACAD_REACTORS
330
47
102
}
330
47
100
AcDbScale
 70
     0
300
6" = 1'-0"
140
6.0
141
12.0
290
     0
  0
SCALE
  5
68
102
{ACAD_REACTORS
330
47
102
}
330
47
100
AcDbScale
 70
     0
300
1'-0" = 1'-0"
140
12.0
141
12.0
290
     0
  0
ENDSEC
  0
EOF
