  0
SECTION
  2
HEADER
  9
$ACADVER
  1
AC1015
  9
$ACADMAINTVER
 70
     6
  9
$DWGCODEPAGE
  3
ANSI_1252
  9
$INSBASE
 10
0.0
 20
0.0
 30
0.0
  9
$EXTMIN
 10
0.0
 20
0.0
 30
0.0
  9
$EXTMAX
 10
841.0
 20
594.0
 30
0.0
  9
$LIMMIN
 10
0.0
 20
0.0
  9
$LIMMAX
 10
841.0
 20
594.0
  9
$ORTHOMODE
 70
     0
  9
$REGENMODE
 70
     1
  9
$FILLMODE
 70
     1
  9
$QTEXTMODE
 70
     0
  9
$MIRRTEXT
 70
     1
  9
$LTSCALE
 40
1.0
  9
$ATTMODE
 70
     1
  9
$TEXTSIZE
 40
2.5
  9
$TRACEWID
 40
1.0
  9
$TEXTSTYLE
  7
Standard
  9
$CLAYER
  8
0
  9
$CELTYPE
  6
ByLayer
  9
$CECOLOR
 62
   256
  9
$CELTSCALE
 40
1.0
  9
$DISPSILH
 70
     0
  9
$DIMSCALE
 40
1.0
  9
$DIMASZ
 40
3.302
  9
$DIMEXO
 40
1.0
  9
$DIMDLI
 40
3.75
  9
$DIMRND
 40
0.0
  9
$DIMDLE
 40
0.0
  9
$DIMEXE
 40
1.0
  9
$DIMTP
 40
0.0
  9
$DIMTM
 40
0.0
  9
$DIMTXT
 40
3.5
  9
$DIMCEN
 40
2.5
  9
$DIMTSZ
 40
0.0
  9
$DIMTOL
 70
     0
  9
$DIMLIM
 70
     0
  9
$DIMTIH
 70
     1
  9
$DIMTOH
 70
     1
  9
$DIMSE1
 70
     0
  9
$DIMSE2
 70
     0
  9
$DIMTAD
 70
     1
  9
$DIMZIN
 70
     0
  9
$DIMBLK
  1

  9
$DIMASO
 70
     1
  9
$DIMSHO
 70
     1
  9
$DIMPOST
  1

  9
$DIMAPOST
  1

  9
$DIMALT
 70
     0
  9
$DIMALTD
 70
     3
  9
$DIMALTF
 40
0.0393700787
  9
$DIMLFAC
 40
1.0
  9
$DIMTOFL
 70
     1
  9
$DIMTVP
 40
0.0
  9
$DIMTIX
 70
     0
  9
$DIMSOXD
 70
     0
  9
$DIMSAH
 70
     0
  9
$DIMBLK1
  1

  9
$DIMBLK2
  1

  9
$DIMSTYLE
  2
ISO-25
  9
$DIMCLRD
 70
     0
  9
$DIMCLRE
 70
     0
  9
$DIMCLRT
 70
     0
  9
$DIMTFAC
 40
1.0
  9
$DIMGAP
 40
1.524
  9
$DIMJUST
 70
     0
  9
$DIMSD1
 70
     0
  9
$DIMSD2
 70
     0
  9
$DIMTOLJ
 70
     0
  9
$DIMTZIN
 70
     0
  9
$DIMALTZ
 70
     0
  9
$DIMALTTZ
 70
     0
  9
$DIMUPT
 70
     0
  9
$DIMDEC
 70
     2
  9
$DIMTDEC
 70
     2
  9
$DIMALTU
 70
     2
  9
$DIMALTTD
 70
     3
  9
$DIMTXSTY
  7
Standard
  9
$DIMAUNIT
 70
     0
  9
$DIMADEC
 70
     2
  9
$DIMALTRND
 40
0.0
  9
$DIMAZIN
 70
     0
  9
$DIMDSEP
 70
    44
  9
$DIMATFIT
 70
     3
  9
$DIMFRAC
 70
     0
  9
$DIMLDRBLK
  1

  9
$DIMLUNIT
 70
     2
  9
$DIMLWD
 70
    -2
  9
$DIMLWE
 70
    -2
  9
$DIMTMOVE
 70
     0
  9
$LUNITS
 70
     2
  9
$LUPREC
 70
     2
  9
$SKETCHINC
 40
1.0
  9
$FILLETRAD
 40
10.0
  9
$AUNITS
 70
     0
  9
$AUPREC
 70
     2
  9
$MENU
  1
.
  9
$ELEVATION
 40
0.0
  9
$PELEVATION
 40
0.0
  9
$THICKNESS
 40
0.0
  9
$LIMCHECK
 70
     0
  9
$CHAMFERA
 40
0.0
  9
$CHAMFERB
 40
0.0
  9
$CHAMFERC
 40
0.0
  9
$CHAMFERD
 40
0.0
  9
$SKPOLY
 70
     0
  9
$TDCREATE
 40
2458502.385364861
  9
$TDUCREATE
 40
2458502.343698194
  9
$TDUPDATE
 40
2458502.385391342
  9
$TDUUPDATE
 40
2458502.343724676
  9
$TDINDWG
 40
0.0000000116
  9
$TDUSRTIMER
 40
0.0000000116
  9
$USRTIMER
 70
     1
  9
$ANGBASE
 50
0.0
  9
$ANGDIR
 70
     0
  9
$PDMODE
 70
     0
  9
$PDSIZE
 40
-1.0
  9
$PLINEWID
 40
0.0
  9
$SPLFRAME
 70
     0
  9
$SPLINETYPE
 70
     6
  9
$SPLINESEGS
 70
     8
  9
$HANDSEED
  5
512
  9
$SURFTAB1
 70
     6
  9
$SURFTAB2
 70
     6
  9
$SURFTYPE
 70
     6
  9
$SURFU
 70
     6
  9
$SURFV
 70
     6
  9
$UCSBASE
  2

  9
$UCSNAME
  2

  9
$UCSORG
 10
0.0
 20
0.0
 30
0.0
  9
$UCSXDIR
 10
1.0
 20
0.0
 30
0.0
  9
$UCSYDIR
 10
0.0
 20
1.0
 30
0.0
  9
$UCSORTHOREF
  2

  9
$UCSORTHOVIEW
 70
     0
  9
$UCSORGTOP
 10
0.0
 20
0.0
 30
0.0
  9
$UCSORGBOTTOM
 10
0.0
 20
0.0
 30
0.0
  9
$UCSORGLEFT
 10
0.0
 20
0.0
 30
0.0
  9
$UCSORGRIGHT
 10
0.0
 20
0.0
 30
0.0
  9
$UCSORGFRONT
 10
0.0
 20
0.0
 30
0.0
  9
$UCSORGBACK
 10
0.0
 20
0.0
 30
0.0
  9
$PUCSBASE
  2

  9
$PUCSNAME
  2

  9
$PUCSORG
 10
0.0
 20
0.0
 30
0.0
  9
$PUCSXDIR
 10
1.0
 20
0.0
 30
0.0
  9
$PUCSYDIR
 10
0.0
 20
1.0
 30
0.0
  9
$PUCSORTHOREF
  2

  9
$PUCSORTHOVIEW
 70
     0
  9
$PUCSORGTOP
 10
0.0
 20
0.0
 30
0.0
  9
$PUCSORGBOTTOM
 10
0.0
 20
0.0
 30
0.0
  9
$PUCSORGLEFT
 10
0.0
 20
0.0
 30
0.0
  9
$PUCSORGRIGHT
 10
0.0
 20
0.0
 30
0.0
  9
$PUCSORGFRONT
 10
0.0
 20
0.0
 30
0.0
  9
$PUCSORGBACK
 10
0.0
 20
0.0
 30
0.0
  9
$USERI1
 70
     0
  9
$USERI2
 70
     0
  9
$USERI3
 70
     0
  9
$USERI4
 70
     0
  9
$USERI5
 70
     0
  9
$USERR1
 40
0.0
  9
$USERR2
 40
0.0
  9
$USERR3
 40
0.0
  9
$USERR4
 40
0.0
  9
$USERR5
 40
0.0
  9
$WORLDVIEW
 70
     1
  9
$SHADEDGE
 70
     3
  9
$SHADEDIF
 70
    70
  9
$TILEMODE
 70
     1
  9
$MAXACTVP
 70
    64
  9
$PINSBASE
 10
0.0
 20
0.0
 30
0.0
  9
$PLIMCHECK
 70
     0
  9
$PEXTMIN
 10
1.0000000000E+20
 20
1.0000000000E+20
 30
1.0000000000E+20
  9
$PEXTMAX
 10
-1.0000000000E+20
 20
-1.0000000000E+20
 30
-1.0000000000E+20
  9
$PLIMMIN
 10
0.0
 20
0.0
  9
$PLIMMAX
 10
420.0
 20
297.0
  9
$UNITMODE
 70
     0
  9
$VISRETAIN
 70
     1
  9
$PLINEGEN
 70
     0
  9
$PSLTSCALE
 70
     1
  9
$TREEDEPTH
 70
  3020
  9
$CMLSTYLE
  2
Standard
  9
$CMLJUST
 70
     0
  9
$CMLSCALE
 40
20.0
  9
$PROXYGRAPHICS
 70
     1
  9
$MEASUREMENT
 70
     1
  9
$CELWEIGHT
370
    -1
  9
$ENDCAPS
280
     0
  9
$JOINSTYLE
280
     0
  9
$LWDISPLAY
290
     1
  9
$INSUNITS
 70
     4
  9
$HYPERLINKBASE
  1

  9
$STYLESHEET
  1

  9
$XEDIT
290
     1
  9
$CEPSNTYPE
380
     0
  9
$PSTYLEMODE
290
     1
  9
$FINGERPRINTGUID
  2
{A071B579-3055-4A17-A963-ECFE5E410668}
  9
$VERSIONGUID
  2
{FAEB1C32-E019-11D5-929B-00C0DF256EC4}
  9
$EXTNAMES
290
     1
  9
$PSVPSCALE
 40
0.0
  9
$OLESTARTUP
290
     0
  0
ENDSEC
  0
SECTION
  2
CLASSES
  0
CLASS
  1
ACDBDICTIONARYWDFLT
  2
AcDbDictionaryWithDefault
  3
ObjectDBX Classes
 90
        0
280
     0
281
     0
  0
CLASS
  1
VISUALSTYLE
  2
AcDbVisualStyle
  3
ObjectDBX Classes
 90
     4095
280
     0
281
     0
  0
CLASS
  1
MATERIAL
  2
AcDbMaterial
  3
ObjectDBX Classes
 90
     1153
280
     0
281
     0
  0
CLASS
  1
SCALE
  2
AcDbScale
  3
ObjectDBX Classes
 90
     1153
280
     0
281
     0
  0
CLASS
  1
TABLESTYLE
  2
AcDbTableStyle
  3
ObjectDBX Classes
 90
     4095
280
     0
281
     0
  0
CLASS
  1
MLEADERSTYLE
  2
AcDbMLeaderStyle
  3
ACDB_MLEADERSTYLE_CLASS
 90
     4095
280
     0
281
     0
  0
CLASS
  1
SUN
  2
AcDbSun
  3
SCENEOE
 90
     1153
280
     0
281
     0
  0
CLASS
  1
LARGE_RADIAL_DIMENSION
  2
AcDbRadialDimensionLarge
  3
ObjectDBX Classes
 90
     1025
280
     0
281
     1
  0
CLASS
  1
ACDBPLACEHOLDER
  2
AcDbPlaceHolder
  3
ObjectDBX Classes
 90
        0
280
     0
281
     0
  0
CLASS
  1
LAYOUT
  2
AcDbLayout
  3
ObjectDBX Classes
 90
        0
280
     0
281
     0
  0
ENDSEC
  0
SECTION
  2
TABLES
  0
TABLE
  2
VPORT
  5
8
330
0
100
AcDbSymbolTable
 70
     1
  0
VPORT
  5
29
330
8
100
AcDbSymbolTableRecord
100
AcDbViewportTableRecord
  2
*Active
 70
     0
 10
0.0
 20
0.0
 11
1.0
 21
1.0
 12
420.5
 22
297.0
 13
0.0
 23
0.0
 14
10.0
 24
10.0
 15
10.0
 25
10.0
 16
0.0
 26
0.0
 36
1.0
 17
0.0
 27
0.0
 37
0.0
 40
594.0
 41
1.4158249158
 42
50.0
 43
0.0
 44
0.0
 50
0.0
 51
0.0
 71
     0
 72
  2000
 73
     1
 74
     3
 75
     0
 76
     0
 77
     0
 78
     0
281
     0
 65
     1
110
0.0
120
0.0
130
0.0
111
1.0
121
0.0
131
0.0
112
0.0
122
1.0
132
0.0
 79
     0
146
0.0
  0
ENDTAB
  0
TABLE
  2
LTYPE
  5
5
330
0
100
AcDbSymbolTable
 70
     6
  0
LTYPE
  5
14
330
5
100
AcDbSymbolTableRecord
100
AcDbLinetypeTableRecord
  2
ByBlock
 70
     0
  3

 72
    65
 73
     0
 40
0.0
  0
LTYPE
  5
15
330
5
100
AcDbSymbolTableRecord
100
AcDbLinetypeTableRecord
  2
ByLayer
 70
     0
  3

 72
    65
 73
     0
 40
0.0
  0
LTYPE
  5
16
330
5
100
AcDbSymbolTableRecord
100
AcDbLinetypeTableRecord
  2
Continuous
 70
     0
  3
Solid line
 72
    65
 73
     0
 40
0.0
  0
LTYPE
  5
6E
330
5
100
AcDbSymbolTableRecord
100
AcDbLinetypeTableRecord
  2
HIDDEN
 70
     0
  3
Hidden __ __ __ __ __ __ __ __ __ __ __ __ __ __
 72
    65
 73
     2
 40
1.905
 49
1.27
 74
     0
 49
-0.635
 74
     0
  0
LTYPE
  5
6F
330
5
100
AcDbSymbolTableRecord
100
AcDbLinetypeTableRecord
  2
PHANTOM
 70
     0
  3
Phantom ______  __  __  ______  __  __  ______
 72
    65
 73
     6
 40
12.7
 49
6.35
 74
     0
 49
-1.27
 74
     0
 49
1.27
 74
     0
 49
-1.27
 74
     0
 49
1.27
 74
     0
 49
-1.27
 74
     0
  0
LTYPE
  5
70
330
5
100
AcDbSymbolTableRecord
100
AcDbLinetypeTableRecord
  2
CENTER
 70
     0
  3
Center ____ _ ____ _ ____ _ ____ _ ____ _ ____
 72
    65
 73
     4
 40
10.16
 49
6.35
 74
     0
 49
-1.27
 74
     0
 49
1.27
 74
     0
 49
-1.27
 74
     0
  0
LTYPE
  5
71
330
5
100
AcDbSymbolTableRecord
100
AcDbLinetypeTableRecord
  2
CENTERX2
 70
     0
  3
Center (2x) ________  __  ________  __  _____
 72
    65
 73
     4
 40
20.32
 49
12.7
 74
     0
 49
-2.54
 74
     0
 49
2.54
 74
     0
 49
-2.54
 74
     0
  0
LTYPE
  5
72
330
5
100
AcDbSymbolTableRecord
100
AcDbLinetypeTableRecord
  2
DOT2
 70
     0
  3
Dot (.5x) ........................................
 72
    65
 73
     2
 40
0.635
 49
0.0
 74
     0
 49
-0.635
 74
     0
  0
ENDTAB
  0
TABLE
  2
LAYER
  5
2
330
0
100
AcDbSymbolTable
 70
     8
  0
LAYER
  5
10
330
2
100
AcDbSymbolTableRecord
100
AcDbLayerTableRecord
  2
0
 70
     0
 62
     7
  6
Continuous
370
    -3
390
F
  0
LAYER
  5
73
330
2
100
AcDbSymbolTableRecord
100
AcDbLayerTableRecord
  2
SLD-0_0
 70
     0
 62
   179
  6
Continuous
370
    -3
390
F
  0
LAYER
  5
74
330
2
100
AcDbSymbolTableRecord
100
AcDbLayerTableRecord
  2
SLD-0
 70
     0
 62
   179
  6
Continuous
370
    -3
390
F
  0
LAYER
  5
75
330
2
100
AcDbSymbolTableRecord
100
AcDbLayerTableRecord
  2
PREDETERMINADO
 70
     0
 62
   179
  6
Continuous
370
    -3
390
F
  0
LAYER
  5
76
330
2
100
AcDbSymbolTableRecord
100
AcDbLayerTableRecord
  2
CAJETIN
 70
     0
 62
   179
  6
Continuous
370
    -3
390
F
  0
LAYER
  5
77
330
2
100
AcDbSymbolTableRecord
100
AcDbLayerTableRecord
  2
FORMATO
 70
     0
 62
   179
  6
Continuous
370
    -3
390
F
  0
LAYER
  5
78
330
2
100
AcDbSymbolTableRecord
100
AcDbLayerTableRecord
  2
NONPLOT
 70
     0
 62
    -1
  6
DOT2
290
     0
370
    -3
390
F
  0
LAYER
  5
79
330
2
100
AcDbSymbolTableRecord
100
AcDbLayerTableRecord
  2
TEXTOS
 70
     0
 62
   142
  6
Continuous
370
    -3
390
F
  0
ENDTAB
  0
TABLE
  2
STYLE
  5
3
330
0
100
AcDbSymbolTable
 70
     4
  0
STYLE
  5
11
330
3
100
AcDbSymbolTableRecord
100
AcDbTextStyleTableRecord
  2
Standard
 70
     0
 40
0.0
 41
1.0
 50
0.0
 71
     0
 42
2.5
  3
txt
  4

  0
STYLE
  5
DE
330
3
100
AcDbSymbolTableRecord
100
AcDbTextStyleTableRecord
  2
SLDTEXTSTYLE0
 70
     0
 40
0.0
 41
0.605
 50
0.0
 71
     0
 42
2.5
  3
TXT
  4

  0
STYLE
  5
E4
330
3
100
AcDbSymbolTableRecord
100
AcDbTextStyleTableRecord
  2
SLDTEXTSTYLE1
 70
     0
 40
0.0
 41
0.5646781665
 50
0.0
 71
     0
 42
2.5
  3
TXT
  4

  0
STYLE
  5
142
330
3
100
AcDbSymbolTableRecord
100
AcDbTextStyleTableRecord
  2
SLDTEXTSTYLE2
 70
     0
 40
0.0
 41
0.575
 50
0.0
 71
     0
 42
2.5
  3
TXT
  4

  0
ENDTAB
  0
TABLE
  2
VIEW
  5
6
330
0
100
AcDbSymbolTable
 70
     0
  0
ENDTAB
  0
TABLE
  2
UCS
  5
7
330
0
100
AcDbSymbolTable
 70
     0
  0
ENDTAB
  0
TABLE
  2
APPID
  5
9
330
0
100
AcDbSymbolTable
 70
     1
  0
APPID
  5
12
330
9
100
AcDbSymbolTableRecord
100
AcDbRegAppTableRecord
  2
ACAD
 70
     0
  0
ENDTAB
  0
TABLE
  2
DIMSTYLE
  5
A
330
0
100
AcDbSymbolTable
 70
    16
100
AcDbDimStyleTable
  0
DIMSTYLE
105
27
330
A
100
AcDbSymbolTableRecord
100
AcDbDimStyleTableRecord
  2
ISO-25
 70
     0
 41
2.5
 42
0.625
 43
3.75
 44
1.25
 73
     0
 74
     0
 77
     1
 78
     8
140
2.5
141
2.5
143
0.0393700787
147
0.625
171
     3
172
     1
178
     0
271
     2
272
     2
274
     3
278
    44
283
     0
284
     8
340
11
  0
DIMSTYLE
105
1F4
330
A
100
AcDbSymbolTableRecord
100
AcDbDimStyleTableRecord
  2
SLDDIMSTYLE0
 70
     0
 41
1.016
 44
0.0
 45
0.000000001
146
1.016
147
0.0
173
     1
178
     0
271
     0
272
     0
276
     2
340
11
341
1F5
343
1F5
344
1F5
  0
DIMSTYLE
105
248
102
{ACAD_REACTORS
330
247
330
259
330
261
102
}
330
A
100
AcDbSymbolTableRecord
100
AcDbDimStyleTableRecord
  2
SLDDIMSTYLE1
 70
     0
 41
3.302
 44
0.0
 73
     0
 74
     0
 77
     1
 78
    12
 79
     3
140
3.5
147
0.875
173
     1
178
     0
179
     1
272
     1
276
     2
284
    12
340
DE
  0
DIMSTYLE
105
251
102
{ACAD_REACTORS
330
250
102
}
330
A
100
AcDbSymbolTableRecord
100
AcDbDimStyleTableRecord
  2
SLDDIMSTYLE2
 70
     0
 41
3.302
 44
0.0
 73
     0
 74
     0
 77
     1
 78
    12
 79
     3
140
3.5
147
0.875
173
     1
178
     0
179
     2
272
     2
276
     2
284
    12
340
DE
  0
DIMSTYLE
105
26A
102
{ACAD_REACTORS
330
269
330
289
330
3D3
330
3F9
330
42F
330
461
330
499
102
}
330
A
100
AcDbSymbolTableRecord
100
AcDbDimStyleTableRecord
  2
SLDDIMSTYLE3
 70
     0
 41
3.302
 44
0.0
 45
0.000000001
 73
     0
 74
     0
 77
     1
 78
    12
 79
     3
140
3.5
147
0.875
173
     1
178
     0
271
     1
272
     1
276
     2
284
    12
340
DE
  0
DIMSTYLE
105
275
102
{ACAD_REACTORS
330
274
330
27F
330
2A0
330
2B6
330
2E2
330
2EC
330
2F6
330
30B
330
31F
330
340
102
}
330
A
100
AcDbSymbolTableRecord
100
AcDbDimStyleTableRecord
  2
SLDDIMSTYLE4
 70
     0
 41
3.302
 44
0.0
 45
0.000000001
 73
     0
 74
     0
 77
     1
 78
    12
 79
     3
140
3.5
147
0.875
173
     1
178
     0
271
     2
272
     2
276
     2
284
    12
340
DE
  0
DIMSTYLE
105
294
102
{ACAD_REACTORS
330
293
102
}
330
A
100
AcDbSymbolTableRecord
100
AcDbDimStyleTableRecord
  2
SLDDIMSTYLE5
 70
     0
 41
3.302
 44
0.0
 45
0.000000001
 73
     0
 74
     0
 77
     1
 78
    12
 79
     3
140
3.5
147
0.875
172
     1
173
     1
178
     0
271
     1
272
     1
276
     2
284
    12
289
     0
340
DE
  0
DIMSTYLE
105
2AB
102
{ACAD_REACTORS
330
2AA
102
}
330
A
100
AcDbSymbolTableRecord
100
AcDbDimStyleTableRecord
  2
SLDDIMSTYLE6
 70
     0
 41
3.302
 44
0.0
 45
0.000000001
 73
     0
 74
     0
 77
     1
 78
    12
 79
     3
140
3.5
141
0.0
147
0.875
173
     1
178
     0
271
     1
272
     1
276
     2
284
    12
340
DE
  0
DIMSTYLE
105
2D8
102
{ACAD_REACTORS
330
2D7
330
301
330
315
330
329
102
}
330
A
100
AcDbSymbolTableRecord
100
AcDbDimStyleTableRecord
  2
SLDDIMSTYLE7
 70
     0
 41
3.302
 44
0.0
 45
0.000000001
 73
     0
 74
     0
 77
     1
 78
     4
 79
     1
140
3.5
147
0.875
173
     1
178
     0
271
     2
272
     2
276
     2
284
    12
340
DE
  0
DIMSTYLE
105
334
102
{ACAD_REACTORS
330
333
330
3DD
330
419
330
439
330
46B
330
4A3
102
}
330
A
100
AcDbSymbolTableRecord
100
AcDbDimStyleTableRecord
  2
SLDDIMSTYLE8
 70
     0
 41
3.302
 44
0.0
 45
0.000000001
 73
     0
 74
     0
 77
     1
 78
    12
 79
     3
140
3.5
147
0.875
172
     1
173
     1
178
     0
271
     2
272
     2
276
     2
284
    12
289
     0
340
DE
  0
DIMSTYLE
105
34B
102
{ACAD_REACTORS
330
34A
102
}
330
A
100
AcDbSymbolTableRecord
100
AcDbDimStyleTableRecord
  2
SLDDIMSTYLE9
 70
     0
 41
3.302
 44
0.0
 45
0.000000001
 73
     0
 74
     0
 77
     1
 78
     4
 79
     1
140
3.5
141
0.0
147
0.875
172
     1
173
     1
178
     0
271
     2
272
     2
276
     2
284
    12
340
DE
  0
DIMSTYLE
105
355
102
{ACAD_REACTORS
330
354
102
}
330
A
100
AcDbSymbolTableRecord
100
AcDbDimStyleTableRecord
  2
SLDDIMSTYLE10
 70
     0
 41
3.302
 44
0.0
 45
0.000000001
 73
     0
 74
     0
 77
     1
 78
    12
 79
     3
140
3.5
141
0.0
147
0.875
172
     1
173
     1
178
     0
271
     2
272
     2
276
     2
284
    12
340
DE
  0
DIMSTYLE
105
35F
102
{ACAD_REACTORS
330
35E
330
36C
102
}
330
A
100
AcDbSymbolTableRecord
100
AcDbDimStyleTableRecord
  2
SLDDIMSTYLE11
 70
     0
 41
3.302
 44
0.0
 45
0.000000001
 78
     4
 79
     1
140
3.5
141
0.0
147
0.875
172
     1
173
     1
178
     0
271
     2
272
     2
276
     2
284
    12
340
DE
341
360
343
360
  0
DIMSTYLE
105
4CC
102
{ACAD_REACTORS
330
4CB
102
}
330
A
100
AcDbSymbolTableRecord
100
AcDbDimStyleTableRecord
  2
SLDDIMSTYLE12
 70
     0
 41
3.302
 44
0.0
 45
0.000000001
 73
     0
 74
     0
 77
     1
 78
     4
 79
     1
140
3.5
144
2.0
147
0.875
173
     1
178
     0
271
     2
272
     2
276
     2
284
    12
340
DE
  0
DIMSTYLE
105
4D7
102
{ACAD_REACTORS
330
4D6
102
}
330
A
100
AcDbSymbolTableRecord
100
AcDbDimStyleTableRecord
  2
SLDDIMSTYLE13
 70
     0
 41
3.302
 44
0.0
 45
0.000000001
 73
     0
 74
     0
 77
     1
 78
    12
 79
     3
140
3.5
144
2.0
147
0.875
172
     1
173
     1
178
     0
271
     2
272
     2
276
     2
284
    12
289
     0
340
DE
  0
DIMSTYLE
105
506
102
{ACAD_REACTORS
330
505
102
}
330
A
100
AcDbSymbolTableRecord
100
AcDbDimStyleTableRecord
  2
SLDDIMSTYLE14
 70
     0
 41
3.302
 44
0.0
 45
0.000000001
 73
     0
 74
     0
 77
     1
 78
     4
 79
     1
140
3.5
144
2.0
147
0.875
172
     1
173
     1
178
     0
271
     2
272
     2
276
     2
284
    12
289
     0
340
DE
  0
ENDTAB
  0
TABLE
  2
BLOCK_RECORD
  5
1
330
0
100
AcDbSymbolTable
 70
    80
  0
BLOCK_RECORD
  5
1F
330
1
100
AcDbSymbolTableRecord
100
AcDbBlockTableRecord
  2
*Model_Space
340
22
  0
BLOCK_RECORD
  5
1B
330
1
100
AcDbSymbolTableRecord
100
AcDbBlockTableRecord
  2
*Paper_Space
340
1E
  0
BLOCK_RECORD
  5
23
330
1
100
AcDbSymbolTableRecord
100
AcDbBlockTableRecord
  2
*Paper_Space0
340
26
  0
BLOCK_RECORD
  5
DB
330
1
100
AcDbSymbolTableRecord
100
AcDbBlockTableRecord
  2
SW_NOTE_0
340
0
102
{BLKREFS
331
E1
102
}
  0
BLOCK_RECORD
  5
101
330
1
100
AcDbSymbolTableRecord
100
AcDbBlockTableRecord
  2
SW_NOTE_1
340
0
102
{BLKREFS
331
106
102
}
  0
BLOCK_RECORD
  5
107
330
1
100
AcDbSymbolTableRecord
100
AcDbBlockTableRecord
  2
SW_NOTE_2
340
0
102
{BLKREFS
331
10C
102
}
  0
BLOCK_RECORD
  5
10D
330
1
100
AcDbSymbolTableRecord
100
AcDbBlockTableRecord
  2
SW_NOTE_3
340
0
102
{BLKREFS
331
112
102
}
  0
BLOCK_RECORD
  5
113
330
1
100
AcDbSymbolTableRecord
100
AcDbBlockTableRecord
  2
SW_NOTE_4
340
0
102
{BLKREFS
331
118
102
}
  0
BLOCK_RECORD
  5
119
330
1
100
AcDbSymbolTableRecord
100
AcDbBlockTableRecord
  2
SW_NOTE_5
340
0
102
{BLKREFS
331
11E
102
}
  0
BLOCK_RECORD
  5
11F
330
1
100
AcDbSymbolTableRecord
100
AcDbBlockTableRecord
  2
SW_NOTE_6
340
0
102
{BLKREFS
331
124
102
}
  0
BLOCK_RECORD
  5
125
330
1
100
AcDbSymbolTableRecord
100
AcDbBlockTableRecord
  2
SW_NOTE_7
340
0
102
{BLKREFS
331
12A
102
}
  0
BLOCK_RECORD
  5
12B
330
1
100
AcDbSymbolTableRecord
100
AcDbBlockTableRecord
  2
SW_TABLEANNOTATION_0
340
0
102
{BLKREFS
331
15A
102
}
  0
BLOCK_RECORD
  5
1EE
330
1
100
AcDbSymbolTableRecord
100
AcDbBlockTableRecord
  2
SW_NOTE_8
340
0
102
{BLKREFS
331
1F3
102
}
  0
BLOCK_RECORD
  5
1F5
330
1
100
AcDbSymbolTableRecord
100
AcDbBlockTableRecord
  2
_DOT
340
0
  0
BLOCK_RECORD
  5
1FE
330
1
100
AcDbSymbolTableRecord
100
AcDbBlockTableRecord
  2
SW_NOTE_9
340
0
102
{BLKREFS
331
203
102
}
  0
BLOCK_RECORD
  5
205
330
1
100
AcDbSymbolTableRecord
100
AcDbBlockTableRecord
  2
SW_NOTE_10
340
0
102
{BLKREFS
331
20A
102
}
  0
BLOCK_RECORD
  5
20C
330
1
100
AcDbSymbolTableRecord
100
AcDbBlockTableRecord
  2
SW_NOTE_11
340
0
102
{BLKREFS
331
211
102
}
  0
BLOCK_RECORD
  5
213
330
1
100
AcDbSymbolTableRecord
100
AcDbBlockTableRecord
  2
SW_NOTE_12
340
0
102
{BLKREFS
331
218
102
}
  0
BLOCK_RECORD
  5
21B
330
1
100
AcDbSymbolTableRecord
100
AcDbBlockTableRecord
  2
SW_NOTE_13
340
0
102
{BLKREFS
331
220
102
}
  0
BLOCK_RECORD
  5
222
330
1
100
AcDbSymbolTableRecord
100
AcDbBlockTableRecord
  2
SW_NOTE_14
340
0
102
{BLKREFS
331
227
102
}
  0
BLOCK_RECORD
  5
229
330
1
100
AcDbSymbolTableRecord
100
AcDbBlockTableRecord
  2
SW_NOTE_15
340
0
102
{BLKREFS
331
22E
102
}
  0
BLOCK_RECORD
  5
230
330
1
100
AcDbSymbolTableRecord
100
AcDbBlockTableRecord
  2
SW_NOTE_16
340
0
102
{BLKREFS
331
235
102
}
  0
BLOCK_RECORD
  5
237
330
1
100
AcDbSymbolTableRecord
100
AcDbBlockTableRecord
  2
SW_NOTE_17
340
0
102
{BLKREFS
331
23C
102
}
  0
BLOCK_RECORD
  5
249
330
1
100
AcDbSymbolTableRecord
100
AcDbBlockTableRecord
  2
_D
340
0
  0
BLOCK_RECORD
  5
252
330
1
100
AcDbSymbolTableRecord
100
AcDbBlockTableRecord
  2
_D_1
340
0
  0
BLOCK_RECORD
  5
25A
330
1
100
AcDbSymbolTableRecord
100
AcDbBlockTableRecord
  2
_D_2
340
0
  0
BLOCK_RECORD
  5
262
330
1
100
AcDbSymbolTableRecord
100
AcDbBlockTableRecord
  2
_D_3
340
0
  0
BLOCK_RECORD
  5
26B
330
1
100
AcDbSymbolTableRecord
100
AcDbBlockTableRecord
  2
_D_4
340
0
  0
BLOCK_RECORD
  5
276
330
1
100
AcDbSymbolTableRecord
100
AcDbBlockTableRecord
  2
_D_5
340
0
  0
BLOCK_RECORD
  5
280
330
1
100
AcDbSymbolTableRecord
100
AcDbBlockTableRecord
  2
_D_6
340
0
  0
BLOCK_RECORD
  5
28A
330
1
100
AcDbSymbolTableRecord
100
AcDbBlockTableRecord
  2
_D_7
340
0
  0
BLOCK_RECORD
  5
295
330
1
100
AcDbSymbolTableRecord
100
AcDbBlockTableRecord
  2
_D_8
340
0
  0
BLOCK_RECORD
  5
2A1
330
1
100
AcDbSymbolTableRecord
100
AcDbBlockTableRecord
  2
_D_9
340
0
  0
BLOCK_RECORD
  5
2AC
330
1
100
AcDbSymbolTableRecord
100
AcDbBlockTableRecord
  2
_D_10
340
0
  0
BLOCK_RECORD
  5
2B7
330
1
100
AcDbSymbolTableRecord
100
AcDbBlockTableRecord
  2
_D_11
340
0
  0
BLOCK_RECORD
  5
2D9
330
1
100
AcDbSymbolTableRecord
100
AcDbBlockTableRecord
  2
_D_12
340
0
  0
BLOCK_RECORD
  5
2E3
330
1
100
AcDbSymbolTableRecord
100
AcDbBlockTableRecord
  2
_D_13
340
0
  0
BLOCK_RECORD
  5
2ED
330
1
100
AcDbSymbolTableRecord
100
AcDbBlockTableRecord
  2
_D_14
340
0
  0
BLOCK_RECORD
  5
2F7
330
1
100
AcDbSymbolTableRecord
100
AcDbBlockTableRecord
  2
_D_15
340
0
  0
BLOCK_RECORD
  5
302
330
1
100
AcDbSymbolTableRecord
100
AcDbBlockTableRecord
  2
_D_16
340
0
  0
BLOCK_RECORD
  5
30C
330
1
100
AcDbSymbolTableRecord
100
AcDbBlockTableRecord
  2
_D_17
340
0
  0
BLOCK_RECORD
  5
316
330
1
100
AcDbSymbolTableRecord
100
AcDbBlockTableRecord
  2
_D_18
340
0
  0
BLOCK_RECORD
  5
320
330
1
100
AcDbSymbolTableRecord
100
AcDbBlockTableRecord
  2
_D_19
340
0
  0
BLOCK_RECORD
  5
32A
330
1
100
AcDbSymbolTableRecord
100
AcDbBlockTableRecord
  2
_D_20
340
0
  0
BLOCK_RECORD
  5
335
330
1
100
AcDbSymbolTableRecord
100
AcDbBlockTableRecord
  2
_D_21
340
0
  0
BLOCK_RECORD
  5
341
330
1
100
AcDbSymbolTableRecord
100
AcDbBlockTableRecord
  2
_D_22
340
0
  0
BLOCK_RECORD
  5
34C
330
1
100
AcDbSymbolTableRecord
100
AcDbBlockTableRecord
  2
_D_23
340
0
  0
BLOCK_RECORD
  5
356
330
1
100
AcDbSymbolTableRecord
100
AcDbBlockTableRecord
  2
_D_24
340
0
  0
BLOCK_RECORD
  5
360
330
1
100
AcDbSymbolTableRecord
100
AcDbBlockTableRecord
  2
_NONE
340
0
  0
BLOCK_RECORD
  5
363
330
1
100
AcDbSymbolTableRecord
100
AcDbBlockTableRecord
  2
_D_25
340
0
  0
BLOCK_RECORD
  5
36D
330
1
100
AcDbSymbolTableRecord
100
AcDbBlockTableRecord
  2
_D_26
340
0
  0
BLOCK_RECORD
  5
376
330
1
100
AcDbSymbolTableRecord
100
AcDbBlockTableRecord
  2
SW_CENTERMARKSYMBOL_0
340
0
102
{BLKREFS
331
381
102
}
  0
BLOCK_RECORD
  5
382
330
1
100
AcDbSymbolTableRecord
100
AcDbBlockTableRecord
  2
SW_CENTERMARKSYMBOL_1
340
0
102
{BLKREFS
331
38D
102
}
  0
BLOCK_RECORD
  5
38E
330
1
100
AcDbSymbolTableRecord
100
AcDbBlockTableRecord
  2
SW_CENTERMARKSYMBOL_2
340
0
102
{BLKREFS
331
399
102
}
  0
BLOCK_RECORD
  5
39A
330
1
100
AcDbSymbolTableRecord
100
AcDbBlockTableRecord
  2
SW_CENTERMARKSYMBOL_3
340
0
102
{BLKREFS
331
3A5
102
}
  0
BLOCK_RECORD
  5
3A6
330
1
100
AcDbSymbolTableRecord
100
AcDbBlockTableRecord
  2
SW_CENTERMARKSYMBOL_4
340
0
102
{BLKREFS
331
3CD
102
}
  0
BLOCK_RECORD
  5
3D4
330
1
100
AcDbSymbolTableRecord
100
AcDbBlockTableRecord
  2
_D_27
340
0
  0
BLOCK_RECORD
  5
3DE
330
1
100
AcDbSymbolTableRecord
100
AcDbBlockTableRecord
  2
_D_28
340
0
  0
BLOCK_RECORD
  5
3E9
330
1
100
AcDbSymbolTableRecord
100
AcDbBlockTableRecord
  2
SW_ANGULAR_DIMENSION_0
340
0
102
{BLKREFS
331
3F4
102
}
  0
BLOCK_RECORD
  5
3FA
330
1
100
AcDbSymbolTableRecord
100
AcDbBlockTableRecord
  2
_D_29
340
0
  0
BLOCK_RECORD
  5
403
330
1
100
AcDbSymbolTableRecord
100
AcDbBlockTableRecord
  2
SW_ANGULAR_DIMENSION_1
340
0
102
{BLKREFS
331
40C
102
}
  0
BLOCK_RECORD
  5
40D
330
1
100
AcDbSymbolTableRecord
100
AcDbBlockTableRecord
  2
SW_ANGULAR_DIMENSION_2
340
0
102
{BLKREFS
331
418
102
}
  0
BLOCK_RECORD
  5
41A
330
1
100
AcDbSymbolTableRecord
100
AcDbBlockTableRecord
  2
_D_30
340
0
  0
BLOCK_RECORD
  5
425
330
1
100
AcDbSymbolTableRecord
100
AcDbBlockTableRecord
  2
SW_NOTE_18
340
0
102
{BLKREFS
331
42A
102
}
  0
BLOCK_RECORD
  5
430
330
1
100
AcDbSymbolTableRecord
100
AcDbBlockTableRecord
  2
_D_31
340
0
  0
BLOCK_RECORD
  5
43A
330
1
100
AcDbSymbolTableRecord
100
AcDbBlockTableRecord
  2
_D_32
340
0
  0
BLOCK_RECORD
  5
445
330
1
100
AcDbSymbolTableRecord
100
AcDbBlockTableRecord
  2
SW_ANGULAR_DIMENSION_3
340
0
102
{BLKREFS
331
450
102
}
  0
BLOCK_RECORD
  5
451
330
1
100
AcDbSymbolTableRecord
100
AcDbBlockTableRecord
  2
SW_ANGULAR_DIMENSION_4
340
0
102
{BLKREFS
331
45C
102
}
  0
BLOCK_RECORD
  5
462
330
1
100
AcDbSymbolTableRecord
100
AcDbBlockTableRecord
  2
_D_33
340
0
  0
BLOCK_RECORD
  5
46C
330
1
100
AcDbSymbolTableRecord
100
AcDbBlockTableRecord
  2
_D_34
340
0
  0
BLOCK_RECORD
  5
477
330
1
100
AcDbSymbolTableRecord
100
AcDbBlockTableRecord
  2
SW_ANGULAR_DIMENSION_5
340
0
102
{BLKREFS
331
482
102
}
  0
BLOCK_RECORD
  5
483
330
1
100
AcDbSymbolTableRecord
100
AcDbBlockTableRecord
  2
SW_ANGULAR_DIMENSION_6
340
0
102
{BLKREFS
331
48E
102
}
  0
BLOCK_RECORD
  5
48F
330
1
100
AcDbSymbolTableRecord
100
AcDbBlockTableRecord
  2
SW_NOTE_19
340
0
102
{BLKREFS
331
494
102
}
  0
BLOCK_RECORD
  5
49A
330
1
100
AcDbSymbolTableRecord
100
AcDbBlockTableRecord
  2
_D_35
340
0
  0
BLOCK_RECORD
  5
4A4
330
1
100
AcDbSymbolTableRecord
100
AcDbBlockTableRecord
  2
_D_36
340
0
  0
BLOCK_RECORD
  5
4AF
330
1
100
AcDbSymbolTableRecord
100
AcDbBlockTableRecord
  2
SW_ANGULAR_DIMENSION_7
340
0
102
{BLKREFS
331
4BA
102
}
  0
BLOCK_RECORD
  5
4BB
330
1
100
AcDbSymbolTableRecord
100
AcDbBlockTableRecord
  2
SW_ANGULAR_DIMENSION_8
340
0
102
{BLKREFS
331
4C6
102
}
  0
BLOCK_RECORD
  5
4CD
330
1
100
AcDbSymbolTableRecord
100
AcDbBlockTableRecord
  2
_D_37
340
0
  0
BLOCK_RECORD
  5
4D8
330
1
100
AcDbSymbolTableRecord
100
AcDbBlockTableRecord
  2
_D_38
340
0
  0
BLOCK_RECORD
  5
4E3
330
1
100
AcDbSymbolTableRecord
100
AcDbBlockTableRecord
  2
SW_ANGULAR_DIMENSION_9
340
0
102
{BLKREFS
331
4EE
102
}
  0
BLOCK_RECORD
  5
4EF
330
1
100
AcDbSymbolTableRecord
100
AcDbBlockTableRecord
  2
SW_ANGULAR_DIMENSION_10
340
0
102
{BLKREFS
331
4FA
102
}
  0
BLOCK_RECORD
  5
507
330
1
100
AcDbSymbolTableRecord
100
AcDbBlockTableRecord
  2
_D_39
340
0
  0
ENDTAB
  0
ENDSEC
  0
SECTION
  2
BLOCKS
  0
BLOCK
  5
20
330
1F
100
AcDbEntity
  8
0
100
AcDbBlockBegin
  2
*Model_Space
 70
     0
 10
0.0
 20
0.0
 30
0.0
  3
*Model_Space
  1

  0
ENDBLK
  5
21
330
1F
100
AcDbEntity
  8
0
100
AcDbBlockEnd
  0
BLOCK
  5
1C
330
1B
100
AcDbEntity
 67
     1
  8
0
100
AcDbBlockBegin
  2
*Paper_Space
 70
     0
 10
0.0
 20
0.0
 30
0.0
  3
*Paper_Space
  1

  0
ENDBLK
  5
1D
330
1B
100
AcDbEntity
 67
     1
  8
0
100
AcDbBlockEnd
  0
BLOCK
  5
24
330
23
100
AcDbEntity
  8
0
100
AcDbBlockBegin
  2
*Paper_Space0
 70
     0
 10
0.0
 20
0.0
 30
0.0
  3
*Paper_Space0
  1

  0
ENDBLK
  5
25
330
23
100
AcDbEntity
  8
0
100
AcDbBlockEnd
  0
BLOCK
  5
DC
330
DB
100
AcDbEntity
  8
0
100
AcDbBlockBegin
  2
SW_NOTE_0
 70
     0
 10
0.0
 20
0.0
 30
0.0
  3
SW_NOTE_0
  1

  0
MTEXT
  5
DF
330
DB
100
AcDbEntity
  8
CAJETIN
 62
     0
100
AcDbMText
 10
0.0
 20
3.2126089873
 30
0.0
 40
2.5
 41
0.0
 71
     1
 72
     1
  1
Birch Plywood
  7
SLDTEXTSTYLE0
 73
     1
 44
1.0
  0
MTEXT
  5
E0
330
DB
100
AcDbEntity
  8
CAJETIN
 62
     0
100
AcDbMText
 10
0.0
 20
-0.2873911208
 30
0.0
 40
2.5
 41
0.0
 71
     1
 72
     1
  1
12mm
  7
SLDTEXTSTYLE0
 73
     1
 44
1.0
  0
ENDBLK
  5
DD
330
DB
100
AcDbEntity
  8
0
100
AcDbBlockEnd
  0
BLOCK
  5
102
330
101
100
AcDbEntity
  8
0
100
AcDbBlockBegin
  2
SW_NOTE_1
 70
     0
 10
0.0
 20
0.0
 30
0.0
  3
SW_NOTE_1
  1

  0
MTEXT
  5
104
330
101
100
AcDbEntity
  8
CAJETIN
 62
     0
100
AcDbMText
 10
6.484375
 20
3.2126089873
 30
0.0
 40
2.5
 41
0.0
 71
     2
 72
     1
  1
FR-6CM
  7
SLDTEXTSTYLE0
 73
     1
 44
1.0
  0
MTEXT
  5
105
330
101
100
AcDbEntity
  8
CAJETIN
 62
     0
100
AcDbMText
 10
6.2690909393
 20
-0.2873911208
 30
0.0
 40
2.5
 41
0.0
 71
     2
 72
     1
  1
FULL RANGE 2 WAY SYSTEM 6''
  7
SLDTEXTSTYLE0
 73
     1
 44
1.0
  0
ENDBLK
  5
103
330
101
100
AcDbEntity
  8
0
100
AcDbBlockEnd
  0
BLOCK
  5
108
330
107
100
AcDbEntity
  8
0
100
AcDbBlockBegin
  2
SW_NOTE_2
 70
     0
 10
0.0
 20
0.0
 30
0.0
  3
SW_NOTE_2
  1

  0
CIRCLE
  5
10A
330
107
100
AcDbEntity
  8
SLD-0_0
 62
     0
100
AcDbCircle
 10
2.546821099
 20
5.4418364789
 30
0.0
 40
8.409785932721702
  0
MTEXT
  5
10B
330
107
100
AcDbEntity
  8
SLD-0_0
 62
     0
100
AcDbMText
 10
2.5796875
 20
8.8400290633
 30
0.0
 40
6.8791666667
 41
0.0
 71
     2
 72
     1
  1
8
  7
SLDTEXTSTYLE0
 73
     1
 44
1.0
  0
ENDBLK
  5
109
330
107
100
AcDbEntity
  8
0
100
AcDbBlockEnd
  0
BLOCK
  5
10E
330
10D
100
AcDbEntity
  8
0
100
AcDbBlockBegin
  2
SW_NOTE_3
 70
     0
 10
0.0
 20
0.0
 30
0.0
  3
SW_NOTE_3
  1

  0
CIRCLE
  5
110
330
10D
100
AcDbEntity
  8
SLD-0_0
 62
     0
100
AcDbCircle
 10
2.546821099
 20
5.4635985862
 30
0.0
 40
8.409785932721736
  0
MTEXT
  5
111
330
10D
100
AcDbEntity
  8
SLD-0_0
 62
     0
100
AcDbMText
 10
2.5796875
 20
8.8400290633
 30
0.0
 40
6.8791666667
 41
0.0
 71
     2
 72
     1
  1
2
  7
SLDTEXTSTYLE0
 73
     1
 44
1.0
  0
ENDBLK
  5
10F
330
10D
100
AcDbEntity
  8
0
100
AcDbBlockEnd
  0
BLOCK
  5
114
330
113
100
AcDbEntity
  8
0
100
AcDbBlockBegin
  2
SW_NOTE_4
 70
     0
 10
0.0
 20
0.0
 30
0.0
  3
SW_NOTE_4
  1

  0
CIRCLE
  5
116
330
113
100
AcDbEntity
  8
SLD-0_0
 62
     0
100
AcDbCircle
 10
2.546821099
 20
5.5176963695
 30
0.0
 40
8.409785932721736
  0
MTEXT
  5
117
330
113
100
AcDbEntity
  8
SLD-0_0
 62
     0
100
AcDbMText
 10
2.5796875
 20
8.8400290633
 30
0.0
 40
6.8791666667
 41
0.0
 71
     2
 72
     1
  1
4
  7
SLDTEXTSTYLE0
 73
     1
 44
1.0
  0
ENDBLK
  5
115
330
113
100
AcDbEntity
  8
0
100
AcDbBlockEnd
  0
BLOCK
  5
11A
330
119
100
AcDbEntity
  8
0
100
AcDbBlockBegin
  2
SW_NOTE_5
 70
     0
 10
0.0
 20
0.0
 30
0.0
  3
SW_NOTE_5
  1

  0
CIRCLE
  5
11C
330
119
100
AcDbEntity
  8
SLD-0_0
 62
     0
100
AcDbCircle
 10
2.5180831976
 20
5.486907099
 30
0.0
 40
8.409785932721736
  0
MTEXT
  5
11D
330
119
100
AcDbEntity
  8
SLD-0_0
 62
     0
100
AcDbMText
 10
2.5796875
 20
8.8400290633
 30
0.0
 40
6.8791666667
 41
0.0
 71
     2
 72
     1
  1
5
  7
SLDTEXTSTYLE0
 73
     1
 44
1.0
  0
ENDBLK
  5
11B
330
119
100
AcDbEntity
  8
0
100
AcDbBlockEnd
  0
BLOCK
  5
120
330
11F
100
AcDbEntity
  8
0
100
AcDbBlockBegin
  2
SW_NOTE_6
 70
     0
 10
0.0
 20
0.0
 30
0.0
  3
SW_NOTE_6
  1

  0
CIRCLE
  5
122
330
11F
100
AcDbEntity
  8
SLD-0_0
 62
     0
100
AcDbCircle
 10
2.4543512877
 20
5.4487222101
 30
0.0
 40
8.40978593272166
  0
MTEXT
  5
123
330
11F
100
AcDbEntity
  8
SLD-0_0
 62
     0
100
AcDbMText
 10
2.5796875
 20
8.8400290633
 30
0.0
 40
6.8791666667
 41
0.0
 71
     2
 72
     1
  1
7
  7
SLDTEXTSTYLE0
 73
     1
 44
1.0
  0
ENDBLK
  5
121
330
11F
100
AcDbEntity
  8
0
100
AcDbBlockEnd
  0
BLOCK
  5
126
330
125
100
AcDbEntity
  8
0
100
AcDbBlockBegin
  2
SW_NOTE_7
 70
     0
 10
0.0
 20
0.0
 30
0.0
  3
SW_NOTE_7
  1

  0
CIRCLE
  5
128
330
125
100
AcDbEntity
  8
SLD-0_0
 62
     0
100
AcDbCircle
 10
2.5095544642
 20
5.4414526047
 30
0.0
 40
8.409785932721686
  0
MTEXT
  5
129
330
125
100
AcDbEntity
  8
SLD-0_0
 62
     0
100
AcDbMText
 10
2.5796875
 20
8.8400290633
 30
0.0
 40
6.8791666667
 41
0.0
 71
     2
 72
     1
  1
1
  7
SLDTEXTSTYLE0
 73
     1
 44
1.0
  0
ENDBLK
  5
127
330
125
100
AcDbEntity
  8
0
100
AcDbBlockEnd
  0
BLOCK
  5
12C
330
12B
100
AcDbEntity
  8
0
100
AcDbBlockBegin
  2
SW_TABLEANNOTATION_0
 70
     0
 10
0.0
 20
0.0
 30
0.0
  3
SW_TABLEANNOTATION_0
  1

  0
LINE
  5
12E
330
12B
100
AcDbEntity
  8
CAJETIN
 62
     0
100
AcDbLine
 10
0.0
 20
0.0
 30
0.0
 11
0.0
 21
-90.0154352355
 31
0.0
  0
LINE
  5
12F
330
12B
100
AcDbEntity
  8
CAJETIN
 62
     0
100
AcDbLine
 10
0.0
 20
-90.0154352355
 30
0.0
 11
120.1380711482
 21
-90.0154352355
 31
0.0
  0
LINE
  5
130
330
12B
100
AcDbEntity
  8
CAJETIN
 62
     0
100
AcDbLine
 10
120.1380711482
 20
-90.0154352355
 30
0.0
 11
120.1380711482
 21
0.0
 31
0.0
  0
LINE
  5
131
330
12B
100
AcDbEntity
  8
CAJETIN
 62
     0
100
AcDbLine
 10
120.1380711482
 20
0.0
 30
0.0
 11
0.0
 21
0.0
 31
0.0
  0
LINE
  5
132
330
12B
100
AcDbEntity
  8
CAJETIN
 62
     0
100
AcDbLine
 10
33.0300500782
 20
0.0
 30
0.0
 11
33.0300500782
 21
-10.0017150262
 31
0.0
  0
LINE
  5
133
330
12B
100
AcDbEntity
  8
CAJETIN
 62
     0
100
AcDbLine
 10
92.7910235542
 20
0.0
 30
0.0
 11
92.7910235542
 21
-10.0017150262
 31
0.0
  0
LINE
  5
134
330
12B
100
AcDbEntity
  8
CAJETIN
 62
     0
100
AcDbLine
 10
33.0300500782
 20
-10.0017150262
 30
0.0
 11
33.0300500782
 21
-90.0154352355
 31
0.0
  0
LINE
  5
135
330
12B
100
AcDbEntity
  8
CAJETIN
 62
     0
100
AcDbLine
 10
92.7910235542
 20
-10.0017150262
 30
0.0
 11
92.7910235542
 21
-90.0154352355
 31
0.0
  0
LINE
  5
136
330
12B
100
AcDbEntity
  8
CAJETIN
 62
     0
100
AcDbLine
 10
0.0
 20
-20.0034300523
 30
0.0
 11
120.1380711482
 21
-20.0034300523
 31
0.0
  0
LINE
  5
137
330
12B
100
AcDbEntity
  8
CAJETIN
 62
     0
100
AcDbLine
 10
0.0
 20
-30.0051450785
 30
0.0
 11
120.1380711482
 21
-30.0051450785
 31
0.0
  0
LINE
  5
138
330
12B
100
AcDbEntity
  8
CAJETIN
 62
     0
100
AcDbLine
 10
0.0
 20
-40.0068601047
 30
0.0
 11
120.1380711482
 21
-40.0068601047
 31
0.0
  0
LINE
  5
139
330
12B
100
AcDbEntity
  8
CAJETIN
 62
     0
100
AcDbLine
 10
0.0
 20
-50.0085751309
 30
0.0
 11
120.1380711482
 21
-50.0085751309
 31
0.0
  0
LINE
  5
13A
330
12B
100
AcDbEntity
  8
CAJETIN
 62
     0
100
AcDbLine
 10
0.0
 20
-60.010290157
 30
0.0
 11
120.1380711482
 21
-60.010290157
 31
0.0
  0
LINE
  5
13B
330
12B
100
AcDbEntity
  8
CAJETIN
 62
     0
100
AcDbLine
 10
0.0
 20
-70.0120051832
 30
0.0
 11
120.1380711482
 21
-70.0120051832
 31
0.0
  0
LINE
  5
13C
330
12B
100
AcDbEntity
  8
CAJETIN
 62
     0
100
AcDbLine
 10
0.0
 20
-80.0137202094
 30
0.0
 11
120.1380711482
 21
-80.0137202094
 31
0.0
  0
LINE
  5
13D
330
12B
100
AcDbEntity
  8
CAJETIN
 62
     0
100
AcDbLine
 10
0.0
 20
-10.0017150262
 30
0.0
 11
120.1380711482
 21
-10.0017150262
 31
0.0
  0
MTEXT
  5
13E
330
12B
100
AcDbEntity
  8
CAJETIN
 62
     0
100
AcDbMText
 10
7.7220388771
 20
-3.3673038296
 30
0.0
 40
3.175
 41
0.0
 71
     1
 72
     1
  1
ITEM Nº.
  7
SLDTEXTSTYLE0
 73
     1
 44
1.0
  0
MTEXT
  5
13F
330
12B
100
AcDbEntity
  8
CAJETIN
 62
     0
100
AcDbMText
 10
42.5552600527
 20
-3.3673038296
 30
0.0
 40
3.175
 41
0.0
 71
     1
 72
     1
  1
PART DIMENSIONS
  7
SLDTEXTSTYLE0
 73
     1
 44
1.0
  0
MTEXT
  5
140
330
12B
100
AcDbEntity
  8
CAJETIN
 62
     0
100
AcDbMText
 10
101.3757281603
 20
-3.3673038296
 30
0.0
 40
3.175
 41
0.0
 71
     1
 72
     1
  1
QTY.
  7
SLDTEXTSTYLE0
 73
     1
 44
1.0
  0
MTEXT
  5
141
330
12B
100
AcDbEntity
  8
CAJETIN
 62
     0
100
AcDbMText
 10
15.3023514281
 20
-13.3690188558
 30
0.0
 40
3.175
 41
0.0
 71
     1
 72
     1
  1
1
  7
SLDTEXTSTYLE0
 73
     1
 44
1.0
  0
MTEXT
  5
143
330
12B
100
AcDbEntity
  8
CAJETIN
 62
     0
100
AcDbMText
 10
48.600989906
 20
-13.3690188558
 30
0.0
 40
3.175
 41
0.0
 71
     1
 72
     1
  1
214 x 235 x 12
  7
SLDTEXTSTYLE2
 73
     1
 44
1.0
  0
MTEXT
  5
144
330
12B
100
AcDbEntity
  8
CAJETIN
 62
     0
100
AcDbMText
 10
105.2518737402
 20
-13.3690188558
 30
0.0
 40
3.175
 41
0.0
 71
     1
 72
     1
  1
2
  7
SLDTEXTSTYLE0
 73
     1
 44
1.0
  0
MTEXT
  5
145
330
12B
100
AcDbEntity
  8
CAJETIN
 62
     0
100
AcDbMText
 10
15.3023514281
 20
-23.370733882
 30
0.0
 40
3.175
 41
0.0
 71
     1
 72
     1
  1
2
  7
SLDTEXTSTYLE0
 73
     1
 44
1.0
  0
MTEXT
  5
146
330
12B
100
AcDbEntity
  8
CAJETIN
 62
     0
100
AcDbMText
 10
46.1756424511
 20
-23.370733882
 30
0.0
 40
3.175
 41
0.0
 71
     1
 72
     1
  1
47.5 x 350.5 x 12
  7
SLDTEXTSTYLE0
 73
     1
 44
1.0
  0
MTEXT
  5
147
330
12B
100
AcDbEntity
  8
CAJETIN
 62
     0
100
AcDbMText
 10
105.2518737402
 20
-23.370733882
 30
0.0
 40
3.175
 41
0.0
 71
     1
 72
     1
  1
2
  7
SLDTEXTSTYLE0
 73
     1
 44
1.0
  0
MTEXT
  5
148
330
12B
100
AcDbEntity
  8
CAJETIN
 62
     0
100
AcDbMText
 10
15.3023514281
 20
-33.3724489082
 30
0.0
 40
3.175
 41
0.0
 71
     1
 72
     1
  1
3
  7
SLDTEXTSTYLE0
 73
     1
 44
1.0
  0
MTEXT
  5
149
330
12B
100
AcDbEntity
  8
CAJETIN
 62
     0
100
AcDbMText
 10
44.9629691894
 20
-33.3724489082
 30
0.0
 40
3.175
 41
0.0
 71
     1
 72
     1
  1
149.5 x 350.5 x 12
  7
SLDTEXTSTYLE0
 73
     1
 44
1.0
  0
MTEXT
  5
14A
330
12B
100
AcDbEntity
  8
CAJETIN
 62
     0
100
AcDbMText
 10
105.2518737402
 20
-33.3724489082
 30
0.0
 40
3.175
 41
0.0
 71
     1
 72
     1
  1
1
  7
SLDTEXTSTYLE0
 73
     1
 44
1.0
  0
MTEXT
  5
14B
330
12B
100
AcDbEntity
  8
CAJETIN
 62
     0
100
AcDbMText
 10
15.3023514281
 20
-43.3741639343
 30
0.0
 40
3.175
 41
0.0
 71
     1
 72
     1
  1
4
  7
SLDTEXTSTYLE0
 73
     1
 44
1.0
  0
MTEXT
  5
14C
330
12B
100
AcDbEntity
  8
CAJETIN
 62
     0
100
AcDbMText
 10
46.1756424511
 20
-43.3741639343
 30
0.0
 40
3.175
 41
0.0
 71
     1
 72
     1
  1
82.4 x 350.5 x 12
  7
SLDTEXTSTYLE0
 73
     1
 44
1.0
  0
MTEXT
  5
14D
330
12B
100
AcDbEntity
  8
CAJETIN
 62
     0
100
AcDbMText
 10
105.2518737402
 20
-43.3741639343
 30
0.0
 40
3.175
 41
0.0
 71
     1
 72
     1
  1
1
  7
SLDTEXTSTYLE0
 73
     1
 44
1.0
  0
MTEXT
  5
14E
330
12B
100
AcDbEntity
  8
CAJETIN
 62
     0
100
AcDbMText
 10
15.3023514281
 20
-53.3758789605
 30
0.0
 40
3.175
 41
0.0
 71
     1
 72
     1
  1
5
  7
SLDTEXTSTYLE0
 73
     1
 44
1.0
  0
MTEXT
  5
14F
330
12B
100
AcDbEntity
  8
CAJETIN
 62
     0
100
AcDbMText
 10
44.9629691894
 20
-53.3758789605
 30
0.0
 40
3.175
 41
0.0
 71
     1
 72
     1
  1
110.2 x 350.5 x 12
  7
SLDTEXTSTYLE0
 73
     1
 44
1.0
  0
MTEXT
  5
150
330
12B
100
AcDbEntity
  8
CAJETIN
 62
     0
100
AcDbMText
 10
105.2518737402
 20
-53.3758789605
 30
0.0
 40
3.175
 41
0.0
 71
     1
 72
     1
  1
1
  7
SLDTEXTSTYLE0
 73
     1
 44
1.0
  0
MTEXT
  5
151
330
12B
100
AcDbEntity
  8
CAJETIN
 62
     0
100
AcDbMText
 10
15.3023514281
 20
-63.3775939867
 30
0.0
 40
3.175
 41
0.0
 71
     1
 72
     1
  1
6
  7
SLDTEXTSTYLE0
 73
     1
 44
1.0
  0
MTEXT
  5
152
330
12B
100
AcDbEntity
  8
CAJETIN
 62
     0
100
AcDbMText
 10
46.1756424511
 20
-63.3775939867
 30
0.0
 40
3.175
 41
0.0
 71
     1
 72
     1
  1
88.7 x 350.5 x 12
  7
SLDTEXTSTYLE0
 73
     1
 44
1.0
  0
MTEXT
  5
153
330
12B
100
AcDbEntity
  8
CAJETIN
 62
     0
100
AcDbMText
 10
105.2518737402
 20
-63.3775939867
 30
0.0
 40
3.175
 41
0.0
 71
     1
 72
     1
  1
1
  7
SLDTEXTSTYLE0
 73
     1
 44
1.0
  0
MTEXT
  5
154
330
12B
100
AcDbEntity
  8
CAJETIN
 62
     0
100
AcDbMText
 10
15.3023514281
 20
-73.3793090128
 30
0.0
 40
3.175
 41
0.0
 71
     1
 72
     1
  1
7
  7
SLDTEXTSTYLE0
 73
     1
 44
1.0
  0
MTEXT
  5
155
330
12B
100
AcDbEntity
  8
CAJETIN
 62
     0
100
AcDbMText
 10
47.3883175755
 20
-73.3793090128
 30
0.0
 40
3.175
 41
0.0
 71
     1
 72
     1
  1
241 x 350.5 x12
  7
SLDTEXTSTYLE0
 73
     1
 44
1.0
  0
MTEXT
  5
156
330
12B
100
AcDbEntity
  8
CAJETIN
 62
     0
100
AcDbMText
 10
105.2518737402
 20
-73.3793090128
 30
0.0
 40
3.175
 41
0.0
 71
     1
 72
     1
  1
1
  7
SLDTEXTSTYLE0
 73
     1
 44
1.0
  0
MTEXT
  5
157
330
12B
100
AcDbEntity
  8
CAJETIN
 62
     0
100
AcDbMText
 10
15.3023514281
 20
-83.381024039
 30
0.0
 40
3.175
 41
0.0
 71
     1
 72
     1
  1
8
  7
SLDTEXTSTYLE0
 73
     1
 44
1.0
  0
MTEXT
  5
158
330
12B
100
AcDbEntity
  8
CAJETIN
 62
     0
100
AcDbMText
 10
52.1177421788
 20
-83.381024039
 30
0.0
 40
3.175
 41
0.0
 71
     1
 72
     1
  1
93.3 x 46.5
  7
SLDTEXTSTYLE0
 73
     1
 44
1.0
  0
MTEXT
  5
159
330
12B
100
AcDbEntity
  8
CAJETIN
 62
     0
100
AcDbMText
 10
105.2518737402
 20
-83.381024039
 30
0.0
 40
3.175
 41
0.0
 71
     1
 72
     1
  1
2
  7
SLDTEXTSTYLE0
 73
     1
 44
1.0
  0
ENDBLK
  5
12D
330
12B
100
AcDbEntity
  8
0
100
AcDbBlockEnd
  0
BLOCK
  5
1EF
330
1EE
100
AcDbEntity
  8
0
100
AcDbBlockBegin
  2
SW_NOTE_8
 70
     0
 10
0.0
 20
0.0
 30
0.0
  3
SW_NOTE_8
  1

  0
CIRCLE
  5
1F1
330
1EE
100
AcDbEntity
  8
SLD-0_0
 62
     0
100
AcDbCircle
 10
2.9525606618
 20
2.2194400911
 30
0.0
 40
3.693714766971127
  0
MTEXT
  5
1F2
330
1EE
100
AcDbEntity
  8
SLD-0_0
 62
     0
100
AcDbMText
 10
2.9351995494
 20
3.5156167583
 30
0.0
 40
2.5
 41
0.0
 71
     2
 72
     1
  1
4
  7
SLDTEXTSTYLE0
 73
     1
 44
1.0
  0
ENDBLK
  5
1F0
330
1EE
100
AcDbEntity
  8
0
100
AcDbBlockEnd
  0
BLOCK
  5
1F6
330
1F5
100
AcDbEntity
  8
0
100
AcDbBlockBegin
  2
_DOT
 70
     0
 10
0.0
 20
0.0
 30
0.0
  3
_DOT
  1

  0
POLYLINE
  5
1F8
330
1F5
100
AcDbEntity
  8
0
  6
ByBlock
 62
     0
100
AcDb2dPolyline
 66
     1
 10
0.0
 20
0.0
 30
0.0
 70
     1
 40
0.5
 41
0.5
  0
VERTEX
  5
1FA
330
1F8
100
AcDbEntity
  8
0
  6
ByBlock
 62
     0
100
AcDbVertex
100
AcDb2dVertex
 10
-0.25
 20
0.0
 30
0.0
 42
1.0
  0
VERTEX
  5
1FB
330
1F8
100
AcDbEntity
  8
0
  6
ByBlock
 62
     0
100
AcDbVertex
100
AcDb2dVertex
 10
0.25
 20
0.0
 30
0.0
 42
1.0
  0
SEQEND
  5
1FC
330
1F8
100
AcDbEntity
  8
0
  6
ByBlock
 62
     0
  0
LINE
  5
1F9
330
1F5
100
AcDbEntity
  8
0
  6
ByBlock
 62
     0
370
    -2
100
AcDbLine
 10
-0.5
 20
0.0
 30
0.0
 11
-1.0
 21
0.0
 31
0.0
  0
ENDBLK
  5
1F7
330
1F5
100
AcDbEntity
  8
0
100
AcDbBlockEnd
  0
BLOCK
  5
1FF
330
1FE
100
AcDbEntity
  8
0
100
AcDbBlockBegin
  2
SW_NOTE_9
 70
     0
 10
0.0
 20
0.0
 30
0.0
  3
SW_NOTE_9
  1

  0
CIRCLE
  5
201
330
1FE
100
AcDbEntity
  8
SLD-0_0
 62
     0
100
AcDbCircle
 10
-1.4777196424
 20
3.3852434828
 30
0.0
 40
3.693714766971127
  0
MTEXT
  5
202
330
1FE
100
AcDbEntity
  8
SLD-0_0
 62
     0
100
AcDbMText
 10
-1.4950807548
 20
4.68142015
 30
0.0
 40
2.5
 41
0.0
 71
     2
 72
     1
  1
5
  7
SLDTEXTSTYLE0
 73
     1
 44
1.0
  0
ENDBLK
  5
200
330
1FE
100
AcDbEntity
  8
0
100
AcDbBlockEnd
  0
BLOCK
  5
206
330
205
100
AcDbEntity
  8
0
100
AcDbBlockBegin
  2
SW_NOTE_10
 70
     0
 10
0.0
 20
0.0
 30
0.0
  3
SW_NOTE_10
  1

  0
CIRCLE
  5
208
330
205
100
AcDbEntity
  8
SLD-0_0
 62
     0
100
AcDbCircle
 10
3.1533173487
 20
1.9235692029
 30
0.0
 40
3.69371476697114
  0
MTEXT
  5
209
330
205
100
AcDbEntity
  8
SLD-0_0
 62
     0
100
AcDbMText
 10
3.1359562363
 20
3.2197458701
 30
0.0
 40
2.5
 41
0.0
 71
     2
 72
     1
  1
3
  7
SLDTEXTSTYLE0
 73
     1
 44
1.0
  0
ENDBLK
  5
207
330
205
100
AcDbEntity
  8
0
100
AcDbBlockEnd
  0
BLOCK
  5
20D
330
20C
100
AcDbEntity
  8
0
100
AcDbBlockBegin
  2
SW_NOTE_11
 70
     0
 10
0.0
 20
0.0
 30
0.0
  3
SW_NOTE_11
  1

  0
CIRCLE
  5
20F
330
20C
100
AcDbEntity
  8
SLD-0_0
 62
     0
100
AcDbCircle
 10
0.7189093054
 20
-3.6230785515
 30
0.0
 40
3.693714766971133
  0
MTEXT
  5
210
330
20C
100
AcDbEntity
  8
SLD-0_0
 62
     0
100
AcDbMText
 10
0.701548193
 20
-2.3269018843
 30
0.0
 40
2.5
 41
0.0
 71
     2
 72
     1
  1
1
  7
SLDTEXTSTYLE0
 73
     1
 44
1.0
  0
ENDBLK
  5
20E
330
20C
100
AcDbEntity
  8
0
100
AcDbBlockEnd
  0
BLOCK
  5
214
330
213
100
AcDbEntity
  8
0
100
AcDbBlockBegin
  2
SW_NOTE_12
 70
     0
 10
0.0
 20
0.0
 30
0.0
  3
SW_NOTE_12
  1

  0
CIRCLE
  5
216
330
213
100
AcDbEntity
  8
SLD-0_0
 62
     0
100
AcDbCircle
 10
-1.0769771064
 20
3.5332207817
 30
0.0
 40
3.693714766971183
  0
MTEXT
  5
217
330
213
100
AcDbEntity
  8
SLD-0_0
 62
     0
100
AcDbMText
 10
-1.0943382188
 20
4.8293974489
 30
0.0
 40
2.5
 41
0.0
 71
     2
 72
     1
  1
8
  7
SLDTEXTSTYLE0
 73
     1
 44
1.0
  0
ENDBLK
  5
215
330
213
100
AcDbEntity
  8
0
100
AcDbBlockEnd
  0
BLOCK
  5
21C
330
21B
100
AcDbEntity
  8
0
100
AcDbBlockBegin
  2
SW_NOTE_13
 70
     0
 10
0.0
 20
0.0
 30
0.0
  3
SW_NOTE_13
  1

  0
CIRCLE
  5
21E
330
21B
100
AcDbEntity
  8
SLD-0_0
 62
     0
100
AcDbCircle
 10
-2.1713812985
 20
-2.988081665
 30
0.0
 40
3.69371476697114
  0
MTEXT
  5
21F
330
21B
100
AcDbEntity
  8
SLD-0_0
 62
     0
100
AcDbMText
 10
-2.1887424109
 20
-1.6919049978
 30
0.0
 40
2.5
 41
0.0
 71
     2
 72
     1
  1
7
  7
SLDTEXTSTYLE0
 73
     1
 44
1.0
  0
ENDBLK
  5
21D
330
21B
100
AcDbEntity
  8
0
100
AcDbBlockEnd
  0
BLOCK
  5
223
330
222
100
AcDbEntity
  8
0
100
AcDbBlockBegin
  2
SW_NOTE_14
 70
     0
 10
0.0
 20
0.0
 30
0.0
  3
SW_NOTE_14
  1

  0
CIRCLE
  5
225
330
222
100
AcDbEntity
  8
SLD-0_0
 62
     0
100
AcDbCircle
 10
-2.840400864
 20
2.3612817942
 30
0.0
 40
3.693714766971127
  0
MTEXT
  5
226
330
222
100
AcDbEntity
  8
SLD-0_0
 62
     0
100
AcDbMText
 10
-2.8577619764
 20
3.6574584614
 30
0.0
 40
2.5
 41
0.0
 71
     2
 72
     1
  1
2
  7
SLDTEXTSTYLE0
 73
     1
 44
1.0
  0
ENDBLK
  5
224
330
222
100
AcDbEntity
  8
0
100
AcDbBlockEnd
  0
BLOCK
  5
22A
330
229
100
AcDbEntity
  8
0
100
AcDbBlockBegin
  2
SW_NOTE_15
 70
     0
 10
0.0
 20
0.0
 30
0.0
  3
SW_NOTE_15
  1

  0
CIRCLE
  5
22C
330
229
100
AcDbEntity
  8
SLD-0_0
 62
     0
100
AcDbCircle
 10
-2.326581281
 20
2.8688932226
 30
0.0
 40
3.693714766971127
  0
MTEXT
  5
22D
330
229
100
AcDbEntity
  8
SLD-0_0
 62
     0
100
AcDbMText
 10
-2.3439423934
 20
4.1650698898
 30
0.0
 40
2.5
 41
0.0
 71
     2
 72
     1
  1
6
  7
SLDTEXTSTYLE0
 73
     1
 44
1.0
  0
ENDBLK
  5
22B
330
229
100
AcDbEntity
  8
0
100
AcDbBlockEnd
  0
BLOCK
  5
231
330
230
100
AcDbEntity
  8
0
100
AcDbBlockBegin
  2
SW_NOTE_16
 70
     0
 10
0.0
 20
0.0
 30
0.0
  3
SW_NOTE_16
  1

  0
CIRCLE
  5
233
330
230
100
AcDbEntity
  8
SLD-0_0
 62
     0
100
AcDbCircle
 10
1.9436503905
 20
-3.1409794554
 30
0.0
 40
3.693714766971133
  0
MTEXT
  5
234
330
230
100
AcDbEntity
  8
SLD-0_0
 62
     0
100
AcDbMText
 10
1.9262892781
 20
-1.8448027882
 30
0.0
 40
2.5
 41
0.0
 71
     2
 72
     1
  1
2
  7
SLDTEXTSTYLE0
 73
     1
 44
1.0
  0
ENDBLK
  5
232
330
230
100
AcDbEntity
  8
0
100
AcDbBlockEnd
  0
BLOCK
  5
238
330
237
100
AcDbEntity
  8
0
100
AcDbBlockBegin
  2
SW_NOTE_17
 70
     0
 10
0.0
 20
0.0
 30
0.0
  3
SW_NOTE_17
  1

  0
CIRCLE
  5
23A
330
237
100
AcDbEntity
  8
SLD-0_0
 62
     0
100
AcDbCircle
 10
1.2625245645
 20
3.4712476869
 30
0.0
 40
3.693714766971127
  0
MTEXT
  5
23B
330
237
100
AcDbEntity
  8
SLD-0_0
 62
     0
100
AcDbMText
 10
1.2451634521
 20
4.7674243541
 30
0.0
 40
2.5
 41
0.0
 71
     2
 72
     1
  1
1
  7
SLDTEXTSTYLE0
 73
     1
 44
1.0
  0
ENDBLK
  5
239
330
237
100
AcDbEntity
  8
0
100
AcDbBlockEnd
  0
BLOCK
  5
24A
330
249
100
AcDbEntity
  8
0
100
AcDbBlockBegin
  2
_D
 70
     0
 10
0.0
 20
0.0
 30
0.0
  3
_D
  1

  0
ARC
  5
24C
330
249
100
AcDbEntity
  8
SLD-0_0
100
AcDbCircle
 10
119.7674539567
 20
461.9417647927
 30
0.0
 40
43.18126637509673
100
AcDbArc
 50
260.5224557754
 51
33.0
  0
SOLID
  5
24D
330
249
100
AcDbEntity
  8
SLD-0_0
100
AcDbTrace
 10
112.6571816826
 20
419.3499135305
 30
0.0
 11
115.8680110316
 21
418.4269601775
 31
0.0
 12
115.9969528788
 22
419.4347448768
 32
0.0
 13
115.9969528788
 23
419.4347448768
 33
0.0
  0
SOLID
  5
24E
330
249
100
AcDbEntity
  8
SLD-0_0
100
AcDbTrace
 10
155.9823111521
 20
485.459968042
 30
0.0
 11
157.2374599106
 21
482.3638624892
 31
0.0
 12
158.1100396717
 22
482.8843051474
 32
0.0
 13
158.1100396717
 23
482.8843051474
 33
0.0
  0
MTEXT
  5
24F
330
249
100
AcDbEntity
  8
SLD-0_0
100
AcDbMText
 10
148.8007416298
 20
435.4635675647
 30
0.0
 40
3.5
 41
0.0
 71
     1
 72
     1
  1
132.5°
  7
SLDTEXTSTYLE0
 11
0.5319218285629858
 21
0.8467934625977043
 31
0.0
 73
     1
 44
1.0
  0
ENDBLK
  5
24B
330
249
100
AcDbEntity
  8
0
100
AcDbBlockEnd
  0
BLOCK
  5
253
330
252
100
AcDbEntity
  8
0
100
AcDbBlockBegin
  2
_D_1
 70
     0
 10
0.0
 20
0.0
 30
0.0
  3
_D_1
  1

  0
ARC
  5
255
330
252
100
AcDbEntity
  8
SLD-0_0
100
AcDbCircle
 10
212.1593517855
 20
521.9417647927
 30
0.0
 40
36.42835262104164
100
AcDbArc
 50
213.0
 51
0.0
  0
SOLID
  5
256
330
252
100
AcDbEntity
  8
SLD-0_0
100
AcDbTrace
 10
181.6079646035
 20
502.101461974
 30
0.0
 11
183.1165422297
 21
499.1206128423
 31
0.0
 12
183.9427591883
 22
499.7119008748
 32
0.0
 13
183.9427591883
 23
499.7119008748
 33
0.0
  0
SOLID
  5
257
330
252
100
AcDbEntity
  8
SLD-0_0
100
AcDbTrace
 10
248.5877044066
 20
521.9417647927
 30
0.0
 11
247.9310291573
 21
518.6660899589
 31
0.0
 12
248.9459915466
 22
518.6201840959
 32
0.0
 13
248.9459915466
 23
518.6201840959
 33
0.0
  0
MTEXT
  5
258
330
252
100
AcDbEntity
  8
SLD-0_0
100
AcDbMText
 10
222.9182250903
 20
491.4844686003
 30
0.0
 40
3.5
 41
0.0
 71
     1
 72
     1
  1
147°
  7
SLDTEXTSTYLE0
 11
0.880382036388671
 21
0.4742651895344384
 31
0.0
 73
     1
 44
1.0
  0
ENDBLK
  5
254
330
252
100
AcDbEntity
  8
0
100
AcDbBlockEnd
  0
BLOCK
  5
25B
330
25A
100
AcDbEntity
  8
0
100
AcDbBlockBegin
  2
_D_2
 70
     0
 10
0.0
 20
0.0
 30
0.0
  3
_D_2
  1

  0
ARC
  5
25D
330
25A
100
AcDbEntity
  8
SLD-0_0
100
AcDbCircle
 10
294.5348656396
 20
521.9417647927
 30
0.0
 40
42.05661092487469
100
AcDbArc
 50
180.0
 51
279.4775442246
  0
SOLID
  5
25E
330
25A
100
AcDbEntity
  8
SLD-0_0
100
AcDbTrace
 10
252.4782547147
 20
521.9417647927
 30
0.0
 11
252.0999713695
 21
518.6224019456
 31
0.0
 12
253.1151918019
 22
518.662194829
 32
0.0
 13
253.1151918019
 23
518.662194829
 33
0.0
  0
SOLID
  5
25F
330
25A
100
AcDbEntity
  8
SLD-0_0
100
AcDbTrace
 10
301.4599509764
 20
480.4592176727
 30
0.0
 11
298.1202677221
 21
480.5474432996
 31
0.0
 12
298.2481852564
 22
479.5395280728
 32
0.0
 13
298.2481852564
 23
479.5395280728
 33
0.0
  0
MTEXT
  5
260
330
25A
100
AcDbEntity
  8
SLD-0_0
100
AcDbMText
 10
265.9447488819
 20
496.9608268835
 30
0.0
 40
3.5
 41
0.0
 71
     1
 72
     1
  1
99.5°
  7
SLDTEXTSTYLE0
 11
0.7625642332446956
 21
-0.6469125058119757
 31
0.0
 73
     1
 44
1.0
  0
ENDBLK
  5
25C
330
25A
100
AcDbEntity
  8
0
100
AcDbBlockEnd
  0
BLOCK
  5
263
330
262
100
AcDbEntity
  8
0
100
AcDbBlockBegin
  2
_D_3
 70
     0
 10
0.0
 20
0.0
 30
0.0
  3
_D_3
  1

  0
ARC
  5
265
330
262
100
AcDbEntity
  8
SLD-0_0
100
AcDbCircle
 10
319.1593517855
 20
374.4365201384
 30
0.0
 40
39.4731963139169
100
AcDbArc
 50
99.4775442246
 51
270.0
  0
SOLID
  5
266
330
262
100
AcDbEntity
  8
SLD-0_0
100
AcDbTrace
 10
312.659654188
 20
413.3709157081
 30
0.0
 11
309.3237649996
 21
413.1889505388
 31
0.0
 12
309.5327205043
 22
412.194670097
 32
0.0
 13
309.5327205043
 23
412.194670097
 33
0.0
  0
SOLID
  5
267
330
262
100
AcDbEntity
  8
SLD-0_0
100
AcDbTrace
 10
319.1593517855
 20
334.9633238245
 30
0.0
 11
315.8814182555
 21
335.6086297774
 31
0.0
 12
315.8390342017
 22
334.5935142214
 32
0.0
 13
315.8390342017
 23
334.5935142214
 33
0.0
  0
MTEXT
  5
268
330
262
100
AcDbEntity
  8
SLD-0_0
100
AcDbMText
 10
274.7357204518
 20
371.2885728764
 30
0.0
 40
3.5
 41
0.0
 71
     1
 72
     1
  1
170.5°
  7
SLDTEXTSTYLE0
 11
0.08648488006300359
 21
0.99625316336787
 31
0.0
 73
     1
 44
1.0
  0
ENDBLK
  5
264
330
262
100
AcDbEntity
  8
0
100
AcDbBlockEnd
  0
BLOCK
  5
26C
330
26B
100
AcDbEntity
  8
0
100
AcDbBlockBegin
  2
_D_4
 70
     0
 10
0.0
 20
0.0
 30
0.0
  3
_D_4
  1

  0
SOLID
  5
26E
330
26B
100
AcDbEntity
  8
SLD-0_0
100
AcDbTrace
 10
95.1593517855
 20
374.4365201384
 30
0.0
 11
94.6513517855
 21
371.1345201384
 31
0.0
 12
95.6673517855
 22
371.1345201384
 32
0.0
 13
95.6673517855
 23
371.1345201384
 33
0.0
  0
SOLID
  5
26F
330
26B
100
AcDbEntity
  8
SLD-0_0
100
AcDbTrace
 10
95.1593517855
 20
286.9417647927
 30
0.0
 11
95.6673517855
 21
290.2437647927
 31
0.0
 12
94.6513517855
 22
290.2437647927
 32
0.0
 13
94.6513517855
 23
290.2437647927
 33
0.0
  0
LINE
  5
270
330
26B
100
AcDbEntity
  8
SLD-0_0
100
AcDbLine
 10
104.1593517855
 20
374.4365201384
 30
0.0
 11
94.1593517855
 21
374.4365201384
 31
0.0
  0
LINE
  5
271
330
26B
100
AcDbEntity
  8
SLD-0_0
100
AcDbLine
 10
211.1593517855
 20
286.9417647927
 30
0.0
 11
94.1593517855
 21
286.9417647927
 31
0.0
  0
LINE
  5
272
330
26B
100
AcDbEntity
  8
SLD-0_0
100
AcDbLine
 10
95.1593517855
 20
374.4365201384
 30
0.0
 11
95.1593517855
 21
286.9417647927
 31
0.0
  0
MTEXT
  5
273
330
26B
100
AcDbEntity
  8
SLD-0_0
100
AcDbMText
 10
90.6476146963
 20
327.2418170806
 30
0.0
 40
3.5
 41
0.0
 71
     1
 72
     1
  1
87.5
  7
SLDTEXTSTYLE0
 11
-7.044195017643634E-15
 21
1.0
 31
0.0
 73
     1
 44
1.0
  0
ENDBLK
  5
26D
330
26B
100
AcDbEntity
  8
0
100
AcDbBlockEnd
  0
BLOCK
  5
277
330
276
100
AcDbEntity
  8
0
100
AcDbBlockBegin
  2
_D_5
 70
     0
 10
0.0
 20
0.0
 30
0.0
  3
_D_5
  1

  0
SOLID
  5
279
330
276
100
AcDbEntity
  8
SLD-0_0
100
AcDbTrace
 10
88.1593517855
 20
461.9417647927
 30
0.0
 11
87.6513517855
 21
458.6397647927
 31
0.0
 12
88.6673517855
 22
458.6397647927
 32
0.0
 13
88.6673517855
 23
458.6397647927
 33
0.0
  0
SOLID
  5
27A
330
276
100
AcDbEntity
  8
SLD-0_0
100
AcDbTrace
 10
88.1593517855
 20
286.9417647927
 30
0.0
 11
88.6673517855
 21
290.2437647927
 31
0.0
 12
87.6513517855
 22
290.2437647927
 32
0.0
 13
87.6513517855
 23
290.2437647927
 33
0.0
  0
LINE
  5
27B
330
276
100
AcDbEntity
  8
SLD-0_0
100
AcDbLine
 10
118.7674539567
 20
461.9417647927
 30
0.0
 11
87.1593517855
 21
461.9417647927
 31
0.0
  0
LINE
  5
27C
330
276
100
AcDbEntity
  8
SLD-0_0
100
AcDbLine
 10
211.1593517855
 20
286.9417647927
 30
0.0
 11
87.1593517855
 21
286.9417647927
 31
0.0
  0
LINE
  5
27D
330
276
100
AcDbEntity
  8
SLD-0_0
100
AcDbLine
 10
88.1593517855
 20
461.9417647927
 30
0.0
 11
88.1593517855
 21
286.9417647927
 31
0.0
  0
MTEXT
  5
27E
330
276
100
AcDbEntity
  8
SLD-0_0
100
AcDbMText
 10
83.6476146963
 20
355.5306823867
 30
0.0
 40
3.5
 41
0.0
 71
     1
 72
     1
  1
175
  7
SLDTEXTSTYLE0
 11
-7.044195017643634E-15
 21
1.0
 31
0.0
 73
     1
 44
1.0
  0
ENDBLK
  5
278
330
276
100
AcDbEntity
  8
0
100
AcDbBlockEnd
  0
BLOCK
  5
281
330
280
100
AcDbEntity
  8
0
100
AcDbBlockBegin
  2
_D_6
 70
     0
 10
0.0
 20
0.0
 30
0.0
  3
_D_6
  1

  0
SOLID
  5
283
330
280
100
AcDbEntity
  8
SLD-0_0
100
AcDbTrace
 10
336.1593517855
 20
521.9417647927
 30
0.0
 11
335.6513517855
 21
518.6397647927
 31
0.0
 12
336.6673517855
 22
518.6397647927
 32
0.0
 13
336.6673517855
 23
518.6397647927
 33
0.0
  0
SOLID
  5
284
330
280
100
AcDbEntity
  8
SLD-0_0
100
AcDbTrace
 10
336.1593517855
 20
286.9417647927
 30
0.0
 11
336.6673517855
 21
290.2437647927
 31
0.0
 12
335.6513517855
 22
290.2437647927
 32
0.0
 13
335.6513517855
 23
290.2437647927
 33
0.0
  0
LINE
  5
285
330
280
100
AcDbEntity
  8
SLD-0_0
100
AcDbLine
 10
295.5348656396
 20
521.9417647927
 30
0.0
 11
337.1593517855
 21
521.9417647927
 31
0.0
  0
LINE
  5
286
330
280
100
AcDbEntity
  8
SLD-0_0
100
AcDbLine
 10
213.1593517855
 20
286.9417647927
 30
0.0
 11
337.1593517855
 21
286.9417647927
 31
0.0
  0
LINE
  5
287
330
280
100
AcDbEntity
  8
SLD-0_0
100
AcDbLine
 10
336.1593517855
 20
521.9417647927
 30
0.0
 11
336.1593517855
 21
286.9417647927
 31
0.0
  0
MTEXT
  5
288
330
280
100
AcDbEntity
  8
SLD-0_0
100
AcDbMText
 10
331.6476146963
 20
396.5224164253
 30
0.0
 40
3.5
 41
0.0
 71
     1
 72
     1
  1
235
  7
SLDTEXTSTYLE0
 11
-6.156016597943509E-15
 21
1.0
 31
0.0
 73
     1
 44
1.0
  0
ENDBLK
  5
282
330
280
100
AcDbEntity
  8
0
100
AcDbBlockEnd
  0
BLOCK
  5
28B
330
28A
100
AcDbEntity
  8
0
100
AcDbBlockBegin
  2
_D_7
 70
     0
 10
0.0
 20
0.0
 30
0.0
  3
_D_7
  1

  0
SOLID
  5
28D
330
28A
100
AcDbEntity
  8
SLD-0_0
100
AcDbTrace
 10
319.1593517855
 20
531.9417647927
 30
0.0
 11
315.8573517855
 21
532.4497647927
 31
0.0
 12
315.8573517855
 22
531.4337647927
 32
0.0
 13
315.8573517855
 23
531.4337647927
 33
0.0
  0
SOLID
  5
28E
330
28A
100
AcDbEntity
  8
SLD-0_0
100
AcDbTrace
 10
294.5348656396
 20
531.9417647927
 30
0.0
 11
297.8368656396
 21
531.4337647927
 31
0.0
 12
297.8368656396
 22
532.4497647927
 32
0.0
 13
297.8368656396
 23
532.4497647927
 33
0.0
  0
LINE
  5
28F
330
28A
100
AcDbEntity
  8
SLD-0_0
100
AcDbLine
 10
319.1593517855
 20
375.4365201384
 30
0.0
 11
319.1593517855
 21
532.9417647927
 31
0.0
  0
LINE
  5
290
330
28A
100
AcDbEntity
  8
SLD-0_0
100
AcDbLine
 10
294.5348656396
 20
522.9417647927
 30
0.0
 11
294.5348656396
 21
532.9417647927
 31
0.0
  0
LINE
  5
291
330
28A
100
AcDbEntity
  8
SLD-0_0
100
AcDbLine
 10
319.1593517855
 20
531.9417647927
 30
0.0
 11
294.5348656396
 21
531.9417647927
 31
0.0
  0
MTEXT
  5
292
330
28A
100
AcDbEntity
  8
SLD-0_0
100
AcDbMText
 10
304.3488214226
 20
536.4535018819
 30
0.0
 40
3.5
 41
0.0
 71
     1
 72
     1
  1
24.6
  7
SLDTEXTSTYLE0
 73
     1
 44
1.0
  0
ENDBLK
  5
28C
330
28A
100
AcDbEntity
  8
0
100
AcDbBlockEnd
  0
BLOCK
  5
296
330
295
100
AcDbEntity
  8
0
100
AcDbBlockBegin
  2
_D_8
 70
     0
 10
0.0
 20
0.0
 30
0.0
  3
_D_8
  1

  0
SOLID
  5
298
330
295
100
AcDbEntity
  8
SLD-0_0
100
AcDbTrace
 10
105.1593517855
 20
530.4355797912
 30
0.0
 11
101.8573517855
 21
530.9435797912
 31
0.0
 12
101.8573517855
 22
529.9275797912
 32
0.0
 13
101.8573517855
 23
529.9275797912
 33
0.0
  0
SOLID
  5
299
330
295
100
AcDbEntity
  8
SLD-0_0
100
AcDbTrace
 10
119.7674539567
 20
530.4355797912
 30
0.0
 11
123.0694539567
 21
529.9275797912
 31
0.0
 12
123.0694539567
 22
530.9435797912
 32
0.0
 13
123.0694539567
 23
530.9435797912
 33
0.0
  0
LINE
  5
29A
330
295
100
AcDbEntity
  8
SLD-0_0
100
AcDbLine
 10
105.1593517855
 20
375.4365201384
 30
0.0
 11
105.1593517855
 21
531.4355797912
 31
0.0
  0
LINE
  5
29B
330
295
100
AcDbEntity
  8
SLD-0_0
100
AcDbLine
 10
119.7674539567
 20
462.9417647927
 30
0.0
 11
119.7674539567
 21
531.4355797912
 31
0.0
  0
LINE
  5
29C
330
295
100
AcDbEntity
  8
SLD-0_0
100
AcDbLine
 10
105.1593517855
 20
530.4355797912
 30
0.0
 11
98.8093517855
 21
530.4355797912
 31
0.0
  0
LINE
  5
29D
330
295
100
AcDbEntity
  8
SLD-0_0
100
AcDbLine
 10
105.1593517855
 20
530.4355797912
 30
0.0
 11
119.7674539567
 21
530.4355797912
 31
0.0
  0
LINE
  5
29E
330
295
100
AcDbEntity
  8
SLD-0_0
100
AcDbLine
 10
119.7674539567
 20
530.4355797912
 30
0.0
 11
126.1174539567
 21
530.4355797912
 31
0.0
  0
MTEXT
  5
29F
330
295
100
AcDbEntity
  8
SLD-0_0
100
AcDbMText
 10
111.1809884619
 20
534.9473168804
 30
0.0
 40
3.5
 41
0.0
 71
     1
 72
     1
  1
14.6
  7
SLDTEXTSTYLE0
 73
     1
 44
1.0
  0
ENDBLK
  5
297
330
295
100
AcDbEntity
  8
0
100
AcDbBlockEnd
  0
BLOCK
  5
2A2
330
2A1
100
AcDbEntity
  8
0
100
AcDbBlockBegin
  2
_D_9
 70
     0
 10
0.0
 20
0.0
 30
0.0
  3
_D_9
  1

  0
SOLID
  5
2A4
330
2A1
100
AcDbEntity
  8
SLD-0_0
100
AcDbTrace
 10
105.1593517855
 20
541.4737416747
 30
0.0
 11
108.4613517855
 21
540.9657416747
 31
0.0
 12
108.4613517855
 22
541.9817416747
 32
0.0
 13
108.4613517855
 23
541.9817416747
 33
0.0
  0
SOLID
  5
2A5
330
2A1
100
AcDbEntity
  8
SLD-0_0
100
AcDbTrace
 10
212.1593517855
 20
541.4737416747
 30
0.0
 11
208.8573517855
 21
541.9817416747
 31
0.0
 12
208.8573517855
 22
540.9657416747
 32
0.0
 13
208.8573517855
 23
540.9657416747
 33
0.0
  0
LINE
  5
2A6
330
2A1
100
AcDbEntity
  8
SLD-0_0
100
AcDbLine
 10
105.1593517855
 20
375.4365201384
 30
0.0
 11
105.1593517855
 21
542.4737416747
 31
0.0
  0
LINE
  5
2A7
330
2A1
100
AcDbEntity
  8
SLD-0_0
100
AcDbLine
 10
212.1593517855
 20
522.9417647927
 30
0.0
 11
212.1593517855
 21
542.4737416747
 31
0.0
  0
LINE
  5
2A8
330
2A1
100
AcDbEntity
  8
SLD-0_0
100
AcDbLine
 10
105.1593517855
 20
541.4737416747
 30
0.0
 11
212.1593517855
 21
541.4737416747
 31
0.0
  0
MTEXT
  5
2A9
330
2A1
100
AcDbEntity
  8
SLD-0_0
100
AcDbMText
 10
156.6152699727
 20
545.9854787639
 30
0.0
 40
3.5
 41
0.0
 71
     1
 72
     1
  1
107
  7
SLDTEXTSTYLE0
 73
     1
 44
1.0
  0
ENDBLK
  5
2A3
330
2A1
100
AcDbEntity
  8
0
100
AcDbBlockEnd
  0
BLOCK
  5
2AD
330
2AC
100
AcDbEntity
  8
0
100
AcDbBlockBegin
  2
_D_10
 70
     0
 10
0.0
 20
0.0
 30
0.0
  3
_D_10
  1

  0
SOLID
  5
2AF
330
2AC
100
AcDbEntity
  8
SLD-0_0
100
AcDbTrace
 10
151.2058827816
 20
290.7836490841
 30
0.0
 11
152.1244640514
 21
293.9957319677
 31
0.0
 12
151.1165047445
 22
294.1233016958
 32
0.0
 13
151.1165047445
 23
294.1233016958
 33
0.0
  0
LINE
  5
2B0
330
2AC
100
AcDbEntity
  8
SLD-0_0
100
AcDbLine
 10
151.2058827816
 20
290.7836490841
 30
0.0
 11
160.5893881997
 21
364.9249971812
 31
0.0
  0
LINE
  5
2B1
330
2AC
100
AcDbEntity
  8
SLD-0_0
100
AcDbLine
 10
160.5893881997
 20
364.9249971812
 30
0.0
 11
152.9434378553
 21
354.7443882195
 31
0.0
  0
LINE
  5
2B2
330
2AC
100
AcDbEntity
  8
SLD-0_0
100
AcDbLine
 10
152.9434378553
 20
354.7443882195
 30
0.0
 11
154.9542078436
 21
370.6319687141
 31
0.0
  0
LINE
  5
2B3
330
2AC
100
AcDbEntity
  8
SLD-0_0
100
AcDbLine
 10
154.9542078436
 20
373.316078163
 30
0.0
 11
154.9542078436
 21
367.9478592652
 31
0.0
  0
LINE
  5
2B4
330
2AC
100
AcDbEntity
  8
SLD-0_0
100
AcDbLine
 10
152.2700983948
 20
370.6319687141
 30
0.0
 11
157.6383172925
 21
370.6319687141
 31
0.0
  0
MTEXT
  5
2B5
330
2AC
100
AcDbEntity
  8
SLD-0_0
100
AcDbMText
 10
150.8848776128
 20
324.1796201735
 30
0.0
 40
3.5
 41
0.0
 71
     1
 72
     1
  1
R485.5
  7
SLDTEXTSTYLE0
 11
0.125560756007647
 21
0.9920859320395528
 31
0.0
 73
     1
 44
1.0
  0
ENDBLK
  5
2AE
330
2AC
100
AcDbEntity
  8
0
100
AcDbBlockEnd
  0
BLOCK
  5
2B8
330
2B7
100
AcDbEntity
  8
0
100
AcDbBlockBegin
  2
_D_11
 70
     0
 10
0.0
 20
0.0
 30
0.0
  3
_D_11
  1

  0
SOLID
  5
2BA
330
2B7
100
AcDbEntity
  8
CAJETIN
100
AcDbTrace
 10
105.1593517855
 20
276.9417647927
 30
0.0
 11
108.4613517855
 21
276.4337647927
 31
0.0
 12
108.4613517855
 22
277.4497647927
 32
0.0
 13
108.4613517855
 23
277.4497647927
 33
0.0
  0
SOLID
  5
2BB
330
2B7
100
AcDbEntity
  8
CAJETIN
100
AcDbTrace
 10
319.1593517855
 20
276.9417647927
 30
0.0
 11
315.8573517855
 21
277.4497647927
 31
0.0
 12
315.8573517855
 22
276.4337647927
 32
0.0
 13
315.8573517855
 23
276.4337647927
 33
0.0
  0
LINE
  5
2BC
330
2B7
100
AcDbEntity
  8
CAJETIN
100
AcDbLine
 10
105.1593517855
 20
305.9417647927
 30
0.0
 11
105.1593517855
 21
275.9417647927
 31
0.0
  0
LINE
  5
2BD
330
2B7
100
AcDbEntity
  8
CAJETIN
100
AcDbLine
 10
319.1593517855
 20
305.9417647927
 30
0.0
 11
319.1593517855
 21
275.9417647927
 31
0.0
  0
LINE
  5
2BE
330
2B7
100
AcDbEntity
  8
CAJETIN
100
AcDbLine
 10
105.1593517855
 20
276.9417647927
 30
0.0
 11
319.1593517855
 21
276.9417647927
 31
0.0
  0
MTEXT
  5
2BF
330
2B7
100
AcDbEntity
  8
CAJETIN
100
AcDbMText
 10
208.7778297668
 20
281.4535018819
 30
0.0
 40
3.5
 41
0.0
 71
     1
 72
     1
  1
214
  7
SLDTEXTSTYLE0
 73
     1
 44
1.0
  0
ENDBLK
  5
2B9
330
2B7
100
AcDbEntity
  8
0
100
AcDbBlockEnd
  0
BLOCK
  5
2DA
330
2D9
100
AcDbEntity
  8
0
100
AcDbBlockBegin
  2
_D_12
 70
     0
 10
0.0
 20
0.0
 30
0.0
  3
_D_12
  1

  0
SOLID
  5
2DC
330
2D9
100
AcDbEntity
  8
SLD-0_0
100
AcDbTrace
 10
637.239925382
 20
196.7371235735
 30
0.0
 11
637.747925382
 21
200.0391235735
 31
0.0
 12
636.731925382
 22
200.0391235735
 32
0.0
 13
636.731925382
 23
200.0391235735
 33
0.0
  0
SOLID
  5
2DD
330
2D9
100
AcDbEntity
  8
SLD-0_0
100
AcDbTrace
 10
637.239925382
 20
547.2371235735
 30
0.0
 11
636.731925382
 21
543.9351235735
 31
0.0
 12
637.747925382
 22
543.9351235735
 32
0.0
 13
637.747925382
 23
543.9351235735
 33
0.0
  0
LINE
  5
2DE
330
2D9
100
AcDbEntity
  8
SLD-0_0
100
AcDbLine
 10
618.5919250719
 20
196.7371235735
 30
0.0
 11
638.239925382
 21
196.7371235735
 31
0.0
  0
LINE
  5
2DF
330
2D9
100
AcDbEntity
  8
SLD-0_0
100
AcDbLine
 10
618.5919250719
 20
547.2371235735
 30
0.0
 11
638.239925382
 21
547.2371235735
 31
0.0
  0
LINE
  5
2E0
330
2D9
100
AcDbEntity
  8
SLD-0_0
100
AcDbLine
 10
637.239925382
 20
196.7371235735
 30
0.0
 11
637.239925382
 21
547.2371235735
 31
0.0
  0
MTEXT
  5
2E1
330
2D9
100
AcDbEntity
  8
SLD-0_0
100
AcDbMText
 10
632.7281882928
 20
357.5439822354
 30
0.0
 40
3.5
 41
0.0
 71
     1
 72
     1
  1
350.50
  7
SLDTEXTSTYLE0
 11
6.123233995736766E-17
 21
1.0
 31
0.0
 73
     1
 44
1.0
  0
ENDBLK
  5
2DB
330
2D9
100
AcDbEntity
  8
0
100
AcDbBlockEnd
  0
BLOCK
  5
2E4
330
2E3
100
AcDbEntity
  8
0
100
AcDbBlockBegin
  2
_D_13
 70
     0
 10
0.0
 20
0.0
 30
0.0
  3
_D_13
  1

  0
SOLID
  5
2E6
330
2E3
100
AcDbEntity
  8
SLD-0_0
100
AcDbTrace
 10
627.2393593682
 20
245.7371235735
 30
0.0
 11
626.7313593682
 21
242.4351235735
 31
0.0
 12
627.7473593682
 22
242.4351235735
 32
0.0
 13
627.7473593682
 23
242.4351235735
 33
0.0
  0
SOLID
  5
2E7
330
2E3
100
AcDbEntity
  8
SLD-0_0
100
AcDbTrace
 10
627.2393593682
 20
196.7371235735
 30
0.0
 11
627.7473593682
 21
200.0391235735
 31
0.0
 12
626.7313593682
 22
200.0391235735
 32
0.0
 13
626.7313593682
 23
200.0391235735
 33
0.0
  0
LINE
  5
2E8
330
2E3
100
AcDbEntity
  8
SLD-0_0
100
AcDbLine
 10
606.5919250719
 20
245.7371235735
 30
0.0
 11
628.2393593682
 21
245.7371235735
 31
0.0
  0
LINE
  5
2E9
330
2E3
100
AcDbEntity
  8
SLD-0_0
100
AcDbLine
 10
618.5919250719
 20
196.7371235735
 30
0.0
 11
628.2393593682
 21
196.7371235735
 31
0.0
  0
LINE
  5
2EA
330
2E3
100
AcDbEntity
  8
SLD-0_0
100
AcDbLine
 10
627.2393593682
 20
245.7371235735
 30
0.0
 11
627.2393593682
 21
196.7371235735
 31
0.0
  0
MTEXT
  5
2EB
330
2E3
100
AcDbEntity
  8
SLD-0_0
100
AcDbMText
 10
622.727622279
 20
218.0769679251
 30
0.0
 40
3.5
 41
0.0
 71
     1
 72
     1
  1
49
  7
SLDTEXTSTYLE0
 11
-7.044195017643634E-15
 21
1.0
 31
0.0
 73
     1
 44
1.0
  0
ENDBLK
  5
2E5
330
2E3
100
AcDbEntity
  8
0
100
AcDbBlockEnd
  0
BLOCK
  5
2EE
330
2ED
100
AcDbEntity
  8
0
100
AcDbBlockBegin
  2
_D_14
 70
     0
 10
0.0
 20
0.0
 30
0.0
  3
_D_14
  1

  0
SOLID
  5
2F0
330
2ED
100
AcDbEntity
  8
SLD-0_0
100
AcDbTrace
 10
556.5919250719
 20
186.7371235735
 30
0.0
 11
559.8939250719
 21
186.2291235735
 31
0.0
 12
559.8939250719
 22
187.2451235735
 32
0.0
 13
559.8939250719
 23
187.2451235735
 33
0.0
  0
SOLID
  5
2F1
330
2ED
100
AcDbEntity
  8
SLD-0_0
100
AcDbTrace
 10
605.5919250719
 20
186.7371235735
 30
0.0
 11
602.2899250719
 21
187.2451235735
 31
0.0
 12
602.2899250719
 22
186.2291235735
 32
0.0
 13
602.2899250719
 23
186.2291235735
 33
0.0
  0
LINE
  5
2F2
330
2ED
100
AcDbEntity
  8
SLD-0_0
100
AcDbLine
 10
556.5919250719
 20
195.7371235735
 30
0.0
 11
556.5919250719
 21
185.7371235735
 31
0.0
  0
LINE
  5
2F3
330
2ED
100
AcDbEntity
  8
SLD-0_0
100
AcDbLine
 10
605.5919250719
 20
195.7371235735
 30
0.0
 11
605.5919250719
 21
185.7371235735
 31
0.0
  0
LINE
  5
2F4
330
2ED
100
AcDbEntity
  8
SLD-0_0
100
AcDbLine
 10
556.5919250719
 20
186.7371235735
 30
0.0
 11
605.5919250719
 21
186.7371235735
 31
0.0
  0
MTEXT
  5
2F5
330
2ED
100
AcDbEntity
  8
SLD-0_0
100
AcDbMText
 10
579.4568755095
 20
191.2488606627
 30
0.0
 40
3.5
 41
0.0
 71
     1
 72
     1
  1
49
  7
SLDTEXTSTYLE0
 73
     1
 44
1.0
  0
ENDBLK
  5
2EF
330
2ED
100
AcDbEntity
  8
0
100
AcDbBlockEnd
  0
BLOCK
  5
2F8
330
2F7
100
AcDbEntity
  8
0
100
AcDbBlockBegin
  2
_D_15
 70
     0
 10
0.0
 20
0.0
 30
0.0
  3
_D_15
  1

  0
SOLID
  5
2FA
330
2F7
100
AcDbEntity
  8
SLD-0_0
100
AcDbTrace
 10
605.5919250719
 20
186.7371235735
 30
0.0
 11
608.8939250719
 21
186.2291235735
 31
0.0
 12
608.8939250719
 22
187.2451235735
 32
0.0
 13
608.8939250719
 23
187.2451235735
 33
0.0
  0
SOLID
  5
2FB
330
2F7
100
AcDbEntity
  8
SLD-0_0
100
AcDbTrace
 10
617.5919250719
 20
186.7371235735
 30
0.0
 11
614.2899250719
 21
187.2451235735
 31
0.0
 12
614.2899250719
 22
186.2291235735
 32
0.0
 13
614.2899250719
 23
186.2291235735
 33
0.0
  0
LINE
  5
2FC
330
2F7
100
AcDbEntity
  8
SLD-0_0
100
AcDbLine
 10
605.5919250719
 20
195.7371235735
 30
0.0
 11
605.5919250719
 21
185.7371235735
 31
0.0
  0
LINE
  5
2FD
330
2F7
100
AcDbEntity
  8
SLD-0_0
100
AcDbLine
 10
617.5919250719
 20
195.7371235735
 30
0.0
 11
617.5919250719
 21
185.7371235735
 31
0.0
  0
LINE
  5
2FE
330
2F7
100
AcDbEntity
  8
SLD-0_0
100
AcDbLine
 10
605.5919250719
 20
186.7371235735
 30
0.0
 11
617.5919250719
 21
186.7371235735
 31
0.0
  0
LINE
  5
2FF
330
2F7
100
AcDbEntity
  8
SLD-0_0
100
AcDbLine
 10
617.5919250719
 20
186.7371235735
 30
0.0
 11
640.9863692514
 21
186.7371235735
 31
0.0
  0
MTEXT
  5
300
330
2F7
100
AcDbEntity
  8
SLD-0_0
100
AcDbMText
 10
635.6391471617
 20
191.2488606627
 30
0.0
 40
3.5
 41
0.0
 71
     1
 72
     1
  1
12
  7
SLDTEXTSTYLE0
 73
     1
 44
1.0
  0
ENDBLK
  5
2F9
330
2F7
100
AcDbEntity
  8
0
100
AcDbBlockEnd
  0
BLOCK
  5
303
330
302
100
AcDbEntity
  8
0
100
AcDbBlockBegin
  2
_D_16
 70
     0
 10
0.0
 20
0.0
 30
0.0
  3
_D_16
  1

  0
SOLID
  5
305
330
302
100
AcDbEntity
  8
SLD-0_0
100
AcDbTrace
 10
393.5919250719
 20
299.0371235735
 30
0.0
 11
393.0839250719
 21
295.7351235735
 31
0.0
 12
394.0999250719
 22
295.7351235735
 32
0.0
 13
394.0999250719
 23
295.7351235735
 33
0.0
  0
SOLID
  5
306
330
302
100
AcDbEntity
  8
SLD-0_0
100
AcDbTrace
 10
393.5919250719
 20
196.7371235735
 30
0.0
 11
394.0999250719
 21
200.0391235735
 31
0.0
 12
393.0839250719
 22
200.0391235735
 32
0.0
 13
393.0839250719
 23
200.0391235735
 33
0.0
  0
LINE
  5
307
330
302
100
AcDbEntity
  8
SLD-0_0
100
AcDbLine
 10
427.812826646
 20
299.0371235735
 30
0.0
 11
392.5919250719
 21
299.0371235735
 31
0.0
  0
LINE
  5
308
330
302
100
AcDbEntity
  8
SLD-0_0
100
AcDbLine
 10
463.5919250721
 20
196.7371235735
 30
0.0
 11
392.5919250719
 21
196.7371235735
 31
0.0
  0
LINE
  5
309
330
302
100
AcDbEntity
  8
SLD-0_0
100
AcDbLine
 10
393.5919250719
 20
299.0371235735
 30
0.0
 11
393.5919250719
 21
196.7371235735
 31
0.0
  0
MTEXT
  5
30A
330
302
100
AcDbEntity
  8
SLD-0_0
100
AcDbMText
 10
389.0801879827
 20
240.5346932
 30
0.0
 40
3.5
 41
0.0
 71
     1
 72
     1
  1
102.30
  7
SLDTEXTSTYLE0
 11
-7.044195017643634E-15
 21
1.0
 31
0.0
 73
     1
 44
1.0
  0
ENDBLK
  5
304
330
302
100
AcDbEntity
  8
0
100
AcDbBlockEnd
  0
BLOCK
  5
30D
330
30C
100
AcDbEntity
  8
0
100
AcDbBlockBegin
  2
_D_17
 70
     0
 10
0.0
 20
0.0
 30
0.0
  3
_D_17
  1

  0
SOLID
  5
30F
330
30C
100
AcDbEntity
  8
SLD-0_0
100
AcDbTrace
 10
386.5919250719
 20
529.2371235735
 30
0.0
 11
386.0839250719
 21
525.9351235735
 31
0.0
 12
387.0999250719
 22
525.9351235735
 32
0.0
 13
387.0999250719
 23
525.9351235735
 33
0.0
  0
SOLID
  5
310
330
30C
100
AcDbEntity
  8
SLD-0_0
100
AcDbTrace
 10
386.5919250719
 20
399.2371235735
 30
0.0
 11
387.0999250719
 21
402.5391235735
 31
0.0
 12
386.0839250719
 22
402.5391235735
 32
0.0
 13
386.0839250719
 23
402.5391235735
 33
0.0
  0
LINE
  5
311
330
30C
100
AcDbEntity
  8
SLD-0_0
100
AcDbLine
 10
453.0919250719
 20
529.2371235735
 30
0.0
 11
385.5919250719
 21
529.2371235735
 31
0.0
  0
LINE
  5
312
330
30C
100
AcDbEntity
  8
SLD-0_0
100
AcDbLine
 10
453.0919250719
 20
399.2371235735
 30
0.0
 11
385.5919250719
 21
399.2371235735
 31
0.0
  0
LINE
  5
313
330
30C
100
AcDbEntity
  8
SLD-0_0
100
AcDbLine
 10
386.5919250719
 20
529.2371235735
 30
0.0
 11
386.5919250719
 21
399.2371235735
 31
0.0
  0
MTEXT
  5
314
330
30C
100
AcDbEntity
  8
SLD-0_0
100
AcDbMText
 10
382.0801879827
 20
460.2267070061
 30
0.0
 40
3.5
 41
0.0
 71
     1
 72
     1
  1
130
  7
SLDTEXTSTYLE0
 11
-7.044195017643634E-15
 21
1.0
 31
0.0
 73
     1
 44
1.0
  0
ENDBLK
  5
30E
330
30C
100
AcDbEntity
  8
0
100
AcDbBlockEnd
  0
BLOCK
  5
317
330
316
100
AcDbEntity
  8
0
100
AcDbBlockBegin
  2
_D_18
 70
     0
 10
0.0
 20
0.0
 30
0.0
  3
_D_18
  1

  0
SOLID
  5
319
330
316
100
AcDbEntity
  8
SLD-0_0
100
AcDbTrace
 10
393.5919250719
 20
516.4871235735
 30
0.0
 11
393.0839250719
 21
513.1851235735
 31
0.0
 12
394.0999250719
 22
513.1851235735
 32
0.0
 13
394.0999250719
 23
513.1851235735
 33
0.0
  0
SOLID
  5
31A
330
316
100
AcDbEntity
  8
SLD-0_0
100
AcDbTrace
 10
393.5919250719
 20
411.9871235735
 30
0.0
 11
394.0999250719
 21
415.2891235735
 31
0.0
 12
393.0839250719
 22
415.2891235735
 32
0.0
 13
393.0839250719
 23
415.2891235735
 33
0.0
  0
LINE
  5
31B
330
316
100
AcDbEntity
  8
SLD-0_0
100
AcDbLine
 10
441.6419250719
 20
516.4871235735
 30
0.0
 11
392.5919250719
 21
516.4871235735
 31
0.0
  0
LINE
  5
31C
330
316
100
AcDbEntity
  8
SLD-0_0
100
AcDbLine
 10
441.6419250719
 20
411.9871235735
 30
0.0
 11
392.5919250719
 21
411.9871235735
 31
0.0
  0
LINE
  5
31D
330
316
100
AcDbEntity
  8
SLD-0_0
100
AcDbLine
 10
393.5919250719
 20
516.4871235735
 30
0.0
 11
393.5919250719
 21
411.9871235735
 31
0.0
  0
MTEXT
  5
31E
330
316
100
AcDbEntity
  8
SLD-0_0
100
AcDbMText
 10
389.0801879827
 20
456.8846932
 30
0.0
 40
3.5
 41
0.0
 71
     1
 72
     1
  1
104.50
  7
SLDTEXTSTYLE0
 11
-7.044195017643634E-15
 21
1.0
 31
0.0
 73
     1
 44
1.0
  0
ENDBLK
  5
318
330
316
100
AcDbEntity
  8
0
100
AcDbBlockEnd
  0
BLOCK
  5
321
330
320
100
AcDbEntity
  8
0
100
AcDbBlockBegin
  2
_D_19
 70
     0
 10
0.0
 20
0.0
 30
0.0
  3
_D_19
  1

  0
SOLID
  5
323
330
320
100
AcDbEntity
  8
SLD-0_0
100
AcDbTrace
 10
567.0919250719
 20
557.2371235735
 30
0.0
 11
563.7899250719
 21
557.7451235735
 31
0.0
 12
563.7899250719
 22
556.7291235735
 32
0.0
 13
563.7899250719
 23
556.7291235735
 33
0.0
  0
SOLID
  5
324
330
320
100
AcDbEntity
  8
SLD-0_0
100
AcDbTrace
 10
454.0919250719
 20
557.2371235735
 30
0.0
 11
457.3939250719
 21
556.7291235735
 31
0.0
 12
457.3939250719
 22
557.7451235735
 32
0.0
 13
457.3939250719
 23
557.7451235735
 33
0.0
  0
LINE
  5
325
330
320
100
AcDbEntity
  8
SLD-0_0
100
AcDbLine
 10
567.0919250719
 20
530.2371235735
 30
0.0
 11
567.0919250719
 21
558.2371235735
 31
0.0
  0
LINE
  5
326
330
320
100
AcDbEntity
  8
SLD-0_0
100
AcDbLine
 10
454.0919250719
 20
530.2371235735
 30
0.0
 11
454.0919250719
 21
558.2371235735
 31
0.0
  0
LINE
  5
327
330
320
100
AcDbEntity
  8
SLD-0_0
100
AcDbLine
 10
567.0919250719
 20
557.2371235735
 30
0.0
 11
454.0919250719
 21
557.2371235735
 31
0.0
  0
MTEXT
  5
328
330
320
100
AcDbEntity
  8
SLD-0_0
100
AcDbMText
 10
506.5815085046
 20
561.7488606627
 30
0.0
 40
3.5
 41
0.0
 71
     1
 72
     1
  1
113
  7
SLDTEXTSTYLE0
 73
     1
 44
1.0
  0
ENDBLK
  5
322
330
320
100
AcDbEntity
  8
0
100
AcDbBlockEnd
  0
BLOCK
  5
32B
330
32A
100
AcDbEntity
  8
0
100
AcDbBlockBegin
  2
_D_20
 70
     0
 10
0.0
 20
0.0
 30
0.0
  3
_D_20
  1

  0
SOLID
  5
32D
330
32A
100
AcDbEntity
  8
SLD-0_0
100
AcDbTrace
 10
447.2419250719
 20
564.2371235735
 30
0.0
 11
450.5439250719
 21
563.7291235735
 31
0.0
 12
450.5439250719
 22
564.7451235735
 32
0.0
 13
450.5439250719
 23
564.7451235735
 33
0.0
  0
SOLID
  5
32E
330
32A
100
AcDbEntity
  8
SLD-0_0
100
AcDbTrace
 10
573.9419250719
 20
564.2371235735
 30
0.0
 11
570.6399250719
 21
564.7451235735
 31
0.0
 12
570.6399250719
 22
563.7291235735
 32
0.0
 13
570.6399250719
 23
563.7291235735
 33
0.0
  0
LINE
  5
32F
330
32A
100
AcDbEntity
  8
SLD-0_0
100
AcDbLine
 10
447.2419250719
 20
522.0871235735
 30
0.0
 11
447.2419250719
 21
565.2371235735
 31
0.0
  0
LINE
  5
330
330
32A
100
AcDbEntity
  8
SLD-0_0
100
AcDbLine
 10
573.9419250719
 20
522.0871235735
 30
0.0
 11
573.9419250719
 21
565.2371235735
 31
0.0
  0
LINE
  5
331
330
32A
100
AcDbEntity
  8
SLD-0_0
100
AcDbLine
 10
447.2419250719
 20
564.2371235735
 30
0.0
 11
573.9419250719
 21
564.2371235735
 31
0.0
  0
MTEXT
  5
332
330
32A
100
AcDbEntity
  8
SLD-0_0
100
AcDbMText
 10
503.2394946985
 20
568.7488606627
 30
0.0
 40
3.5
 41
0.0
 71
     1
 72
     1
  1
126.70
  7
SLDTEXTSTYLE0
 73
     1
 44
1.0
  0
ENDBLK
  5
32C
330
32A
100
AcDbEntity
  8
0
100
AcDbBlockEnd
  0
BLOCK
  5
336
330
335
100
AcDbEntity
  8
0
100
AcDbBlockBegin
  2
_D_21
 70
     0
 10
0.0
 20
0.0
 30
0.0
  3
_D_21
  1

  0
SOLID
  5
338
330
335
100
AcDbEntity
  8
SLD-0_0
100
AcDbTrace
 10
386.5919250719
 20
529.2371235735
 30
0.0
 11
386.0839250719
 21
525.9351235735
 31
0.0
 12
387.0999250719
 22
525.9351235735
 32
0.0
 13
387.0999250719
 23
525.9351235735
 33
0.0
  0
SOLID
  5
339
330
335
100
AcDbEntity
  8
SLD-0_0
100
AcDbTrace
 10
386.5919250719
 20
547.2371235735
 30
0.0
 11
387.0999250719
 21
550.5391235735
 31
0.0
 12
386.0839250719
 22
550.5391235735
 32
0.0
 13
386.0839250719
 23
550.5391235735
 33
0.0
  0
LINE
  5
33A
330
335
100
AcDbEntity
  8
SLD-0_0
100
AcDbLine
 10
453.0919250719
 20
529.2371235735
 30
0.0
 11
385.5919250719
 21
529.2371235735
 31
0.0
  0
LINE
  5
33B
330
335
100
AcDbEntity
  8
SLD-0_0
100
AcDbLine
 10
402.5919250719
 20
547.2371235735
 30
0.0
 11
385.5919250719
 21
547.2371235735
 31
0.0
  0
LINE
  5
33C
330
335
100
AcDbEntity
  8
SLD-0_0
100
AcDbLine
 10
386.5919250719
 20
529.2371235735
 30
0.0
 11
386.5919250719
 21
522.8871235735
 31
0.0
  0
LINE
  5
33D
330
335
100
AcDbEntity
  8
SLD-0_0
100
AcDbLine
 10
386.5919250719
 20
529.2371235735
 30
0.0
 11
386.5919250719
 21
547.2371235735
 31
0.0
  0
LINE
  5
33E
330
335
100
AcDbEntity
  8
SLD-0_0
100
AcDbLine
 10
386.5919250719
 20
547.2371235735
 30
0.0
 11
386.5919250719
 21
553.5871235735
 31
0.0
  0
MTEXT
  5
33F
330
335
100
AcDbEntity
  8
SLD-0_0
100
AcDbMText
 10
382.0801879827
 20
534.4955690268
 30
0.0
 40
3.5
 41
0.0
 71
     1
 72
     1
  1
18
  7
SLDTEXTSTYLE0
 11
6.123233995736766E-17
 21
1.0
 31
0.0
 73
     1
 44
1.0
  0
ENDBLK
  5
337
330
335
100
AcDbEntity
  8
0
100
AcDbBlockEnd
  0
BLOCK
  5
342
330
341
100
AcDbEntity
  8
0
100
AcDbBlockBegin
  2
_D_22
 70
     0
 10
0.0
 20
0.0
 30
0.0
  3
_D_22
  1

  0
SOLID
  5
344
330
341
100
AcDbEntity
  8
SLD-0_0
100
AcDbTrace
 10
403.5919250719
 20
181.2833315429
 30
0.0
 11
406.8939250719
 21
180.7753315429
 31
0.0
 12
406.8939250719
 22
181.7913315429
 32
0.0
 13
406.8939250719
 23
181.7913315429
 33
0.0
  0
SOLID
  5
345
330
341
100
AcDbEntity
  8
SLD-0_0
100
AcDbTrace
 10
617.5919250719
 20
181.2833315429
 30
0.0
 11
614.2899250719
 21
181.7913315429
 31
0.0
 12
614.2899250719
 22
180.7753315429
 32
0.0
 13
614.2899250719
 23
180.7753315429
 33
0.0
  0
LINE
  5
346
330
341
100
AcDbEntity
  8
SLD-0_0
100
AcDbLine
 10
403.5919250719
 20
195.7371235735
 30
0.0
 11
403.5919250719
 21
180.2833315429
 31
0.0
  0
LINE
  5
347
330
341
100
AcDbEntity
  8
SLD-0_0
100
AcDbLine
 10
617.5919250719
 20
195.7371235735
 30
0.0
 11
617.5919250719
 21
180.2833315429
 31
0.0
  0
LINE
  5
348
330
341
100
AcDbEntity
  8
SLD-0_0
100
AcDbLine
 10
403.5919250719
 20
181.2833315429
 30
0.0
 11
617.5919250719
 21
181.2833315429
 31
0.0
  0
MTEXT
  5
349
330
341
100
AcDbEntity
  8
SLD-0_0
100
AcDbMText
 10
507.5092332863
 20
185.7950686321
 30
0.0
 40
3.5
 41
0.0
 71
     1
 72
     1
  1
214
  7
SLDTEXTSTYLE0
 73
     1
 44
1.0
  0
ENDBLK
  5
343
330
341
100
AcDbEntity
  8
0
100
AcDbBlockEnd
  0
BLOCK
  5
34D
330
34C
100
AcDbEntity
  8
0
100
AcDbBlockBegin
  2
_D_23
 70
     0
 10
0.0
 20
0.0
 30
0.0
  3
_D_23
  1

  0
SOLID
  5
34F
330
34C
100
AcDbEntity
  8
SLD-0_0
100
AcDbTrace
 10
445.5324183697
 20
269.9884904271
 30
0.0
 11
448.7546386753
 21
270.8708533358
 31
0.0
 12
448.3404153591
 22
271.7985790735
 32
0.0
 13
448.3404153591
 23
271.7985790735
 33
0.0
  0
SOLID
  5
350
330
34C
100
AcDbEntity
  8
SLD-0_0
100
AcDbTrace
 10
575.651431774
 20
328.0857567198
 30
0.0
 11
572.4292114685
 21
327.2033938111
 31
0.0
 12
572.8434347847
 22
326.2756680735
 32
0.0
 13
572.8434347847
 23
326.2756680735
 33
0.0
  0
LINE
  5
351
330
34C
100
AcDbEntity
  8
SLD-0_0
100
AcDbLine
 10
575.651431774
 20
328.0857567198
 30
0.0
 11
445.5324183697
 21
269.9884904271
 31
0.0
  0
MTEXT
  5
352
330
34C
100
AcDbEntity
  8
SLD-0_0
100
AcDbMText
 10
528.9198172072
 20
312.1501999837
 30
0.0
 40
3.5
 41
0.0
 71
     1
 72
     1
  1
%%c
  7
SLDTEXTSTYLE0
 11
0.9131158835390663
 21
0.4077001143348754
 31
0.0
 73
     1
 44
1.0
  0
MTEXT
  5
353
330
34C
100
AcDbEntity
  8
SLD-0_0
100
AcDbMText
 10
533.5694938972
 20
314.2528677932
 30
0.0
 40
3.5
 41
0.0
 71
     1
 72
     1
  1
142.50
  7
SLDTEXTSTYLE0
 11
0.9131158835390663
 21
0.4077001143348754
 31
0.0
 73
     1
 44
1.0
  0
ENDBLK
  5
34E
330
34C
100
AcDbEntity
  8
0
100
AcDbBlockEnd
  0
BLOCK
  5
357
330
356
100
AcDbEntity
  8
0
100
AcDbBlockBegin
  2
_D_24
 70
     0
 10
0.0
 20
0.0
 30
0.0
  3
_D_24
  1

  0
SOLID
  5
359
330
356
100
AcDbEntity
  8
SLD-0_0
100
AcDbTrace
 10
581.2201487061
 20
267.132515344
 30
0.0
 11
578.4200602744
 21
268.9548141051
 31
0.0
 12
578.0018011523
 22
268.0289008765
 32
0.0
 13
578.0018011523
 23
268.0289008765
 33
0.0
  0
SOLID
  5
35A
330
356
100
AcDbEntity
  8
SLD-0_0
100
AcDbTrace
 10
439.9637014377
 20
330.9417318029
 30
0.0
 11
442.7637898694
 21
329.1194330419
 31
0.0
 12
443.1820489915
 22
330.0453462704
 32
0.0
 13
443.1820489915
 23
330.0453462704
 33
0.0
  0
LINE
  5
35B
330
356
100
AcDbEntity
  8
SLD-0_0
100
AcDbLine
 10
439.9637014377
 20
330.9417318029
 30
0.0
 11
581.2201487061
 21
267.132515344
 31
0.0
  0
MTEXT
  5
35C
330
356
100
AcDbEntity
  8
SLD-0_0
100
AcDbMText
 10
466.6226900522
 20
323.8438156981
 30
0.0
 40
3.5
 41
0.0
 71
     1
 72
     1
  1
%%c
  7
SLDTEXTSTYLE0
 11
0.911331917860919
 21
-0.4116723642509162
 31
0.0
 73
     1
 44
1.0
  0
MTEXT
  5
35D
330
356
100
AcDbEntity
  8
SLD-0_0
100
AcDbMText
 10
471.2831786378
 20
321.7652220914
 30
0.0
 40
3.5
 41
0.0
 71
     1
 72
     1
  1
155
  7
SLDTEXTSTYLE0
 11
0.911331917860919
 21
-0.4116723642509162
 31
0.0
 73
     1
 44
1.0
  0
ENDBLK
  5
358
330
356
100
AcDbEntity
  8
0
100
AcDbBlockEnd
  0
BLOCK
  5
361
330
360
100
AcDbEntity
  8
0
100
AcDbBlockBegin
  2
_NONE
 70
     0
 10
0.0
 20
0.0
 30
0.0
  3
_NONE
  1

  0
ENDBLK
  5
362
330
360
100
AcDbEntity
  8
0
100
AcDbBlockEnd
  0
BLOCK
  5
364
330
363
100
AcDbEntity
  8
0
100
AcDbBlockBegin
  2
_D_25
 70
     0
 10
0.0
 20
0.0
 30
0.0
  3
_D_25
  1

  0
SOLID
  5
366
330
363
100
AcDbEntity
  8
SLD-0_0
100
AcDbTrace
 10
453.3610357618
 20
354.7623162692
 30
0.0
 11
450.4554081664
 21
356.4111328984
 31
0.0
 12
450.0941743863
 22
355.4615192105
 32
0.0
 13
450.0941743863
 23
355.4615192105
 33
0.0
  0
LINE
  5
367
330
363
100
AcDbEntity
  8
SLD-0_0
100
AcDbLine
 10
453.3610357618
 20
354.7623162692
 30
0.0
 11
435.4328018684
 21
361.5822302853
 31
0.0
  0
LINE
  5
368
330
363
100
AcDbEntity
  8
SLD-0_0
100
AcDbLine
 10
458.221263298
 20
352.9134819617
 30
0.0
 11
453.3610357618
 21
354.7623162692
 31
0.0
  0
LINE
  5
369
330
363
100
AcDbEntity
  8
SLD-0_0
100
AcDbLine
 10
435.4328018684
 20
361.5822302853
 30
0.0
 11
419.3847121317
 21
361.5822302853
 31
0.0
  0
MTEXT
  5
36A
330
363
100
AcDbEntity
  8
SLD-0_0
100
AcDbMText
 10
419.3847121317
 20
366.0939673745
 30
0.0
 40
3.5
 41
0.0
 71
     1
 72
     1
  1
%%c
  7
SLDTEXTSTYLE0
 73
     1
 44
1.0
  0
MTEXT
  5
36B
330
363
100
AcDbEntity
  8
SLD-0_0
100
AcDbMText
 10
424.487663677
 20
366.118273031
 30
0.0
 40
3.5
 41
0.0
 71
     1
 72
     1
  1
5.20
  7
SLDTEXTSTYLE0
 73
     1
 44
1.0
  0
ENDBLK
  5
365
330
363
100
AcDbEntity
  8
0
100
AcDbBlockEnd
  0
BLOCK
  5
36E
330
36D
100
AcDbEntity
  8
0
100
AcDbBlockBegin
  2
_D_26
 70
     0
 10
0.0
 20
0.0
 30
0.0
  3
_D_26
  1

  0
SOLID
  5
370
330
36D
100
AcDbEntity
  8
SLD-0_0
100
AcDbTrace
 10
575.3388946404
 20
518.0550763867
 30
0.0
 11
577.914758233
 21
520.1825619337
 31
0.0
 12
577.156167729
 22
520.8584291154
 32
0.0
 13
577.156167729
 23
520.8584291154
 33
0.0
  0
LINE
  5
371
330
36D
100
AcDbEntity
  8
SLD-0_0
100
AcDbLine
 10
575.3388946404
 20
518.0550763867
 30
0.0
 11
589.3698306931
 21
533.8033404522
 31
0.0
  0
LINE
  5
372
330
36D
100
AcDbEntity
  8
SLD-0_0
100
AcDbLine
 10
572.5449555034
 20
514.9191707602
 30
0.0
 11
575.3388946404
 21
518.0550763867
 31
0.0
  0
LINE
  5
373
330
36D
100
AcDbEntity
  8
SLD-0_0
100
AcDbLine
 10
589.3698306931
 20
533.8033404522
 30
0.0
 11
605.4179204298
 21
533.8033404522
 31
0.0
  0
MTEXT
  5
374
330
36D
100
AcDbEntity
  8
SLD-0_0
100
AcDbMText
 10
590.9573306931
 20
538.3150775414
 30
0.0
 40
3.5
 41
0.0
 71
     1
 72
     1
  1
%%c
  7
SLDTEXTSTYLE0
 73
     1
 44
1.0
  0
MTEXT
  5
375
330
36D
100
AcDbEntity
  8
SLD-0_0
100
AcDbMText
 10
596.0602822384
 20
538.3393831979
 30
0.0
 40
3.5
 41
0.0
 71
     1
 72
     1
  1
4.20
  7
SLDTEXTSTYLE0
 73
     1
 44
1.0
  0
ENDBLK
  5
36F
330
36D
100
AcDbEntity
  8
0
100
AcDbBlockEnd
  0
BLOCK
  5
377
330
376
100
AcDbEntity
  8
0
100
AcDbBlockBegin
  2
SW_CENTERMARKSYMBOL_0
 70
     0
 10
0.0
 20
0.0
 30
0.0
  3
SW_CENTERMARKSYMBOL_0
  1

  0
LINE
  5
379
330
376
100
AcDbEntity
  8
SLD-0_0
 62
     0
100
AcDbLine
 10
0.0
 20
0.0
 30
0.0
 11
0.0
 21
2.5
 31
0.0
  0
LINE
  5
37A
330
376
100
AcDbEntity
  8
SLD-0_0
 62
     0
100
AcDbLine
 10
0.0
 20
0.0
 30
0.0
 11
-2.5
 21
0.0
 31
0.0
  0
LINE
  5
37B
330
376
100
AcDbEntity
  8
SLD-0_0
 62
     0
100
AcDbLine
 10
0.0
 20
0.0
 30
0.0
 11
0.0
 21
-2.5
 31
0.0
  0
LINE
  5
37C
330
376
100
AcDbEntity
  8
SLD-0_0
 62
     0
100
AcDbLine
 10
0.0
 20
0.0
 30
0.0
 11
2.5
 21
0.0
 31
0.0
  0
LINE
  5
37D
330
376
100
AcDbEntity
  8
SLD-0_0
 62
     0
100
AcDbLine
 10
0.0
 20
2.5
 30
0.0
 11
0.0
 21
4.6
 31
0.0
  0
LINE
  5
37E
330
376
100
AcDbEntity
  8
SLD-0_0
 62
     0
100
AcDbLine
 10
-2.5
 20
0.0
 30
0.0
 11
-4.6
 21
0.0
 31
0.0
  0
LINE
  5
37F
330
376
100
AcDbEntity
  8
SLD-0_0
 62
     0
100
AcDbLine
 10
0.0
 20
-2.5
 30
0.0
 11
0.0
 21
-4.6
 31
0.0
  0
LINE
  5
380
330
376
100
AcDbEntity
  8
SLD-0_0
 62
     0
100
AcDbLine
 10
2.5
 20
0.0
 30
0.0
 11
4.6
 21
0.0
 31
0.0
  0
ENDBLK
  5
378
330
376
100
AcDbEntity
  8
0
100
AcDbBlockEnd
  0
BLOCK
  5
383
330
382
100
AcDbEntity
  8
0
100
AcDbBlockBegin
  2
SW_CENTERMARKSYMBOL_1
 70
     0
 10
0.0
 20
0.0
 30
0.0
  3
SW_CENTERMARKSYMBOL_1
  1

  0
LINE
  5
385
330
382
100
AcDbEntity
  8
SLD-0_0
 62
     0
100
AcDbLine
 10
0.0
 20
0.0
 30
0.0
 11
0.0
 21
2.5
 31
0.0
  0
LINE
  5
386
330
382
100
AcDbEntity
  8
SLD-0_0
 62
     0
100
AcDbLine
 10
0.0
 20
0.0
 30
0.0
 11
-2.5
 21
0.0
 31
0.0
  0
LINE
  5
387
330
382
100
AcDbEntity
  8
SLD-0_0
 62
     0
100
AcDbLine
 10
0.0
 20
0.0
 30
0.0
 11
0.0
 21
-2.5
 31
0.0
  0
LINE
  5
388
330
382
100
AcDbEntity
  8
SLD-0_0
 62
     0
100
AcDbLine
 10
0.0
 20
0.0
 30
0.0
 11
2.5
 21
0.0
 31
0.0
  0
LINE
  5
389
330
382
100
AcDbEntity
  8
SLD-0_0
 62
     0
100
AcDbLine
 10
0.0
 20
2.5
 30
0.0
 11
0.0
 21
4.6
 31
0.0
  0
LINE
  5
38A
330
382
100
AcDbEntity
  8
SLD-0_0
 62
     0
100
AcDbLine
 10
-2.5
 20
0.0
 30
0.0
 11
-4.6
 21
0.0
 31
0.0
  0
LINE
  5
38B
330
382
100
AcDbEntity
  8
SLD-0_0
 62
     0
100
AcDbLine
 10
0.0
 20
-2.5
 30
0.0
 11
0.0
 21
-4.6
 31
0.0
  0
LINE
  5
38C
330
382
100
AcDbEntity
  8
SLD-0_0
 62
     0
100
AcDbLine
 10
2.5
 20
0.0
 30
0.0
 11
4.6
 21
0.0
 31
0.0
  0
ENDBLK
  5
384
330
382
100
AcDbEntity
  8
0
100
AcDbBlockEnd
  0
BLOCK
  5
38F
330
38E
100
AcDbEntity
  8
0
100
AcDbBlockBegin
  2
SW_CENTERMARKSYMBOL_2
 70
     0
 10
0.0
 20
0.0
 30
0.0
  3
SW_CENTERMARKSYMBOL_2
  1

  0
LINE
  5
391
330
38E
100
AcDbEntity
  8
SLD-0_0
 62
     0
100
AcDbLine
 10
0.0
 20
0.0
 30
0.0
 11
0.0
 21
2.5
 31
0.0
  0
LINE
  5
392
330
38E
100
AcDbEntity
  8
SLD-0_0
 62
     0
100
AcDbLine
 10
0.0
 20
0.0
 30
0.0
 11
-2.5
 21
0.0
 31
0.0
  0
LINE
  5
393
330
38E
100
AcDbEntity
  8
SLD-0_0
 62
     0
100
AcDbLine
 10
0.0
 20
0.0
 30
0.0
 11
0.0
 21
-2.5
 31
0.0
  0
LINE
  5
394
330
38E
100
AcDbEntity
  8
SLD-0_0
 62
     0
100
AcDbLine
 10
0.0
 20
0.0
 30
0.0
 11
2.5
 21
0.0
 31
0.0
  0
LINE
  5
395
330
38E
100
AcDbEntity
  8
SLD-0_0
 62
     0
100
AcDbLine
 10
0.0
 20
2.5
 30
0.0
 11
0.0
 21
4.6
 31
0.0
  0
LINE
  5
396
330
38E
100
AcDbEntity
  8
SLD-0_0
 62
     0
100
AcDbLine
 10
-2.5
 20
0.0
 30
0.0
 11
-4.6
 21
0.0
 31
0.0
  0
LINE
  5
397
330
38E
100
AcDbEntity
  8
SLD-0_0
 62
     0
100
AcDbLine
 10
0.0
 20
-2.5
 30
0.0
 11
0.0
 21
-4.6
 31
0.0
  0
LINE
  5
398
330
38E
100
AcDbEntity
  8
SLD-0_0
 62
     0
100
AcDbLine
 10
2.5
 20
0.0
 30
0.0
 11
4.6
 21
0.0
 31
0.0
  0
ENDBLK
  5
390
330
38E
100
AcDbEntity
  8
0
100
AcDbBlockEnd
  0
BLOCK
  5
39B
330
39A
100
AcDbEntity
  8
0
100
AcDbBlockBegin
  2
SW_CENTERMARKSYMBOL_3
 70
     0
 10
0.0
 20
0.0
 30
0.0
  3
SW_CENTERMARKSYMBOL_3
  1

  0
LINE
  5
39D
330
39A
100
AcDbEntity
  8
SLD-0_0
 62
     0
100
AcDbLine
 10
0.0
 20
0.0
 30
0.0
 11
0.0
 21
2.5
 31
0.0
  0
LINE
  5
39E
330
39A
100
AcDbEntity
  8
SLD-0_0
 62
     0
100
AcDbLine
 10
0.0
 20
0.0
 30
0.0
 11
-2.5
 21
0.0
 31
0.0
  0
LINE
  5
39F
330
39A
100
AcDbEntity
  8
SLD-0_0
 62
     0
100
AcDbLine
 10
0.0
 20
0.0
 30
0.0
 11
0.0
 21
-2.5
 31
0.0
  0
LINE
  5
3A0
330
39A
100
AcDbEntity
  8
SLD-0_0
 62
     0
100
AcDbLine
 10
0.0
 20
0.0
 30
0.0
 11
2.5
 21
0.0
 31
0.0
  0
LINE
  5
3A1
330
39A
100
AcDbEntity
  8
SLD-0_0
 62
     0
100
AcDbLine
 10
0.0
 20
2.5
 30
0.0
 11
0.0
 21
4.6
 31
0.0
  0
LINE
  5
3A2
330
39A
100
AcDbEntity
  8
SLD-0_0
 62
     0
100
AcDbLine
 10
-2.5
 20
0.0
 30
0.0
 11
-4.6
 21
0.0
 31
0.0
  0
LINE
  5
3A3
330
39A
100
AcDbEntity
  8
SLD-0_0
 62
     0
100
AcDbLine
 10
0.0
 20
-2.5
 30
0.0
 11
0.0
 21
-4.6
 31
0.0
  0
LINE
  5
3A4
330
39A
100
AcDbEntity
  8
SLD-0_0
 62
     0
100
AcDbLine
 10
2.5
 20
0.0
 30
0.0
 11
4.6
 21
0.0
 31
0.0
  0
ENDBLK
  5
39C
330
39A
100
AcDbEntity
  8
0
100
AcDbBlockEnd
  0
BLOCK
  5
3A7
330
3A6
100
AcDbEntity
  8
0
100
AcDbBlockBegin
  2
SW_CENTERMARKSYMBOL_4
 70
     0
 10
0.0
 20
0.0
 30
0.0
  3
SW_CENTERMARKSYMBOL_4
  1

  0
ARC
  5
3A9
330
3A6
100
AcDbEntity
  8
SLD-0_0
 62
     0
100
AcDbCircle
 10
54.800775542
 20
-54.800775542
 30
0.0
 40
77.49999999999999
100
AcDbArc
 50
135.0
 51
136.848250952
  0
ARC
  5
3AA
330
3A6
100
AcDbEntity
  8
SLD-0_0
 62
     0
100
AcDbCircle
 10
54.800775542
 20
-54.800775542
 30
0.0
 40
77.49999999999999
100
AcDbArc
 50
133.151749048
 51
135.0
  0
ARC
  5
3AB
330
3A6
100
AcDbEntity
  8
SLD-0_0
 62
     0
100
AcDbCircle
 10
54.800775542
 20
-54.800775542
 30
0.0
 40
77.49999999999997
100
AcDbArc
 50
45.0
 51
46.848250952
  0
ARC
  5
3AC
330
3A6
100
AcDbEntity
  8
SLD-0_0
 62
     0
100
AcDbCircle
 10
54.800775542
 20
-54.800775542
 30
0.0
 40
77.5
100
AcDbArc
 50
43.151749048
 51
45.0
  0
ARC
  5
3AD
330
3A6
100
AcDbEntity
  8
SLD-0_0
 62
     0
100
AcDbCircle
 10
54.800775542
 20
-54.800775542
 30
0.0
 40
77.5
100
AcDbArc
 50
315.0
 51
316.848250952
  0
ARC
  5
3AE
330
3A6
100
AcDbEntity
  8
SLD-0_0
 62
     0
100
AcDbCircle
 10
54.800775542
 20
-54.800775542
 30
0.0
 40
77.49999999999999
100
AcDbArc
 50
313.151749048
 51
315.0
  0
ARC
  5
3AF
330
3A6
100
AcDbEntity
  8
SLD-0_0
 62
     0
100
AcDbCircle
 10
54.800775542
 20
-54.800775542
 30
0.0
 40
77.5
100
AcDbArc
 50
225.0
 51
226.848250952
  0
ARC
  5
3B0
330
3A6
100
AcDbEntity
  8
SLD-0_0
 62
     0
100
AcDbCircle
 10
54.800775542
 20
-54.800775542
 30
0.0
 40
77.49999999999999
100
AcDbArc
 50
223.151749048
 51
225.0
  0
ARC
  5
3B1
330
3A6
100
AcDbEntity
  8
SLD-0_0
 62
     0
100
AcDbCircle
 10
54.800775542
 20
-54.800775542
 30
0.0
 40
77.50000000000001
100
AcDbArc
 50
48.6965019041
 51
131.3034980959
  0
ARC
  5
3B2
330
3A6
100
AcDbEntity
  8
SLD-0_0
 62
     0
100
AcDbCircle
 10
54.800775542
 20
-54.800775542
 30
0.0
 40
77.50000000000006
100
AcDbArc
 50
318.6965019041
 51
41.3034980959
  0
ARC
  5
3B3
330
3A6
100
AcDbEntity
  8
SLD-0_0
 62
     0
100
AcDbCircle
 10
54.800775542
 20
-54.800775542
 30
0.0
 40
77.50000000000001
100
AcDbArc
 50
138.6965019041
 51
221.3034980959
  0
ARC
  5
3B4
330
3A6
100
AcDbEntity
  8
SLD-0_0
 62
     0
100
AcDbCircle
 10
54.800775542
 20
-54.800775542
 30
0.0
 40
77.50000000000004
100
AcDbArc
 50
228.6965019041
 51
311.3034980959
  0
LINE
  5
3B5
330
3A6
100
AcDbEntity
  8
SLD-0_0
 62
     0
100
AcDbLine
 10
0.0
 20
0.0
 30
0.0
 11
-1.767766953
 21
1.767766953
 31
0.0
  0
LINE
  5
3B6
330
3A6
100
AcDbEntity
  8
SLD-0_0
 62
     0
100
AcDbLine
 10
0.0
 20
0.0
 30
0.0
 11
1.767766953
 21
-1.767766953
 31
0.0
  0
LINE
  5
3B7
330
3A6
100
AcDbEntity
  8
SLD-0_0
 62
     0
100
AcDbLine
 10
-3.5355339059
 20
3.5355339059
 30
0.0
 11
-3.6062445841
 21
3.6062445841
 31
0.0
  0
LINE
  5
3B8
330
3A6
100
AcDbEntity
  8
SLD-0_0
 62
     0
100
AcDbLine
 10
3.5355339059
 20
-3.5355339059
 30
0.0
 11
3.6062445841
 21
-3.6062445841
 31
0.0
  0
LINE
  5
3B9
330
3A6
100
AcDbEntity
  8
SLD-0_0
 62
     0
100
AcDbLine
 10
109.6015510839
 20
0.0
 30
0.0
 11
111.3693180369
 21
1.767766953
 31
0.0
  0
LINE
  5
3BA
330
3A6
100
AcDbEntity
  8
SLD-0_0
 62
     0
100
AcDbLine
 10
109.6015510839
 20
0.0
 30
0.0
 11
107.8337841309
 21
-1.767766953
 31
0.0
  0
LINE
  5
3BB
330
3A6
100
AcDbEntity
  8
SLD-0_0
 62
     0
100
AcDbLine
 10
113.1370849898
 20
3.5355339059
 30
0.0
 11
113.207795668
 21
3.6062445841
 31
0.0
  0
LINE
  5
3BC
330
3A6
100
AcDbEntity
  8
SLD-0_0
 62
     0
100
AcDbLine
 10
106.066017178
 20
-3.5355339059
 30
0.0
 11
105.9953064999
 21
-3.6062445841
 31
0.0
  0
LINE
  5
3BD
330
3A6
100
AcDbEntity
  8
SLD-0_0
 62
     0
100
AcDbLine
 10
109.6015510839
 20
-109.6015510839
 30
0.0
 11
111.3693180369
 21
-111.3693180369
 31
0.0
  0
LINE
  5
3BE
330
3A6
100
AcDbEntity
  8
SLD-0_0
 62
     0
100
AcDbLine
 10
109.6015510839
 20
-109.6015510839
 30
0.0
 11
107.8337841309
 21
-107.8337841309
 31
0.0
  0
LINE
  5
3BF
330
3A6
100
AcDbEntity
  8
SLD-0_0
 62
     0
100
AcDbLine
 10
113.1370849898
 20
-113.1370849898
 30
0.0
 11
113.207795668
 21
-113.207795668
 31
0.0
  0
LINE
  5
3C0
330
3A6
100
AcDbEntity
  8
SLD-0_0
 62
     0
100
AcDbLine
 10
106.066017178
 20
-106.066017178
 30
0.0
 11
105.9953064999
 21
-105.9953064999
 31
0.0
  0
LINE
  5
3C1
330
3A6
100
AcDbEntity
  8
SLD-0_0
 62
     0
100
AcDbLine
 10
54.800775542
 20
-54.800775542
 30
0.0
 11
54.800775542
 21
-52.300775542
 31
0.0
  0
LINE
  5
3C2
330
3A6
100
AcDbEntity
  8
SLD-0_0
 62
     0
100
AcDbLine
 10
54.800775542
 20
-54.800775542
 30
0.0
 11
52.300775542
 21
-54.800775542
 31
0.0
  0
LINE
  5
3C3
330
3A6
100
AcDbEntity
  8
SLD-0_0
 62
     0
100
AcDbLine
 10
54.800775542
 20
-54.800775542
 30
0.0
 11
54.800775542
 21
-57.300775542
 31
0.0
  0
LINE
  5
3C4
330
3A6
100
AcDbEntity
  8
SLD-0_0
 62
     0
100
AcDbLine
 10
54.800775542
 20
-54.800775542
 30
0.0
 11
57.300775542
 21
-54.800775542
 31
0.0
  0
LINE
  5
3C5
330
3A6
100
AcDbEntity
  8
SLD-0_0
 62
     0
100
AcDbLine
 10
54.800775542
 20
-49.800775542
 30
0.0
 11
54.800775542
 21
210.7962900909
 31
0.0
  0
LINE
  5
3C6
330
3A6
100
AcDbEntity
  8
SLD-0_0
 62
     0
100
AcDbLine
 10
49.800775542
 20
-54.800775542
 30
0.0
 11
-26.9783228839
 21
-54.800775542
 31
0.0
  0
LINE
  5
3C7
330
3A6
100
AcDbEntity
  8
SLD-0_0
 62
     0
100
AcDbLine
 10
54.800775542
 20
-59.800775542
 30
0.0
 11
54.800775542
 21
-162.9200667779
 31
0.0
  0
LINE
  5
3C8
330
3A6
100
AcDbEntity
  8
SLD-0_0
 62
     0
100
AcDbLine
 10
59.800775542
 20
-54.800775542
 30
0.0
 11
140.3116360802
 21
-54.800775542
 31
0.0
  0
LINE
  5
3C9
330
3A6
100
AcDbEntity
  8
SLD-0_0
 62
     0
100
AcDbLine
 10
0.0
 20
-109.6015510839
 30
0.0
 11
-1.767766953
 21
-111.3693180369
 31
0.0
  0
LINE
  5
3CA
330
3A6
100
AcDbEntity
  8
SLD-0_0
 62
     0
100
AcDbLine
 10
0.0
 20
-109.6015510839
 30
0.0
 11
1.767766953
 21
-107.8337841309
 31
0.0
  0
LINE
  5
3CB
330
3A6
100
AcDbEntity
  8
SLD-0_0
 62
     0
100
AcDbLine
 10
-3.5355339059
 20
-113.1370849898
 30
0.0
 11
-3.6062445841
 21
-113.207795668
 31
0.0
  0
LINE
  5
3CC
330
3A6
100
AcDbEntity
  8
SLD-0_0
 62
     0
100
AcDbLine
 10
3.5355339059
 20
-106.066017178
 30
0.0
 11
3.6062445841
 21
-105.9953064999
 31
0.0
  0
ENDBLK
  5
3A8
330
3A6
100
AcDbEntity
  8
0
100
AcDbBlockEnd
  0
BLOCK
  5
3D5
330
3D4
100
AcDbEntity
  8
0
100
AcDbBlockBegin
  2
_D_27
 70
     0
 10
0.0
 20
0.0
 30
0.0
  3
_D_27
  1

  0
SOLID
  5
3D7
330
3D4
100
AcDbEntity
  8
SLD-0_0
100
AcDbTrace
 10
716.9793581065
 20
441.3844947584
 30
0.0
 11
720.2813581065
 21
440.8764947584
 31
0.0
 12
720.2813581065
 22
441.8924947584
 32
0.0
 13
720.2813581065
 23
441.8924947584
 33
0.0
  0
SOLID
  5
3D8
330
3D4
100
AcDbEntity
  8
SLD-0_0
100
AcDbTrace
 10
764.4741134522
 20
441.3844947584
 30
0.0
 11
761.1721134522
 21
441.8924947584
 31
0.0
 12
761.1721134522
 22
440.8764947584
 32
0.0
 13
761.1721134522
 23
440.8764947584
 33
0.0
  0
LINE
  5
3D9
330
3D4
100
AcDbEntity
  8
SLD-0_0
100
AcDbLine
 10
716.9793581065
 20
450.3844947584
 30
0.0
 11
716.9793581065
 21
440.3844947584
 31
0.0
  0
LINE
  5
3DA
330
3D4
100
AcDbEntity
  8
SLD-0_0
100
AcDbLine
 10
764.4741134522
 20
450.3844947584
 30
0.0
 11
764.4741134522
 21
440.3844947584
 31
0.0
  0
LINE
  5
3DB
330
3D4
100
AcDbEntity
  8
SLD-0_0
100
AcDbLine
 10
716.9793581065
 20
441.3844947584
 30
0.0
 11
764.4741134522
 21
441.3844947584
 31
0.0
  0
MTEXT
  5
3DC
330
3D4
100
AcDbEntity
  8
SLD-0_0
100
AcDbMText
 10
736.5138922899
 20
445.8962318476
 30
0.0
 40
3.5
 41
0.0
 71
     1
 72
     1
  1
47.5
  7
SLDTEXTSTYLE0
 73
     1
 44
1.0
  0
ENDBLK
  5
3D6
330
3D4
100
AcDbEntity
  8
0
100
AcDbBlockEnd
  0
BLOCK
  5
3DF
330
3DE
100
AcDbEntity
  8
0
100
AcDbBlockBegin
  2
_D_28
 70
     0
 10
0.0
 20
0.0
 30
0.0
  3
_D_28
  1

  0
SOLID
  5
3E1
330
3DE
100
AcDbEntity
  8
SLD-0_0
100
AcDbTrace
 10
774.4741134522
 20
451.3844947584
 30
0.0
 11
773.9661134522
 21
448.0824947584
 31
0.0
 12
774.9821134522
 22
448.0824947584
 32
0.0
 13
774.9821134522
 23
448.0824947584
 33
0.0
  0
SOLID
  5
3E2
330
3DE
100
AcDbEntity
  8
SLD-0_0
100
AcDbTrace
 10
774.4741134522
 20
463.3844947584
 30
0.0
 11
774.9821134522
 21
466.6864947584
 31
0.0
 12
773.9661134522
 22
466.6864947584
 32
0.0
 13
773.9661134522
 23
466.6864947584
 33
0.0
  0
LINE
  5
3E3
330
3DE
100
AcDbEntity
  8
SLD-0_0
100
AcDbLine
 10
765.4741134522
 20
451.3844947584
 30
0.0
 11
775.4741134522
 21
451.3844947584
 31
0.0
  0
LINE
  5
3E4
330
3DE
100
AcDbEntity
  8
SLD-0_0
100
AcDbLine
 10
764.4793581065
 20
463.3844947584
 30
0.0
 11
775.4741134522
 21
463.3844947584
 31
0.0
  0
LINE
  5
3E5
330
3DE
100
AcDbEntity
  8
SLD-0_0
100
AcDbLine
 10
774.4741134522
 20
451.3844947584
 30
0.0
 11
774.4741134522
 21
445.0344947584
 31
0.0
  0
LINE
  5
3E6
330
3DE
100
AcDbEntity
  8
SLD-0_0
100
AcDbLine
 10
774.4741134522
 20
451.3844947584
 30
0.0
 11
774.4741134522
 21
463.3844947584
 31
0.0
  0
LINE
  5
3E7
330
3DE
100
AcDbEntity
  8
SLD-0_0
100
AcDbLine
 10
774.4741134522
 20
463.3844947584
 30
0.0
 11
774.4741134522
 21
469.7344947584
 31
0.0
  0
MTEXT
  5
3E8
330
3DE
100
AcDbEntity
  8
SLD-0_0
100
AcDbMText
 10
769.962376363
 20
454.0971106325
 30
0.0
 40
3.5
 41
0.0
 71
     1
 72
     1
  1
12
  7
SLDTEXTSTYLE0
 11
2.281678389207681E-15
 21
1.0
 31
0.0
 73
     1
 44
1.0
  0
ENDBLK
  5
3E0
330
3DE
100
AcDbEntity
  8
0
100
AcDbBlockEnd
  0
BLOCK
  5
3EA
330
3E9
100
AcDbEntity
  8
0
100
AcDbBlockBegin
  2
SW_ANGULAR_DIMENSION_0
 70
     0
 10
0.0
 20
0.0
 30
0.0
  3
SW_ANGULAR_DIMENSION_0
  1

  0
ARC
  5
3EC
330
3E9
100
AcDbEntity
  8
SLD-0_0
 62
     0
100
AcDbCircle
 10
6.2510892271
 20
-25.4474031156
 30
0.0
 40
25.5894892122423
100
AcDbArc
 50
90.0
 51
94.7387721123
  0
ARC
  5
3ED
330
3E9
100
AcDbEntity
  8
SLD-0_0
 62
     0
100
AcDbCircle
 10
6.2510892271
 20
-25.4474031156
 30
0.0
 40
25.58948921224231
100
AcDbArc
 50
75.8752412079
 51
90.0
  0
ARC
  5
3EE
330
3E9
100
AcDbEntity
  8
SLD-0_0
 62
     0
100
AcDbCircle
 10
6.2510892271
 20
-25.4474031156
 30
0.0
 40
25.58948921224229
100
AcDbArc
 50
94.7387721123
 51
108.8635309044
  0
SOLID
  5
3EF
330
3E9
100
AcDbEntity
  8
SLD-0_0
 62
     0
100
AcDbTrace
 10
6.2510892271
 20
0.1420860967
 30
0.0
 11
9.5137213233
 21
-0.5765931119
 31
0.0
 12
9.5788673468
 22
0.4373161521
 32
0.0
 13
9.5788673468
 23
0.4373161521
 33
0.0
  0
SOLID
  5
3F0
330
3E9
100
AcDbEntity
  8
SLD-0_0
 62
     0
100
AcDbTrace
 10
4.1370669209
 20
0.054613821
 30
0.0
 11
0.7962742937
 21
0.0739172426
 31
0.0
 12
0.9449596295
 22
-0.9311442833
 32
0.0
 13
0.9449596295
 23
-0.9311442833
 33
0.0
  0
LINE
  5
3F1
330
3E9
100
AcDbEntity
  8
SLD-0_0
 62
     0
100
AcDbLine
 10
6.2510892271
 20
-24.4474031156
 30
0.0
 11
6.2510892271
 21
1.1420860967
 31
0.0
  0
LINE
  5
3F2
330
3E9
100
AcDbEntity
  8
SLD-0_0
 62
     0
100
AcDbLine
 10
5.173720966
 20
-12.4508214048
 30
0.0
 11
4.0544540055
 21
1.0511955317
 31
0.0
  0
MTEXT
  5
3F3
330
3E9
100
AcDbEntity
  8
SLD-0_0
 62
     0
100
AcDbMText
 10
-0.1077937433
 20
4.5104492094
 30
0.0
 40
3.5
 41
0.0
 71
     1
 72
     1
  1
4.74°
  7
SLDTEXTSTYLE0
 11
0.9997145490237179
 21
0.0238918494534095
 31
0.0
 73
     1
 44
1.0
  0
ENDBLK
  5
3EB
330
3E9
100
AcDbEntity
  8
0
100
AcDbBlockEnd
  0
BLOCK
  5
3FB
330
3FA
100
AcDbEntity
  8
0
100
AcDbBlockBegin
  2
_D_29
 70
     0
 10
0.0
 20
0.0
 30
0.0
  3
_D_29
  1

  0
SOLID
  5
3FD
330
3FA
100
AcDbEntity
  8
SLD-0_0
100
AcDbTrace
 10
661.4755731699
 20
363.9111858606
 30
0.0
 11
664.7775513933
 21
363.4030443329
 31
0.0
 12
664.7775949404
 22
364.4190443319
 32
0.0
 13
664.7775949404
 23
364.4190443319
 33
0.0
  0
SOLID
  5
3FE
330
3FA
100
AcDbEntity
  8
SLD-0_0
100
AcDbTrace
 10
811.0220959559
 20
363.9047760923
 30
0.0
 11
807.7201177325
 21
364.41291762
 31
0.0
 12
807.7200741853
 22
363.396917621
 32
0.0
 13
807.7200741853
 23
363.396917621
 33
0.0
  0
LINE
  5
3FF
330
3FA
100
AcDbEntity
  8
SLD-0_0
100
AcDbLine
 10
661.4765110674
 20
385.7933040479
 30
0.0
 11
661.4755303085
 21
362.9111858616
 31
0.0
  0
LINE
  5
400
330
3FA
100
AcDbEntity
  8
SLD-0_0
100
AcDbLine
 10
811.0230338534
 20
385.7868942796
 30
0.0
 11
811.0220530945
 21
362.9047760932
 31
0.0
  0
LINE
  5
401
330
3FA
100
AcDbEntity
  8
SLD-0_0
100
AcDbLine
 10
661.4755731699
 20
363.9111858606
 30
0.0
 11
811.0220959559
 21
363.9047760923
 31
0.0
  0
MTEXT
  5
402
330
3FA
100
AcDbEntity
  8
SLD-0_0
100
AcDbMText
 10
729.3067072728
 20
368.4200156189
 30
0.0
 40
3.5
 41
0.0
 71
     1
 72
     1
  1
149.5
  7
SLDTEXTSTYLE0
 11
0.9999999990814517
 21
-4.286136690945252E-5
 31
0.0
 73
     1
 44
1.0
  0
ENDBLK
  5
3FC
330
3FA
100
AcDbEntity
  8
0
100
AcDbBlockEnd
  0
BLOCK
  5
404
330
403
100
AcDbEntity
  8
0
100
AcDbBlockBegin
  2
SW_ANGULAR_DIMENSION_1
 70
     0
 10
0.0
 20
0.0
 30
0.0
  3
SW_ANGULAR_DIMENSION_1
  1

  0
ARC
  5
406
330
403
100
AcDbEntity
  8
SLD-0_0
 62
     0
100
AcDbCircle
 10
17.6121677831
 20
-36.6515110497
 30
0.0
 40
40.27030211626109
100
AcDbArc
 50
90.0
 51
130.2587721123
  0
SOLID
  5
407
330
403
100
AcDbEntity
  8
SLD-0_0
 62
     0
100
AcDbTrace
 10
17.6121677831
 20
3.6187910666
 30
0.0
 11
14.2921553996
 21
3.9913306937
 31
0.0
 12
14.3337047549
 22
2.9761806304
 32
0.0
 13
14.3337047549
 23
2.9761806304
 33
0.0
  0
SOLID
  5
408
330
403
100
AcDbEntity
  8
SLD-0_0
 62
     0
100
AcDbTrace
 10
-8.4121454663
 20
-5.9198929271
 30
0.0
 11
-5.4949592788
 21
-4.2916138517
 31
0.0
 12
-6.1192829864
 22
-3.4900679029
 32
0.0
 13
-6.1192829864
 23
-3.4900679029
 33
0.0
  0
LINE
  5
409
330
403
100
AcDbEntity
  8
SLD-0_0
 62
     0
100
AcDbLine
 10
17.6121677831
 20
-35.6515110497
 30
0.0
 11
17.6121677831
 21
4.6187910666
 31
0.0
  0
LINE
  5
40A
330
403
100
AcDbEntity
  8
SLD-0_0
 62
     0
100
AcDbLine
 10
6.8036539074
 20
-23.8879419319
 30
0.0
 11
-9.058386291
 21
-5.1567593893
 31
0.0
  0
MTEXT
  5
40B
330
403
100
AcDbEntity
  8
SLD-0_0
 62
     0
100
AcDbMText
 10
-1.3710601213
 20
4.2983677956
 30
0.0
 40
3.5
 41
0.0
 71
     1
 72
     1
  1
40.3°
  7
SLDTEXTSTYLE0
 11
0.9527079505235746
 21
0.3038874150226861
 31
0.0
 73
     1
 44
1.0
  0
ENDBLK
  5
405
330
403
100
AcDbEntity
  8
0
100
AcDbBlockEnd
  0
BLOCK
  5
40E
330
40D
100
AcDbEntity
  8
0
100
AcDbBlockBegin
  2
SW_ANGULAR_DIMENSION_2
 70
     0
 10
0.0
 20
0.0
 30
0.0
  3
SW_ANGULAR_DIMENSION_2
  1

  0
ARC
  5
410
330
40D
100
AcDbEntity
  8
SLD-0_0
 62
     0
100
AcDbCircle
 10
2.9994921723
 20
-34.9285736298
 30
0.0
 40
34.79185781242509
100
AcDbArc
 50
85.2587721123
 51
90.0
  0
ARC
  5
411
330
40D
100
AcDbEntity
  8
SLD-0_0
 62
     0
100
AcDbCircle
 10
2.9994921723
 20
-34.9285736298
 30
0.0
 40
34.79185781242509
100
AcDbArc
 50
74.8386658482
 51
85.2587721123
  0
ARC
  5
412
330
40D
100
AcDbEntity
  8
SLD-0_0
 62
     0
100
AcDbCircle
 10
2.9994921723
 20
-34.9285736298
 30
0.0
 40
34.79185781242506
100
AcDbArc
 50
90.0
 51
100.4201062641
  0
SOLID
  5
413
330
40D
100
AcDbEntity
  8
SLD-0_0
 62
     0
100
AcDbTrace
 10
5.8752351031
 20
-0.255767677
 30
0.0
 11
9.0834605971
 21
-1.1877318288
 31
0.0
 12
9.2152313019
 22
-0.1803131068
 32
0.0
 13
9.2152313019
 23
-0.1803131068
 33
0.0
  0
SOLID
  5
414
330
40D
100
AcDbEntity
  8
SLD-0_0
 62
     0
100
AcDbTrace
 10
2.9994921723
 20
-0.1367158173
 30
0.0
 11
-0.3228383787
 21
0.2145500505
 31
0.0
 12
-0.2747874002
 22
-0.8003130454
 32
0.0
 13
-0.2747874002
 23
-0.8003130454
 33
0.0
  0
LINE
  5
415
330
40D
100
AcDbEntity
  8
SLD-0_0
 62
     0
100
AcDbLine
 10
4.0774174836
 20
-21.9320381084
 30
0.0
 11
5.9578907333
 21
0.7408104919
 31
0.0
  0
LINE
  5
416
330
40D
100
AcDbEntity
  8
SLD-0_0
 62
     0
100
AcDbLine
 10
2.9994921723
 20
-33.9285736298
 30
0.0
 11
2.9994921723
 21
0.8632841827
 31
0.0
  0
MTEXT
  5
417
330
40D
100
AcDbEntity
  8
SLD-0_0
 62
     0
100
AcDbMText
 10
0.1688415344
 20
4.5085767265
 30
0.0
 40
3.5
 41
0.0
 71
     1
 72
     1
  1
4.7°
  7
SLDTEXTSTYLE0
 11
0.9992995241777726
 21
-0.03742273343941258
 31
0.0
 73
     1
 44
1.0
  0
ENDBLK
  5
40F
330
40D
100
AcDbEntity
  8
0
100
AcDbBlockEnd
  0
BLOCK
  5
41B
330
41A
100
AcDbEntity
  8
0
100
AcDbBlockBegin
  2
_D_30
 70
     0
 10
0.0
 20
0.0
 30
0.0
  3
_D_30
  1

  0
SOLID
  5
41D
330
41A
100
AcDbEntity
  8
SLD-0_0
100
AcDbTrace
 10
832.6972084171
 20
398.7859653067
 30
0.0
 11
833.2053499448
 21
402.0879435301
 31
0.0
 12
832.1893499458
 22
402.0879870773
 32
0.0
 13
832.1893499458
 23
402.0879870773
 33
0.0
  0
SOLID
  5
41E
330
41A
100
AcDbEntity
  8
SLD-0_0
100
AcDbTrace
 10
832.6966940807
 20
386.7859653178
 30
0.0
 11
832.1885525529
 21
383.4839870944
 31
0.0
 12
833.204552552
 22
383.4839435472
 32
0.0
 13
833.204552552
 23
383.4839435472
 33
0.0
  0
LINE
  5
41F
330
41A
100
AcDbEntity
  8
SLD-0_0
100
AcDbLine
 10
801.8608036628
 20
398.7872869972
 30
0.0
 11
833.6972084161
 21
398.7859224454
 31
0.0
  0
LINE
  5
420
330
41A
100
AcDbEntity
  8
SLD-0_0
100
AcDbLine
 10
812.0230767138
 20
386.7868514173
 30
0.0
 11
833.6966940797
 21
386.7859224564
 31
0.0
  0
LINE
  5
421
330
41A
100
AcDbEntity
  8
SLD-0_0
100
AcDbLine
 10
832.6972084171
 20
398.7859653067
 30
0.0
 11
832.6974805867
 21
405.1359653009
 31
0.0
  0
LINE
  5
422
330
41A
100
AcDbEntity
  8
SLD-0_0
100
AcDbLine
 10
832.6972084171
 20
398.7859653067
 30
0.0
 11
832.6966940807
 21
386.7859653178
 31
0.0
  0
LINE
  5
423
330
41A
100
AcDbEntity
  8
SLD-0_0
100
AcDbLine
 10
832.6966940807
 20
386.7859653178
 30
0.0
 11
832.696421911
 21
380.4359653236
 31
0.0
  0
MTEXT
  5
424
330
41A
100
AcDbEntity
  8
SLD-0_0
100
AcDbMText
 10
828.1850698312
 20
389.4187300386
 30
0.0
 40
3.5
 41
0.0
 71
     1
 72
     1
  1
12
  7
SLDTEXTSTYLE0
 11
4.286136691726242E-5
 21
0.9999999990814517
 31
0.0
 73
     1
 44
1.0
  0
ENDBLK
  5
41C
330
41A
100
AcDbEntity
  8
0
100
AcDbBlockEnd
  0
BLOCK
  5
426
330
425
100
AcDbEntity
  8
0
100
AcDbBlockBegin
  2
SW_NOTE_18
 70
     0
 10
0.0
 20
0.0
 30
0.0
  3
SW_NOTE_18
  1

  0
CIRCLE
  5
428
330
425
100
AcDbEntity
  8
SLD-0_0
 62
     0
100
AcDbCircle
 10
2.5087228329
 20
5.5359524872
 30
0.0
 40
8.409785932721736
  0
MTEXT
  5
429
330
425
100
AcDbEntity
  8
SLD-0_0
 62
     0
100
AcDbMText
 10
2.5796875
 20
8.8400290633
 30
0.0
 40
6.8791666667
 41
0.0
 71
     2
 72
     1
  1
3
  7
SLDTEXTSTYLE0
 73
     1
 44
1.0
  0
ENDBLK
  5
427
330
425
100
AcDbEntity
  8
0
100
AcDbBlockEnd
  0
BLOCK
  5
431
330
430
100
AcDbEntity
  8
0
100
AcDbBlockBegin
  2
_D_31
 70
     0
 10
0.0
 20
0.0
 30
0.0
  3
_D_31
  1

  0
SOLID
  5
433
330
430
100
AcDbEntity
  8
SLD-0_0
100
AcDbTrace
 10
798.2999336094
 20
302.3357375496
 30
0.0
 11
794.9979336094
 21
302.8437375496
 31
0.0
 12
794.9979336094
 22
301.8277375496
 32
0.0
 13
794.9979336094
 23
301.8277375496
 33
0.0
  0
SOLID
  5
434
330
430
100
AcDbEntity
  8
SLD-0_0
100
AcDbTrace
 10
715.9244197554
 20
302.3357375496
 30
0.0
 11
719.2264197554
 21
301.8277375496
 31
0.0
 12
719.2264197554
 22
302.8437375496
 32
0.0
 13
719.2264197554
 23
302.8437375496
 33
0.0
  0
LINE
  5
435
330
430
100
AcDbEntity
  8
SLD-0_0
100
AcDbLine
 10
798.2999336094
 20
311.1441951472
 30
0.0
 11
798.2999336094
 21
301.3357375496
 31
0.0
  0
LINE
  5
436
330
430
100
AcDbEntity
  8
SLD-0_0
100
AcDbLine
 10
715.9244197554
 20
311.1441951472
 30
0.0
 11
715.9244197554
 21
301.3357375496
 31
0.0
  0
LINE
  5
437
330
430
100
AcDbEntity
  8
SLD-0_0
100
AcDbLine
 10
798.2999336094
 20
302.3357375496
 30
0.0
 11
715.9244197554
 21
302.3357375496
 31
0.0
  0
MTEXT
  5
438
330
430
100
AcDbEntity
  8
SLD-0_0
100
AcDbMText
 10
752.566578191
 20
306.8474746388
 30
0.0
 40
3.5
 41
0.0
 71
     1
 72
     1
  1
82.4
  7
SLDTEXTSTYLE0
 73
     1
 44
1.0
  0
ENDBLK
  5
432
330
430
100
AcDbEntity
  8
0
100
AcDbBlockEnd
  0
BLOCK
  5
43B
330
43A
100
AcDbEntity
  8
0
100
AcDbBlockBegin
  2
_D_32
 70
     0
 10
0.0
 20
0.0
 30
0.0
  3
_D_32
  1

  0
SOLID
  5
43D
330
43A
100
AcDbEntity
  8
SLD-0_0
100
AcDbTrace
 10
808.2999336094
 20
312.1441951472
 30
0.0
 11
807.7919336094
 21
308.8421951472
 31
0.0
 12
808.8079336094
 22
308.8421951472
 32
0.0
 13
808.8079336094
 23
308.8421951472
 33
0.0
  0
SOLID
  5
43E
330
43A
100
AcDbEntity
  8
SLD-0_0
100
AcDbTrace
 10
808.2999336094
 20
324.1441951472
 30
0.0
 11
808.8079336094
 21
327.4461951472
 31
0.0
 12
807.7919336094
 22
327.4461951472
 32
0.0
 13
807.7919336094
 23
327.4461951472
 33
0.0
  0
LINE
  5
43F
330
43A
100
AcDbEntity
  8
SLD-0_0
100
AcDbLine
 10
799.2999336094
 20
312.1441951472
 30
0.0
 11
809.2999336094
 21
312.1441951472
 31
0.0
  0
LINE
  5
440
330
43A
100
AcDbEntity
  8
SLD-0_0
100
AcDbLine
 10
795.7453716699
 20
324.1441951472
 30
0.0
 11
809.2999336094
 21
324.1441951472
 31
0.0
  0
LINE
  5
441
330
43A
100
AcDbEntity
  8
SLD-0_0
100
AcDbLine
 10
808.2999336094
 20
312.1441951472
 30
0.0
 11
808.2999336094
 21
305.7941951472
 31
0.0
  0
LINE
  5
442
330
43A
100
AcDbEntity
  8
SLD-0_0
100
AcDbLine
 10
808.2999336094
 20
312.1441951472
 30
0.0
 11
808.2999336094
 21
324.1441951472
 31
0.0
  0
LINE
  5
443
330
43A
100
AcDbEntity
  8
SLD-0_0
100
AcDbLine
 10
808.2999336094
 20
324.1441951472
 30
0.0
 11
808.2999336094
 21
330.4941951472
 31
0.0
  0
MTEXT
  5
444
330
43A
100
AcDbEntity
  8
SLD-0_0
100
AcDbMText
 10
803.7881965202
 20
314.9449213344
 30
0.0
 40
3.5
 41
0.0
 71
     1
 72
     1
  1
12
  7
SLDTEXTSTYLE0
 11
-6.378061202868540E-15
 21
1.0
 31
0.0
 73
     1
 44
1.0
  0
ENDBLK
  5
43C
330
43A
100
AcDbEntity
  8
0
100
AcDbBlockEnd
  0
BLOCK
  5
446
330
445
100
AcDbEntity
  8
0
100
AcDbBlockBegin
  2
SW_ANGULAR_DIMENSION_3
 70
     0
 10
0.0
 20
0.0
 30
0.0
  3
SW_ANGULAR_DIMENSION_3
  1

  0
ARC
  5
448
330
445
100
AcDbEntity
  8
SLD-0_0
 62
     0
100
AcDbCircle
 10
7.7991133467
 20
-26.0928929888
 30
0.0
 40
26.64283674477269
100
AcDbArc
 50
90.0
 51
106.5
  0
ARC
  5
449
330
445
100
AcDbEntity
  8
SLD-0_0
 62
     0
100
AcDbCircle
 10
7.7991133467
 20
-26.0928929888
 30
0.0
 40
26.64283674477269
100
AcDbArc
 50
76.4267903444
 51
90.0
  0
ARC
  5
44A
330
445
100
AcDbEntity
  8
SLD-0_0
 62
     0
100
AcDbCircle
 10
7.7991133467
 20
-26.0928929888
 30
0.0
 40
26.64283674477268
100
AcDbArc
 50
106.5
 51
120.0732096556
  0
SOLID
  5
44B
330
445
100
AcDbEntity
  8
SLD-0_0
 62
     0
100
AcDbTrace
 10
7.7991133467
 20
0.549943756
 30
0.0
 11
11.0635394954
 21
-0.1605419364
 31
0.0
 12
11.1261397661
 22
0.8535276895
 32
0.0
 13
11.1261397661
 23
0.8535276895
 33
0.0
  0
SOLID
  5
44C
330
445
100
AcDbEntity
  8
SLD-0_0
 62
     0
100
AcDbTrace
 10
0.2321388847
 20
-0.547215325
 30
0.0
 11
-3.0441022001
 21
-1.2010596138
 31
0.0
 12
-2.6960684909
 22
-2.1555901461
 32
0.0
 13
-2.6960684909
 23
-2.1555901461
 33
0.0
  0
LINE
  5
44D
330
445
100
AcDbEntity
  8
SLD-0_0
 62
     0
100
AcDbLine
 10
7.7991133467
 20
-25.0928929888
 30
0.0
 11
7.7991133467
 21
1.549943756
 31
0.0
  0
LINE
  5
44E
330
445
100
AcDbEntity
  8
SLD-0_0
 62
     0
100
AcDbLine
 10
3.9605360624
 20
-13.1340732539
 30
0.0
 11
-0.05187646
 21
0.4116044099
 31
0.0
  0
MTEXT
  5
44F
330
445
100
AcDbEntity
  8
SLD-0_0
 62
     0
100
AcDbMText
 10
-0.368597439
 20
4.4966551447
 30
0.0
 40
3.5
 41
0.0
 71
     1
 72
     1
  1
16.5°
  7
SLDTEXTSTYLE0
 11
0.9966571756651023
 21
0.08169745525572707
 31
0.0
 73
     1
 44
1.0
  0
ENDBLK
  5
447
330
445
100
AcDbEntity
  8
0
100
AcDbBlockEnd
  0
BLOCK
  5
452
330
451
100
AcDbEntity
  8
0
100
AcDbBlockBegin
  2
SW_ANGULAR_DIMENSION_4
 70
     0
 10
0.0
 20
0.0
 30
0.0
  3
SW_ANGULAR_DIMENSION_4
  1

  0
ARC
  5
454
330
451
100
AcDbEntity
  8
SLD-0_0
 62
     0
100
AcDbCircle
 10
-0.8984345915
 20
-25.816648262
 30
0.0
 40
25.20876888093687
100
AcDbArc
 50
49.7387721123
 51
90.0
  0
ARC
  5
455
330
451
100
AcDbEntity
  8
SLD-0_0
 62
     0
100
AcDbCircle
 10
-0.8984345915
 20
-25.816648262
 30
0.0
 40
25.20876888093686
100
AcDbArc
 50
35.4035464496
 51
49.7387721123
  0
ARC
  5
456
330
451
100
AcDbEntity
  8
SLD-0_0
 62
     0
100
AcDbCircle
 10
-0.8984345915
 20
-25.816648262
 30
0.0
 40
25.2087688809369
100
AcDbArc
 50
90.0
 51
104.3352256627
  0
SOLID
  5
457
330
451
100
AcDbEntity
  8
SLD-0_0
 62
     0
100
AcDbTrace
 10
15.3933255364
 20
-6.5796895516
 30
0.0
 11
17.4160489138
 21
-9.2386100352
 31
0.0
 12
18.121725666
 22
-8.5076679572
 32
0.0
 13
18.121725666
 23
-8.5076679572
 33
0.0
  0
SOLID
  5
458
330
451
100
AcDbEntity
  8
SLD-0_0
 62
     0
100
AcDbTrace
 10
-0.8984345915
 20
-0.6078793811
 30
0.0
 11
-4.2264940756
 21
-0.3158381673
 31
0.0
 12
-4.1603765452
 22
-1.3296845424
 32
0.0
 13
-4.1603765452
 23
-1.3296845424
 33
0.0
  0
LINE
  5
459
330
451
100
AcDbEntity
  8
SLD-0_0
 62
     0
100
AcDbLine
 10
9.9106263383
 20
-13.0535424237
 30
0.0
 11
16.0395990694
 21
-5.8165837132
 31
0.0
  0
LINE
  5
45A
330
451
100
AcDbEntity
  8
SLD-0_0
 62
     0
100
AcDbLine
 10
-0.8984345915
 20
-24.816648262
 30
0.0
 11
-0.8984345915
 21
0.3921206189
 31
0.0
  0
MTEXT
  5
45B
330
451
100
AcDbEntity
  8
SLD-0_0
 62
     0
100
AcDbMText
 10
1.1378173927
 20
4.3659069096
 30
0.0
 40
3.5
 41
0.0
 71
     1
 72
     1
  1
40.3°
  7
SLDTEXTSTYLE0
 11
0.9676775980601765
 21
-0.2521905355331313
 31
0.0
 73
     1
 44
1.0
  0
ENDBLK
  5
453
330
451
100
AcDbEntity
  8
0
100
AcDbBlockEnd
  0
BLOCK
  5
463
330
462
100
AcDbEntity
  8
0
100
AcDbBlockBegin
  2
_D_33
 70
     0
 10
0.0
 20
0.0
 30
0.0
  3
_D_33
  1

  0
SOLID
  5
465
330
462
100
AcDbEntity
  8
SLD-0_0
100
AcDbTrace
 10
815.3793567143
 20
233.9818738861
 30
0.0
 11
812.0773567143
 21
234.4898738861
 31
0.0
 12
812.0773567143
 22
233.4738738861
 32
0.0
 13
812.0773567143
 23
233.4738738861
 33
0.0
  0
SOLID
  5
466
330
462
100
AcDbEntity
  8
SLD-0_0
100
AcDbTrace
 10
705.2146491877
 20
233.9818738861
 30
0.0
 11
708.5166491877
 21
233.4738738861
 31
0.0
 12
708.5166491877
 22
234.4898738861
 32
0.0
 13
708.5166491877
 23
234.4898738861
 33
0.0
  0
LINE
  5
467
330
462
100
AcDbEntity
  8
SLD-0_0
100
AcDbLine
 10
815.3793567143
 20
247.5236911853
 30
0.0
 11
815.3793567143
 21
232.9818738861
 31
0.0
  0
LINE
  5
468
330
462
100
AcDbEntity
  8
SLD-0_0
100
AcDbLine
 10
705.2146491877
 20
247.5236911853
 30
0.0
 11
705.2146491877
 21
232.9818738861
 31
0.0
  0
LINE
  5
469
330
462
100
AcDbEntity
  8
SLD-0_0
100
AcDbLine
 10
815.3793567143
 20
233.9818738861
 30
0.0
 11
705.2146491877
 21
233.9818738861
 31
0.0
  0
MTEXT
  5
46A
330
462
100
AcDbEntity
  8
SLD-0_0
100
AcDbMText
 10
753.7791869746
 20
238.4936109753
 30
0.0
 40
3.5
 41
0.0
 71
     1
 72
     1
  1
110.2
  7
SLDTEXTSTYLE0
 73
     1
 44
1.0
  0
ENDBLK
  5
464
330
462
100
AcDbEntity
  8
0
100
AcDbBlockEnd
  0
BLOCK
  5
46D
330
46C
100
AcDbEntity
  8
0
100
AcDbBlockBegin
  2
_D_34
 70
     0
 10
0.0
 20
0.0
 30
0.0
  3
_D_34
  1

  0
SOLID
  5
46F
330
46C
100
AcDbEntity
  8
SLD-0_0
100
AcDbTrace
 10
832.5595000179
 20
248.5236911853
 30
0.0
 11
832.0515000179
 21
245.2216911853
 31
0.0
 12
833.0675000179
 22
245.2216911853
 32
0.0
 13
833.0675000179
 23
245.2216911853
 33
0.0
  0
SOLID
  5
470
330
46C
100
AcDbEntity
  8
SLD-0_0
100
AcDbTrace
 10
832.5595000179
 20
260.5236911853
 30
0.0
 11
833.0675000179
 21
263.8256911853
 31
0.0
 12
832.0515000179
 22
263.8256911853
 32
0.0
 13
832.0515000179
 23
263.8256911853
 33
0.0
  0
LINE
  5
471
330
46C
100
AcDbEntity
  8
SLD-0_0
100
AcDbLine
 10
816.3793567143
 20
248.5236911853
 30
0.0
 11
833.5595000179
 21
248.5236911853
 31
0.0
  0
LINE
  5
472
330
46C
100
AcDbEntity
  8
SLD-0_0
100
AcDbLine
 10
811.0964232537
 20
260.5236911853
 30
0.0
 11
833.5595000179
 21
260.5236911853
 31
0.0
  0
LINE
  5
473
330
46C
100
AcDbEntity
  8
SLD-0_0
100
AcDbLine
 10
832.5595000179
 20
248.5236911853
 30
0.0
 11
832.5595000179
 21
242.1736911853
 31
0.0
  0
LINE
  5
474
330
46C
100
AcDbEntity
  8
SLD-0_0
100
AcDbLine
 10
832.5595000179
 20
248.5236911853
 30
0.0
 11
832.5595000179
 21
260.5236911853
 31
0.0
  0
LINE
  5
475
330
46C
100
AcDbEntity
  8
SLD-0_0
100
AcDbLine
 10
832.5595000179
 20
260.5236911853
 30
0.0
 11
832.5595000179
 21
266.8736911853
 31
0.0
  0
MTEXT
  5
476
330
46C
100
AcDbEntity
  8
SLD-0_0
100
AcDbMText
 10
828.0477629287
 20
251.6347371845
 30
0.0
 40
3.5
 41
0.0
 71
     1
 72
     1
  1
12
  7
SLDTEXTSTYLE0
 11
-3.935570548693196E-15
 21
1.0
 31
0.0
 73
     1
 44
1.0
  0
ENDBLK
  5
46E
330
46C
100
AcDbEntity
  8
0
100
AcDbBlockEnd
  0
BLOCK
  5
478
330
477
100
AcDbEntity
  8
0
100
AcDbBlockBegin
  2
SW_ANGULAR_DIMENSION_5
 70
     0
 10
0.0
 20
0.0
 30
0.0
  3
SW_ANGULAR_DIMENSION_5
  1

  0
ARC
  5
47A
330
477
100
AcDbEntity
  8
SLD-0_0
 62
     0
100
AcDbCircle
 10
6.3920431984
 20
-21.7651304499
 30
0.0
 40
21.97167804343136
100
AcDbArc
 50
90.0
 51
113.7612278877
  0
ARC
  5
47B
330
477
100
AcDbEntity
  8
SLD-0_0
 62
     0
100
AcDbCircle
 10
6.3920431984
 20
-21.7651304499
 30
0.0
 40
21.97167804343136
100
AcDbArc
 50
73.587758986
 51
90.0
  0
ARC
  5
47C
330
477
100
AcDbEntity
  8
SLD-0_0
 62
     0
100
AcDbCircle
 10
6.3920431984
 20
-21.7651304499
 30
0.0
 40
21.97167804343141
100
AcDbArc
 50
113.7612278877
 51
130.1734689017
  0
SOLID
  5
47D
330
477
100
AcDbEntity
  8
SLD-0_0
 62
     0
100
AcDbTrace
 10
6.3920431984
 20
0.2065475935
 30
0.0
 11
9.6470097409
 21
-0.5460883125
 31
0.0
 12
9.7227168783
 22
0.4670871064
 32
0.0
 13
9.7227168783
 23
0.4670871064
 33
0.0
  0
SOLID
  5
47E
330
477
100
AcDbEntity
  8
SLD-0_0
 62
     0
100
AcDbTrace
 10
-2.4609182446
 20
-1.6559357934
 30
0.0
 11
-5.6142373261
 21
-2.7594967431
 31
0.0
 12
-5.1367129213
 22
-3.6562834751
 32
0.0
 13
-5.1367129213
 23
-3.6562834751
 33
0.0
  0
LINE
  5
47F
330
477
100
AcDbEntity
  8
SLD-0_0
 62
     0
100
AcDbLine
 10
6.3920431984
 20
-20.7651304499
 30
0.0
 11
6.3920431984
 21
1.2065475935
 31
0.0
  0
LINE
  5
480
330
477
100
AcDbEntity
  8
SLD-0_0
 62
     0
100
AcDbLine
 10
0.706183688
 20
-8.8498979121
 30
0.0
 11
-2.8638442944
 21
-0.7407032555
 31
0.0
  0
MTEXT
  5
481
330
477
100
AcDbEntity
  8
SLD-0_0
 62
     0
100
AcDbMText
 10
-0.1548385103
 20
4.5090793515
 30
0.0
 40
3.5
 41
0.0
 71
     1
 72
     1
  1
23.8°
  7
SLDTEXTSTYLE0
 11
0.9994109280558712
 21
0.03431904547772763
 31
0.0
 73
     1
 44
1.0
  0
ENDBLK
  5
479
330
477
100
AcDbEntity
  8
0
100
AcDbBlockEnd
  0
BLOCK
  5
484
330
483
100
AcDbEntity
  8
0
100
AcDbBlockBegin
  2
SW_ANGULAR_DIMENSION_6
 70
     0
 10
0.0
 20
0.0
 30
0.0
  3
SW_ANGULAR_DIMENSION_6
  1

  0
ARC
  5
486
330
483
100
AcDbEntity
  8
SLD-0_0
 62
     0
100
AcDbCircle
 10
1.9506871609
 20
-22.8752810662
 30
0.0
 40
22.25441934875398
100
AcDbArc
 50
73.5
 51
90.0
  0
ARC
  5
487
330
483
100
AcDbEntity
  8
SLD-0_0
 62
     0
100
AcDbCircle
 10
1.9506871609
 20
-22.8752810662
 30
0.0
 40
22.25441934875398
100
AcDbArc
 50
57.2926537417
 51
73.5
  0
ARC
  5
488
330
483
100
AcDbEntity
  8
SLD-0_0
 62
     0
100
AcDbCircle
 10
1.9506871609
 20
-22.8752810662
 30
0.0
 40
22.25441934875394
100
AcDbArc
 50
90.0
 51
106.2073462583
  0
SOLID
  5
489
330
483
100
AcDbEntity
  8
SLD-0_0
 62
     0
100
AcDbTrace
 10
8.2712837435
 20
-1.5373046066
 30
0.0
 11
11.1799857049
 21
-3.1806916272
 31
0.0
 12
11.5394452967
 22
-2.2304049327
 32
0.0
 13
11.5394452967
 23
-2.2304049327
 33
0.0
  0
SOLID
  5
48A
330
483
100
AcDbEntity
  8
SLD-0_0
 62
     0
100
AcDbTrace
 10
1.9506871609
 20
-0.6208617175
 30
0.0
 11
-1.379741761
 21
-0.3572119582
 31
0.0
 12
-1.3049808137
 22
-1.3704576347
 32
0.0
 13
-1.3049808137
 23
-1.3704576347
 33
0.0
  0
LINE
  5
48B
330
483
100
AcDbEntity
  8
SLD-0_0
 62
     0
100
AcDbLine
 10
5.7892644452
 20
-9.9164613313
 30
0.0
 11
8.5552990882
 21
-0.5784848717
 31
0.0
  0
LINE
  5
48C
330
483
100
AcDbEntity
  8
SLD-0_0
 62
     0
100
AcDbLine
 10
1.9506871609
 20
-21.8752810662
 30
0.0
 11
1.9506871609
 21
0.3791382825
 31
0.0
  0
MTEXT
  5
48D
330
483
100
AcDbEntity
  8
SLD-0_0
 62
     0
100
AcDbMText
 10
0.7330225418
 20
4.4517917197
 30
0.0
 40
3.5
 41
0.0
 71
     1
 72
     1
  1
16.5°
  7
SLDTEXTSTYLE0
 11
0.9867134612775958
 21
-0.162470136743915
 31
0.0
 73
     1
 44
1.0
  0
ENDBLK
  5
485
330
483
100
AcDbEntity
  8
0
100
AcDbBlockEnd
  0
BLOCK
  5
490
330
48F
100
AcDbEntity
  8
0
100
AcDbBlockBegin
  2
SW_NOTE_19
 70
     0
 10
0.0
 20
0.0
 30
0.0
  3
SW_NOTE_19
  1

  0
CIRCLE
  5
492
330
48F
100
AcDbEntity
  8
SLD-0_0
 62
     0
100
AcDbCircle
 10
2.4955245802
 20
5.5232510267
 30
0.0
 40
8.409785932721736
  0
MTEXT
  5
493
330
48F
100
AcDbEntity
  8
SLD-0_0
 62
     0
100
AcDbMText
 10
2.5796875
 20
8.8400290633
 30
0.0
 40
6.8791666667
 41
0.0
 71
     2
 72
     1
  1
6
  7
SLDTEXTSTYLE0
 73
     1
 44
1.0
  0
ENDBLK
  5
491
330
48F
100
AcDbEntity
  8
0
100
AcDbBlockEnd
  0
BLOCK
  5
49B
330
49A
100
AcDbEntity
  8
0
100
AcDbBlockBegin
  2
_D_35
 70
     0
 10
0.0
 20
0.0
 30
0.0
  3
_D_35
  1

  0
SOLID
  5
49D
330
49A
100
AcDbEntity
  8
SLD-0_0
100
AcDbTrace
 10
805.153077762
 20
161.0039667715
 30
0.0
 11
801.8510559915
 21
161.5118252428
 31
0.0
 12
801.8510995386
 22
160.4958252438
 32
0.0
 13
801.8510995386
 23
160.4958252438
 33
0.0
  0
SOLID
  5
49E
330
49A
100
AcDbEntity
  8
SLD-0_0
100
AcDbTrace
 10
716.4368758788
 20
161.0001642739
 30
0.0
 11
719.7388976493
 21
160.4923058026
 31
0.0
 12
719.7388541022
 22
161.5083058016
 32
0.0
 13
719.7388541022
 23
161.5083058016
 33
0.0
  0
LINE
  5
49F
330
49A
100
AcDbEntity
  8
SLD-0_0
100
AcDbLine
 10
805.1526771611
 20
170.3504004203
 30
0.0
 11
805.1531206234
 21
160.0039667725
 31
0.0
  0
LINE
  5
4A0
330
49A
100
AcDbEntity
  8
SLD-0_0
100
AcDbLine
 10
716.4364752779
 20
170.3465979226
 30
0.0
 11
716.4369187401
 21
160.0001642748
 31
0.0
  0
LINE
  5
4A1
330
49A
100
AcDbEntity
  8
SLD-0_0
100
AcDbLine
 10
805.153077762
 20
161.0039667715
 30
0.0
 11
716.4368758788
 21
161.0001642739
 31
0.0
  0
MTEXT
  5
4A2
330
49A
100
AcDbEntity
  8
SLD-0_0
100
AcDbMText
 10
758.4035392081
 20
165.5137001158
 30
0.0
 40
3.5
 41
0.0
 71
     1
 72
     1
  1
88.7
  7
SLDTEXTSTYLE0
 11
0.9999999990814517
 21
4.286136693141205E-5
 31
0.0
 73
     1
 44
1.0
  0
ENDBLK
  5
49C
330
49A
100
AcDbEntity
  8
0
100
AcDbBlockEnd
  0
BLOCK
  5
4A5
330
4A4
100
AcDbEntity
  8
0
100
AcDbBlockBegin
  2
_D_36
 70
     0
 10
0.0
 20
0.0
 30
0.0
  3
_D_36
  1

  0
SOLID
  5
4A7
330
4A4
100
AcDbEntity
  8
SLD-0_0
100
AcDbTrace
 10
816.1340417732
 20
171.3508710975
 30
0.0
 11
815.6261833019
 21
168.048849327
 31
0.0
 12
816.642183301
 22
168.0488928741
 32
0.0
 13
816.642183301
 23
168.0488928741
 33
0.0
  0
SOLID
  5
4A8
330
4A4
100
AcDbEntity
  8
SLD-0_0
100
AcDbTrace
 10
816.1335274368
 20
183.3508710865
 30
0.0
 11
816.6413859081
 21
186.652892857
 31
0.0
 12
815.625385909
 22
186.6528493099
 32
0.0
 13
815.625385909
 23
186.6528493099
 33
0.0
  0
LINE
  5
4A9
330
4A4
100
AcDbEntity
  8
SLD-0_0
100
AcDbLine
 10
806.1526342988
 20
171.3504432807
 30
0.0
 11
817.1340417723
 21
171.3509139589
 31
0.0
  0
LINE
  5
4AA
330
4A4
100
AcDbEntity
  8
SLD-0_0
100
AcDbLine
 10
805.1573646176
 20
183.3504006331
 30
0.0
 11
817.1335274359
 21
183.3509139479
 31
0.0
  0
LINE
  5
4AB
330
4A4
100
AcDbEntity
  8
SLD-0_0
100
AcDbLine
 10
816.1340417732
 20
171.3508710975
 30
0.0
 11
816.1343139429
 21
165.0008711033
 31
0.0
  0
LINE
  5
4AC
330
4A4
100
AcDbEntity
  8
SLD-0_0
100
AcDbLine
 10
816.1340417732
 20
171.3508710975
 30
0.0
 11
816.1335274368
 21
183.3508710865
 31
0.0
  0
LINE
  5
4AD
330
4A4
100
AcDbEntity
  8
SLD-0_0
100
AcDbLine
 10
816.1335274368
 20
183.3508710865
 30
0.0
 11
816.1332552671
 21
189.7008710807
 31
0.0
  0
MTEXT
  5
4AE
330
4A4
100
AcDbEntity
  8
SLD-0_0
100
AcDbMText
 10
811.6221819344
 20
174.2146494103
 30
0.0
 40
3.5
 41
0.0
 71
     1
 72
     1
  1
12
  7
SLDTEXTSTYLE0
 11
-4.286136692446744E-5
 21
0.9999999990814517
 31
0.0
 73
     1
 44
1.0
  0
ENDBLK
  5
4A6
330
4A4
100
AcDbEntity
  8
0
100
AcDbBlockEnd
  0
BLOCK
  5
4B0
330
4AF
100
AcDbEntity
  8
0
100
AcDbBlockBegin
  2
SW_ANGULAR_DIMENSION_7
 70
     0
 10
0.0
 20
0.0
 30
0.0
  3
SW_ANGULAR_DIMENSION_7
  1

  0
ARC
  5
4B2
330
4AF
100
AcDbEntity
  8
SLD-0_0
 62
     0
100
AcDbCircle
 10
5.5603150302
 20
-30.7486342823
 30
0.0
 40
30.94942284433894
100
AcDbArc
 50
90.0
 51
94.7412278877
  0
ARC
  5
4B3
330
4AF
100
AcDbEntity
  8
SLD-0_0
 62
     0
100
AcDbCircle
 10
5.5603150302
 20
-30.7486342823
 30
0.0
 40
30.94942284433895
100
AcDbArc
 50
78.2971817314
 51
90.0
  0
ARC
  5
4B4
330
4AF
100
AcDbEntity
  8
SLD-0_0
 62
     0
100
AcDbCircle
 10
5.5603150302
 20
-30.7486342823
 30
0.0
 40
30.94942284433895
100
AcDbArc
 50
94.7412278877
 51
106.4440461563
  0
SOLID
  5
4B5
330
4AF
100
AcDbEntity
  8
SLD-0_0
 62
     0
100
AcDbTrace
 10
5.5603150302
 20
0.2007885621
 30
0.0
 11
8.8306687439
 21
-0.4818933455
 31
0.0
 12
8.8846377005
 22
0.5326722521
 32
0.0
 13
8.8846377005
 23
0.5326722521
 33
0.0
  0
SOLID
  5
4B6
330
4AF
100
AcDbEntity
  8
SLD-0_0
 62
     0
100
AcDbTrace
 10
3.0021709828
 20
0.0948848657
 30
0.0
 11
-0.3382084724
 21
0.1508589207
 31
0.0
 12
-0.2005646298
 22
-0.8557741666
 32
0.0
 13
-0.2005646298
 23
-0.8557741666
 33
0.0
  0
LINE
  5
4B7
330
4AF
100
AcDbEntity
  8
SLD-0_0
 62
     0
100
AcDbLine
 10
5.5603150302
 20
-29.7486342823
 30
0.0
 11
5.5603150302
 21
1.2007885621
 31
0.0
  0
LINE
  5
4B8
330
4AF
100
AcDbEntity
  8
SLD-0_0
 62
     0
100
AcDbLine
 10
4.4823897189
 20
-17.7520987609
 30
0.0
 11
2.9195153527
 21
1.0914630346
 31
0.0
  0
MTEXT
  5
4B9
330
4AF
100
AcDbEntity
  8
SLD-0_0
 62
     0
100
AcDbMText
 10
-0.1835875859
 20
4.5080003505
 30
0.0
 40
3.5
 41
0.0
 71
     1
 72
     1
  1
4.7°
  7
SLDTEXTSTYLE0
 11
0.9991717738425603
 21
0.0406911090572824
 31
0.0
 73
     1
 44
1.0
  0
ENDBLK
  5
4B1
330
4AF
100
AcDbEntity
  8
0
100
AcDbBlockEnd
  0
BLOCK
  5
4BC
330
4BB
100
AcDbEntity
  8
0
100
AcDbBlockBegin
  2
SW_ANGULAR_DIMENSION_8
 70
     0
 10
0.0
 20
0.0
 30
0.0
  3
SW_ANGULAR_DIMENSION_8
  1

  0
ARC
  5
4BE
330
4BB
100
AcDbEntity
  8
SLD-0_0
 62
     0
100
AcDbCircle
 10
0.0007410343
 20
-33.5295759686
 30
0.0
 40
33.05159574776589
100
AcDbArc
 50
66.2412278877
 51
90.0
  0
ARC
  5
4BF
330
4BB
100
AcDbEntity
  8
SLD-0_0
 62
     0
100
AcDbCircle
 10
0.0007410343
 20
-33.5295759686
 30
0.0
 40
33.05159574776588
100
AcDbArc
 50
55.2766837095
 51
66.2412278877
  0
ARC
  5
4C0
330
4BB
100
AcDbEntity
  8
SLD-0_0
 62
     0
100
AcDbCircle
 10
0.0007410343
 20
-33.5295759686
 30
0.0
 40
33.05159574776589
100
AcDbArc
 50
90.0
 51
100.9645441782
  0
SOLID
  5
4C1
330
4BB
100
AcDbEntity
  8
SLD-0_0
 62
     0
100
AcDbTrace
 10
13.3167933865
 20
-3.2791093403
 30
0.0
 11
16.0414459005
 21
-5.2123803193
 31
0.0
 12
16.4965491999
 22
-4.3040098074
 32
0.0
 13
16.4965491999
 23
-4.3040098074
 33
0.0
  0
SOLID
  5
4C2
330
4BB
100
AcDbEntity
  8
SLD-0_0
 62
     0
100
AcDbTrace
 10
0.0007410343
 20
-0.4779802208
 30
0.0
 11
-3.3224487515
 21
-0.134938463
 31
0.0
 12
-3.2718860528
 22
-1.1496795204
 32
0.0
 13
-3.2718860528
 23
-1.1496795204
 33
0.0
  0
LINE
  5
4C3
330
4BB
100
AcDbEntity
  8
SLD-0_0
 62
     0
100
AcDbLine
 10
5.6860469749
 20
-20.6140997389
 30
0.0
 11
13.7196802079
 21
-2.3638595334
 31
0.0
  0
LINE
  5
4C4
330
4BB
100
AcDbEntity
  8
SLD-0_0
 62
     0
100
AcDbLine
 10
0.0007410343
 20
-32.5295759686
 30
0.0
 11
0.0007410343
 21
0.5220197792
 31
0.0
  0
MTEXT
  5
4C5
330
4BB
100
AcDbEntity
  8
SLD-0_0
 62
     0
100
AcDbMText
 10
0.7589971893
 20
4.447436883
 30
0.0
 40
3.5
 41
0.0
 71
     1
 72
     1
  1
23.8°
  7
SLDTEXTSTYLE0
 11
0.9857482373445142
 21
-0.1682272646516706
 31
0.0
 73
     1
 44
1.0
  0
ENDBLK
  5
4BD
330
4BB
100
AcDbEntity
  8
0
100
AcDbBlockEnd
  0
BLOCK
  5
4CE
330
4CD
100
AcDbEntity
  8
0
100
AcDbBlockBegin
  2
_D_37
 70
     0
 10
0.0
 20
0.0
 30
0.0
  3
_D_37
  1

  0
SOLID
  5
4D0
330
4CD
100
AcDbEntity
  8
SLD-0_0
100
AcDbTrace
 10
728.7082363031
 20
511.8924333822
 30
0.0
 11
729.2162363031
 21
515.1944333822
 31
0.0
 12
728.2002363031
 22
515.1944333822
 32
0.0
 13
728.2002363031
 23
515.1944333822
 33
0.0
  0
SOLID
  5
4D1
330
4CD
100
AcDbEntity
  8
SLD-0_0
100
AcDbTrace
 10
728.7082363031
 20
558.5406656603
 30
0.0
 11
728.2002363031
 21
555.2386656603
 31
0.0
 12
729.2162363031
 22
555.2386656603
 32
0.0
 13
729.2162363031
 23
555.2386656603
 33
0.0
  0
LINE
  5
4D2
330
4CD
100
AcDbEntity
  8
SLD-0_0
100
AcDbLine
 10
716.8645777098
 20
511.8924333822
 30
0.0
 11
729.7082363031
 21
511.8924333822
 31
0.0
  0
LINE
  5
4D3
330
4CD
100
AcDbEntity
  8
SLD-0_0
100
AcDbLine
 10
716.8645777098
 20
558.5406656603
 30
0.0
 11
729.7082363031
 21
558.5406656603
 31
0.0
  0
LINE
  5
4D4
330
4CD
100
AcDbEntity
  8
SLD-0_0
100
AcDbLine
 10
728.7082363031
 20
511.8924333822
 30
0.0
 11
728.7082363031
 21
558.5406656603
 31
0.0
  0
MTEXT
  5
4D5
330
4CD
100
AcDbEntity
  8
SLD-0_0
100
AcDbMText
 10
724.1964992139
 20
529.894782015
 30
0.0
 40
3.5
 41
0.0
 71
     1
 72
     1
  1
93.30
  7
SLDTEXTSTYLE0
 11
6.500525882783276E-15
 21
1.0
 31
0.0
 73
     1
 44
1.0
  0
ENDBLK
  5
4CF
330
4CD
100
AcDbEntity
  8
0
100
AcDbBlockEnd
  0
BLOCK
  5
4D9
330
4D8
100
AcDbEntity
  8
0
100
AcDbBlockBegin
  2
_D_38
 70
     0
 10
0.0
 20
0.0
 30
0.0
  3
_D_38
  1

  0
SOLID
  5
4DB
330
4D8
100
AcDbEntity
  8
SLD-0_0
100
AcDbTrace
 10
715.8645777098
 20
568.5406656603
 30
0.0
 11
719.1665777098
 21
568.0326656603
 31
0.0
 12
719.1665777098
 22
569.0486656603
 32
0.0
 13
719.1665777098
 23
569.0486656603
 33
0.0
  0
SOLID
  5
4DC
330
4D8
100
AcDbEntity
  8
SLD-0_0
100
AcDbTrace
 10
709.8645777098
 20
568.5406656603
 30
0.0
 11
706.5625777098
 21
569.0486656603
 31
0.0
 12
706.5625777098
 22
568.0326656603
 32
0.0
 13
706.5625777098
 23
568.0326656603
 33
0.0
  0
LINE
  5
4DD
330
4D8
100
AcDbEntity
  8
SLD-0_0
100
AcDbLine
 10
715.8645777098
 20
559.5406656603
 30
0.0
 11
715.8645777098
 21
569.5406656603
 31
0.0
  0
LINE
  5
4DE
330
4D8
100
AcDbEntity
  8
SLD-0_0
100
AcDbLine
 10
709.8645777098
 20
553.5406656603
 30
0.0
 11
709.8645777098
 21
569.5406656603
 31
0.0
  0
LINE
  5
4DF
330
4D8
100
AcDbEntity
  8
SLD-0_0
100
AcDbLine
 10
715.8645777098
 20
568.5406656603
 30
0.0
 11
722.2145777098
 21
568.5406656603
 31
0.0
  0
LINE
  5
4E0
330
4D8
100
AcDbEntity
  8
SLD-0_0
100
AcDbLine
 10
715.8645777098
 20
568.5406656603
 30
0.0
 11
709.8645777098
 21
568.5406656603
 31
0.0
  0
LINE
  5
4E1
330
4D8
100
AcDbEntity
  8
SLD-0_0
100
AcDbLine
 10
709.8645777098
 20
568.5406656603
 30
0.0
 11
703.5145777098
 21
568.5406656603
 31
0.0
  0
MTEXT
  5
4E2
330
4D8
100
AcDbEntity
  8
SLD-0_0
100
AcDbMText
 10
710.6061196477
 20
573.0524027495
 30
0.0
 40
3.5
 41
0.0
 71
     1
 72
     1
  1
12
  7
SLDTEXTSTYLE0
 73
     1
 44
1.0
  0
ENDBLK
  5
4DA
330
4D8
100
AcDbEntity
  8
0
100
AcDbBlockEnd
  0
BLOCK
  5
4E4
330
4E3
100
AcDbEntity
  8
0
100
AcDbBlockBegin
  2
SW_ANGULAR_DIMENSION_9
 70
     0
 10
0.0
 20
0.0
 30
0.0
  3
SW_ANGULAR_DIMENSION_9
  1

  0
ARC
  5
4E6
330
4E3
100
AcDbEntity
  8
SLD-0_0
 62
     0
100
AcDbCircle
 10
17.4081098204
 20
3.0240888033
 30
0.0
 40
17.29063611082194
100
AcDbArc
 50
180.0
 51
225.0
  0
ARC
  5
4E7
330
4E3
100
AcDbEntity
  8
SLD-0_0
 62
     0
100
AcDbCircle
 10
17.4081098204
 20
3.0240888033
 30
0.0
 40
17.29063611082196
100
AcDbArc
 50
159.257292806
 51
180.0
  0
ARC
  5
4E8
330
4E3
100
AcDbEntity
  8
SLD-0_0
 62
     0
100
AcDbCircle
 10
17.4081098204
 20
3.0240888033
 30
0.0
 40
17.29063611082196
100
AcDbArc
 50
225.0
 51
245.742707194
  0
SOLID
  5
4E9
330
4E3
100
AcDbEntity
  8
SLD-0_0
 62
     0
100
AcDbTrace
 10
0.1174737096
 20
3.0240888033
 30
0.0
 11
0.9342933662
 21
6.2635445675
 31
0.0
 12
-0.0771878881
 22
6.359261192
 32
0.0
 13
-0.0771878881
 23
6.359261192
 33
0.0
  0
SOLID
  5
4EA
330
4E3
100
AcDbEntity
  8
SLD-0_0
 62
     0
100
AcDbTrace
 10
5.1817837754
 20
-9.2022372417
 30
0.0
 11
7.4024602522
 21
-11.6982067899
 31
0.0
 12
8.0500036319
 22
-10.9152996617
 32
0.0
 13
8.0500036319
 23
-10.9152996617
 33
0.0
  0
LINE
  5
4EB
330
4E3
100
AcDbEntity
  8
SLD-0_0
 62
     0
100
AcDbLine
 10
16.4081098204
 20
3.0240888033
 30
0.0
 11
-0.8825262904
 21
3.0240888033
 31
0.0
  0
LINE
  5
4EC
330
4E3
100
AcDbEntity
  8
SLD-0_0
 62
     0
100
AcDbLine
 10
10.7010030392
 20
-3.6830179779
 30
0.0
 11
4.4746769942
 21
-9.9093440229
 31
0.0
  0
MTEXT
  5
4ED
330
4E3
100
AcDbEntity
  8
SLD-0_0
 62
     0
100
AcDbMText
 10
4.1911042297
 20
1.6704540994
 30
0.0
 40
3.5
 41
0.0
 71
     1
 72
     1
  1
45°
  7
SLDTEXTSTYLE0
 11
0.370246330045097
 21
-0.928933611776502
 31
0.0
 73
     1
 44
1.0
  0
ENDBLK
  5
4E5
330
4E3
100
AcDbEntity
  8
0
100
AcDbBlockEnd
  0
BLOCK
  5
4F0
330
4EF
100
AcDbEntity
  8
0
100
AcDbBlockBegin
  2
SW_ANGULAR_DIMENSION_10
 70
     0
 10
0.0
 20
0.0
 30
0.0
  3
SW_ANGULAR_DIMENSION_10
  1

  0
ARC
  5
4F2
330
4EF
100
AcDbEntity
  8
SLD-0_0
 62
     0
100
AcDbCircle
 10
17.5509808349
 20
-3.8931501981
 30
0.0
 40
17.60602860501949
100
AcDbArc
 50
135.0
 51
180.0
  0
ARC
  5
4F3
330
4EF
100
AcDbEntity
  8
SLD-0_0
 62
     0
100
AcDbCircle
 10
17.5509808349
 20
-3.8931501981
 30
0.0
 40
17.60602860501949
100
AcDbArc
 50
114.6186048045
 51
135.0
  0
ARC
  5
4F4
330
4EF
100
AcDbEntity
  8
SLD-0_0
 62
     0
100
AcDbCircle
 10
17.5509808349
 20
-3.8931501981
 30
0.0
 40
17.60602860501949
100
AcDbArc
 50
180.0
 51
200.3813951955
  0
SOLID
  5
4F5
330
4EF
100
AcDbEntity
  8
SLD-0_0
 62
     0
100
AcDbTrace
 10
5.1016386186
 20
8.5561920183
 30
0.0
 11
7.9670256832
 21
10.2739885632
 31
0.0
 12
7.3181903256
 22
11.0558252973
 32
0.0
 13
7.3181903256
 23
11.0558252973
 33
0.0
  0
SOLID
  5
4F6
330
4EF
100
AcDbEntity
  8
SLD-0_0
 62
     0
100
AcDbTrace
 10
-0.0550477701
 20
-3.8931501981
 30
0.0
 11
-0.2552166693
 21
-7.2279965832
 31
0.0
 12
0.7564212684
 22
-7.1339504079
 32
0.0
 13
0.7564212684
 23
-7.1339504079
 33
0.0
  0
LINE
  5
4F7
330
4EF
100
AcDbEntity
  8
SLD-0_0
 62
     0
100
AcDbLine
 10
10.8438740538
 20
2.8139565831
 30
0.0
 11
4.3945318374
 21
9.2632987994
 31
0.0
  0
LINE
  5
4F8
330
4EF
100
AcDbEntity
  8
SLD-0_0
 62
     0
100
AcDbLine
 10
16.5509808349
 20
-3.8931501981
 30
0.0
 11
-1.0550477701
 21
-3.8931501981
 31
0.0
  0
MTEXT
  5
4F9
330
4EF
100
AcDbEntity
  8
SLD-0_0
 62
     0
100
AcDbMText
 10
-4.1160252413
 20
1.8477304389
 30
0.0
 40
3.5
 41
0.0
 71
     1
 72
     1
  1
45°
  7
SLDTEXTSTYLE0
 11
0.4095385884414282
 21
0.9122927954211862
 31
0.0
 73
     1
 44
1.0
  0
ENDBLK
  5
4F1
330
4EF
100
AcDbEntity
  8
0
100
AcDbBlockEnd
  0
BLOCK
  5
508
330
507
100
AcDbEntity
  8
0
100
AcDbBlockBegin
  2
_D_39
 70
     0
 10
0.0
 20
0.0
 30
0.0
  3
_D_39
  1

  0
SOLID
  5
50A
330
507
100
AcDbEntity
  8
CAJETIN
100
AcDbTrace
 10
787.4539143272
 20
504.0630949935
 30
0.0
 11
790.7559143272
 21
503.5550949935
 31
0.0
 12
790.7559143272
 22
504.5710949935
 32
0.0
 13
790.7559143272
 23
504.5710949935
 33
0.0
  0
SOLID
  5
50B
330
507
100
AcDbEntity
  8
CAJETIN
100
AcDbTrace
 10
764.2039143272
 20
504.0630949935
 30
0.0
 11
760.9019143272
 21
504.5710949935
 31
0.0
 12
760.9019143272
 22
503.5550949935
 32
0.0
 13
760.9019143272
 23
503.5550949935
 33
0.0
  0
LINE
  5
50C
330
507
100
AcDbEntity
  8
CAJETIN
100
AcDbLine
 10
787.4539143272
 20
510.8924333822
 30
0.0
 11
787.4539143272
 21
503.0630949935
 31
0.0
  0
LINE
  5
50D
330
507
100
AcDbEntity
  8
CAJETIN
100
AcDbLine
 10
764.2039143272
 20
510.8924333822
 30
0.0
 11
764.2039143272
 21
503.0630949935
 31
0.0
  0
LINE
  5
50E
330
507
100
AcDbEntity
  8
CAJETIN
100
AcDbLine
 10
787.4539143272
 20
504.0630949935
 30
0.0
 11
793.8039143272
 21
504.0630949935
 31
0.0
  0
LINE
  5
50F
330
507
100
AcDbEntity
  8
CAJETIN
100
AcDbLine
 10
787.4539143272
 20
504.0630949935
 30
0.0
 11
764.2039143272
 21
504.0630949935
 31
0.0
  0
LINE
  5
510
330
507
100
AcDbEntity
  8
CAJETIN
100
AcDbLine
 10
764.2039143272
 20
504.0630949935
 30
0.0
 11
757.8539143272
 21
504.0630949935
 31
0.0
  0
MTEXT
  5
511
330
507
100
AcDbEntity
  8
CAJETIN
100
AcDbMText
 10
769.5078609207
 20
508.5748320827
 30
0.0
 40
3.5
 41
0.0
 71
     1
 72
     1
  1
46.50
  7
SLDTEXTSTYLE0
 73
     1
 44
1.0
  0
ENDBLK
  5
509
330
507
100
AcDbEntity
  8
0
100
AcDbBlockEnd
  0
ENDSEC
  0
SECTION
  2
ENTITIES
  0
LINE
  5
7A
330
1F
100
AcDbEntity
  8
PREDETERMINADO
100
AcDbLine
 10
824.9570996099
 20
16.012749502
 30
0.0
 11
823.0090298798
 21
16.012749502
 31
0.0
  0
LINE
  5
7B
330
1F
100
AcDbEntity
  8
PREDETERMINADO
100
AcDbLine
 10
821.7385496211
 20
9.7026975502
 30
0.0
 11
822.9243311959
 21
9.7026975502
 31
0.0
  0
LINE
  5
7C
330
1F
100
AcDbEntity
  8
PREDETERMINADO
100
AcDbLine
 10
829.6155272253
 20
16.012749502
 30
0.0
 11
827.836854863
 21
16.012749502
 31
0.0
  0
LINE
  5
7D
330
1F
100
AcDbEntity
  8
PREDETERMINADO
100
AcDbLine
 10
826.714343329
 20
10.2532389957
 30
0.0
 11
828.476906458
 21
10.2532389957
 31
0.0
  0
LINE
  5
7E
330
1F
100
AcDbEntity
  8
PREDETERMINADO
100
AcDbLine
 10
769.6089912659
 20
34.0467858729
 30
0.0
 11
769.6089912659
 21
24.8505542089
 31
0.0
  0
LINE
  5
7F
330
1F
100
AcDbEntity
  8
PREDETERMINADO
100
AcDbLine
 10
769.6089912659
 20
24.8505542089
 30
0.0
 11
661.3921249088
 21
24.8505542089
 31
0.0
  0
LINE
  5
80
330
1F
100
AcDbEntity
  8
PREDETERMINADO
100
AcDbLine
 10
661.3921249088
 20
24.8505542089
 30
0.0
 11
661.3921249088
 21
23.9085542089
 31
0.0
  0
LINE
  5
81
330
1F
100
AcDbEntity
  8
PREDETERMINADO
100
AcDbLine
 10
661.3921249088
 20
23.9085542089
 30
0.0
 11
770.5509912659
 21
23.9085542089
 31
0.0
  0
LINE
  5
82
330
1F
100
AcDbEntity
  8
PREDETERMINADO
100
AcDbLine
 10
770.5509912659
 20
23.9085542089
 30
0.0
 11
770.5509912659
 21
34.0467858729
 31
0.0
  0
LINE
  5
83
330
1F
100
AcDbEntity
  8
PREDETERMINADO
100
AcDbLine
 10
770.5509912659
 20
34.0467858729
 30
0.0
 11
769.6089912659
 21
34.0467858729
 31
0.0
  0
LINE
  5
84
330
1F
100
AcDbEntity
  8
PREDETERMINADO
100
AcDbLine
 10
826.714343329
 20
10.2532389957
 30
0.0
 11
828.476906458
 21
10.2532389957
 31
0.0
  0
LINE
  5
85
330
1F
100
AcDbEntity
  8
PREDETERMINADO
100
AcDbLine
 10
829.6155272253
 20
16.012749502
 30
0.0
 11
827.836854863
 21
16.012749502
 31
0.0
  0
LINE
  5
86
330
1F
100
AcDbEntity
  8
PREDETERMINADO
100
AcDbLine
 10
824.9570996099
 20
16.012749502
 30
0.0
 11
823.0090298798
 21
16.012749502
 31
0.0
  0
LINE
  5
87
330
1F
100
AcDbEntity
  8
PREDETERMINADO
100
AcDbLine
 10
821.7385496211
 20
9.7026975502
 30
0.0
 11
822.9243311959
 21
9.7026975502
 31
0.0
  0
LINE
  5
88
330
1F
100
AcDbEntity
  8
PREDETERMINADO
  6
Continuous
 62
   179
100
AcDbLine
 10
665.7292945596
 20
3.7489358056
 30
0.0
 11
665.7292945596
 21
0.9229358056
 31
0.0
  0
LINE
  5
89
330
1F
100
AcDbEntity
  8
PREDETERMINADO
  6
Continuous
 62
   179
370
    15
100
AcDbLine
 10
661.3921249088
 20
54.0219860184
 30
0.0
 11
661.3921249088
 21
34.9887858729
 31
0.0
  0
LINE
  5
8A
330
1F
100
AcDbEntity
  8
SLD-0_0
100
AcDbLine
 10
703.3357927721
 20
23.9085542089
 30
0.0
 11
703.3357927721
 21
6.9219860184
 31
0.0
  0
LINE
  5
8B
330
1F
100
AcDbEntity
  8
FORMATO
  6
Continuous
 62
   179
100
AcDbLine
 10
704.6109912659
 20
34.9887858729
 30
0.0
 11
704.6109912659
 21
54.0219860184
 31
0.0
  0
LINE
  5
8C
330
1F
100
AcDbEntity
  8
FORMATO
  6
Continuous
 62
   179
100
AcDbLine
 10
686.7236947881
 20
34.9887858729
 30
0.0
 11
704.6109912659
 21
34.9887858729
 31
0.0
  0
LINE
  5
8D
330
1F
100
AcDbEntity
  8
FORMATO
  6
Continuous
 62
   179
100
AcDbLine
 10
686.7236947881
 20
34.9887858729
 30
0.0
 11
686.7236947881
 21
54.0219860184
 31
0.0
  0
LINE
  5
8E
330
1F
100
AcDbEntity
  8
FORMATO
  6
Continuous
 62
   179
100
AcDbLine
 10
661.3921249088
 20
39.6987858729
 30
0.0
 11
723.4509912659
 21
39.6987858729
 31
0.0
  0
LINE
  5
8F
330
1F
100
AcDbEntity
  8
FORMATO
  6
Continuous
 62
   179
100
AcDbLine
 10
661.3921249088
 20
44.4087858729
 30
0.0
 11
723.4509912659
 21
44.4087858729
 31
0.0
  0
LINE
  5
90
330
1F
100
AcDbEntity
  8
FORMATO
  6
Continuous
 62
   179
100
AcDbLine
 10
723.4509912659
 20
34.9887858729
 30
0.0
 11
723.4509912659
 21
54.0219860184
 31
0.0
  0
LINE
  5
91
330
1F
100
AcDbEntity
  8
FORMATO
  6
Continuous
 62
   179
100
AcDbLine
 10
831.7809912659
 20
49.1187858729
 30
0.0
 11
661.3921249088
 21
49.1187858729
 31
0.0
  0
LINE
  5
92
330
1F
100
AcDbEntity
  8
FORMATO
  6
Continuous
 62
   179
100
AcDbLine
 10
791.6597463321
 20
54.0219860184
 30
0.0
 11
791.6597463321
 21
43.4217914172
 31
0.0
  0
LINE
  5
93
330
1F
100
AcDbEntity
  8
FORMATO
  6
Continuous
 62
   179
100
AcDbLine
 10
779.9709912659
 20
54.0219860184
 30
0.0
 11
779.9709912659
 21
43.4217914172
 31
0.0
  0
LINE
  5
94
330
1F
100
AcDbEntity
  8
FORMATO
  6
Continuous
 62
   179
100
AcDbLine
 10
770.5509912659
 20
43.4217914172
 30
0.0
 11
831.7809912659
 21
43.4217914172
 31
0.0
  0
LINE
  5
95
330
1F
100
AcDbEntity
  8
FORMATO
  6
Continuous
 62
   179
100
AcDbLine
 10
807.0746056586
 20
34.0467858729
 30
0.0
 11
807.0746056586
 21
54.0219860184
 31
0.0
  0
LINE
  5
96
330
1F
100
AcDbEntity
  8
PREDETERMINADO
370
    15
100
AcDbLine
 10
661.3921249088
 20
24.8505542089
 30
0.0
 11
661.3921249088
 21
6.9219860184
 31
0.0
  0
LINE
  5
97
330
1F
100
AcDbEntity
  8
FORMATO
  6
Continuous
 62
   179
100
AcDbLine
 10
798.8109912659
 20
21.7496871489
 30
0.0
 11
831.7809912659
 21
21.7496871489
 31
0.0
  0
LINE
  5
98
330
1F
100
AcDbEntity
  8
FORMATO
  6
Continuous
 62
   179
100
AcDbLine
 10
798.8109912659
 20
6.9219860184
 30
0.0
 11
798.8109912659
 21
34.0467858729
 31
0.0
  0
LINE
  5
99
330
1F
100
AcDbEntity
  8
FORMATO
  6
Continuous
 62
   179
370
    15
100
AcDbLine
 10
660.4501249088
 20
34.9887858729
 30
0.0
 11
769.6089912659
 21
34.9887858729
 31
0.0
  0
LINE
  5
9A
330
1F
100
AcDbEntity
  8
FORMATO
  6
Continuous
 62
   179
370
    15
100
AcDbLine
 10
770.5509912659
 20
23.9085542089
 30
0.0
 11
770.5509912659
 21
34.0467858729
 31
0.0
  0
LINE
  5
9B
330
1F
100
AcDbEntity
  8
FORMATO
  6
Continuous
 62
   179
100
AcDbLine
 10
739.1462736208
 20
23.9085542089
 30
0.0
 11
739.1462736208
 21
6.9219860184
 31
0.0
  0
LINE
  5
9C
330
1F
100
AcDbEntity
  8
SLD-0
  6
Continuous
 62
   179
100
AcDbLine
 10
827.836854863
 20
16.012749502
 30
0.0
 11
829.6155272253
 21
16.012749502
 31
0.0
  0
LINE
  5
9D
330
1F
100
AcDbEntity
  8
SLD-0
  6
Continuous
 62
   179
100
AcDbLine
 10
826.6510732882
 20
10.2532389957
 30
0.0
 11
828.476906458
 21
10.2532389957
 31
0.0
  0
LINE
  5
9E
330
1F
100
AcDbEntity
  8
SLD-0
  6
Continuous
 62
   179
100
AcDbLine
 10
823.0090298798
 20
16.012749502
 30
0.0
 11
824.9570996099
 21
16.012749502
 31
0.0
  0
LINE
  5
9F
330
1F
100
AcDbEntity
  8
FORMATO
  6
Continuous
 62
   179
100
AcDbLine
 10
724.2684366873
 20
44.7125076314
 30
0.0
 11
725.7554108307
 21
44.7125076314
 31
0.0
  0
LINE
  5
A0
330
1F
100
AcDbEntity
  8
FORMATO
  6
Continuous
 62
   179
100
AcDbLine
 10
724.2684366873
 20
40.9445076314
 30
0.0
 11
725.7554108307
 21
40.9445076314
 31
0.0
  0
LINE
  5
A1
330
1F
100
AcDbEntity
  8
FORMATO
  6
Continuous
 62
   179
100
AcDbLine
 10
724.2684366873
 20
37.1765076314
 30
0.0
 11
725.7554108307
 21
37.1765076314
 31
0.0
  0
LINE
  5
A2
330
1F
100
AcDbEntity
  8
FORMATO
  6
Continuous
 62
   179
100
AcDbLine
 10
771.1426200329
 20
25.0948131451
 30
0.0
 11
772.6295941764
 21
25.0948131451
 31
0.0
  0
LINE
  5
A3
330
1F
100
AcDbEntity
  8
FORMATO
  6
Continuous
 62
   179
100
AcDbLine
 10
771.1426200329
 20
20.2808761659
 30
0.0
 11
772.6295941764
 21
20.2808761659
 31
0.0
  0
LINE
  5
A4
330
1F
100
AcDbEntity
  8
FORMATO
  6
Continuous
 62
   179
100
AcDbLine
 10
771.1426200329
 20
15.4669391867
 30
0.0
 11
772.6295941764
 21
15.4669391867
 31
0.0
  0
LINE
  5
A5
330
1F
100
AcDbEntity
  8
FORMATO
  6
Continuous
 62
   179
100
AcDbLine
 10
771.1426200329
 20
10.6530022074
 30
0.0
 11
772.6295941764
 21
10.6530022074
 31
0.0
  0
LINE
  5
A6
330
1F
100
AcDbEntity
  8
PREDETERMINADO
100
AcDbLine
 10
770.5509912659
 20
34.0467858729
 30
0.0
 11
831.8596711236
 21
34.0467858729
 31
0.0
  0
LINE
  5
A7
330
1F
100
AcDbEntity
  8
FORMATO
  6
Continuous
 62
   179
370
    15
100
AcDbLine
 10
661.3921249088
 20
54.0219860184
 30
0.0
 11
831.7809912659
 21
54.0219860184
 31
0.0
  0
LINE
  5
A8
330
1F
100
AcDbEntity
  8
FORMATO
  6
Continuous
 62
   179
370
    15
100
AcDbLine
 10
770.5509912659
 20
23.9085542089
 30
0.0
 11
661.3921249088
 21
23.9085542089
 31
0.0
  0
LINE
  5
A9
330
1F
100
AcDbEntity
  8
PREDETERMINADO
  6
Continuous
 62
   179
100
AcDbLine
 10
669.4082594109
 20
53.166772446
 30
0.0
 11
669.4082594109
 21
49.5365591605
 31
0.0
  0
LINE
  5
AA
330
1F
100
AcDbEntity
  8
PREDETERMINADO
  6
Continuous
 62
   179
100
AcDbLine
 10
665.7647520746
 20
52.3339324068
 30
0.0
 11
665.7647520746
 21
50.3693991997
 31
0.0
  0
LINE
  5
AB
330
1F
100
AcDbEntity
  8
PREDETERMINADO
  6
CENTER
 62
   179
100
AcDbLine
 10
673.8744942101
 20
53.3992882847
 30
0.0
 11
673.8744942101
 21
49.2631626933
 31
0.0
  0
LINE
  5
AC
330
1F
100
AcDbEntity
  8
PREDETERMINADO
  6
Continuous
 62
   179
100
AcDbLine
 10
669.4082594109
 20
53.166772446
 30
0.0
 11
665.7647520746
 21
52.3339324068
 31
0.0
  0
LINE
  5
AD
330
1F
100
AcDbEntity
  8
PREDETERMINADO
  6
Continuous
 62
   179
100
AcDbLine
 10
665.7647520746
 20
50.3693991997
 30
0.0
 11
669.4082594109
 21
49.5365591605
 31
0.0
  0
LINE
  5
AE
330
1F
100
AcDbEntity
  8
PREDETERMINADO
  6
CENTER
 62
   179
100
AcDbLine
 10
676.0586140736
 20
51.3516658032
 30
0.0
 11
665.3889907325
 21
51.3516658032
 31
0.0
  0
LINE
  5
AF
330
1F
100
AcDbEntity
  8
PREDETERMINADO
370
    15
100
AcDbLine
 10
661.3921249088
 20
6.9219860184
 30
0.0
 11
831.7809912659
 21
6.9219860184
 31
0.0
  0
LINE
  5
B0
330
1F
100
AcDbEntity
  8
PREDETERMINADO
370
    15
100
AcDbLine
 10
831.7809912659
 20
6.9219860184
 30
0.0
 11
831.7809912659
 21
54.0219860184
 31
0.0
  0
LINE
  5
B1
330
1F
100
AcDbEntity
  8
PREDETERMINADO
370
    15
100
AcDbLine
 10
769.6089912659
 20
34.0467858729
 30
0.0
 11
770.5509912659
 21
34.0467858729
 31
0.0
  0
LINE
  5
B2
330
1F
100
AcDbEntity
  8
PREDETERMINADO
100
AcDbLine
 10
770.5509912659
 20
34.0467858729
 30
0.0
 11
770.5509912659
 21
54.0219860184
 31
0.0
  0
LINE
  5
B3
330
1F
100
AcDbEntity
  8
PREDETERMINADO
100
AcDbLine
 10
770.5509912659
 20
23.9085542089
 30
0.0
 11
770.5509912659
 21
6.9219860184
 31
0.0
  0
LINE
  5
B4
330
1F
100
AcDbEntity
  8
PREDETERMINADO
370
    15
100
AcDbLine
 10
660.4501249088
 20
34.9887858729
 30
0.0
 11
660.4501249088
 21
24.8505542089
 31
0.0
  0
LINE
  5
B5
330
1F
100
AcDbEntity
  8
PREDETERMINADO
370
    15
100
AcDbLine
 10
660.4501249088
 20
24.8505542089
 30
0.0
 11
769.6089912659
 21
24.8505542089
 31
0.0
  0
LINE
  5
B6
330
1F
100
AcDbEntity
  8
PREDETERMINADO
370
    15
100
AcDbLine
 10
769.6089912659
 20
24.8505542089
 30
0.0
 11
769.6089912659
 21
34.9887858729
 31
0.0
  0
LINE
  5
B7
330
1F
100
AcDbEntity
  8
SLD-0
  6
Continuous
 62
   179
100
AcDbLine
 10
821.7385496211
 20
9.7026975502
 30
0.0
 11
822.9243311959
 21
9.7026975502
 31
0.0
  0
LINE
  5
B8
330
1F
100
AcDbEntity
  8
NONPLOT
100
AcDbLine
 10
20.2752616314
 20
271.0131637688
 30
0.0
 11
414.1539079938
 21
271.0131637688
 31
0.0
  0
LINE
  5
B9
330
1F
100
AcDbEntity
  8
NONPLOT
100
AcDbLine
 10
20.2752616314
 20
261.0131637688
 30
0.0
 11
414.1539079938
 21
261.0131637688
 31
0.0
  0
LINE
  5
BA
330
1F
100
AcDbEntity
  8
NONPLOT
100
AcDbLine
 10
20.2752616314
 20
15.5413915315
 30
0.0
 11
414.1501634689
 21
15.5413915315
 31
0.0
  0
LINE
  5
BB
330
1F
100
AcDbEntity
  8
NONPLOT
100
AcDbLine
 10
35.2752616314
 20
271.0131637688
 30
0.0
 11
35.2752616314
 21
261.0131637688
 31
0.0
  0
LINE
  5
BC
330
1F
100
AcDbEntity
  8
NONPLOT
100
AcDbLine
 10
399.1539079938
 20
5.5413915315
 30
0.0
 11
399.1539079938
 21
15.5413915315
 31
0.0
  0
LINE
  5
BD
330
1F
100
AcDbEntity
  8
NONPLOT
370
    15
100
AcDbLine
 10
414.1539079938
 20
5.5413915315
 30
0.0
 11
294.1539079938
 21
5.5413915315
 31
0.0
  0
LINE
  5
BE
330
1F
100
AcDbEntity
  8
NONPLOT
370
    15
100
AcDbLine
 10
414.1539079938
 20
5.5413915315
 30
0.0
 11
414.1539079938
 21
105.5413915315
 31
0.0
  0
LINE
  5
BF
330
1F
100
AcDbEntity
  8
NONPLOT
  6
Continuous
 62
   179
370
    15
100
AcDbLine
 10
414.1539079938
 20
5.5413915315
 30
0.0
 11
414.1539079938
 21
291.0131637688
 31
0.0
  0
LINE
  5
C0
330
1F
100
AcDbEntity
  8
NONPLOT
  6
Continuous
 62
   179
370
    15
100
AcDbLine
 10
414.1539079938
 20
291.0131637688
 30
0.0
 11
20.2752616314
 21
291.0131637688
 31
0.0
  0
LINE
  5
C1
330
1F
100
AcDbEntity
  8
NONPLOT
  6
Continuous
 62
     7
370
    15
100
AcDbLine
 10
20.2752616314
 20
291.0131637688
 30
0.0
 11
20.2752616314
 21
5.5413915315
 31
0.0
  0
LINE
  5
C2
330
1F
100
AcDbEntity
  8
NONPLOT
  6
Continuous
 62
     7
100
AcDbLine
 10
-0.0123065099
 20
140.7183915315
 30
0.0
 11
20.2752616314
 21
140.7183915315
 31
0.0
  0
LINE
  5
C3
330
1F
100
AcDbEntity
  8
NONPLOT
  6
Continuous
 62
   179
100
AcDbLine
 10
244.5621101288
 20
5.5413915315
 30
0.0
 11
244.5621101288
 21
2.7153915315
 31
0.0
  0
LINE
  5
C4
330
1F
100
AcDbEntity
  8
NONPLOT
  6
Continuous
 62
   179
100
AcDbLine
 10
246.359907498
 20
293.8391637688
 30
0.0
 11
246.359907498
 21
291.0131637688
 31
0.0
  0
LINE
  5
C5
330
1F
100
AcDbEntity
  8
NONPLOT
  6
Continuous
 62
   179
370
    15
100
AcDbLine
 10
20.2752616314
 20
5.5413915315
 30
0.0
 11
414.1501634689
 21
5.5413915315
 31
0.0
  0
LINE
  5
C6
330
1F
100
AcDbEntity
  8
NONPLOT
370
    15
100
AcDbLine
 10
414.1539079938
 20
105.5413915315
 30
0.0
 11
294.1539079938
 21
105.5413915315
 31
0.0
  0
LINE
  5
C7
330
1F
100
AcDbEntity
  8
NONPLOT
370
    15
100
AcDbLine
 10
294.1539079938
 20
5.5413915315
 30
0.0
 11
294.1539079938
 21
105.5413915315
 31
0.0
  0
LINE
  5
C8
330
1F
100
AcDbEntity
  8
NONPLOT
100
AcDbLine
 10
399.1539079938
 20
261.0131637688
 30
0.0
 11
399.1539079938
 21
271.0131637688
 31
0.0
  0
LINE
  5
C9
330
1F
100
AcDbEntity
  8
NONPLOT
100
AcDbLine
 10
35.2752616314
 20
15.5413915315
 30
0.0
 11
35.2752616314
 21
5.5413915315
 31
0.0
  0
ARC
  5
CA
330
1F
100
AcDbEntity
  8
PREDETERMINADO
100
AcDbCircle
 10
806.7038274037
 20
16.012749502
 30
0.0
 40
16.30520247611798
100
AcDbArc
 50
337.2322750577
 51
0.0
  0
ARC
  5
CB
330
1F
100
AcDbEntity
  8
PREDETERMINADO
100
AcDbCircle
 10
814.1469889361
 20
16.012749502
 30
0.0
 40
10.81011067375687
100
AcDbArc
 50
324.2875534854
 51
0.0
  0
ARC
  5
CC
330
1F
100
AcDbEntity
  8
PREDETERMINADO
100
AcDbCircle
 10
812.4998216246
 20
16.012749502
 30
0.0
 40
15.33703323841019
100
AcDbArc
 50
337.9429486592
 51
0.0
  0
ARC
  5
CD
330
1F
100
AcDbEntity
  8
PREDETERMINADO
100
AcDbCircle
 10
814.4794874154
 20
16.012749502
 30
0.0
 40
15.13603980980884
100
AcDbArc
 50
337.634330245
 51
0.0
  0
ARC
  5
CE
330
1F
100
AcDbEntity
  8
PREDETERMINADO
100
AcDbCircle
 10
814.4794874154
 20
16.012749502
 30
0.0
 40
15.13603980980884
100
AcDbArc
 50
337.634330245
 51
0.0
  0
ARC
  5
CF
330
1F
100
AcDbEntity
  8
PREDETERMINADO
100
AcDbCircle
 10
812.4998216246
 20
16.012749502
 30
0.0
 40
15.33703323841019
100
AcDbArc
 50
337.9429486592
 51
0.0
  0
ARC
  5
D0
330
1F
100
AcDbEntity
  8
PREDETERMINADO
100
AcDbCircle
 10
814.1469889361
 20
16.012749502
 30
0.0
 40
10.81011067375687
100
AcDbArc
 50
324.2875534854
 51
0.0
  0
ARC
  5
D1
330
1F
100
AcDbEntity
  8
PREDETERMINADO
100
AcDbCircle
 10
806.7038274037
 20
16.012749502
 30
0.0
 40
16.30520247611798
100
AcDbArc
 50
337.2322750577
 51
0.0
  0
CIRCLE
  5
D2
330
1F
100
AcDbEntity
  8
PREDETERMINADO
  6
Continuous
 62
   179
100
AcDbCircle
 10
673.8744942101
 20
51.3516658032
 30
0.0
 40
1.815106642745832
  0
CIRCLE
  5
D3
330
1F
100
AcDbEntity
  8
PREDETERMINADO
  6
Continuous
 62
   179
100
AcDbCircle
 10
673.8719999074
 20
51.3516658032
 30
0.0
 40
0.9822666035554448
  0
ARC
  5
D4
330
1F
100
AcDbEntity
  8
SLD-0
  6
Continuous
 62
   179
100
AcDbCircle
 10
812.4998216246
 20
16.012749502
 30
0.0
 40
15.33703323841019
100
AcDbArc
 50
337.9429486592
 51
0.0
  0
ARC
  5
D5
330
1F
100
AcDbEntity
  8
SLD-0
  6
Continuous
 62
   179
100
AcDbCircle
 10
814.4794874154
 20
16.012749502
 30
0.0
 40
15.13603980980884
100
AcDbArc
 50
337.634330245
 51
0.0
  0
ARC
  5
D6
330
1F
100
AcDbEntity
  8
SLD-0
  6
Continuous
 62
   179
100
AcDbCircle
 10
814.1469889361
 20
16.012749502
 30
0.0
 40
10.81011067375687
100
AcDbArc
 50
324.2875534854
 51
0.0
  0
ARC
  5
D7
330
1F
100
AcDbEntity
  8
SLD-0
  6
Continuous
 62
   179
100
AcDbCircle
 10
806.7038274037
 20
16.012749502
 30
0.0
 40
16.30520247611798
100
AcDbArc
 50
337.2322750577
 51
0.0
  0
HATCH
  5
D8
330
1F
100
AcDbEntity
  8
0
  6
Continuous
 62
   179
100
AcDbHatch
 10
0.0
 20
0.0
 30
0.0
210
0.0
220
0.0
230
1.0
  2
ANSI31
 70
     0
 71
     0
 91
        1
 92
        0
 93
        4
 72
     1
 10
821.7385496210638
 20
9.702697550238701
 11
822.9243311958878
 21
9.702697550238701
 72
     2
 10
814.1469889361148
 20
16.01274950197998
 40
10.81011067375681
 50
324.2875534853717
 51
360.0000000000008
 73
     1
 72
     1
 10
824.9570996098716
 20
16.01274950197998
 11
823.0090298798102
 21
16.01274950197998
 72
     2
 10
806.7038274036922
 20
16.01274950197998
 40
16.30520247611787
 50
0.0
 51
22.76772494225667
 73
     0
 97
        0
 75
     0
 76
     1
 52
90.0
 41
0.03125
 77
     0
 78
     1
 53
135.0000000000002
 43
0.0
 44
0.0
 45
-0.0701582509458525
 46
-0.070158250945853
 79
     0
 98
        1
 10
0.0
 20
0.0
  0
HATCH
  5
D9
330
1F
100
AcDbEntity
  8
0
  6
Continuous
 62
   179
100
AcDbHatch
 10
0.0
 20
0.0
 30
0.0
210
0.0
220
0.0
230
1.0
  2
ANSI31
 70
     0
 71
     0
 91
        1
 92
        0
 93
        4
 72
     1
 10
826.714343328977
 20
10.25323899569272
 11
828.4769064579682
 21
10.25323899569272
 72
     2
 10
814.4794874154418
 20
16.01274950197998
 40
15.13603980980881
 50
337.634330244953
 51
360.0000000000008
 73
     1
 72
     1
 10
829.6155272252506
 20
16.01274950197998
 11
827.8368548630151
 21
16.01274950197998
 72
     2
 10
812.4998216246049
 20
16.01274950197998
 40
15.33703323841018
 50
0.0
 51
22.05705134075574
 73
     0
 97
        0
 75
     0
 76
     1
 52
90.0
 41
0.03125
 77
     0
 78
     1
 53
135.0000000000002
 43
0.0
 44
0.0
 45
-0.0701582509458525
 46
-0.070158250945853
 79
     0
 98
        1
 10
0.0
 20
0.0
  0
HATCH
  5
DA
330
1F
100
AcDbEntity
  8
0
  6
Continuous
 62
   179
100
AcDbHatch
 10
0.0
 20
0.0
 30
0.0
210
0.0
220
0.0
230
1.0
  2
ANSI31
 70
     0
 71
     0
 91
        1
 92
        0
 93
        6
 72
     1
 10
770.5509912658555
 20
23.90855420887003
 11
770.5509912658555
 21
34.04678587294465
 72
     1
 10
770.5509912658555
 20
34.04678587294465
 11
769.6089912658555
 21
34.04678587294465
 72
     1
 10
769.6089912658555
 20
34.04678587294465
 11
769.6089912658555
 21
24.85055420887003
 72
     1
 10
769.6089912658555
 20
24.85055420887003
 11
661.3921249088409
 21
24.85055420887003
 72
     1
 10
661.3921249088409
 20
24.85055420887003
 11
661.3921249088409
 21
23.90855420887002
 72
     1
 10
661.3921249088409
 20
23.90855420887002
 11
770.5509912658555
 21
23.90855420887003
 97
        0
 75
     0
 76
     1
 52
0.0
 41
0.0625
 77
     0
 78
     1
 53
45.0
 43
0.0
 44
0.0
 45
-0.1403165018917055
 46
0.1403165018917055
 79
     0
 98
        1
 10
0.0
 20
0.0
  0
INSERT
  5
E1
330
1F
100
AcDbEntity
  8
CAJETIN
100
AcDbBlockReference
  2
SW_NOTE_0
 10
774.9215165208
 20
25.1113250836
 30
0.0
  0
MTEXT
  5
E2
330
1F
100
AcDbEntity
  8
CAJETIN
100
AcDbMText
 10
821.9005224942
 20
38.0866434683
 30
0.0
 40
2.5
 41
0.0
 71
     1
 72
     1
  1
g.
  7
SLDTEXTSTYLE0
 73
     1
 44
1.0
  0
MTEXT
  5
E3
330
1F
100
AcDbEntity
  8
CAJETIN
100
AcDbMText
 10
689.4236157215
 20
47.7789058128
 30
0.0
 40
2.0
 41
0.0
 71
     1
 72
     1
  1
R&D Dep.
  7
SLDTEXTSTYLE0
 73
     1
 44
1.0
  0
MTEXT
  5
E5
330
1F
100
AcDbEntity
  8
PREDETERMINADO
100
AcDbMText
 10
801.1368427803
 20
16.5969451541
 30
0.0
 40
4.71
 41
0.0
 71
     1
 72
     1
  1
beyma
  7
SLDTEXTSTYLE1
 73
     1
 44
1.0
  0
MTEXT
  5
E6
330
1F
100
AcDbEntity
  8
CAJETIN
100
AcDbMText
 10
784.757732968
 20
47.1999620645
 30
0.0
 40
2.0
 41
0.0
 71
     1
 72
     1
  1
01
  7
SLDTEXTSTYLE0
 73
     1
 44
1.0
  0
MTEXT
  5
E7
330
1F
100
AcDbEntity
  8
CAJETIN
100
AcDbMText
 10
781.0160048471
 20
38.0866434683
 30
0.0
 40
2.5
 41
0.0
 71
     1
 72
     1
  1
FR-6CM
  7
SLDTEXTSTYLE0
 73
     1
 44
1.0
  0
MTEXT
  5
E8
330
1F
100
AcDbEntity
  8
CAJETIN
100
AcDbMText
 10
819.3526847967
 20
47.5460529383
 30
0.0
 40
2.5
 41
0.0
 71
     2
 72
     1
  1
1:1
  7
SLDTEXTSTYLE0
 73
     1
 44
1.0
  0
MTEXT
  5
E9
330
1F
100
AcDbEntity
  8
CAJETIN
100
AcDbMText
 10
692.3078660794
 20
53.0460703449
 30
0.0
 40
2.5
 41
0.0
 71
     1
 72
     1
  1
NAME
  7
SLDTEXTSTYLE0
 73
     1
 44
1.0
  0
MTEXT
  5
EA
330
1F
100
AcDbEntity
  8
CAJETIN
100
AcDbMText
 10
813.1783032583
 20
42.1278107183
 30
0.0
 40
2.5
 41
0.0
 71
     1
 72
     1
  1
WEIGHT
  7
SLDTEXTSTYLE0
 73
     1
 44
1.0
  0
MTEXT
  5
EB
330
1F
100
AcDbEntity
  8
CAJETIN
100
AcDbMText
 10
675.8171144343
 20
52.8526646004
 30
0.0
 40
2.5
 41
0.0
 71
     1
 72
     1
  1
CAD
  7
SLDTEXTSTYLE0
 73
     1
 44
1.0
  0
MTEXT
  5
EC
330
1F
100
AcDbEntity
  8
CAJETIN
100
AcDbMText
 10
711.2435398009
 20
53.0460703449
 30
0.0
 40
2.5
 41
0.0
 71
     1
 72
     1
  1
DATE
  7
SLDTEXTSTYLE0
 73
     1
 44
1.0
  0
MTEXT
  5
ED
330
1F
100
AcDbEntity
  8
CAJETIN
100
AcDbMText
 10
662.5258906495
 20
47.9714724501
 30
0.0
 40
2.5
 41
0.0
 71
     1
 72
     1
  1
DESIGNED BY
  7
SLDTEXTSTYLE0
 73
     1
 44
1.0
  0
MTEXT
  5
EE
330
1F
100
AcDbEntity
  8
CAJETIN
100
AcDbMText
 10
662.5258906495
 20
38.8051349528
 30
0.0
 40
2.5
 41
0.0
 71
     1
 72
     1
  1
REVISED BY
  7
SLDTEXTSTYLE0
 73
     1
 44
1.0
  0
MTEXT
  5
EF
330
1F
100
AcDbEntity
  8
CAJETIN
100
AcDbMText
 10
662.5258906495
 20
43.5259782302
 30
0.0
 40
2.5
 41
0.0
 71
     1
 72
     1
  1
DRAWN BY
  7
SLDTEXTSTYLE0
 73
     1
 44
1.0
  0
MTEXT
  5
F0
330
1F
100
AcDbEntity
  8
CAJETIN
100
AcDbMText
 10
661.3068317849
 20
33.7233582542
 30
0.0
 40
2.5
 41
0.0
 71
     1
 72
     1
  1
TITLE:
  7
SLDTEXTSTYLE0
 73
     1
 44
1.0
  0
MTEXT
  5
F1
330
1F
100
AcDbEntity
  8
CAJETIN
100
AcDbMText
 10
662.5258906495
 20
22.5519252256
 30
0.0
 40
2.5
 41
0.0
 71
     1
 72
     1
  1
MODEL CODE:
  7
SLDTEXTSTYLE0
 73
     1
 44
1.0
  0
MTEXT
  5
F2
330
1F
100
AcDbEntity
  8
CAJETIN
100
AcDbMText
 10
741.6109120946
 20
22.6528242107
 30
0.0
 40
2.5
 41
0.0
 71
     1
 72
     1
  1
PART NUMBER
  7
SLDTEXTSTYLE0
 73
     1
 44
1.0
  0
MTEXT
  5
F3
330
1F
100
AcDbEntity
  8
CAJETIN
100
AcDbMText
 10
739.2123498911
 20
53.0460703449
 30
0.0
 40
2.5
 41
0.0
 71
     1
 72
     1
  1
NOTES
  7
SLDTEXTSTYLE0
 73
     1
 44
1.0
  0
MTEXT
  5
F4
330
1F
100
AcDbEntity
  8
CAJETIN
100
AcDbMText
 10
771.2619691428
 20
52.7480575252
 30
0.0
 40
2.2
 41
0.0
 71
     1
 72
     1
  1
UNIT
  7
SLDTEXTSTYLE0
 73
     1
 44
1.0
  0
MTEXT
  5
F5
330
1F
100
AcDbEntity
  8
CAJETIN
100
AcDbMText
 10
780.9490878208
 20
52.7480575252
 30
0.0
 40
2.2
 41
0.0
 71
     1
 72
     1
  1
LEVEL
  7
SLDTEXTSTYLE0
 73
     1
 44
1.0
  0
MTEXT
  5
F6
330
1F
100
AcDbEntity
  8
CAJETIN
100
AcDbMText
 10
795.0163760514
 20
52.7480575252
 30
0.0
 40
2.2
 41
0.0
 71
     1
 72
     1
  1
DATE
  7
SLDTEXTSTYLE0
 73
     1
 44
1.0
  0
MTEXT
  5
F7
330
1F
100
AcDbEntity
  8
CAJETIN
100
AcDbMText
 10
814.412677733
 20
53.0460703449
 30
0.0
 40
2.5
 41
0.0
 71
     1
 72
     1
  1
SCALE
  7
SLDTEXTSTYLE0
 73
     1
 44
1.0
  0
MTEXT
  5
F8
330
1F
100
AcDbEntity
  8
CAJETIN
100
AcDbMText
 10
773.2533016564
 20
42.1278107183
 30
0.0
 40
2.5
 41
0.0
 71
     1
 72
     1
  1
DRAWING NUMBER
  7
SLDTEXTSTYLE0
 73
     1
 44
1.0
  0
MTEXT
  5
F9
330
1F
100
AcDbEntity
  8
CAJETIN
100
AcDbMText
 10
713.7587589797
 20
22.6528242107
 30
0.0
 40
2.5
 41
0.0
 71
     1
 72
     1
  1
SIGNED
  7
SLDTEXTSTYLE0
 73
     1
 44
1.0
  0
MTEXT
  5
FA
330
1F
100
AcDbEntity
  8
CAJETIN
100
AcDbMText
 10
776.4627160281
 20
32.7311090451
 30
0.0
 40
2.5
 41
0.0
 71
     1
 72
     1
  1
MATERIAL
  7
SLDTEXTSTYLE0
 73
     1
 44
1.0
  0
MTEXT
  5
FB
330
1F
100
AcDbEntity
  8
CAJETIN
100
AcDbMText
 10
707.278341216
 20
47.7789058128
 30
0.0
 40
2.0
 41
0.0
 71
     1
 72
     1
  1
18/01/2019
  7
SLDTEXTSTYLE0
 73
     1
 44
1.0
  0
MTEXT
  5
FC
330
1F
100
AcDbEntity
  8
CAJETIN
100
AcDbMText
 10
689.7291710167
 20
43.1452548764
 30
0.0
 40
2.0
 41
0.0
 71
     1
 72
     1
  1
R. Climent
  7
SLDTEXTSTYLE0
 73
     1
 44
1.0
  0
MTEXT
  5
FD
330
1F
100
AcDbEntity
  8
CAJETIN
100
AcDbMText
 10
689.7291710167
 20
38.4172072998
 30
0.0
 40
2.0
 41
0.0
 71
     1
 72
     1
  1
J. Serrano
  7
SLDTEXTSTYLE0
 73
     1
 44
1.0
  0
MTEXT
  5
FE
330
1F
100
AcDbEntity
  8
CAJETIN
100
AcDbMText
 10
707.278341216
 20
43.1452548764
 30
0.0
 40
2.0
 41
0.0
 71
     1
 72
     1
  1
18/01/2019
  7
SLDTEXTSTYLE0
 73
     1
 44
1.0
  0
MTEXT
  5
FF
330
1F
100
AcDbEntity
  8
CAJETIN
100
AcDbMText
 10
707.278341216
 20
38.4172072998
 30
0.0
 40
2.0
 41
0.0
 71
     1
 72
     1
  1
18/01/2019
  7
SLDTEXTSTYLE0
 73
     1
 44
1.0
  0
MTEXT
  5
100
330
1F
100
AcDbEntity
  8
CAJETIN
100
AcDbMText
 10
772.4976635344
 20
47.1999620645
 30
0.0
 40
2.0
 41
0.0
 71
     1
 72
     1
  1
mm
  7
SLDTEXTSTYLE0
 73
     1
 44
1.0
  0
INSERT
  5
106
330
1F
100
AcDbEntity
  8
CAJETIN
100
AcDbBlockReference
  2
SW_NOTE_1
 10
710.7492124589
 20
29.5185000579
 30
0.0
  0
INSERT
  5
10C
330
1F
100
AcDbEntity
  8
SLD-0_0
100
AcDbBlockReference
  2
SW_NOTE_2
 10
672.4276947012
 20
543.3379086791
 30
0.0
  0
INSERT
  5
112
330
1F
100
AcDbEntity
  8
SLD-0_0
100
AcDbBlockReference
  2
SW_NOTE_3
 10
672.4276947012
 20
467.0674207818
 30
0.0
  0
INSERT
  5
118
330
1F
100
AcDbEntity
  8
SLD-0_0
100
AcDbBlockReference
  2
SW_NOTE_4
 10
672.4276947012
 20
317.4720385948
 30
0.0
  0
INSERT
  5
11E
330
1F
100
AcDbEntity
  8
SLD-0_0
100
AcDbBlockReference
  2
SW_NOTE_5
 10
674.0874213896
 20
254.0981387726
 30
0.0
  0
INSERT
  5
124
330
1F
100
AcDbEntity
  8
SLD-0_0
100
AcDbBlockReference
  2
SW_NOTE_6
 10
362.6322949916
 20
557.194427637
 30
0.0
  0
INSERT
  5
12A
330
1F
100
AcDbEntity
  8
SLD-0_0
100
AcDbBlockReference
  2
SW_NOTE_7
 10
60.0286718355
 20
560.0559276195
 30
0.0
  0
INSERT
  5
15A
330
1F
100
AcDbEntity
  8
CAJETIN
100
AcDbBlockReference
  2
SW_TABLEANNOTATION_0
 10
533.817683116
 20
94.9098914255
 30
0.0
  0
LINE
  5
15B
330
1F
100
AcDbEntity
  8
0
  6
Continuous
 62
     7
100
AcDbLine
 10
158.5679657861
 20
63.0981601738
 30
0.0
 11
158.5679657861
 21
58.9837571304
 31
0.0
  0
LINE
  5
15C
330
1F
100
AcDbEntity
  8
0
  6
Continuous
 62
     7
100
AcDbLine
 10
158.5679657861
 20
223.8819827103
 30
0.0
 11
158.5679657861
 21
219.7675796669
 31
0.0
  0
LINE
  5
15D
330
1F
100
AcDbEntity
  8
0
  6
Continuous
 62
     7
100
AcDbLine
 10
198.3450813706
 20
83.8820012044
 30
0.0
 11
199.0278221058
 21
84.5483770923
 31
0.0
  0
LINE
  5
15E
330
1F
100
AcDbEntity
  8
0
  6
Continuous
 62
     7
100
AcDbLine
 10
170.3694805924
 20
100.8676976608
 30
0.0
 11
167.0090633949
 21
105.0378625796
 31
0.0
  0
LINE
  5
15F
330
1F
100
AcDbEntity
  8
0
  6
Continuous
 62
     7
100
AcDbLine
 10
167.0090633949
 20
105.0378625796
 30
0.0
 11
175.689597629
 21
113.5103301062
 31
0.0
  0
LINE
  5
160
330
1F
100
AcDbEntity
  8
0
  6
Continuous
 62
     7
100
AcDbLine
 10
199.0278221058
 20
84.5483770923
 30
0.0
 11
198.3450813706
 21
85.3956354222
 31
0.0
  0
LINE
  5
161
330
1F
100
AcDbEntity
  8
0
  6
Continuous
 62
     7
100
AcDbLine
 10
178.2396974459
 20
110.345741851
 30
0.0
 11
175.689597629
 21
113.5103301062
 31
0.0
  0
LINE
  5
162
330
1F
100
AcDbEntity
  8
0
  6
Continuous
 62
     7
100
AcDbLine
 10
167.0090633949
 20
105.0378625796
 30
0.0
 11
167.0090633949
 21
101.7809870501
 31
0.0
  0
LINE
  5
163
330
1F
100
AcDbEntity
  8
0
  6
Continuous
 62
     7
100
AcDbLine
 10
234.2248406424
 20
86.7700545837
 30
0.0
 11
242.9053748765
 21
95.2425221102
 31
0.0
  0
LINE
  5
164
330
1F
100
AcDbEntity
  8
0
  6
Continuous
 62
     7
100
AcDbLine
 10
234.2248406424
 20
86.7700545837
 30
0.0
 11
210.8866161656
 21
70.49376024
 31
0.0
  0
LINE
  5
165
330
1F
100
AcDbEntity
  8
0
  6
Continuous
 62
     7
100
AcDbLine
 10
210.8866161656
 20
70.49376024
 30
0.0
 11
219.5671503997
 21
78.9662277666
 31
0.0
  0
LINE
  5
166
330
1F
100
AcDbEntity
  8
0
  6
Continuous
 62
     7
100
AcDbLine
 10
242.9053748765
 20
95.2425221102
 30
0.0
 11
219.5671503997
 21
78.9662277666
 31
0.0
  0
LINE
  5
167
330
1F
100
AcDbEntity
  8
0
  6
Continuous
 62
     7
100
AcDbLine
 10
234.2248406424
 20
80.9514099987
 30
0.0
 11
242.9053748765
 21
89.4238775252
 31
0.0
  0
LINE
  5
168
330
1F
100
AcDbEntity
  8
0
  6
Continuous
 62
     7
100
AcDbLine
 10
234.2248406424
 20
80.9514099987
 30
0.0
 11
234.2248406424
 21
86.7700545837
 31
0.0
  0
LINE
  5
169
330
1F
100
AcDbEntity
  8
0
  6
Continuous
 62
     7
100
AcDbLine
 10
242.9053748765
 20
89.4238775252
 30
0.0
 11
242.9053748765
 21
95.2425221102
 31
0.0
  0
LINE
  5
16A
330
1F
100
AcDbEntity
  8
0
  6
Continuous
 62
     7
100
AcDbLine
 10
216.8902454575
 20
68.8621024407
 30
0.0
 11
234.2248406424
 21
80.9514099987
 31
0.0
  0
LINE
  5
16B
330
1F
100
AcDbEntity
  8
0
  6
Continuous
 62
     7
100
AcDbLine
 10
210.8866161656
 20
70.49376024
 30
0.0
 11
216.8902454575
 21
68.8621024407
 31
0.0
  0
LINE
  5
16C
330
1F
100
AcDbEntity
  8
0
  6
Continuous
 62
     7
100
AcDbLine
 10
135.0150675754
 20
227.0234523487
 30
0.0
 11
135.0150675754
 21
161.220573767
 31
0.0
  0
LINE
  5
16D
330
1F
100
AcDbEntity
  8
0
  6
Continuous
 62
     7
100
AcDbLine
 10
135.0150675754
 20
227.0234523487
 30
0.0
 11
154.9966563416
 21
240.5338883145
 31
0.0
  0
LINE
  5
16E
330
1F
100
AcDbEntity
  8
0
  6
Continuous
 62
     7
100
AcDbLine
 10
154.9966563416
 20
240.5338883145
 30
0.0
 11
154.9966563416
 21
155.790006094
 31
0.0
  0
LINE
  5
16F
330
1F
100
AcDbEntity
  8
0
  6
Continuous
 62
     7
100
AcDbLine
 10
154.9966563416
 20
146.8231368244
 30
0.0
 11
154.9966563416
 21
120.3590327561
 31
0.0
  0
LINE
  5
170
330
1F
100
AcDbEntity
  8
0
  6
Continuous
 62
     7
100
AcDbLine
 10
140.5041362129
 20
110.5599988818
 30
0.0
 11
154.9966563416
 21
120.3590327561
 31
0.0
  0
LINE
  5
171
330
1F
100
AcDbEntity
  8
0
  6
Continuous
 62
     7
100
AcDbLine
 10
135.0150675754
 20
227.0234523487
 30
0.0
 11
130.9555596845
 21
228.358456651
 31
0.0
  0
LINE
  5
172
330
1F
100
AcDbEntity
  8
0
  6
Continuous
 62
     7
100
AcDbLine
 10
130.9555596845
 20
228.358456651
 30
0.0
 11
152.4587454728
 21
242.8977116648
 31
0.0
  0
LINE
  5
173
330
1F
100
AcDbEntity
  8
0
  6
Continuous
 62
     7
100
AcDbLine
 10
154.9966563416
 20
240.5338883145
 30
0.0
 11
152.4587454728
 21
242.8977116648
 31
0.0
  0
LINE
  5
174
330
1F
100
AcDbEntity
  8
0
  6
Continuous
 62
     7
100
AcDbLine
 10
130.9555596845
 20
228.358456651
 30
0.0
 11
130.9555596845
 21
162.323861027
 31
0.0
  0
LINE
  5
175
330
1F
100
AcDbEntity
  8
0
  6
Continuous
 62
     7
100
AcDbLine
 10
191.1509456226
 20
207.3482709608
 30
0.0
 11
191.1509456226
 21
145.9640449601
 31
0.0
  0
LINE
  5
176
330
1F
100
AcDbEntity
  8
0
  6
Continuous
 62
     7
100
AcDbLine
 10
231.5163013133
 20
199.061533637
 30
0.0
 11
231.5163013133
 21
131.9671191274
 31
0.0
  0
LINE
  5
177
330
1F
100
AcDbEntity
  8
0
  6
Continuous
 62
     7
100
AcDbLine
 10
198.3450813706
 20
130.4183259696
 30
0.0
 11
231.5163013133
 21
131.9671191274
 31
0.0
  0
LINE
  5
178
330
1F
100
AcDbEntity
  8
0
  6
Continuous
 62
     7
100
AcDbLine
 10
191.0993970354
 20
250.3052936839
 30
0.0
 11
188.6130347538
 21
252.6211044128
 31
0.0
  0
LINE
  5
179
330
1F
100
AcDbEntity
  8
0
  6
Continuous
 62
     7
100
AcDbLine
 10
188.6130347538
 20
252.6211044128
 30
0.0
 11
232.4989515826
 21
254.6701761028
 31
0.0
  0
LINE
  5
17A
330
1F
100
AcDbEntity
  8
0
  6
Continuous
 62
     7
100
AcDbLine
 10
232.0430522374
 20
253.4972202644
 30
0.0
 11
232.4989515826
 21
254.6701761028
 31
0.0
  0
LINE
  5
17B
330
1F
100
AcDbEntity
  8
0
  6
Continuous
 62
     7
100
AcDbLine
 10
188.6130347538
 20
252.6211044128
 30
0.0
 11
188.6130347538
 21
248.6241541716
 31
0.0
  0
LINE
  5
17C
330
1F
100
AcDbEntity
  8
0
  6
Continuous
 62
     7
100
AcDbLine
 10
188.6130347538
 20
208.070337983
 30
0.0
 11
188.6130347538
 21
146.6537947534
 31
0.0
  0
LINE
  5
17D
330
1F
100
AcDbEntity
  8
0
  6
Continuous
 62
     7
100
AcDbLine
 10
231.5163013133
 20
131.9671191274
 30
0.0
 11
232.4989515826
 21
134.4953205443
 31
0.0
  0
LINE
  5
17E
330
1F
100
AcDbEntity
  8
0
  6
Continuous
 62
     7
100
AcDbLine
 10
232.4989515826
 20
254.6701761028
 30
0.0
 11
232.4989515826
 21
253.518506602
 31
0.0
  0
LINE
  5
17F
330
1F
100
AcDbEntity
  8
0
  6
Continuous
 62
     7
100
AcDbLine
 10
232.4989515826
 20
199.1668960367
 30
0.0
 11
232.4989515826
 21
134.4953205443
 31
0.0
  0
LINE
  5
180
330
1F
100
AcDbEntity
  8
0
  6
Continuous
 62
     7
100
AcDbLine
 10
259.475761381
 20
249.3385881695
 30
0.0
 11
260.4584116503
 21
251.8667895865
 31
0.0
  0
LINE
  5
181
330
1F
100
AcDbEntity
  8
0
  6
Continuous
 62
     7
100
AcDbLine
 10
260.4584116503
 20
251.8667895865
 30
0.0
 11
289.6001705443
 21
243.9466839515
 31
0.0
  0
LINE
  5
182
330
1F
100
AcDbEntity
  8
0
  6
Continuous
 62
     7
100
AcDbLine
 10
283.7647713412
 20
242.7373557129
 30
0.0
 11
289.6001705443
 21
243.9466839515
 31
0.0
  0
LINE
  5
183
330
1F
100
AcDbEntity
  8
0
  6
Continuous
 62
     7
100
AcDbLine
 10
259.475761381
 20
249.3385881695
 30
0.0
 11
283.7647713412
 21
242.7373557129
 31
0.0
  0
LINE
  5
184
330
1F
100
AcDbEntity
  8
0
  6
Continuous
 62
     7
100
AcDbLine
 10
283.7647713412
 20
242.7373557129
 30
0.0
 11
283.7647713412
 21
174.1075636574
 31
0.0
  0
LINE
  5
185
330
1F
100
AcDbEntity
  8
0
  6
Continuous
 62
     7
100
AcDbLine
 10
289.6001705443
 20
243.9466839515
 30
0.0
 11
289.6001705443
 21
179.8030921721
 31
0.0
  0
LINE
  5
186
330
1F
100
AcDbEntity
  8
0
  6
Continuous
 62
     7
100
AcDbLine
 10
259.475761381
 20
249.3385881695
 30
0.0
 11
259.475761381
 21
247.6263463066
 31
0.0
  0
LINE
  5
187
330
1F
100
AcDbEntity
  8
0
  6
Continuous
 62
     7
100
AcDbLine
 10
259.475761381
 20
231.3098167143
 30
0.0
 11
259.475761381
 21
129.1637326111
 31
0.0
  0
LINE
  5
188
330
1F
100
AcDbEntity
  8
0
  6
Continuous
 62
     7
100
AcDbLine
 10
259.475761381
 20
129.1637326111
 30
0.0
 11
281.163677544
 21
123.2694217138
 31
0.0
  0
LINE
  5
189
330
1F
100
AcDbEntity
  8
0
  6
Continuous
 62
     7
100
AcDbLine
 10
292.3356842202
 20
184.3577299615
 30
0.0
 11
292.3356842202
 21
179.4944482045
 31
0.0
  0
LINE
  5
18A
330
1F
100
AcDbEntity
  8
0
  6
Continuous
 62
     7
100
AcDbLine
 10
292.3356842202
 20
184.3577299615
 30
0.0
 11
296.7665902975
 21
183.3852216748
 31
0.0
  0
LINE
  5
18B
330
1F
100
AcDbEntity
  8
0
  6
Continuous
 62
     7
100
AcDbLine
 10
296.7665902975
 20
183.3852216748
 30
0.0
 11
296.7665902975
 21
63.2103661164
 31
0.0
  0
LINE
  5
18C
330
1F
100
AcDbEntity
  8
0
  6
Continuous
 62
     7
100
AcDbLine
 10
294.2751178553
 20
63.7572018095
 30
0.0
 11
296.7665902975
 21
63.2103661164
 31
0.0
  0
LINE
  5
18D
330
1F
100
AcDbEntity
  8
0
  6
Continuous
 62
     7
100
AcDbLine
 10
309.7558613899
 20
211.41943509
 30
0.0
 11
315.591260593
 21
212.6287633286
 31
0.0
  0
LINE
  5
18E
330
1F
100
AcDbEntity
  8
0
  6
Continuous
 62
     7
100
AcDbLine
 10
296.7665902975
 20
183.3852216748
 30
0.0
 11
315.591260593
 21
212.6287633286
 31
0.0
  0
LINE
  5
18F
330
1F
100
AcDbEntity
  8
0
  6
Continuous
 62
     7
100
AcDbLine
 10
292.3356842202
 20
184.3577299615
 30
0.0
 11
309.7558613899
 21
211.41943509
 31
0.0
  0
LINE
  5
190
330
1F
100
AcDbEntity
  8
0
  6
Continuous
 62
     7
100
AcDbLine
 10
315.591260593
 20
212.6287633286
 30
0.0
 11
315.591260593
 21
92.4539077702
 31
0.0
  0
LINE
  5
191
330
1F
100
AcDbEntity
  8
0
  6
Continuous
 62
     7
100
AcDbLine
 10
296.7665902975
 20
63.2103661164
 30
0.0
 11
315.591260593
 21
92.4539077702
 31
0.0
  0
LINE
  5
192
330
1F
100
AcDbEntity
  8
0
  6
Continuous
 62
     7
100
AcDbLine
 10
130.8181355024
 20
162.361209975
 30
0.0
 11
130.8181355024
 21
223.2611639128
 31
0.0
  0
LINE
  5
193
330
1F
100
AcDbEntity
  8
0
  6
Continuous
 62
     7
100
AcDbLine
 10
122.1376012683
 20
164.0948802792
 30
0.0
 11
122.1376012683
 21
214.7886963862
 31
0.0
  0
LINE
  5
194
330
1F
100
AcDbEntity
  8
0
  6
Continuous
 62
     7
100
AcDbLine
 10
122.1376012683
 20
214.7886963862
 30
0.0
 11
130.8181355024
 21
223.2611639128
 31
0.0
  0
LINE
  5
195
330
1F
100
AcDbEntity
  8
0
  6
Continuous
 62
     7
100
AcDbLine
 10
120.3987522882
 20
95.0864227215
 30
0.0
 11
117.8923942842
 21
95.7675971222
 31
0.0
  0
LINE
  5
196
330
1F
100
AcDbEntity
  8
0
  6
Continuous
 62
     7
100
AcDbLine
 10
117.8923942842
 20
95.7675971222
 30
0.0
 11
117.8923942842
 21
215.9424526807
 31
0.0
  0
LINE
  5
197
330
1F
100
AcDbEntity
  8
0
  6
Continuous
 62
     7
100
AcDbLine
 10
122.1376012683
 20
214.7886963862
 30
0.0
 11
117.8923942842
 21
215.9424526807
 31
0.0
  0
LINE
  5
198
330
1F
100
AcDbEntity
  8
0
  6
Continuous
 62
     7
100
AcDbLine
 10
117.8923942842
 20
215.9424526807
 30
0.0
 11
126.7586276115
 21
224.5961682151
 31
0.0
  0
LINE
  5
199
330
1F
100
AcDbEntity
  8
0
  6
Continuous
 62
     7
100
AcDbLine
 10
130.8181355024
 20
223.2611639128
 30
0.0
 11
126.7586276115
 21
224.5961682151
 31
0.0
  0
LINE
  5
19A
330
1F
100
AcDbEntity
  8
0
  6
Continuous
 62
     7
100
AcDbLine
 10
285.408884528
 20
170.4150600766
 30
0.0
 11
294.2751178553
 21
179.068775611
 31
0.0
  0
LINE
  5
19B
330
1F
100
AcDbEntity
  8
0
  6
Continuous
 62
     7
100
AcDbLine
 10
281.163677544
 20
171.5688163711
 30
0.0
 11
285.408884528
 21
170.4150600766
 31
0.0
  0
LINE
  5
19C
330
1F
100
AcDbEntity
  8
0
  6
Continuous
 62
     7
100
AcDbLine
 10
281.163677544
 20
171.5688163711
 30
0.0
 11
289.8442117781
 21
180.0412838977
 31
0.0
  0
LINE
  5
19D
330
1F
100
AcDbEntity
  8
0
  6
Continuous
 62
     7
100
AcDbLine
 10
289.8442117781
 20
180.0412838977
 30
0.0
 11
294.2751178553
 21
179.068775611
 31
0.0
  0
LINE
  5
19E
330
1F
100
AcDbEntity
  8
0
  6
Continuous
 62
     7
100
AcDbLine
 10
285.408884528
 20
170.4150600766
 30
0.0
 11
285.408884528
 21
50.2402045182
 31
0.0
  0
LINE
  5
19F
330
1F
100
AcDbEntity
  8
0
  6
Continuous
 62
     7
100
AcDbLine
 10
294.2751178553
 20
179.068775611
 30
0.0
 11
294.2751178553
 21
58.8939200526
 31
0.0
  0
LINE
  5
1A0
330
1F
100
AcDbEntity
  8
0
  6
Continuous
 62
     7
100
AcDbLine
 10
285.408884528
 20
50.2402045182
 30
0.0
 11
294.2751178553
 21
58.8939200526
 31
0.0
  0
LINE
  5
1A1
330
1F
100
AcDbEntity
  8
0
  6
Continuous
 62
     7
100
AcDbLine
 10
281.163677544
 20
171.5688163711
 30
0.0
 11
281.163677544
 21
51.3939608127
 31
0.0
  0
LINE
  5
1A2
330
1F
100
AcDbEntity
  8
0
  6
Continuous
 62
     7
100
AcDbLine
 10
281.163677544
 20
51.3939608127
 30
0.0
 11
285.408884528
 21
50.2402045182
 31
0.0
  0
LINE
  5
1A3
330
1F
100
AcDbEntity
  8
0
  6
Continuous
 62
     7
100
AcDbLine
 10
196.1049435038
 20
141.8223897828
 30
0.0
 11
198.3450813706
 21
144.0088330155
 31
0.0
  0
LINE
  5
1A4
330
1F
100
AcDbEntity
  8
0
  6
Continuous
 62
     7
100
AcDbLine
 10
196.1049435038
 20
141.8223897828
 30
0.0
 11
120.3987522882
 21
162.3977103678
 31
0.0
  0
LINE
  5
1A5
330
1F
100
AcDbEntity
  8
0
  6
Continuous
 62
     7
100
AcDbLine
 10
120.3987522882
 20
162.3977103678
 30
0.0
 11
122.6388901551
 21
164.5841536004
 31
0.0
  0
LINE
  5
1A6
330
1F
100
AcDbEntity
  8
0
  6
Continuous
 62
     7
100
AcDbLine
 10
198.3450813706
 20
144.0088330155
 30
0.0
 11
122.6388901551
 21
164.5841536004
 31
0.0
  0
LWPOLYLINE
  5
1A7
330
1F
100
AcDbEntity
  8
0
  6
Continuous
 62
     7
100
AcDbPolyline
 90
       18
 70
   128
 43
0.0
 10
139.784923154
 20
53.240021769
 10
139.7228114586
 20
53.5789327226
 10
139.5448649011
 20
53.9058331298
 10
139.27511615
 20
54.1765732791
 10
138.949996269
 20
54.3545882132
 10
138.6134144995
 20
54.4158360289
 10
138.3108280746
 20
54.3520448691
 10
138.0831029676
 20
54.1718300836
 10
137.9609947161
 20
53.8995306777
 10
137.9609947161
 20
53.5719221951
 10
138.0831029676
 20
53.2332499766
 10
138.3108280746
 20
52.9292535821
 10
138.6134144995
 20
52.700989409
 10
138.949996269
 20
52.5792857989
 10
139.27511615
 20
52.5805794987
 10
139.5448649011
 20
52.704695787
 10
139.7228114586
 20
52.9348720713
 10
139.784923154
 20
53.240021769
  0
LWPOLYLINE
  5
1A8
330
1F
100
AcDbEntity
  8
0
  6
Continuous
 62
     7
100
AcDbPolyline
 90
       18
 70
   128
 43
0.0
 10
178.558362331
 20
42.702231815
 10
178.4962506356
 20
43.0411427686
 10
178.3183040781
 20
43.3680431758
 10
178.048555327
 20
43.6387833251
 10
177.723435446
 20
43.8167982592
 10
177.3868536765
 20
43.8780460748
 10
177.0842672516
 20
43.8142549151
 10
176.8565421446
 20
43.6340401296
 10
176.7344338931
 20
43.3617407237
 10
176.7344338931
 20
43.0341322411
 10
176.8565421446
 20
42.6954600226
 10
177.0842672516
 20
42.3914636281
 10
177.3868536765
 20
42.163199455
 10
177.723435446
 20
42.0414958449
 10
178.048555327
 20
42.0427895447
 10
178.3183040781
 20
42.1669058329
 10
178.4962506356
 20
42.3970821173
 10
178.558362331
 20
42.702231815
  0
LWPOLYLINE
  5
1A9
330
1F
100
AcDbEntity
  8
0
  6
Continuous
 62
     7
100
AcDbPolyline
 90
       17
 70
   128
 43
0.0
 10
181.4059143215
 20
99.4445199845
 10
181.349363572
 20
99.7354291952
 10
181.1883206623
 20
100.0127886798
 10
180.9473029157
 20
100.2343729708
 10
180.6630030993
 20
100.3664478686
 10
180.3787032828
 20
100.3889061674
 10
180.1376855362
 20
100.2983287946
 10
179.9766426266
 20
100.1085053343
 10
179.9200918771
 20
99.8483346875
 10
179.9766426266
 20
99.5574254768
 10
180.1376855362
 20
99.2800659923
 10
180.3787032828
 20
99.0584817013
 10
180.6630030993
 20
98.9264068034
 10
180.9473029157
 20
98.9039485047
 10
181.1883206623
 20
98.9945258774
 10
181.349363572
 20
99.1843493377
 10
181.4059143215
 20
99.4445199845
  0
LWPOLYLINE
  5
1AA
330
1F
100
AcDbEntity
  8
0
  6
Continuous
 62
     7
100
AcDbPolyline
 90
       17
 70
   128
 43
0.0
 10
181.4059143215
 20
135.2741131538
 10
181.349363572
 20
135.5650223646
 10
181.1883206623
 20
135.8423818491
 10
180.9473029157
 20
136.0639661401
 10
180.6630030993
 20
136.1960410379
 10
180.3787032828
 20
136.2184993367
 10
180.1376855362
 20
136.127921964
 10
179.9766426266
 20
135.9380985037
 10
179.9200918771
 20
135.6779278569
 10
179.9766426266
 20
135.3870186461
 10
180.1376855362
 20
135.1096591616
 10
180.3787032828
 20
134.8880748706
 10
180.6630030993
 20
134.7559999728
 10
180.9473029157
 20
134.733541674
 10
181.1883206623
 20
134.8241190467
 10
181.349363572
 20
135.013942507
 10
181.4059143215
 20
135.2741131538
  0
LWPOLYLINE
  5
1AB
330
1F
100
AcDbEntity
  8
0
  6
Continuous
 62
     7
100
AcDbPolyline
 90
       17
 70
   128
 43
0.0
 10
136.5836039149
 20
147.4558566964
 10
136.5270531653
 20
147.7467659072
 10
136.3660102557
 20
148.0241253917
 10
136.1249925091
 20
148.2457096827
 10
135.8406926927
 20
148.3777845805
 10
135.5563928762
 20
148.4002428793
 10
135.3153751296
 20
148.3096655066
 10
135.15433222
 20
148.1198420463
 10
135.0977814705
 20
147.8596713995
 10
135.15433222
 20
147.5687621887
 10
135.3153751296
 20
147.2914027042
 10
135.5563928762
 20
147.0698184132
 10
135.8406926927
 20
146.9377435153
 10
136.1249925091
 20
146.9152852166
 10
136.3660102557
 20
147.0058625893
 10
136.5270531653
 20
147.1956860496
 10
136.5836039149
 20
147.4558566964
  0
LWPOLYLINE
  5
1AC
330
1F
100
AcDbEntity
  8
0
  6
Continuous
 62
     7
100
AcDbPolyline
 90
       17
 70
   128
 43
0.0
 10
136.5836039149
 20
111.6262635271
 10
136.5270531653
 20
111.9171727378
 10
136.3660102557
 20
112.1945322223
 10
136.1249925091
 20
112.4161165133
 10
135.8406926927
 20
112.5481914112
 10
135.5563928762
 20
112.5706497099
 10
135.3153751296
 20
112.4800723372
 10
135.15433222
 20
112.2902488769
 10
135.0977814705
 20
112.0300782301
 10
135.15433222
 20
111.7391690194
 10
135.3153751296
 20
111.4618095348
 10
135.5563928762
 20
111.2402252438
 10
135.8406926927
 20
111.108150346
 10
136.1249925091
 20
111.0856920472
 10
136.3660102557
 20
111.17626942
 10
136.5270531653
 20
111.3660928803
 10
136.5836039149
 20
111.6262635271
  0
LINE
  5
1AD
330
1F
100
AcDbEntity
  8
0
  6
Continuous
 62
     7
100
AcDbLine
 10
178.2396974459
 20
95.9334766539
 30
0.0
 11
178.2396974459
 21
140.5061762904
 31
0.0
  0
LINE
  5
1AE
330
1F
100
AcDbEntity
  8
0
  6
Continuous
 62
     7
100
AcDbLine
 10
178.2396974459
 20
140.5061762904
 30
0.0
 11
138.2639983461
 21
151.3707147301
 31
0.0
  0
LINE
  5
1AF
330
1F
100
AcDbEntity
  8
0
  6
Continuous
 62
     7
100
AcDbLine
 10
138.2639983461
 20
151.3707147301
 30
0.0
 11
138.2639983461
 21
106.7980150936
 31
0.0
  0
LINE
  5
1B0
330
1F
100
AcDbEntity
  8
0
  6
Continuous
 62
     7
100
AcDbLine
 10
138.2639983461
 20
106.7980150936
 30
0.0
 11
178.2396974459
 21
95.9334766539
 31
0.0
  0
LINE
  5
1B1
330
1F
100
AcDbEntity
  8
0
  6
Continuous
 62
     7
100
AcDbLine
 10
124.6439592723
 20
41.0690985148
 30
0.0
 11
124.6439592723
 21
57.8695776086
 31
0.0
  0
LINE
  5
1B2
330
1F
100
AcDbEntity
  8
0
  6
Continuous
 62
     7
100
AcDbLine
 10
120.3987522882
 20
42.2228548093
 30
0.0
 11
124.6439592723
 21
41.0690985148
 31
0.0
  0
LINE
  5
1B3
330
1F
100
AcDbEntity
  8
0
  6
Continuous
 62
     7
100
AcDbLine
 10
120.3987522882
 20
162.3977103678
 30
0.0
 11
120.3987522882
 21
42.2228548093
 31
0.0
  0
LINE
  5
1B4
330
1F
100
AcDbEntity
  8
0
  6
Continuous
 62
     7
100
AcDbLine
 10
196.1049435038
 20
21.6475342244
 30
0.0
 11
196.1049435038
 21
141.8223897828
 31
0.0
  0
LINE
  5
1B5
330
1F
100
AcDbEntity
  8
0
  6
Continuous
 62
     7
100
AcDbLine
 10
191.8597365197
 20
22.8012905189
 30
0.0
 11
196.1049435038
 21
21.6475342244
 31
0.0
  0
LINE
  5
1B6
330
1F
100
AcDbEntity
  8
0
  6
Continuous
 62
     7
100
AcDbLine
 10
191.8597365197
 20
39.6017696126
 30
0.0
 11
191.8597365197
 21
22.8012905189
 31
0.0
  0
LINE
  5
1B7
330
1F
100
AcDbEntity
  8
0
  6
Continuous
 62
     7
100
AcDbLine
 10
174.5251413348
 20
27.5124620547
 30
0.0
 11
191.8597365197
 21
39.6017696126
 31
0.0
  0
LINE
  5
1B8
330
1F
100
AcDbEntity
  8
0
  6
Continuous
 62
     7
100
AcDbLine
 10
141.9785544572
 20
36.357926979
 30
0.0
 11
174.5251413348
 21
27.5124620547
 31
0.0
  0
LINE
  5
1B9
330
1F
100
AcDbEntity
  8
0
  6
Continuous
 62
     7
100
AcDbLine
 10
124.6439592723
 20
57.8695776086
 30
0.0
 11
141.9785544572
 21
36.357926979
 31
0.0
  0
LWPOLYLINE
  5
1BA
330
1F
100
AcDbEntity
  8
0
  6
Continuous
 62
     7
100
AcDbPolyline
 90
       90
 70
   128
 43
0.0
 10
183.4577643638
 20
60.1600524631
 10
183.3949770598
 20
61.9003318468
 10
183.2069279511
 20
63.6660697338
 10
182.8945538888
 20
65.4484693068
 10
182.4594111048
 20
67.2386507409
 10
181.9036674586
 20
69.0276954421
 10
181.2300916371
 20
70.8066904797
 10
180.4420393611
 20
72.56677299
 10
179.5434366674
 20
74.2991743303
 10
178.5387603494
 20
75.9952637645
 10
177.4330156541
 20
77.6465914602
 10
176.2317113458
 20
79.2449305859
 10
174.9408322622
 20
80.7823182965
 10
173.566809498
 20
82.2510954038
 10
172.1164883655
 20
83.643944534
 10
170.5970942916
 20
84.9539265829
 10
169.0161968211
 20
86.1745152859
 10
167.3816719057
 20
87.2996297313
 10
165.7016626664
 20
88.3236646556
 10
163.9845388246
 20
89.2415183684
 10
162.2388550049
 20
90.0486181685
 10
160.4733081164
 20
90.7409431255
 10
158.6966940249
 20
91.3150441111
 10
156.9178637322
 20
91.7680609832
 10
155.1456792816
 20
92.0977368345
 10
153.3889696068
 20
92.3024292365
 10
151.656486547
 20
92.3811184219
 10
149.9568612457
 20
92.3334123651
 10
148.2985611506
 20
92.1595487354
 10
146.6898478295
 20
91.8603937126
 10
145.138735811
 20
91.437437672
 10
143.6529526574
 20
90.8927877592
 10
142.2399004655
 20
90.2291573928
 10
140.9066189903
 20
89.4498527459
 10
139.659750573
 20
88.558756275
 10
138.5055070493
 20
87.5603073779
 10
137.4496388025
 20
86.4594802768
 10
136.497406115
 20
85.2617592369
 10
135.6535529622
 20
83.9731112442
 10
134.922283378
 20
82.5999562782
 10
134.3072405107
 20
81.1491353279
 10
133.8114884729
 20
79.6278763102
 10
133.4374970765
 20
78.0437580611
 10
133.1871295275
 20
76.404672578
 10
133.0616331448
 20
74.7187857023
 10
133.0616331448
 20
72.9944964376
 10
133.1871295275
 20
71.2403951063
 10
133.4374970765
 20
69.4652205531
 10
133.8114884729
 20
67.6778166082
 10
134.3072405107
 20
65.8870880282
 10
134.922283378
 20
64.1019561327
 10
135.6535529622
 20
62.3313143592
 10
136.497406115
 20
60.5839839558
 10
137.4496388025
 20
58.8686700348
 10
138.5055070493
 20
57.1939182037
 10
139.659750573
 20
55.5680719921
 10
140.9066189903
 20
53.9992312838
 10
142.2399004655
 20
52.4952119645
 10
143.6529526574
 20
51.0635069827
 10
145.138735811
 20
49.7112490206
 10
146.6898478295
 20
48.4451749593
 10
148.2985611506
 20
47.2715923163
 10
149.9568612457
 20
46.196347821
 10
151.656486547
 20
45.2247982876
 10
153.3889696068
 20
44.3617839269
 10
155.1456792816
 20
43.6116042331
 10
156.9178637322
 20
42.9779965637
 10
158.6966940249
 20
42.4641175202
 10
160.4733081164
 20
42.0725272221
 10
162.2388550049
 20
41.8051765527
 10
163.9845388246
 20
41.6633974394
 10
165.7016626664
 20
41.6478962188
 10
167.3816719057
 20
41.7587501171
 10
169.0161968211
 20
41.9954068658
 10
170.5970942916
 20
42.3566874528
 10
172.1164883655
 20
42.8407919965
 10
173.566809498
 20
43.4453087124
 10
174.9408322622
 20
44.1672259285
 10
176.2317113458
 20
45.0029470897
 10
177.4330156541
 20
45.9483086751
 10
178.5387603494
 20
46.9986009409
 10
179.5434366674
 20
48.1485913838
 10
180.4420393611
 20
49.3925508094
 10
181.2300916371
 20
50.7242818742
 10
181.9036674586
 20
52.1371499612
 10
182.4594111048
 20
53.6241162326
 10
182.8945538888
 20
55.1777726973
 10
183.2069279511
 20
56.7903791168
 10
183.3949770598
 20
58.4539015671
 10
183.4577643638
 20
60.1600524631
  0
LWPOLYLINE
  5
1BB
330
1F
100
AcDbEntity
  8
0
  6
Continuous
 62
     7
100
AcDbPolyline
 90
       18
 70
   128
 43
0.0
 10
139.784923154
 20
90.8187680472
 10
139.7228114586
 20
91.1576790008
 10
139.5448649011
 20
91.4845794079
 10
139.27511615
 20
91.7553195573
 10
138.949996269
 20
91.9333344914
 10
138.6134144995
 20
91.994582307
 10
138.3108280746
 20
91.9307911473
 10
138.0831029676
 20
91.7505763618
 10
137.9609947161
 20
91.4782769559
 10
137.9609947161
 20
91.1506684732
 10
138.0831029676
 20
90.8119962548
 10
138.3108280746
 20
90.5079998602
 10
138.6134144995
 20
90.2797356872
 10
138.949996269
 20
90.1580320771
 10
139.27511615
 20
90.1593257768
 10
139.5448649011
 20
90.2834420651
 10
139.7228114586
 20
90.5136183494
 10
139.784923154
 20
90.8187680472
  0
LWPOLYLINE
  5
1BC
330
1F
100
AcDbEntity
  8
0
  6
Continuous
 62
     7
100
AcDbPolyline
 90
       18
 70
   128
 43
0.0
 10
178.558362331
 20
80.2809780932
 10
178.4962506356
 20
80.6198890468
 10
178.3183040781
 20
80.9467894539
 10
178.048555327
 20
81.2175296032
 10
177.723435446
 20
81.3955445374
 10
177.3868536765
 20
81.456792353
 10
177.0842672516
 20
81.3930011933
 10
176.8565421446
 20
81.2127864078
 10
176.7344338931
 20
80.9404870019
 10
176.7344338931
 20
80.6128785192
 10
176.8565421446
 20
80.2742063008
 10
177.0842672516
 20
79.9702099062
 10
177.3868536765
 20
79.7419457332
 10
177.723435446
 20
79.620242123
 10
178.048555327
 20
79.6215358228
 10
178.3183040781
 20
79.7456521111
 10
178.4962506356
 20
79.9758283954
 10
178.558362331
 20
80.2809780932
  0
LINE
  5
1BD
330
1F
100
AcDbEntity
  8
0
  6
Continuous
 62
     7
100
AcDbLine
 10
196.1049435038
 20
21.6475342244
 30
0.0
 11
198.3450813706
 21
23.833977457
 31
0.0
  0
LINE
  5
1BE
330
1F
100
AcDbEntity
  8
0
  6
Continuous
 62
     7
100
AcDbLine
 10
198.3450813706
 20
23.833977457
 30
0.0
 11
198.3450813706
 21
144.0088330155
 31
0.0
  0
LINE
  5
1BF
330
1F
100
AcDbEntity
  8
0
  6
Continuous
 62
     7
100
AcDbLine
 10
138.2639983461
 20
106.7980150936
 30
0.0
 11
140.5041362129
 21
108.9844583262
 31
0.0
  0
LINE
  5
1C0
330
1F
100
AcDbEntity
  8
0
  6
Continuous
 62
     7
100
AcDbLine
 10
140.5041362129
 20
150.7618932582
 30
0.0
 11
140.5041362129
 21
108.9844583262
 31
0.0
  0
LINE
  5
1C1
330
1F
100
AcDbEntity
  8
0
  6
Continuous
 62
     7
100
AcDbLine
 10
140.5041362129
 20
108.9844583262
 30
0.0
 11
178.2396974459
 21
98.7287413584
 31
0.0
  0
LWPOLYLINE
  5
1C2
330
1F
100
AcDbEntity
  8
0
  6
Continuous
 62
     7
100
AcDbPolyline
 90
       44
 70
   128
 43
0.0
 10
139.5175906908
 20
88.4456104063
 10
138.7375439819
 20
87.4482024696
 10
137.893690829
 20
86.1595544769
 10
137.1624212448
 20
84.7863995109
 10
136.5473783775
 20
83.3355785606
 10
136.0516263398
 20
81.8143195429
 10
135.6776349433
 20
80.2302012938
 10
135.4272673944
 20
78.5911158107
 10
135.3017710116
 20
76.905228935
 10
135.3017710116
 20
75.1809396703
 10
135.4272673944
 20
73.426838339
 10
135.6776349433
 20
71.6516637858
 10
136.0516263398
 20
69.8642598408
 10
136.5473783775
 20
68.0735312608
 10
137.1624212448
 20
66.2883993654
 10
137.893690829
 20
64.5177575918
 10
138.7375439819
 20
62.7704271885
 10
139.6897766694
 20
61.0551132674
 10
140.7456449162
 20
59.3803614364
 10
141.8998884399
 20
57.7545152247
 10
143.1467568572
 20
56.1856745165
 10
144.4800383324
 20
54.6816551971
 10
145.8930905243
 20
53.2499502153
 10
147.3788736779
 20
51.8976922532
 10
148.9299856963
 20
50.631618192
 10
150.5386990175
 20
49.4580355489
 10
152.1969991126
 20
48.3827910537
 10
153.8966244139
 20
47.4112415203
 10
155.6291074737
 20
46.5482271596
 10
157.3858171485
 20
45.7980474658
 10
159.1580015991
 20
45.1644397964
 10
160.9368318917
 20
44.6505607528
 10
162.7134459833
 20
44.2589704548
 10
164.4789928718
 20
43.9916197853
 10
166.2246766914
 20
43.8498406721
 10
167.9418005332
 20
43.8343394515
 10
169.6218097726
 20
43.9451933498
 10
171.256334688
 20
44.1818500985
 10
172.8372321584
 20
44.5431306855
 10
174.3566262324
 20
45.0272352292
 10
175.8069473649
 20
45.631751945
 10
177.1809701291
 20
46.3536691612
 10
178.4718492127
 20
47.1893903223
 10
179.226242968
 20
47.7617937495
  0
LINE
  5
1C3
330
1F
100
AcDbEntity
  8
0
  6
Continuous
 62
     7
100
AcDbLine
 10
124.6439592723
 20
41.0690985148
 30
0.0
 11
126.8840971392
 21
43.2555417475
 31
0.0
  0
LINE
  5
1C4
330
1F
100
AcDbEntity
  8
0
  6
Continuous
 62
     7
100
AcDbLine
 10
126.8840971392
 20
43.2555417475
 30
0.0
 11
126.8840971392
 21
55.0896417266
 31
0.0
  0
LINE
  5
1C5
330
1F
100
AcDbEntity
  8
0
  6
Continuous
 62
     7
100
AcDbLine
 10
234.736484515
 20
43.4843031676
 30
0.0
 11
247.3362809537
 21
55.7820907564
 31
0.0
  0
LWPOLYLINE
  5
1C6
330
1F
100
AcDbEntity
  8
0
  6
Continuous
 62
     7
100
AcDbPolyline
 90
        9
 70
   128
 43
0.0
 10
230.0930401408
 20
42.4658979146
 10
230.7619898112
 20
42.3979358294
 10
231.4436320583
 20
42.389476787
 10
232.118160663
 20
42.4407665785
 10
232.7659761048
 20
42.550314896
 10
233.368255057
 20
42.7149386359
 10
233.9074973296
 20
42.9298543887
 10
234.3680343653
 20
43.1888174294
 10
234.736484515
 20
43.4843031676
  0
ARC
  5
1C7
330
1F
100
AcDbEntity
  8
0
  6
Continuous
 62
     7
100
AcDbCircle
 10
256.2910537625
 20
288.7258759717
 30
0.0
 40
246.7694201018181
100
AcDbArc
 50
247.0373613486
 51
252.5639536453
  0
ARC
  5
1C8
330
1F
100
AcDbEntity
  8
0
  6
Continuous
 62
     7
100
AcDbCircle
 10
277.3143825065
 20
363.5269784334
 30
0.0
 40
324.5151346219553
100
AcDbArc
 50
255.9159203905
 51
261.6329823757
  0
LWPOLYLINE
  5
1C9
330
1F
100
AcDbEntity
  8
0
  6
Continuous
 62
     7
100
AcDbPolyline
 90
        9
 70
   128
 43
0.0
 10
159.0302932994
 20
64.0596237525
 10
158.7646359514
 20
63.7362011334
 10
158.6094905095
 20
63.3942392013
 10
158.5693649756
 20
63.0436742136
 10
158.6454252621
 20
62.6946924038
 10
158.8354613142
 20
62.3574340032
 10
159.1339513268
 20
62.0416986007
 10
159.5322221893
 20
61.7566603998
 10
160.0187014969
 20
61.5106016466
  0
LINE
  5
1CA
330
1F
100
AcDbEntity
  8
0
  6
Continuous
 62
     7
100
AcDbLine
 10
159.0302932994
 20
64.0596237525
 30
0.0
 11
171.6300897381
 21
76.3574113413
 31
0.0
  0
LINE
  5
1CB
330
1F
100
AcDbEntity
  8
0
  6
Continuous
 62
     7
100
AcDbLine
 10
171.6300897381
 20
76.3574113413
 30
0.0
 11
176.1156070571
 21
79.3902679985
 31
0.0
  0
LINE
  5
1CC
330
1F
100
AcDbEntity
  8
0
  6
Continuous
 62
     7
100
AcDbLine
 10
198.3450813706
 20
91.1400101105
 30
0.0
 11
237.0191923552
 21
92.9457380452
 31
0.0
  0
LINE
  5
1CD
330
1F
100
AcDbEntity
  8
0
  6
Continuous
 62
     7
100
AcDbLine
 10
237.0191923552
 20
92.9457380452
 30
0.0
 11
238.8849753887
 21
92.4386581956
 31
0.0
  0
LINE
  5
1CE
330
1F
100
AcDbEntity
  8
0
  6
Continuous
 62
     7
100
AcDbLine
 10
242.9053748765
 20
91.3459997615
 30
0.0
 11
266.1609512492
 21
85.0256324102
 31
0.0
  0
LINE
  5
1CF
330
1F
100
AcDbEntity
  8
0
  6
Continuous
 62
     7
100
AcDbLine
 10
247.3362809537
 20
55.7820907564
 30
0.0
 11
266.1609512492
 21
85.0256324102
 31
0.0
  0
ARC
  5
1D0
330
1F
100
AcDbEntity
  8
0
  6
Continuous
 62
     7
100
AcDbCircle
 10
255.522444981
 20
282.6009179854
 30
0.0
 40
244.6183367032586
100
AcDbArc
 50
247.0194019854
 51
252.1775126146
  0
ARC
  5
1D1
330
1F
100
AcDbEntity
  8
0
  6
Continuous
 62
     7
100
AcDbCircle
 10
277.3143825065
 20
359.41257539
 30
0.0
 40
324.5151346219463
100
AcDbArc
 50
255.9159203905
 51
261.6329823757
  0
LWPOLYLINE
  5
1D2
330
1F
100
AcDbEntity
  8
0
  6
Continuous
 62
     7
100
AcDbPolyline
 90
        9
 70
   128
 43
0.0
 10
230.0930401408
 20
38.3514948713
 10
230.7619898112
 20
38.283532786
 10
231.4436320583
 20
38.2750737436
 10
232.118160663
 20
38.3263635351
 10
232.7659761048
 20
38.4359118526
 10
233.368255057
 20
38.6005355925
 10
233.9074973296
 20
38.8154513453
 10
234.3680343653
 20
39.074414386
 10
234.736484515
 20
39.3699001242
  0
LINE
  5
1D3
330
1F
100
AcDbEntity
  8
0
  6
Continuous
 62
     7
100
AcDbLine
 10
247.3362809537
 20
55.7820907564
 30
0.0
 11
247.3362809537
 21
51.667687713
 31
0.0
  0
LINE
  5
1D4
330
1F
100
AcDbEntity
  8
0
  6
Continuous
 62
     7
100
AcDbLine
 10
234.736484515
 20
39.3699001242
 30
0.0
 11
247.3362809537
 21
51.667687713
 31
0.0
  0
LINE
  5
1D5
330
1F
100
AcDbEntity
  8
0
  6
Continuous
 62
     7
100
AcDbLine
 10
266.1609512492
 20
85.0256324102
 30
0.0
 11
266.1609512492
 21
80.9112293668
 31
0.0
  0
LINE
  5
1D6
330
1F
100
AcDbEntity
  8
0
  6
Continuous
 62
     7
100
AcDbLine
 10
247.3362809537
 20
51.667687713
 30
0.0
 11
266.1609512492
 21
80.9112293668
 31
0.0
  0
LWPOLYLINE
  5
1D7
330
1F
100
AcDbEntity
  8
0
  6
Continuous
 62
     7
100
AcDbPolyline
 90
        7
 70
   128
 43
0.0
 10
158.5679657861
 20
58.9837571304
 10
158.5693649756
 20
58.9292711703
 10
158.6454252621
 20
58.5802893604
 10
158.8354613142
 20
58.2430309598
 10
159.1339513268
 20
57.9272955574
 10
159.5322221893
 20
57.6422573564
 10
160.0187014969
 20
57.3961986032
  0
LINE
  5
1D8
330
1F
100
AcDbEntity
  8
0
  6
Continuous
 62
     7
100
AcDbLine
 10
234.736484515
 20
204.2681257041
 30
0.0
 11
247.3362809537
 21
216.5659132929
 31
0.0
  0
LWPOLYLINE
  5
1D9
330
1F
100
AcDbEntity
  8
0
  6
Continuous
 62
     7
100
AcDbPolyline
 90
        9
 70
   128
 43
0.0
 10
230.0930401408
 20
203.2497204512
 10
230.7619898112
 20
203.181758366
 10
231.4436320583
 20
203.1732993235
 10
232.118160663
 20
203.224589115
 10
232.7659761048
 20
203.3341374326
 10
233.368255057
 20
203.4987611724
 10
233.9074973296
 20
203.7136769253
 10
234.3680343653
 20
203.972639966
 10
234.736484515
 20
204.2681257041
  0
LWPOLYLINE
  5
1DA
330
1F
100
AcDbEntity
  8
0
  6
Continuous
 62
     7
100
AcDbPolyline
 90
       16
 70
   128
 43
0.0
 10
160.0187014969
 20
222.2944241832
 10
164.1638344308
 20
220.5774791191
 10
168.3987241445
 20
218.9196557878
 10
172.7201926968
 20
217.3221982512
 10
177.1249971759
 20
215.7863052717
 10
181.6098321334
 20
214.3131294123
 10
186.1713320644
 20
212.903776172
 10
190.8060739332
 20
211.5593031562
 10
195.5105797419
 20
210.2807192828
 10
200.2813191404
 20
209.0689840252
 10
205.1147120759
 20
207.9250066926
 10
210.0071314789
 20
206.8496457471
 10
214.9549059855
 20
205.8437081598
 10
219.9543226921
 20
204.9079488054
 10
225.0016299422
 20
204.0430698954
 10
230.0930401408
 20
203.2497204512
  0
LWPOLYLINE
  5
1DB
330
1F
100
AcDbEntity
  8
0
  6
Continuous
 62
     7
100
AcDbPolyline
 90
        9
 70
   128
 43
0.0
 10
159.0302932994
 20
224.843446289
 10
158.7646359514
 20
224.52002367
 10
158.6094905095
 20
224.1780617378
 10
158.5693649756
 20
223.8274967502
 10
158.6454252621
 20
223.4785149403
 10
158.8354613142
 20
223.1412565397
 10
159.1339513268
 20
222.8255211373
 10
159.5322221893
 20
222.5404829363
 10
160.0187014969
 20
222.2944241832
  0
LINE
  5
1DC
330
1F
100
AcDbEntity
  8
0
  6
Continuous
 62
     7
100
AcDbLine
 10
159.0302932994
 20
224.843446289
 30
0.0
 11
171.6300897381
 21
237.1412338778
 31
0.0
  0
LINE
  5
1DD
330
1F
100
AcDbEntity
  8
0
  6
Continuous
 62
     7
100
AcDbLine
 10
171.6300897381
 20
237.1412338778
 30
0.0
 11
193.1332755265
 21
251.6804888917
 31
0.0
  0
LINE
  5
1DE
330
1F
100
AcDbEntity
  8
0
  6
Continuous
 62
     7
100
AcDbLine
 10
193.1332755265
 20
251.6804888917
 30
0.0
 11
237.0191923552
 21
253.7295605817
 31
0.0
  0
LINE
  5
1DF
330
1F
100
AcDbEntity
  8
0
  6
Continuous
 62
     7
100
AcDbLine
 10
237.0191923552
 20
253.7295605817
 30
0.0
 11
266.1609512492
 21
245.8094549467
 31
0.0
  0
LINE
  5
1E0
330
1F
100
AcDbEntity
  8
0
  6
Continuous
 62
     7
100
AcDbLine
 10
247.3362809537
 20
216.5659132929
 30
0.0
 11
266.1609512492
 21
245.8094549467
 31
0.0
  0
LWPOLYLINE
  5
1E1
330
1F
100
AcDbEntity
  8
0
  6
Continuous
 62
     7
100
AcDbPolyline
 90
       16
 70
   128
 43
0.0
 10
160.0187014969
 20
218.1800211398
 10
164.1638344308
 20
216.4630760757
 10
168.3987241445
 20
214.8052527444
 10
172.7201926968
 20
213.2077952079
 10
177.1249971759
 20
211.6719022283
 10
181.6098321334
 20
210.1987263689
 10
186.1713320644
 20
208.7893731287
 10
190.8060739332
 20
207.4449001128
 10
195.5105797419
 20
206.1663162394
 10
200.2813191404
 20
204.9545809819
 10
205.1147120759
 20
203.8106036492
 10
210.0071314789
 20
202.7352427037
 10
214.9549059855
 20
201.7293051164
 10
219.9543226921
 20
200.7935457621
 10
225.0016299422
 20
199.928666852
 10
230.0930401408
 20
199.1353174078
  0
LWPOLYLINE
  5
1E2
330
1F
100
AcDbEntity
  8
0
  6
Continuous
 62
     7
100
AcDbPolyline
 90
        9
 70
   128
 43
0.0
 10
230.0930401408
 20
199.1353174078
 10
230.7619898112
 20
199.0673553226
 10
231.4436320583
 20
199.0588962801
 10
232.118160663
 20
199.1101860717
 10
232.7659761048
 20
199.2197343892
 10
233.368255057
 20
199.384358129
 10
233.9074973296
 20
199.5992738819
 10
234.3680343653
 20
199.8582369226
 10
234.736484515
 20
200.1537226607
  0
LINE
  5
1E3
330
1F
100
AcDbEntity
  8
0
  6
Continuous
 62
     7
100
AcDbLine
 10
247.3362809537
 20
216.5659132929
 30
0.0
 11
247.3362809537
 21
212.4515102495
 31
0.0
  0
LINE
  5
1E4
330
1F
100
AcDbEntity
  8
0
  6
Continuous
 62
     7
100
AcDbLine
 10
234.736484515
 20
200.1537226607
 30
0.0
 11
247.3362809537
 21
212.4515102495
 31
0.0
  0
LINE
  5
1E5
330
1F
100
AcDbEntity
  8
0
  6
Continuous
 62
     7
100
AcDbLine
 10
266.1609512492
 20
245.8094549467
 30
0.0
 11
266.1609512492
 21
241.6950519033
 31
0.0
  0
LINE
  5
1E6
330
1F
100
AcDbEntity
  8
0
  6
Continuous
 62
     7
100
AcDbLine
 10
247.3362809537
 20
212.4515102495
 30
0.0
 11
266.1609512492
 21
241.6950519033
 31
0.0
  0
LWPOLYLINE
  5
1E7
330
1F
100
AcDbEntity
  8
0
  6
Continuous
 62
     7
100
AcDbPolyline
 90
        7
 70
   128
 43
0.0
 10
158.5679657861
 20
219.7675796669
 10
158.5693649756
 20
219.7130937068
 10
158.6454252621
 20
219.3641118969
 10
158.8354613142
 20
219.0268534964
 10
159.1339513268
 20
218.7111180939
 10
159.5322221893
 20
218.4260798929
 10
160.0187014969
 20
218.1800211398
  0
LINE
  5
1E8
330
1F
100
AcDbEntity
  8
0
  6
PHANTOM
 62
     8
370
     0
100
AcDbLine
 10
160.0187014969
 20
61.5106016466
 30
0.0
 11
160.0187014969
 21
57.3961986032
 31
0.0
  0
LINE
  5
1E9
330
1F
100
AcDbEntity
  8
0
  6
PHANTOM
 62
     8
370
     0
100
AcDbLine
 10
230.0930401408
 20
42.4658979146
 30
0.0
 11
230.0930401408
 21
38.3514948713
 31
0.0
  0
LINE
  5
1EA
330
1F
100
AcDbEntity
  8
0
  6
PHANTOM
 62
     8
370
     0
100
AcDbLine
 10
234.736484515
 20
43.4843031676
 30
0.0
 11
234.736484515
 21
39.3699001242
 31
0.0
  0
LINE
  5
1EB
330
1F
100
AcDbEntity
  8
0
  6
PHANTOM
 62
     8
370
     0
100
AcDbLine
 10
160.0187014969
 20
222.2944241832
 30
0.0
 11
160.0187014969
 21
218.1800211398
 31
0.0
  0
LINE
  5
1EC
330
1F
100
AcDbEntity
  8
0
  6
PHANTOM
 62
     8
370
     0
100
AcDbLine
 10
230.0930401408
 20
203.2497204512
 30
0.0
 11
230.0930401408
 21
199.1353174078
 31
0.0
  0
LINE
  5
1ED
330
1F
100
AcDbEntity
  8
0
  6
PHANTOM
 62
     8
370
     0
100
AcDbLine
 10
234.736484515
 20
204.2681257041
 30
0.0
 11
234.736484515
 21
200.1537226607
 31
0.0
  0
INSERT
  5
1F3
330
1F
100
AcDbEntity
  8
SLD-0_0
100
AcDbBlockReference
  2
SW_NOTE_8
 10
288.5357166063
 20
250.4273692871
 30
0.0
  0
LEADER
  5
1FD
330
1F
100
AcDbEntity
  8
SLD-0_0
100
AcDbLeader
  3
SLDDIMSTYLE0
 76
     2
 10
268.2174089959
 20
235.1540957933
 30
0.0
 10
288.5357166063
 20
250.4273692871
 30
0.0
  0
INSERT
  5
203
330
1F
100
AcDbEntity
  8
SLD-0_0
100
AcDbBlockReference
  2
SW_NOTE_9
 10
171.661205881
 20
237.8446443867
 30
0.0
  0
LEADER
  5
204
330
1F
100
AcDbEntity
  8
SLD-0_0
100
AcDbLeader
  3
SLDDIMSTYLE0
 76
     2
 10
199.2293442815
 20
174.6899984206
 30
0.0
 10
171.661205881
 20
237.8446443867
 30
0.0
  0
INSERT
  5
20A
330
1F
100
AcDbEntity
  8
SLD-0_0
100
AcDbBlockReference
  2
SW_NOTE_10
 10
327.3767540071
 20
150.5193665769
 30
0.0
  0
LEADER
  5
20B
330
1F
100
AcDbEntity
  8
SLD-0_0
100
AcDbLeader
  3
SLDDIMSTYLE0
 76
     2
 10
307.3455612422
 20
138.3000491916
 30
0.0
 10
327.3767540071
 20
150.5193665769
 30
0.0
  0
INSERT
  5
211
330
1F
100
AcDbEntity
  8
SLD-0_0
100
AcDbBlockReference
  2
SW_NOTE_11
 10
240.3106523664
 20
45.7703976137
 30
0.0
  0
LEADER
  5
212
330
1F
100
AcDbEntity
  8
SLD-0_0
100
AcDbLeader
  3
SLDDIMSTYLE0
 76
     2
 10
235.4307060992
 20
70.3638039305
 30
0.0
 10
240.3106523664
 20
45.7703976137
 30
0.0
  0
INSERT
  5
218
330
1F
100
AcDbEntity
  8
SLD-0_0
100
AcDbBlockReference
  2
SW_NOTE_12
 10
220.8017477486
 20
98.552936201
 30
0.0
  0
LEADER
  5
219
330
1F
100
AcDbEntity
  8
SLD-0_0
100
AcDbLeader
  3
SLDDIMSTYLE0
 76
     2
 10
226.5753443729
 20
79.6115943117
 30
0.0
 10
220.8017477486
 20
98.552936201
 30
0.0
  0
LEADER
  5
21A
330
1F
100
AcDbEntity
  8
SLD-0_0
100
AcDbLeader
  3
SLDDIMSTYLE0
 76
     2
 10
173.2894273652
 20
104.7873159361
 30
0.0
 10
216.0372894311
 20
102.3006589587
 30
0.0
212
-4.764458317428421
222
3.747722757677423
232
0.0
  0
INSERT
  5
220
330
1F
100
AcDbEntity
  8
SLD-0_0
100
AcDbBlockReference
  2
SW_NOTE_13
 10
148.3997197286
 20
22.5054313082
 30
0.0
  0
LEADER
  5
221
330
1F
100
AcDbEntity
  8
SLD-0_0
100
AcDbLeader
  3
SLDDIMSTYLE0
 76
     2
 10
157.7350889893
 20
35.3520215147
 30
0.0
 10
148.3997197286
 20
22.5054313082
 30
0.0
  0
INSERT
  5
227
330
1F
100
AcDbEntity
  8
SLD-0_0
100
AcDbBlockReference
  2
SW_NOTE_14
 10
100.1390756856
 20
217.3599414474
 30
0.0
  0
LEADER
  5
228
330
1F
100
AcDbEntity
  8
SLD-0_0
100
AcDbLeader
  3
SLDDIMSTYLE0
 76
     2
 10
127.2737791771
 20
194.8023221495
 30
0.0
 10
100.1390756856
 20
217.3599414474
 30
0.0
  0
INSERT
  5
22E
330
1F
100
AcDbEntity
  8
SLD-0_0
100
AcDbBlockReference
  2
SW_NOTE_15
 10
127.2501286817
 20
242.0307194176
 30
0.0
  0
LEADER
  5
22F
330
1F
100
AcDbEntity
  8
SLD-0_0
100
AcDbLeader
  3
SLDDIMSTYLE0
 76
     2
 10
145.9004665061
 20
219.0331013164
 30
0.0
 10
127.2501286817
 20
242.0307194176
 30
0.0
  0
INSERT
  5
235
330
1F
100
AcDbEntity
  8
SLD-0_0
100
AcDbBlockReference
  2
SW_NOTE_16
 10
309.9319867145
 20
49.7735176817
 30
0.0
  0
LEADER
  5
236
330
1F
100
AcDbEntity
  8
SLD-0_0
100
AcDbLeader
  3
SLDDIMSTYLE0
 76
     2
 10
289.0710084073
 20
83.4852924956
 30
0.0
 10
309.9319867145
 20
49.7735176817
 30
0.0
  0
INSERT
  5
23C
330
1F
100
AcDbEntity
  8
SLD-0_0
100
AcDbBlockReference
  2
SW_NOTE_17
 10
224.5784540288
 20
254.6801488472
 30
0.0
  0
LEADER
  5
23D
330
1F
100
AcDbEntity
  8
SLD-0_0
100
AcDbLeader
  3
SLDDIMSTYLE0
 76
     2
 10
217.0546637919
 20
233.9938666222
 30
0.0
 10
224.5784540288
 20
254.6801488472
 30
0.0
  0
LINE
  5
23E
330
1F
100
AcDbEntity
  8
0
  6
Continuous
 62
     7
100
AcDbLine
 10
319.1593517855
 20
306.9417647927
 30
0.0
 11
319.1593517855
 21
374.4365201384
 31
0.0
  0
ARC
  5
23F
330
1F
100
AcDbEntity
  8
0
  6
Continuous
 62
     7
100
AcDbCircle
 10
309.1593517855
 20
306.9417647927
 30
0.0
 40
10.00000000000008
100
AcDbArc
 50
281.7719756661
 51
0.0
  0
ARC
  5
240
330
1F
100
AcDbEntity
  8
0
  6
Continuous
 62
     7
100
AcDbCircle
 10
212.1593517855
 20
772.3917647927
 30
0.0
 40
485.4500000000021
100
AcDbArc
 50
258.2280243339
 51
281.7719756661
  0
ARC
  5
241
330
1F
100
AcDbEntity
  8
0
  6
Continuous
 62
     7
100
AcDbCircle
 10
115.1593517855
 20
306.9417647927
 30
0.0
 40
10.00000000000007
100
AcDbArc
 50
180.0
 51
258.2280243339
  0
LINE
  5
242
330
1F
100
AcDbEntity
  8
0
  6
Continuous
 62
     7
100
AcDbLine
 10
105.1593517855
 20
306.9417647927
 30
0.0
 11
105.1593517855
 21
374.4365201384
 31
0.0
  0
LINE
  5
243
330
1F
100
AcDbEntity
  8
0
  6
Continuous
 62
     7
100
AcDbLine
 10
105.1593517855
 20
374.4365201384
 30
0.0
 11
119.7674539567
 21
461.9417647927
 31
0.0
  0
LINE
  5
244
330
1F
100
AcDbEntity
  8
0
  6
Continuous
 62
     7
100
AcDbLine
 10
119.7674539567
 20
461.9417647927
 30
0.0
 11
212.1593517855
 21
521.9417647927
 31
0.0
  0
LINE
  5
245
330
1F
100
AcDbEntity
  8
0
  6
Continuous
 62
     7
100
AcDbLine
 10
212.1593517855
 20
521.9417647927
 30
0.0
 11
294.5348656396
 21
521.9417647927
 31
0.0
  0
LINE
  5
246
330
1F
100
AcDbEntity
  8
0
  6
Continuous
 62
     7
100
AcDbLine
 10
319.1593517855
 20
374.4365201384
 30
0.0
 11
294.5348656396
 21
521.9417647927
 31
0.0
  0
DIMENSION
  5
247
330
1F
100
AcDbEntity
  8
SLD-0_0
100
AcDbDimension
  2
_D
 10
119.7674539567
 20
461.9417647927
 30
0.0
 11
156.3330680298
 21
438.9727066228
 31
0.0
 70
   162
  1
<>
 71
     1
 42
-1.0
  3
SLDDIMSTYLE1
100
AcDb2LineAngularDimension
 13
119.7674539567
 23
461.9417647927
 33
0.0
 14
212.1593517855
 24
521.9417647927
 34
0.0
 15
105.1593517855
 25
374.4365201384
 35
0.0
 16
155.8839881583
 26
438.272845869
 36
0.0
  0
DIMENSION
  5
250
330
1F
100
AcDbEntity
  8
SLD-0_0
100
AcDbDimension
  2
_D_1
 10
212.1593517855
 20
521.9417647927
 30
0.0
 11
229.4360513458
 21
489.8708975299
 31
0.0
 70
   162
  1
<>
 71
     1
 42
-1.0
  3
SLDDIMSTYLE2
100
AcDb2LineAngularDimension
 13
212.1593517855
 23
521.9417647927
 33
0.0
 14
294.5348656396
 24
521.9417647927
 34
0.0
 15
119.7674539567
 25
461.9417647927
 35
0.0
 16
222.5055629122
 26
487.0135413909
 36
0.0
  0
DIMENSION
  5
259
330
1F
100
AcDbEntity
  8
SLD-0_0
100
AcDbDimension
  2
_D_2
 10
294.5348656396
 20
521.9417647927
 30
0.0
 11
267.3279180802
 21
489.8708975299
 31
0.0
 70
   162
  1
<>
 71
     1
 42
-1.0
  3
SLDDIMSTYLE1
100
AcDb2LineAngularDimension
 13
212.1593517855
 23
521.9417647927
 33
0.0
 14
294.5348656396
 24
521.9417647927
 34
0.0
 15
319.1593517855
 25
374.4365201384
 35
0.0
 16
267.3547911101
 26
489.8481194551
 36
0.0
  0
DIMENSION
  5
261
330
1F
100
AcDbEntity
  8
SLD-0_0
100
AcDbDimension
  2
_D_3
 10
294.5348656396
 20
521.9417647927
 30
0.0
 11
279.8340550896
 21
377.8503547873
 31
0.0
 70
   162
  1
<>
 71
     1
 42
-1.0
  3
SLDDIMSTYLE1
100
AcDb2LineAngularDimension
 13
319.1593517855
 23
306.9417647927
 33
0.0
 14
319.1593517855
 24
374.4365201384
 34
0.0
 15
319.1593517855
 25
374.4365201384
 35
0.0
 16
279.8210862739
 26
371.1755243127
 36
0.0
  0
DIMENSION
  5
269
330
1F
100
AcDbEntity
  8
SLD-0_0
100
AcDbDimension
  2
_D_4
 10
95.1593517855
 20
286.9417647927
 30
0.0
 11
95.1593517855
 21
331.9206364091
 31
0.0
 70
   160
  1
<>
 71
     2
 42
-1.0
  3
SLDDIMSTYLE3
100
AcDbAlignedDimension
 13
105.1593517855
 23
374.4365201384
 33
0.0
 14
212.1593517855
 24
286.9417647927
 34
0.0
 50
90.0
100
AcDbRotatedDimension
  0
DIMENSION
  5
274
330
1F
100
AcDbEntity
  8
SLD-0_0
100
AcDbDimension
  2
_D_5
 10
88.1593517855
 20
286.9417647927
 30
0.0
 11
88.1593517855
 21
359.541098954
 31
0.0
 70
   160
  1
<>
 71
     2
 42
-1.0
  3
SLDDIMSTYLE4
100
AcDbAlignedDimension
 13
119.7674539567
 23
461.9417647927
 33
0.0
 14
212.1593517855
 24
286.9417647927
 34
0.0
 50
90.0
100
AcDbRotatedDimension
  0
DIMENSION
  5
27F
330
1F
100
AcDbEntity
  8
SLD-0_0
100
AcDbDimension
  2
_D_6
 10
336.1593517855
 20
286.9417647927
 30
0.0
 11
336.1593517855
 21
400.5328329927
 31
0.0
 70
   160
  1
<>
 71
     2
 42
-1.0
  3
SLDDIMSTYLE4
100
AcDbAlignedDimension
 13
294.5348656396
 23
521.9417647927
 33
0.0
 14
212.1593517855
 24
286.9417647927
 34
0.0
 50
90.0
100
AcDbRotatedDimension
  0
DIMENSION
  5
289
330
1F
100
AcDbEntity
  8
SLD-0_0
100
AcDbDimension
  2
_D_7
 10
294.5348656396
 20
531.9417647927
 30
0.0
 11
309.0276407511
 21
531.9417647927
 31
0.0
 70
   160
  1
<>
 71
     2
 42
-1.0
  3
SLDDIMSTYLE3
100
AcDbAlignedDimension
 13
319.1593517855
 23
374.4365201384
 33
0.0
 14
294.5348656396
 24
521.9417647927
 34
0.0
100
AcDbRotatedDimension
  0
DIMENSION
  5
293
330
1F
100
AcDbEntity
  8
SLD-0_0
100
AcDbDimension
  2
_D_8
 10
119.7674539567
 20
530.4355797913
 30
0.0
 11
115.8598077904
 21
530.4355797913
 31
0.0
 70
   160
  1
<>
 71
     2
 42
-1.0
  3
SLDDIMSTYLE5
100
AcDbAlignedDimension
 13
105.1593517855
 23
374.4365201384
 33
0.0
 14
119.7674539567
 24
461.9417647927
 34
0.0
100
AcDbRotatedDimension
  0
DIMENSION
  5
2A0
330
1F
100
AcDbEntity
  8
SLD-0_0
100
AcDbDimension
  2
_D_9
 10
212.1593517855
 20
541.4737416747
 30
0.0
 11
160.62568654
 21
541.4737416747
 31
0.0
 70
   160
  1
<>
 71
     2
 42
-1.0
  3
SLDDIMSTYLE4
100
AcDbAlignedDimension
 13
105.1593517855
 23
374.4365201384
 33
0.0
 14
212.1593517855
 24
521.9417647927
 34
0.0
100
AcDbRotatedDimension
  0
LARGE_RADIAL_DIMENSION
  5
2AA
330
1F
100
AcDbEntity
  8
SLD-0_0
 92
      596
310
540200000700000054000000200000000200000039BB7C9796E66240163D9FD3892C72400000000000000000AB4AA444DC126440CA1FD8C9CCCE7640000000000000000000000000000000000000000000000000000000000000F03F540000002000000002000000AB4AA444DC126440CA1FD8C9CCCE764000000000000000
310
00BCC795A4301E63401E279F03E92B7640000000000000000000000000000000000000000000000000000000000000F03F540000002000000002000000BCC795A4301E63401E279F03E92B76400000000000000000C541E3DE885E634080F0398B1C2A77400000000000000000000000000000000000000000000000000000
310
00000000F03F540000002000000002000000C541E3DE885E63405ECEF9A70E5577400000000000000000C541E3DE885E6340A3127A6E2AFF7640000000000000000000000000000000000000000000000000000000000000F03F5400000020000000020000000B8663A5A408634080F0398B1C2A774000000000000000007F
310
FD62186DB4634080F0398B1C2A7740000000000000000000000000000000000000000000000000000000000000F03F0C00000012000000000000009C0000000B000000A2FAF3EAC44D634008F7D2F55D367440000000000000000000000000000000000000000000000000000000000000F03F66605BF65F12C03F52CF1DFF
310
2ABFEF3F0000000000000000523438352E35000006000000010000000000000000000C405C8FC2F5285CE33F0000000000000000000000000000F03F00000000000000000000000000000000000000005458540000000000
100
AcDbDimension
  2
_D_10
 10
27.0
 20
11.28
 30
0.0
 11
156.3330680298
 21
331.2947810444
 31
0.0
 70
   169
  1
<>
 71
     1
 42
-1.0
  3
SLDDIMSTYLE6
100
AcDbRadialDimensionLarge
 13
27.0
 23
11.28
 33
0.0
 14
27.07
 24
12.1
 34
0.0
 15
27.15
 25
13.0
 35
0.0
 40
0.0
  0
DIMENSION
  5
2B6
330
1F
100
AcDbEntity
  8
CAJETIN
100
AcDbDimension
  2
_D_11
 10
319.1593517855
 20
276.9417647927
 30
0.0
 11
212.7882463341
 21
276.9417647927
 31
0.0
 70
   160
  1
<>
 71
     2
 42
-1.0
  3
SLDDIMSTYLE4
100
AcDbAlignedDimension
 13
105.1593517855
 23
306.9417647927
 33
0.0
 14
319.1593517855
 24
306.9417647927
 34
0.0
 50
0.0
100
AcDbRotatedDimension
  0
CIRCLE
  5
2C0
330
1F
100
AcDbEntity
  8
0
  6
Continuous
 62
     7
100
AcDbCircle
 10
455.7911495299
 20
244.2363480315
 30
0.0
 40
2.599999999999909
  0
CIRCLE
  5
2C1
330
1F
100
AcDbEntity
  8
0
  6
Continuous
 62
     7
100
AcDbCircle
 10
565.3927006138
 20
244.2363480315
 30
0.0
 40
2.600000000000023
  0
CIRCLE
  5
2C2
330
1F
100
AcDbEntity
  8
0
  6
Continuous
 62
     7
100
AcDbCircle
 10
573.9419250719
 20
411.9871235735
 30
0.0
 40
2.099999999999909
  0
CIRCLE
  5
2C3
330
1F
100
AcDbEntity
  8
0
  6
Continuous
 62
     7
100
AcDbCircle
 10
573.9419250719
 20
516.4871235735
 30
0.0
 40
2.099999999999909
  0
CIRCLE
  5
2C4
330
1F
100
AcDbEntity
  8
0
  6
Continuous
 62
     7
100
AcDbCircle
 10
447.2419250719
 20
516.4871235735
 30
0.0
 40
2.099999999999966
  0
CIRCLE
  5
2C5
330
1F
100
AcDbEntity
  8
0
  6
Continuous
 62
     7
100
AcDbCircle
 10
447.2419250719
 20
411.9871235735
 30
0.0
 40
2.099999999999966
  0
LINE
  5
2C6
330
1F
100
AcDbEntity
  8
0
  6
Continuous
 62
     7
100
AcDbLine
 10
567.0919250719
 20
399.2371235735
 30
0.0
 11
567.0919250719
 21
529.2371235735
 31
0.0
  0
LINE
  5
2C7
330
1F
100
AcDbEntity
  8
0
  6
Continuous
 62
     7
100
AcDbLine
 10
567.0919250719
 20
529.2371235735
 30
0.0
 11
454.0919250719
 21
529.2371235735
 31
0.0
  0
LINE
  5
2C8
330
1F
100
AcDbEntity
  8
0
  6
Continuous
 62
     7
100
AcDbLine
 10
454.0919250719
 20
529.2371235735
 30
0.0
 11
454.0919250719
 21
399.2371235735
 31
0.0
  0
LINE
  5
2C9
330
1F
100
AcDbEntity
  8
0
  6
Continuous
 62
     7
100
AcDbLine
 10
454.0919250719
 20
399.2371235735
 30
0.0
 11
567.0919250719
 21
399.2371235735
 31
0.0
  0
LINE
  5
2CA
330
1F
100
AcDbEntity
  8
0
  6
Continuous
 62
     7
100
AcDbLine
 10
415.5919250721
 20
196.7371235735
 30
0.0
 11
415.5919250721
 21
245.7371235735
 31
0.0
  0
LINE
  5
2CB
330
1F
100
AcDbEntity
  8
0
  6
Continuous
 62
     7
100
AcDbLine
 10
403.5919250719
 20
196.7371235735
 30
0.0
 11
415.5919250721
 21
196.7371235735
 31
0.0
  0
LINE
  5
2CC
330
1F
100
AcDbEntity
  8
0
  6
Continuous
 62
     7
100
AcDbLine
 10
403.5919250719
 20
547.2371235735
 30
0.0
 11
403.5919250719
 21
196.7371235735
 31
0.0
  0
LINE
  5
2CD
330
1F
100
AcDbEntity
  8
0
  6
Continuous
 62
     7
100
AcDbLine
 10
617.5919250719
 20
547.2371235735
 30
0.0
 11
403.5919250719
 21
547.2371235735
 31
0.0
  0
LINE
  5
2CE
330
1F
100
AcDbEntity
  8
0
  6
Continuous
 62
     7
100
AcDbLine
 10
617.5919250719
 20
196.7371235735
 30
0.0
 11
617.5919250719
 21
547.2371235735
 31
0.0
  0
LINE
  5
2CF
330
1F
100
AcDbEntity
  8
0
  6
Continuous
 62
     7
100
AcDbLine
 10
605.5919250719
 20
196.7371235735
 30
0.0
 11
617.5919250719
 21
196.7371235735
 31
0.0
  0
LINE
  5
2D0
330
1F
100
AcDbEntity
  8
0
  6
Continuous
 62
     7
100
AcDbLine
 10
605.5919250719
 20
245.7371235735
 30
0.0
 11
605.5919250719
 21
196.7371235735
 31
0.0
  0
LINE
  5
2D1
330
1F
100
AcDbEntity
  8
0
  6
Continuous
 62
     7
100
AcDbLine
 10
556.5919250719
 20
196.7371235735
 30
0.0
 11
605.5919250719
 21
245.7371235735
 31
0.0
  0
LINE
  5
2D2
330
1F
100
AcDbEntity
  8
0
  6
Continuous
 62
     7
100
AcDbLine
 10
464.5919250721
 20
196.7371235735
 30
0.0
 11
556.5919250719
 21
196.7371235735
 31
0.0
  0
LINE
  5
2D3
330
1F
100
AcDbEntity
  8
0
  6
Continuous
 62
     7
100
AcDbLine
 10
415.5919250721
 20
245.7371235735
 30
0.0
 11
464.5919250721
 21
196.7371235735
 31
0.0
  0
CIRCLE
  5
2D4
330
1F
100
AcDbEntity
  8
0
  6
Continuous
 62
     7
100
AcDbCircle
 10
510.5919250719
 20
299.0371235735
 30
0.0
 40
71.25000000000006
  0
CIRCLE
  5
2D5
330
1F
100
AcDbEntity
  8
0
  6
Continuous
 62
     7
100
AcDbCircle
 10
455.7911495299
 20
353.8378991154
 30
0.0
 40
2.599999999999966
  0
CIRCLE
  5
2D6
330
1F
100
AcDbEntity
  8
0
  6
Continuous
 62
     7
100
AcDbCircle
 10
565.3927006138
 20
353.8378991154
 30
0.0
 40
2.600000000000023
  0
DIMENSION
  5
2D7
330
1F
100
AcDbEntity
  8
SLD-0_0
100
AcDbDimension
  2
_D_12
 10
637.239925382
 20
547.2371235735
 30
0.0
 11
637.239925382
 21
364.8964126089
 31
0.0
 70
   160
  1
<>
 71
     2
 42
-1.0
  3
SLDDIMSTYLE7
100
AcDbAlignedDimension
 13
617.5919250719
 23
196.7371235735
 33
0.0
 14
617.5919250719
 24
547.2371235735
 34
0.0
 50
90.0
100
AcDbRotatedDimension
  0
DIMENSION
  5
2E2
330
1F
100
AcDbEntity
  8
SLD-0_0
100
AcDbDimension
  2
_D_13
 10
627.2393593682
 20
196.7371235735
 30
0.0
 11
627.2393593682
 21
220.75057897
 31
0.0
 70
   160
  1
<>
 71
     2
 42
-1.0
  3
SLDDIMSTYLE4
100
AcDbAlignedDimension
 13
605.5919250719
 23
245.7371235735
 33
0.0
 14
617.5919250719
 24
196.7371235735
 34
0.0
 50
90.0
100
AcDbRotatedDimension
  0
DIMENSION
  5
2EC
330
1F
100
AcDbEntity
  8
SLD-0_0
100
AcDbDimension
  2
_D_14
 10
605.5919250719
 20
186.7371235735
 30
0.0
 11
582.1304865544
 21
186.7371235735
 31
0.0
 70
   160
  1
<>
 71
     2
 42
-1.0
  3
SLDDIMSTYLE4
100
AcDbAlignedDimension
 13
556.5919250719
 23
196.7371235735
 33
0.0
 14
605.5919250719
 24
196.7371235735
 34
0.0
 50
0.0
100
AcDbRotatedDimension
  0
DIMENSION
  5
2F6
330
1F
100
AcDbEntity
  8
SLD-0_0
100
AcDbDimension
  2
_D_15
 10
617.5919250719
 20
186.7371235735
 30
0.0
 11
638.3127582065
 21
186.7371235735
 31
0.0
 70
   160
  1
<>
 71
     2
 42
-1.0
  3
SLDDIMSTYLE4
100
AcDbAlignedDimension
 13
605.5919250719
 23
196.7371235735
 33
0.0
 14
617.5919250719
 24
196.7371235735
 34
0.0
 50
0.0
100
AcDbRotatedDimension
  0
DIMENSION
  5
301
330
1F
100
AcDbEntity
  8
SLD-0_0
100
AcDbDimension
  2
_D_16
 10
393.5919250719
 20
196.7371235735
 30
0.0
 11
393.5919250719
 21
247.8871235735
 31
0.0
 70
   160
  1
<>
 71
     2
 42
-1.0
  3
SLDDIMSTYLE7
100
AcDbAlignedDimension
 13
428.812826646
 23
299.0371235735
 33
0.0
 14
464.5919250721
 24
196.7371235735
 34
0.0
 50
90.0
100
AcDbRotatedDimension
  0
DIMENSION
  5
30B
330
1F
100
AcDbEntity
  8
SLD-0_0
100
AcDbDimension
  2
_D_17
 10
386.5919250719
 20
399.2371235735
 30
0.0
 11
386.5919250719
 21
464.2371235735
 31
0.0
 70
   160
  1
<>
 71
     2
 42
-1.0
  3
SLDDIMSTYLE4
100
AcDbAlignedDimension
 13
454.0919250719
 23
529.2371235735
 33
0.0
 14
454.0919250719
 24
399.2371235735
 34
0.0
 50
90.0
100
AcDbRotatedDimension
  0
DIMENSION
  5
315
330
1F
100
AcDbEntity
  8
SLD-0_0
100
AcDbDimension
  2
_D_18
 10
393.5919250719
 20
411.9871235735
 30
0.0
 11
393.5919250719
 21
464.2371235735
 31
0.0
 70
   160
  1
<>
 71
     2
 42
-1.0
  3
SLDDIMSTYLE7
100
AcDbAlignedDimension
 13
442.6419250719
 23
516.4871235735
 33
0.0
 14
442.6419250719
 24
411.9871235735
 34
0.0
 50
90.0
100
AcDbRotatedDimension
  0
DIMENSION
  5
31F
330
1F
100
AcDbEntity
  8
SLD-0_0
100
AcDbDimension
  2
_D_19
 10
454.0919250719
 20
557.2371235735
 30
0.0
 11
510.5919250719
 21
557.2371235735
 31
0.0
 70
   160
  1
<>
 71
     2
 42
-1.0
  3
SLDDIMSTYLE4
100
AcDbAlignedDimension
 13
567.0919250719
 23
529.2371235735
 33
0.0
 14
454.0919250719
 24
529.2371235735
 34
0.0
100
AcDbRotatedDimension
  0
DIMENSION
  5
329
330
1F
100
AcDbEntity
  8
SLD-0_0
100
AcDbDimension
  2
_D_20
 10
573.9419250719
 20
564.2371235735
 30
0.0
 11
510.5919250719
 21
564.2371235735
 31
0.0
 70
   160
  1
<>
 71
     2
 42
-1.0
  3
SLDDIMSTYLE7
100
AcDbAlignedDimension
 13
447.2419250719
 23
521.0871235735
 33
0.0
 14
573.9419250719
 24
521.0871235735
 34
0.0
100
AcDbRotatedDimension
  0
DIMENSION
  5
333
330
1F
100
AcDbEntity
  8
SLD-0_0
100
AcDbDimension
  2
_D_21
 10
386.5919250719
 20
547.2371235735
 30
0.0
 11
386.5919250719
 21
537.1691800717
 31
0.0
 70
   160
  1
<>
 71
     2
 42
-1.0
  3
SLDDIMSTYLE8
100
AcDbAlignedDimension
 13
454.0919250719
 23
529.2371235735
 33
0.0
 14
403.5919250719
 24
547.2371235735
 34
0.0
 50
90.0
100
AcDbRotatedDimension
  0
DIMENSION
  5
340
330
1F
100
AcDbEntity
  8
SLD-0_0
100
AcDbDimension
  2
_D_22
 10
617.5919250719
 20
181.283331543
 30
0.0
 11
511.5196498536
 21
181.283331543
 31
0.0
 70
   160
  1
<>
 71
     2
 42
-1.0
  3
SLDDIMSTYLE4
100
AcDbAlignedDimension
 13
403.5919250719
 23
196.7371235735
 33
0.0
 14
617.5919250719
 24
196.7371235735
 34
0.0
100
AcDbRotatedDimension
  0
DIMENSION
  5
34A
330
1F
100
AcDbEntity
  8
SLD-0_0
100
AcDbDimension
  2
_D_23
 10
575.651431774
 20
328.0857567198
 30
0.0
 11
539.90706846
 21
312.1261439056
 31
0.0
 70
   163
  1
<>
 71
     1
 42
-1.0
  3
SLDDIMSTYLE9
100
AcDbDiametricDimension
 15
445.5324183697
 25
269.9884904271
 35
0.0
 40
0.0
  0
DIMENSION
  5
354
330
1F
100
AcDbEntity
  8
SLD-0_0
100
AcDbDimension
  2
_D_24
 10
439.9637014377
 20
330.9417318029
 30
0.0
 11
470.6680611867
 21
317.0717872823
 31
0.0
 70
   163
  1
<>
 71
     1
 42
-1.0
  3
SLDDIMSTYLE10
100
AcDbDiametricDimension
 15
581.2201487061
 25
267.132515344
 35
0.0
 40
0.0
  0
DIMENSION
  5
35E
330
1F
100
AcDbEntity
  8
SLD-0_0
100
AcDbDimension
  2
_D_25
 10
458.221263298
 20
352.9134819617
 30
0.0
 11
426.6150070001
 21
364.3530637235
 31
0.0
 70
   163
  1
<>
 71
     1
 42
-1.0
  3
SLDDIMSTYLE11
100
AcDbDiametricDimension
 15
453.3610357618
 25
354.7623162692
 35
0.0
 40
0.0
  0
DIMENSION
  5
36C
330
1F
100
AcDbEntity
  8
SLD-0_0
100
AcDbDimension
  2
_D_26
 10
572.5449555034
 20
514.9191707602
 30
0.0
 11
598.1876255614
 21
536.5741738904
 31
0.0
 70
   163
  1
<>
 71
     1
 42
-1.0
  3
SLDDIMSTYLE11
100
AcDbDiametricDimension
 15
575.3388946404
 25
518.0550763867
 35
0.0
 40
0.0
  0
INSERT
  5
381
330
1F
100
AcDbEntity
  8
SLD-0_0
100
AcDbBlockReference
  2
SW_CENTERMARKSYMBOL_0
 10
447.2419250719
 20
411.9871235735
 30
0.0
  0
INSERT
  5
38D
330
1F
100
AcDbEntity
  8
SLD-0_0
100
AcDbBlockReference
  2
SW_CENTERMARKSYMBOL_1
 10
447.2419250719
 20
516.4871235735
 30
0.0
  0
INSERT
  5
399
330
1F
100
AcDbEntity
  8
SLD-0_0
100
AcDbBlockReference
  2
SW_CENTERMARKSYMBOL_2
 10
573.9419250719
 20
516.4871235735
 30
0.0
  0
INSERT
  5
3A5
330
1F
100
AcDbEntity
  8
SLD-0_0
100
AcDbBlockReference
  2
SW_CENTERMARKSYMBOL_3
 10
573.9419250719
 20
411.9871235735
 30
0.0
  0
INSERT
  5
3CD
330
1F
100
AcDbEntity
  8
SLD-0_0
100
AcDbBlockReference
  2
SW_CENTERMARKSYMBOL_4
 10
455.7911495299
 20
353.8378991154
 30
0.0
  0
LINE
  5
3CE
330
1F
100
AcDbEntity
  8
SLD-0_0
  6
CENTERX2
370
     0
100
AcDbLine
 10
452.0919250719
 20
464.2371235735
 30
0.0
 11
569.0919250719
 21
464.2371235735
 31
0.0
  0
LINE
  5
3CF
330
1F
100
AcDbEntity
  8
0
  6
Continuous
 62
     7
100
AcDbLine
 10
716.9793581065
 20
451.3844947584
 30
0.0
 11
764.4741134522
 21
451.3844947584
 31
0.0
  0
LINE
  5
3D0
330
1F
100
AcDbEntity
  8
0
  6
Continuous
 62
     7
100
AcDbLine
 10
716.9793581065
 20
463.3844947584
 30
0.0
 11
716.9793581065
 21
451.3844947584
 31
0.0
  0
LINE
  5
3D1
330
1F
100
AcDbEntity
  8
0
  6
Continuous
 62
     7
100
AcDbLine
 10
716.9793581065
 20
463.3844947584
 30
0.0
 11
763.4793581065
 21
463.3844947584
 31
0.0
  0
LINE
  5
3D2
330
1F
100
AcDbEntity
  8
0
  6
Continuous
 62
     7
100
AcDbLine
 10
763.4793581065
 20
463.3844947584
 30
0.0
 11
764.4741134522
 21
451.3844947584
 31
0.0
  0
DIMENSION
  5
3D3
330
1F
100
AcDbEntity
  8
SLD-0_0
100
AcDbDimension
  2
_D_27
 10
764.4741134522
 20
441.3844947584
 30
0.0
 11
741.1927116184
 21
441.3844947584
 31
0.0
 70
   160
  1
<>
 71
     2
 42
-1.0
  3
SLDDIMSTYLE3
100
AcDbAlignedDimension
 13
716.9793581065
 23
451.3844947584
 33
0.0
 14
764.4741134522
 24
451.3844947584
 34
0.0
 50
0.0
100
AcDbRotatedDimension
  0
DIMENSION
  5
3DD
330
1F
100
AcDbEntity
  8
SLD-0_0
100
AcDbDimension
  2
_D_28
 10
774.4741134522
 20
463.3844947584
 30
0.0
 11
774.4741134522
 21
456.7707216773
 31
0.0
 70
   160
  1
<>
 71
     2
 42
-1.0
  3
SLDDIMSTYLE8
100
AcDbAlignedDimension
 13
764.4741134522
 23
451.3844947584
 33
0.0
 14
763.4793581065
 24
463.3844947584
 34
0.0
 50
90.0
100
AcDbRotatedDimension
  0
INSERT
  5
3F4
330
1F
100
AcDbEntity
  8
SLD-0_0
100
AcDbBlockReference
  2
SW_ANGULAR_DIMENSION_0
 10
758.2230242251
 20
476.831897874
 30
0.0
  0
LINE
  5
3F5
330
1F
100
AcDbEntity
  8
0
  6
Continuous
 62
     7
100
AcDbLine
 10
800.8608036637
 20
398.7873298586
 30
0.0
 11
811.0230767147
 21
386.7868942786
 31
0.0
  0
LINE
  5
3F6
330
1F
100
AcDbEntity
  8
0
  6
Continuous
 62
     7
100
AcDbLine
 10
661.4765539287
 20
386.793304047
 30
0.0
 11
811.0230767147
 21
386.7868942786
 31
0.0
  0
LINE
  5
3F7
330
1F
100
AcDbEntity
  8
0
  6
Continuous
 62
     7
100
AcDbLine
 10
662.4718236099
 20
398.7932613994
 30
0.0
 11
661.4765539287
 21
386.793304047
 31
0.0
  0
LINE
  5
3F8
330
1F
100
AcDbEntity
  8
0
  6
Continuous
 62
     7
100
AcDbLine
 10
662.4718236099
 20
398.7932613994
 30
0.0
 11
800.8608036637
 21
398.7873298586
 31
0.0
  0
DIMENSION
  5
3F9
330
1F
100
AcDbEntity
  8
SLD-0_0
100
AcDbDimension
  2
_D_29
 10
811.0220959559
 20
363.9047760923
 30
0.0
 11
735.322138739
 21
363.9080206959
 31
0.0
 70
   160
  1
<>
 71
     2
 42
-1.0
  3
SLDDIMSTYLE3
100
AcDbAlignedDimension
 13
661.4765539287
 23
386.793304047
 33
0.0
 14
811.0230767147
 24
386.7868942786
 34
0.0
 50
-0.0024557754
100
AcDbRotatedDimension
  0
INSERT
  5
40C
330
1F
100
AcDbEntity
  8
SLD-0_0
100
AcDbBlockReference
  2
SW_ANGULAR_DIMENSION_1
 10
793.4109089317
 20
423.4384053283
 30
0.0
  0
INSERT
  5
418
330
1F
100
AcDbEntity
  8
SLD-0_0
100
AcDbBlockReference
  2
SW_ANGULAR_DIMENSION_2
 10
658.4770617565
 20
421.7218776768
 30
0.0
  0
DIMENSION
  5
419
330
1F
100
AcDbEntity
  8
SLD-0_0
100
AcDbDimension
  2
_D_30
 10
832.6966940807
 20
386.7859653178
 30
0.0
 11
832.6969215109
 21
392.0921477018
 31
0.0
 70
   160
  1
<>
 71
     2
 42
-1.0
  3
SLDDIMSTYLE8
100
AcDbAlignedDimension
 13
800.8608036637
 23
398.7873298586
 33
0.0
 14
811.0230767147
 24
386.7868942786
 34
0.0
 50
89.9975442246
100
AcDbRotatedDimension
  0
INSERT
  5
42A
330
1F
100
AcDbEntity
  8
SLD-0_0
100
AcDbBlockReference
  2
SW_NOTE_18
 10
679.7033057094
 20
418.3712136698
 30
0.0
  0
LINE
  5
42B
330
1F
100
AcDbEntity
  8
0
  6
Continuous
 62
     7
100
AcDbLine
 10
794.7453716699
 20
324.1441951472
 30
0.0
 11
798.2999336094
 21
312.1441951472
 31
0.0
  0
LINE
  5
42C
330
1F
100
AcDbEntity
  8
0
  6
Continuous
 62
     7
100
AcDbLine
 10
798.2999336094
 20
312.1441951472
 30
0.0
 11
715.9244197554
 21
312.1441951472
 31
0.0
  0
LINE
  5
42D
330
1F
100
AcDbEntity
  8
0
  6
Continuous
 62
     7
100
AcDbLine
 10
726.0872071521
 20
324.1441951472
 30
0.0
 11
715.9244197554
 21
312.1441951472
 31
0.0
  0
LINE
  5
42E
330
1F
100
AcDbEntity
  8
0
  6
Continuous
 62
     7
100
AcDbLine
 10
794.7453716699
 20
324.1441951472
 30
0.0
 11
726.0872071521
 21
324.1441951472
 31
0.0
  0
DIMENSION
  5
42F
330
1F
100
AcDbEntity
  8
SLD-0_0
100
AcDbDimension
  2
_D_31
 10
715.9244197554
 20
302.3357375496
 30
0.0
 11
757.2453975195
 21
302.3357375496
 31
0.0
 70
   160
  1
<>
 71
     2
 42
-1.0
  3
SLDDIMSTYLE3
100
AcDbAlignedDimension
 13
798.2999336094
 23
312.1441951472
 33
0.0
 14
715.9244197554
 24
312.1441951472
 34
0.0
 50
0.0
100
AcDbRotatedDimension
  0
DIMENSION
  5
439
330
1F
100
AcDbEntity
  8
SLD-0_0
100
AcDbDimension
  2
_D_32
 10
808.2999336094
 20
324.1441951472
 30
0.0
 11
808.2999336094
 21
317.6185323793
 31
0.0
 70
   160
  1
<>
 71
     2
 42
-1.0
  3
SLDDIMSTYLE8
100
AcDbAlignedDimension
 13
798.2999336094
 23
312.1441951472
 33
0.0
 14
794.7453716699
 24
324.1441951472
 34
0.0
 50
90.0
100
AcDbRotatedDimension
  0
INSERT
  5
450
330
1F
100
AcDbEntity
  8
SLD-0_0
100
AcDbBlockReference
  2
SW_ANGULAR_DIMENSION_3
 10
790.5008202628
 20
338.2370881359
 30
0.0
  0
INSERT
  5
45C
330
1F
100
AcDbEntity
  8
SLD-0_0
100
AcDbBlockReference
  2
SW_ANGULAR_DIMENSION_4
 10
716.8228543469
 20
337.9608434092
 30
0.0
  0
LINE
  5
45D
330
1F
100
AcDbEntity
  8
0
  6
Continuous
 62
     7
100
AcDbLine
 10
810.0964232537
 20
260.5236911853
 30
0.0
 11
815.3793567143
 21
248.5236911853
 31
0.0
  0
LINE
  5
45E
330
1F
100
AcDbEntity
  8
0
  6
Continuous
 62
     7
100
AcDbLine
 10
815.3793567143
 20
248.5236911853
 30
0.0
 11
705.2146491877
 21
248.5236911853
 31
0.0
  0
LINE
  5
45F
330
1F
100
AcDbEntity
  8
0
  6
Continuous
 62
     7
100
AcDbLine
 10
708.7692111272
 20
260.5236911853
 30
0.0
 11
705.2146491877
 21
248.5236911853
 31
0.0
  0
LINE
  5
460
330
1F
100
AcDbEntity
  8
0
  6
Continuous
 62
     7
100
AcDbLine
 10
810.0964232537
 20
260.5236911853
 30
0.0
 11
708.7692111272
 21
260.5236911853
 31
0.0
  0
DIMENSION
  5
461
330
1F
100
AcDbEntity
  8
SLD-0_0
100
AcDbDimension
  2
_D_33
 10
705.2146491877
 20
233.9818738861
 30
0.0
 11
759.7948118256
 21
233.9818738861
 31
0.0
 70
   160
  1
<>
 71
     2
 42
-1.0
  3
SLDDIMSTYLE3
100
AcDbAlignedDimension
 13
815.3793567143
 23
248.5236911853
 33
0.0
 14
705.2146491877
 24
248.5236911853
 34
0.0
 50
0.0
100
AcDbRotatedDimension
  0
DIMENSION
  5
46B
330
1F
100
AcDbEntity
  8
SLD-0_0
100
AcDbDimension
  2
_D_34
 10
832.5595000179
 20
260.5236911853
 30
0.0
 11
832.5595000179
 21
254.3083482294
 31
0.0
 70
   160
  1
<>
 71
     2
 42
-1.0
  3
SLDDIMSTYLE8
100
AcDbAlignedDimension
 13
815.3793567143
 23
248.5236911853
 33
0.0
 14
810.0964232537
 24
260.5236911853
 34
0.0
 50
90.0
100
AcDbRotatedDimension
  0
INSERT
  5
482
330
1F
100
AcDbEntity
  8
SLD-0_0
100
AcDbBlockReference
  2
SW_ANGULAR_DIMENSION_5
 10
808.9873135159
 20
270.2888216352
 30
0.0
  0
INSERT
  5
48E
330
1F
100
AcDbEntity
  8
SLD-0_0
100
AcDbBlockReference
  2
SW_ANGULAR_DIMENSION_6
 10
703.2639620267
 20
271.3989722515
 30
0.0
  0
INSERT
  5
494
330
1F
100
AcDbEntity
  8
SLD-0_0
100
AcDbBlockReference
  2
SW_NOTE_19
 10
673.7022328103
 20
199.9333544779
 30
0.0
  0
LINE
  5
495
330
1F
100
AcDbEntity
  8
0
  6
Continuous
 62
     7
100
AcDbLine
 10
804.1573646185
 20
183.3503577718
 30
0.0
 11
805.1526342997
 21
171.3504004194
 31
0.0
  0
LINE
  5
496
330
1F
100
AcDbEntity
  8
0
  6
Continuous
 62
     7
100
AcDbLine
 10
805.1526342997
 20
171.3504004194
 30
0.0
 11
716.4364324165
 21
171.3465979217
 31
0.0
  0
LINE
  5
497
330
1F
100
AcDbEntity
  8
0
  6
Continuous
 62
     7
100
AcDbLine
 10
721.7188515358
 20
183.3468243444
 30
0.0
 11
716.4364324165
 21
171.3465979217
 31
0.0
  0
LINE
  5
498
330
1F
100
AcDbEntity
  8
0
  6
Continuous
 62
     7
100
AcDbLine
 10
804.1573646185
 20
183.3503577718
 30
0.0
 11
721.7188515358
 21
183.3468243444
 31
0.0
  0
DIMENSION
  5
499
330
1F
100
AcDbEntity
  8
SLD-0_0
100
AcDbDimension
  2
_D_35
 10
716.4368758788
 20
161.0001642739
 30
0.0
 11
763.0825519116
 21
161.0021635713
 31
0.0
 70
   160
  1
<>
 71
     2
 42
-1.0
  3
SLDDIMSTYLE3
100
AcDbAlignedDimension
 13
805.1526342997
 23
171.3504004194
 33
0.0
 14
716.4364324165
 24
171.3465979217
 34
0.0
 50
0.0024557754
100
AcDbRotatedDimension
  0
DIMENSION
  5
4A3
330
1F
100
AcDbEntity
  8
SLD-0_0
100
AcDbDimension
  2
_D_36
 10
816.1335274368
 20
183.3508710865
 30
0.0
 11
816.1338044248
 21
176.888453832
 31
0.0
 70
   160
  1
<>
 71
     2
 42
-1.0
  3
SLDDIMSTYLE8
100
AcDbAlignedDimension
 13
805.1526342997
 23
171.3504004194
 33
0.0
 14
804.1573646185
 24
183.3503577718
 34
0.0
 50
-89.9975442246
100
AcDbRotatedDimension
  0
INSERT
  5
4BA
330
1F
100
AcDbEntity
  8
SLD-0_0
100
AcDbBlockReference
  2
SW_ANGULAR_DIMENSION_7
 10
799.5923192696
 20
202.0990347016
 30
0.0
  0
INSERT
  5
4C6
330
1F
100
AcDbEntity
  8
SLD-0_0
100
AcDbBlockReference
  2
SW_ANGULAR_DIMENSION_8
 10
716.4356913822
 20
204.8761738903
 30
0.0
  0
LINE
  5
4C7
330
1F
100
AcDbEntity
  8
0
  6
Continuous
 62
     7
100
AcDbLine
 10
715.8645777098
 20
511.8924333822
 30
0.0
 11
715.8645777098
 21
558.5406656603
 31
0.0
  0
LINE
  5
4C8
330
1F
100
AcDbEntity
  8
0
  6
Continuous
 62
     7
100
AcDbLine
 10
709.8645777098
 20
517.8924333822
 30
0.0
 11
715.8645777098
 21
511.8924333822
 31
0.0
  0
LINE
  5
4C9
330
1F
100
AcDbEntity
  8
0
  6
Continuous
 62
     7
100
AcDbLine
 10
709.8645777098
 20
552.5406656603
 30
0.0
 11
709.8645777098
 21
517.8924333822
 31
0.0
  0
LINE
  5
4CA
330
1F
100
AcDbEntity
  8
0
  6
Continuous
 62
     7
100
AcDbLine
 10
715.8645777098
 20
558.5406656603
 30
0.0
 11
709.8645777098
 21
552.5406656603
 31
0.0
  0
DIMENSION
  5
4CB
330
1F
100
AcDbEntity
  8
SLD-0_0
100
AcDbDimension
  2
_D_37
 10
728.7082363031
 20
558.5406656603
 30
0.0
 11
728.7082363031
 21
535.910406866
 31
0.0
 70
   160
  1
<>
 71
     2
 42
-1.0
  3
SLDDIMSTYLE12
100
AcDbAlignedDimension
 13
715.8645777098
 23
511.8924333822
 33
0.0
 14
715.8645777098
 24
558.5406656603
 34
0.0
 50
90.0
100
AcDbRotatedDimension
  0
DIMENSION
  5
4D6
330
1F
100
AcDbEntity
  8
SLD-0_0
100
AcDbDimension
  2
_D_38
 10
709.8645777098
 20
568.5406656603
 30
0.0
 11
713.2797306926
 21
568.5406656603
 31
0.0
 70
   160
  1
<>
 71
     2
 42
-1.0
  3
SLDDIMSTYLE13
100
AcDbAlignedDimension
 13
715.8645777098
 23
558.5406656603
 33
0.0
 14
709.8645777098
 24
552.5406656603
 34
0.0
100
AcDbRotatedDimension
  0
INSERT
  5
4EE
330
1F
100
AcDbEntity
  8
SLD-0_0
100
AcDbBlockReference
  2
SW_ANGULAR_DIMENSION_9
 10
698.4564678894
 20
555.5165768571
 30
0.0
  0
INSERT
  5
4FA
330
1F
100
AcDbEntity
  8
SLD-0_0
100
AcDbBlockReference
  2
SW_ANGULAR_DIMENSION_10
 10
698.3135968749
 20
515.7855835803
 30
0.0
  0
LINE
  5
4FB
330
1F
100
AcDbEntity
  8
0
  6
Continuous
 62
     7
100
AcDbLine
 10
787.4539143272
 20
552.5406656603
 30
0.0
 11
764.2039143272
 21
552.5406656603
 31
0.0
  0
LINE
  5
4FC
330
1F
100
AcDbEntity
  8
0
  6
Continuous
 62
     7
100
AcDbLine
 10
787.4539143272
 20
552.5406656603
 30
0.0
 11
787.4539143272
 21
517.8924333822
 31
0.0
  0
LINE
  5
4FD
330
1F
100
AcDbEntity
  8
0
  6
Continuous
 62
     7
100
AcDbLine
 10
787.4539143272
 20
517.8924333822
 30
0.0
 11
764.2039143272
 21
517.8924333822
 31
0.0
  0
LINE
  5
4FE
330
1F
100
AcDbEntity
  8
0
  6
Continuous
 62
     7
100
AcDbLine
 10
764.2039143272
 20
552.5406656603
 30
0.0
 11
764.2039143272
 21
517.8924333822
 31
0.0
  0
LINE
  5
4FF
330
1F
100
AcDbEntity
  8
0
  6
Continuous
 62
     7
100
AcDbLine
 10
787.4539143272
 20
517.8924333822
 30
0.0
 11
787.4539143272
 21
511.8924333822
 31
0.0
  0
LINE
  5
500
330
1F
100
AcDbEntity
  8
0
  6
Continuous
 62
     7
100
AcDbLine
 10
764.2039143272
 20
517.8924333822
 30
0.0
 11
764.2039143272
 21
511.8924333822
 31
0.0
  0
LINE
  5
501
330
1F
100
AcDbEntity
  8
0
  6
Continuous
 62
     7
100
AcDbLine
 10
787.4539143272
 20
511.8924333822
 30
0.0
 11
764.2039143272
 21
511.8924333822
 31
0.0
  0
LINE
  5
502
330
1F
100
AcDbEntity
  8
0
  6
Continuous
 62
     7
100
AcDbLine
 10
787.4539143272
 20
558.5406656603
 30
0.0
 11
787.4539143272
 21
552.5406656603
 31
0.0
  0
LINE
  5
503
330
1F
100
AcDbEntity
  8
0
  6
Continuous
 62
     7
100
AcDbLine
 10
764.2039143272
 20
558.5406656603
 30
0.0
 11
764.2039143272
 21
552.5406656603
 31
0.0
  0
LINE
  5
504
330
1F
100
AcDbEntity
  8
0
  6
Continuous
 62
     7
100
AcDbLine
 10
787.4539143272
 20
558.5406656603
 30
0.0
 11
764.2039143272
 21
558.5406656603
 31
0.0
  0
DIMENSION
  5
505
330
1F
100
AcDbEntity
  8
CAJETIN
100
AcDbDimension
  2
_D_39
 10
764.2039143272
 20
504.0630949935
 30
0.0
 11
775.5234857717
 21
504.0630949935
 31
0.0
 70
   160
  1
<>
 71
     2
 42
-1.0
  3
SLDDIMSTYLE14
100
AcDbAlignedDimension
 13
787.4539143272
 23
511.8924333822
 33
0.0
 14
764.2039143272
 24
511.8924333822
 34
0.0
100
AcDbRotatedDimension
  0
ENDSEC
  0
SECTION
  2
OBJECTS
  0
DICTIONARY
  5
C
330
0
100
AcDbDictionary
281
     1
  3
ACAD_GROUP
350
D
  3
ACAD_LAYOUT
350
1A
  3
ACAD_MLINESTYLE
350
17
  3
ACAD_PLOTSETTINGS
350
19
  3
ACAD_PLOTSTYLENAME
350
E
  3
ACAD_SCALELIST
350
47
  0
DICTIONARY
  5
D
102
{ACAD_REACTORS
330
C
102
}
330
C
100
AcDbDictionary
281
     1
  0
DICTIONARY
  5
1A
102
{ACAD_REACTORS
330
C
102
}
330
C
100
AcDbDictionary
281
     1
  3
Layout1
350
1E
  3
Layout2
350
26
  3
Model
350
22
  0
DICTIONARY
  5
17
102
{ACAD_REACTORS
330
C
102
}
330
C
100
AcDbDictionary
281
     1
  3
Standard
350
18
  0
DICTIONARY
  5
19
102
{ACAD_REACTORS
330
C
102
}
330
C
100
AcDbDictionary
281
     1
  0
ACDBDICTIONARYWDFLT
  5
E
102
{ACAD_REACTORS
330
C
102
}
330
C
100
AcDbDictionary
281
     1
  3
Normal
350
F
100
AcDbDictionaryWithDefault
340
F
  0
DICTIONARY
  5
47
102
{ACAD_REACTORS
330
C
102
}
330
C
100
AcDbDictionary
281
     1
  3
A0
350
48
  3
A1
350
49
  3
A2
350
4A
  3
A3
350
4B
  3
A4
350
4C
  3
A5
350
4D
  3
A6
350
4E
  3
A7
350
4F
  3
A8
350
50
  3
A9
350
51
  3
B0
350
52
  3
B1
350
53
  3
B2
350
54
  3
B3
350
55
  3
B4
350
56
  3
B5
350
57
  3
B6
350
58
  3
B7
350
59
  3
B8
350
5A
  3
B9
350
5B
  3
C0
350
5C
  3
C1
350
5D
  3
C2
350
5E
  3
C3
350
5F
  3
C4
350
60
  3
C5
350
61
  3
C6
350
62
  3
C7
350
63
  3
C8
350
64
  3
C9
350
65
  3
D0
350
66
  3
D1
350
67
  3
D2
350
68
  0
LAYOUT
  5
1E
102
{ACAD_REACTORS
330
1A
102
}
330
1A
100
AcDbPlotSettings
  1

  2
none_device
  4

  6

 40
0.0
 41
0.0
 42
0.0
 43
0.0
 44
0.0
 45
0.0
 46
0.0
 47
0.0
 48
0.0
 49
0.0
140
0.0
141
0.0
142
1.0
143
1.0
 70
   688
 72
     1
 73
     0
 74
     5
  7

 75
    16
147
1.0
148
0.0
149
0.0
100
AcDbLayout
  1
Layout1
 70
     1
 71
     1
 10
0.0
 20
0.0
 11
420.0
 21
297.0
 12
0.0
 22
0.0
 32
0.0
 14
1.0000000000E+20
 24
1.0000000000E+20
 34
1.0000000000E+20
 15
-1.0000000000E+20
 25
-1.0000000000E+20
 35
-1.0000000000E+20
146
0.0
 13
0.0
 23
0.0
 33
0.0
 16
1.0
 26
0.0
 36
0.0
 17
0.0
 27
1.0
 37
0.0
 76
     0
330
1B
  0
LAYOUT
  5
26
102
{ACAD_REACTORS
330
1A
102
}
330
1A
100
AcDbPlotSettings
  1

  2
none_device
  4

  6

 40
0.0
 41
0.0
 42
0.0
 43
0.0
 44
0.0
 45
0.0
 46
0.0
 47
0.0
 48
0.0
 49
0.0
140
0.0
141
0.0
142
1.0
143
1.0
 70
   688
 72
     1
 73
     0
 74
     5
  7

 75
    16
147
1.0
148
0.0
149
0.0
100
AcDbLayout
  1
Layout2
 70
     1
 71
     2
 10
0.0
 20
0.0
 11
0.0
 21
0.0
 12
0.0
 22
0.0
 32
0.0
 14
0.0
 24
0.0
 34
0.0
 15
0.0
 25
0.0
 35
0.0
146
0.0
 13
0.0
 23
0.0
 33
0.0
 16
1.0
 26
0.0
 36
0.0
 17
0.0
 27
1.0
 37
0.0
 76
     0
330
23
  0
LAYOUT
  5
22
102
{ACAD_REACTORS
330
1A
102
}
330
1A
100
AcDbPlotSettings
  1

  2
none_device
  4
Letter_(8.50_x_11.00_Inches)
  6

 40
6.35
 41
6.35
 42
6.35000508
 43
6.35000508
 44
215.9
 45
279.4
 46
0.0
 47
0.0
 48
0.0
 49
0.0
140
0.0
141
0.0
142
1.0
143
1.0
 70
  1712
 72
     1
 73
     0
 74
     0
  7

 75
     0
147
1.0
148
0.0
149
0.0
100
AcDbLayout
  1
Model
 70
     1
 71
     0
 10
0.0
 20
0.0
 11
841.0
 21
594.0
 12
0.0
 22
0.0
 32
0.0
 14
0.0
 24
0.0
 34
0.0
 15
841.0
 25
594.0
 35
0.0
146
0.0
 13
0.0
 23
0.0
 33
0.0
 16
1.0
 26
0.0
 36
0.0
 17
0.0
 27
1.0
 37
0.0
 76
     0
330
1F
331
29
  0
MLINESTYLE
  5
18
102
{ACAD_REACTORS
330
17
102
}
330
17
100
AcDbMlineStyle
  2
Standard
 70
     0
  3

 62
   256
 51
90.0
 52
90.0
 71
     2
 49
0.5
 62
   256
  6
BYLAYER
 49
-0.5
 62
   256
  6
BYLAYER
  0
ACDBPLACEHOLDER
  5
F
102
{ACAD_REACTORS
330
E
102
}
330
E
  0
SCALE
  5
48
102
{ACAD_REACTORS
330
47
102
}
330
47
100
AcDbScale
 70
     0
300
1:1
140
1.0
141
1.0
290
     1
  0
SCALE
  5
49
102
{ACAD_REACTORS
330
47
102
}
330
47
100
AcDbScale
 70
     0
300
1:2
140
1.0
141
2.0
290
     0
  0
SCALE
  5
4A
102
{ACAD_REACTORS
330
47
102
}
330
47
100
AcDbScale
 70
     0
300
1:4
140
1.0
141
4.0
290
     0
  0
SCALE
  5
4B
102
{ACAD_REACTORS
330
47
102
}
330
47
100
AcDbScale
 70
     0
300
1:5
140
1.0
141
5.0
290
     0
  0
SCALE
  5
4C
102
{ACAD_REACTORS
330
47
102
}
330
47
100
AcDbScale
 70
     0
300
1:8
140
1.0
141
8.0
290
     0
  0
SCALE
  5
4D
102
{ACAD_REACTORS
330
47
102
}
330
47
100
AcDbScale
 70
     0
300
1:10
140
1.0
141
10.0
290
     0
  0
SCALE
  5
4E
102
{ACAD_REACTORS
330
47
102
}
330
47
100
AcDbScale
 70
     0
300
1:16
140
1.0
141
16.0
290
     0
  0
SCALE
  5
4F
102
{ACAD_REACTORS
330
47
102
}
330
47
100
AcDbScale
 70
     0
300
1:20
140
1.0
141
20.0
290
     0
  0
SCALE
  5
50
102
{ACAD_REACTORS
330
47
102
}
330
47
100
AcDbScale
 70
     0
300
1:30
140
1.0
141
30.0
290
     0
  0
SCALE
  5
51
102
{ACAD_REACTORS
330
47
102
}
330
47
100
AcDbScale
 70
     0
300
1:40
140
1.0
141
40.0
290
     0
  0
SCALE
  5
52
102
{ACAD_REACTORS
330
47
102
}
330
47
100
AcDbScale
 70
     0
300
1:50
140
1.0
141
50.0
290
     0
  0
SCALE
  5
53
102
{ACAD_REACTORS
330
47
102
}
330
47
100
AcDbScale
 70
     0
300
1:100
140
1.0
141
100.0
290
     0
  0
SCALE
  5
54
102
{ACAD_REACTORS
330
47
102
}
330
47
100
AcDbScale
 70
     0
300
2:1
140
2.0
141
1.0
290
     0
  0
SCALE
  5
55
102
{ACAD_REACTORS
330
47
102
}
330
47
100
AcDbScale
 70
     0
300
4:1
140
4.0
141
1.0
290
     0
  0
SCALE
  5
56
102
{ACAD_REACTORS
330
47
102
}
330
47
100
AcDbScale
 70
     0
300
8:1
140
8.0
141
1.0
290
     0
  0
SCALE
  5
57
102
{ACAD_REACTORS
330
47
102
}
330
47
100
AcDbScale
 70
     0
300
10:1
140
10.0
141
1.0
290
     0
  0
SCALE
  5
58
102
{ACAD_REACTORS
330
47
102
}
330
47
100
AcDbScale
 70
     0
300
100:1
140
100.0
141
1.0
290
     0
  0
SCALE
  5
59
102
{ACAD_REACTORS
330
47
102
}
330
47
100
AcDbScale
 70
     0
300
1/128" = 1'-0"
140
0.0078125
141
12.0
290
     0
  0
SCALE
  5
5A
102
{ACAD_REACTORS
330
47
102
}
330
47
100
AcDbScale
 70
     0
300
1/64" = 1'-0"
140
0.015625
141
12.0
290
     0
  0
SCALE
  5
5B
102
{ACAD_REACTORS
330
47
102
}
330
47
100
AcDbScale
 70
     0
300
1/32" = 1'-0"
140
0.03125
141
12.0
290
     0
  0
SCALE
  5
5C
102
{ACAD_REACTORS
330
47
102
}
330
47
100
AcDbScale
 70
     0
300
1/16" = 1'-0"
140
0.0625
141
12.0
290
     0
  0
SCALE
  5
5D
102
{ACAD_REACTORS
330
47
102
}
330
47
100
AcDbScale
 70
     0
300
3/32" = 1'-0"
140
0.09375
141
12.0
290
     0
  0
SCALE
  5
5E
102
{ACAD_REACTORS
330
47
102
}
330
47
100
AcDbScale
 70
     0
300
1/8" = 1'-0"
140
0.125
141
12.0
290
     0
  0
SCALE
  5
5F
102
{ACAD_REACTORS
330
47
102
}
330
47
100
AcDbScale
 70
     0
300
3/16" = 1'-0"
140
0.1875
141
12.0
290
     0
  0
SCALE
  5
60
102
{ACAD_REACTORS
330
47
102
}
330
47
100
AcDbScale
 70
     0
300
1/4" = 1'-0"
140
0.25
141
12.0
290
     0
  0
SCALE
  5
61
102
{ACAD_REACTORS
330
47
102
}
330
47
100
AcDbScale
 70
     0
300
3/8" = 1'-0"
140
0.375
141
12.0
290
     0
  0
SCALE
  5
62
102
{ACAD_REACTORS
330
47
102
}
330
47
100
AcDbScale
 70
     0
300
1/2" = 1'-0"
140
0.5
141
12.0
290
     0
  0
SCALE
  5
63
102
{ACAD_REACTORS
330
47
102
}
330
47
100
AcDbScale
 70
     0
300
3/4" = 1'-0"
140
0.75
141
12.0
290
     0
  0
SCALE
  5
64
102
{ACAD_REACTORS
330
47
102
}
330
47
100
AcDbScale
 70
     0
300
1" = 1'-0"
140
1.0
141
12.0
290
     0
  0
SCALE
  5
65
102
{ACAD_REACTORS
330
47
102
}
330
47
100
AcDbScale
 70
     0
300
1-1/2" = 1'-0"
140
1.5
141
12.0
290
     0
  0
SCALE
  5
66
102
{ACAD_REACTORS
330
47
102
}
330
47
100
AcDbScale
 70
     0
300
3" = 1'-0"
140
3.0
141
12.0
290
     0
  0
SCALE
  5
67
102
{ACAD_REACTORS
330
47
102
}
330
47
100
AcDbScale
 70
     0
300
6" = 1'-0"
140
6.0
141
12.0
290
     0
  0
SCALE
  5
68
102
{ACAD_REACTORS
330
47
102
}
330
47
100
AcDbScale
 70
     0
300
1'-0" = 1'-0"
140
12.0
141
12.0
290
     0
  0
ENDSEC
  0
EOF
