  0
SECTION
  2
HEADER
  9
$ACADVER
  1
AC1015
  9
$ACADMAINTVER
 70
     6
  9
$DWGCODEPAGE
  3
ANSI_1252
  9
$INSBASE
 10
0.0
 20
0.0
 30
0.0
  9
$EXTMIN
 10
0.0
 20
0.0
 30
0.0
  9
$EXTMAX
 10
3000.0
 20
2000.0
 30
0.0
  9
$LIMMIN
 10
0.0
 20
0.0
  9
$LIMMAX
 10
3000.0
 20
2000.0
  9
$ORTHOMODE
 70
     0
  9
$REGENMODE
 70
     1
  9
$FILLMODE
 70
     1
  9
$QTEXTMODE
 70
     0
  9
$MIRRTEXT
 70
     1
  9
$LTSCALE
 40
1.0
  9
$ATTMODE
 70
     1
  9
$TEXTSIZE
 40
2.5
  9
$TRACEWID
 40
1.0
  9
$TEXTSTYLE
  7
Standard
  9
$CLAYER
  8
0
  9
$CELTYPE
  6
ByLayer
  9
$CECOLOR
 62
   256
  9
$CELTSCALE
 40
1.0
  9
$DISPSILH
 70
     0
  9
$DIMSCALE
 40
1.0
  9
$DIMASZ
 40
9.2459472656
  9
$DIMEXO
 40
1.0
  9
$DIMDLI
 40
3.75
  9
$DIMRND
 40
0.0
  9
$DIMDLE
 40
0.0
  9
$DIMEXE
 40
1.0
  9
$DIMTP
 40
0.0
  9
$DIMTM
 40
0.0
  9
$DIMTXT
 40
12.7
  9
$DIMCEN
 40
2.5
  9
$DIMTSZ
 40
0.0
  9
$DIMTOL
 70
     0
  9
$DIMLIM
 70
     0
  9
$DIMTIH
 70
     1
  9
$DIMTOH
 70
     1
  9
$DIMSE1
 70
     0
  9
$DIMSE2
 70
     0
  9
$DIMTAD
 70
     1
  9
$DIMZIN
 70
     0
  9
$DIMBLK
  1

  9
$DIMASO
 70
     1
  9
$DIMSHO
 70
     1
  9
$DIMPOST
  1

  9
$DIMAPOST
  1

  9
$DIMALT
 70
     0
  9
$DIMALTD
 70
     3
  9
$DIMALTF
 40
0.0393700787
  9
$DIMLFAC
 40
1.0
  9
$DIMTOFL
 70
     1
  9
$DIMTVP
 40
0.0
  9
$DIMTIX
 70
     0
  9
$DIMSOXD
 70
     0
  9
$DIMSAH
 70
     0
  9
$DIMBLK1
  1

  9
$DIMBLK2
  1

  9
$DIMSTYLE
  2
ISO-25
  9
$DIMCLRD
 70
     0
  9
$DIMCLRE
 70
     0
  9
$DIMCLRT
 70
     0
  9
$DIMTFAC
 40
1.0
  9
$DIMGAP
 40
1.524
  9
$DIMJUST
 70
     0
  9
$DIMSD1
 70
     0
  9
$DIMSD2
 70
     0
  9
$DIMTOLJ
 70
     0
  9
$DIMTZIN
 70
     0
  9
$DIMALTZ
 70
     0
  9
$DIMALTTZ
 70
     0
  9
$DIMUPT
 70
     0
  9
$DIMDEC
 70
     2
  9
$DIMTDEC
 70
     2
  9
$DIMALTU
 70
     2
  9
$DIMALTTD
 70
     3
  9
$DIMTXSTY
  7
Standard
  9
$DIMAUNIT
 70
     0
  9
$DIMADEC
 70
     2
  9
$DIMALTRND
 40
0.0
  9
$DIMAZIN
 70
     0
  9
$DIMDSEP
 70
    44
  9
$DIMATFIT
 70
     3
  9
$DIMFRAC
 70
     0
  9
$DIMLDRBLK
  1

  9
$DIMLUNIT
 70
     2
  9
$DIMLWD
 70
    -2
  9
$DIMLWE
 70
    -2
  9
$DIMTMOVE
 70
     0
  9
$LUNITS
 70
     2
  9
$LUPREC
 70
     2
  9
$SKETCHINC
 40
1.0
  9
$FILLETRAD
 40
10.0
  9
$AUNITS
 70
     0
  9
$AUPREC
 70
     2
  9
$MENU
  1
.
  9
$ELEVATION
 40
0.0
  9
$PELEVATION
 40
0.0
  9
$THICKNESS
 40
0.0
  9
$LIMCHECK
 70
     0
  9
$CHAMFERA
 40
0.0
  9
$CHAMFERB
 40
0.0
  9
$CHAMFERC
 40
0.0
  9
$CHAMFERD
 40
0.0
  9
$SKPOLY
 70
     0
  9
$TDCREATE
 40
2458541.429544792
  9
$TDUCREATE
 40
2458541.387878125
  9
$TDUPDATE
 40
2458541.429578206
  9
$TDUUPDATE
 40
2458541.38791154
  9
$TDINDWG
 40
0.0000000116
  9
$TDUSRTIMER
 40
0.0000000116
  9
$USRTIMER
 70
     1
  9
$ANGBASE
 50
0.0
  9
$ANGDIR
 70
     0
  9
$PDMODE
 70
     0
  9
$PDSIZE
 40
-1.0
  9
$PLINEWID
 40
0.0
  9
$SPLFRAME
 70
     0
  9
$SPLINETYPE
 70
     6
  9
$SPLINESEGS
 70
     8
  9
$HANDSEED
  5
538
  9
$SURFTAB1
 70
     6
  9
$SURFTAB2
 70
     6
  9
$SURFTYPE
 70
     6
  9
$SURFU
 70
     6
  9
$SURFV
 70
     6
  9
$UCSBASE
  2

  9
$UCSNAME
  2

  9
$UCSORG
 10
0.0
 20
0.0
 30
0.0
  9
$UCSXDIR
 10
1.0
 20
0.0
 30
0.0
  9
$UCSYDIR
 10
0.0
 20
1.0
 30
0.0
  9
$UCSORTHOREF
  2

  9
$UCSORTHOVIEW
 70
     0
  9
$UCSORGTOP
 10
0.0
 20
0.0
 30
0.0
  9
$UCSORGBOTTOM
 10
0.0
 20
0.0
 30
0.0
  9
$UCSORGLEFT
 10
0.0
 20
0.0
 30
0.0
  9
$UCSORGRIGHT
 10
0.0
 20
0.0
 30
0.0
  9
$UCSORGFRONT
 10
0.0
 20
0.0
 30
0.0
  9
$UCSORGBACK
 10
0.0
 20
0.0
 30
0.0
  9
$PUCSBASE
  2

  9
$PUCSNAME
  2

  9
$PUCSORG
 10
0.0
 20
0.0
 30
0.0
  9
$PUCSXDIR
 10
1.0
 20
0.0
 30
0.0
  9
$PUCSYDIR
 10
0.0
 20
1.0
 30
0.0
  9
$PUCSORTHOREF
  2

  9
$PUCSORTHOVIEW
 70
     0
  9
$PUCSORGTOP
 10
0.0
 20
0.0
 30
0.0
  9
$PUCSORGBOTTOM
 10
0.0
 20
0.0
 30
0.0
  9
$PUCSORGLEFT
 10
0.0
 20
0.0
 30
0.0
  9
$PUCSORGRIGHT
 10
0.0
 20
0.0
 30
0.0
  9
$PUCSORGFRONT
 10
0.0
 20
0.0
 30
0.0
  9
$PUCSORGBACK
 10
0.0
 20
0.0
 30
0.0
  9
$USERI1
 70
     0
  9
$USERI2
 70
     0
  9
$USERI3
 70
     0
  9
$USERI4
 70
     0
  9
$USERI5
 70
     0
  9
$USERR1
 40
0.0
  9
$USERR2
 40
0.0
  9
$USERR3
 40
0.0
  9
$USERR4
 40
0.0
  9
$USERR5
 40
0.0
  9
$WORLDVIEW
 70
     1
  9
$SHADEDGE
 70
     3
  9
$SHADEDIF
 70
    70
  9
$TILEMODE
 70
     1
  9
$MAXACTVP
 70
    64
  9
$PINSBASE
 10
0.0
 20
0.0
 30
0.0
  9
$PLIMCHECK
 70
     0
  9
$PEXTMIN
 10
1.0000000000E+20
 20
1.0000000000E+20
 30
1.0000000000E+20
  9
$PEXTMAX
 10
-1.0000000000E+20
 20
-1.0000000000E+20
 30
-1.0000000000E+20
  9
$PLIMMIN
 10
0.0
 20
0.0
  9
$PLIMMAX
 10
420.0
 20
297.0
  9
$UNITMODE
 70
     0
  9
$VISRETAIN
 70
     1
  9
$PLINEGEN
 70
     0
  9
$PSLTSCALE
 70
     1
  9
$TREEDEPTH
 70
  3020
  9
$CMLSTYLE
  2
Standard
  9
$CMLJUST
 70
     0
  9
$CMLSCALE
 40
20.0
  9
$PROXYGRAPHICS
 70
     1
  9
$MEASUREMENT
 70
     1
  9
$CELWEIGHT
370
    -1
  9
$ENDCAPS
280
     0
  9
$JOINSTYLE
280
     0
  9
$LWDISPLAY
290
     1
  9
$INSUNITS
 70
     4
  9
$HYPERLINKBASE
  1

  9
$STYLESHEET
  1

  9
$XEDIT
290
     1
  9
$CEPSNTYPE
380
     0
  9
$PSTYLEMODE
290
     1
  9
$FINGERPRINTGUID
  2
{271F9300-9245-4E8D-9017-1E45690F926D}
  9
$VERSIONGUID
  2
{FAEB1C32-E019-11D5-929B-00C0DF256EC4}
  9
$EXTNAMES
290
     1
  9
$PSVPSCALE
 40
0.0
  9
$OLESTARTUP
290
     0
  0
ENDSEC
  0
SECTION
  2
CLASSES
  0
CLASS
  1
ACDBDICTIONARYWDFLT
  2
AcDbDictionaryWithDefault
  3
ObjectDBX Classes
 90
        0
280
     0
281
     0
  0
CLASS
  1
VISUALSTYLE
  2
AcDbVisualStyle
  3
ObjectDBX Classes
 90
     4095
280
     0
281
     0
  0
CLASS
  1
MATERIAL
  2
AcDbMaterial
  3
ObjectDBX Classes
 90
     1153
280
     0
281
     0
  0
CLASS
  1
SCALE
  2
AcDbScale
  3
ObjectDBX Classes
 90
     1153
280
     0
281
     0
  0
CLASS
  1
TABLESTYLE
  2
AcDbTableStyle
  3
ObjectDBX Classes
 90
     4095
280
     0
281
     0
  0
CLASS
  1
MLEADERSTYLE
  2
AcDbMLeaderStyle
  3
ACDB_MLEADERSTYLE_CLASS
 90
     4095
280
     0
281
     0
  0
CLASS
  1
SUN
  2
AcDbSun
  3
SCENEOE
 90
     1153
280
     0
281
     0
  0
CLASS
  1
ACDBPLACEHOLDER
  2
AcDbPlaceHolder
  3
ObjectDBX Classes
 90
        0
280
     0
281
     0
  0
CLASS
  1
LAYOUT
  2
AcDbLayout
  3
ObjectDBX Classes
 90
        0
280
     0
281
     0
  0
ENDSEC
  0
SECTION
  2
TABLES
  0
TABLE
  2
VPORT
  5
8
330
0
100
AcDbSymbolTable
 70
     1
  0
VPORT
  5
29
330
8
100
AcDbSymbolTableRecord
100
AcDbViewportTableRecord
  2
*Active
 70
     0
 10
0.0
 20
0.0
 11
1.0
 21
1.0
 12
1500.0
 22
1000.0
 13
0.0
 23
0.0
 14
10.0
 24
10.0
 15
10.0
 25
10.0
 16
0.0
 26
0.0
 36
1.0
 17
0.0
 27
0.0
 37
0.0
 40
2000.0
 41
1.5
 42
50.0
 43
0.0
 44
0.0
 50
0.0
 51
0.0
 71
     0
 72
  2000
 73
     1
 74
     3
 75
     0
 76
     0
 77
     0
 78
     0
281
     0
 65
     1
110
0.0
120
0.0
130
0.0
111
1.0
121
0.0
131
0.0
112
0.0
122
1.0
132
0.0
 79
     0
146
0.0
  0
ENDTAB
  0
TABLE
  2
LTYPE
  5
5
330
0
100
AcDbSymbolTable
 70
     6
  0
LTYPE
  5
14
330
5
100
AcDbSymbolTableRecord
100
AcDbLinetypeTableRecord
  2
ByBlock
 70
     0
  3

 72
    65
 73
     0
 40
0.0
  0
LTYPE
  5
15
330
5
100
AcDbSymbolTableRecord
100
AcDbLinetypeTableRecord
  2
ByLayer
 70
     0
  3

 72
    65
 73
     0
 40
0.0
  0
LTYPE
  5
16
330
5
100
AcDbSymbolTableRecord
100
AcDbLinetypeTableRecord
  2
Continuous
 70
     0
  3
Solid line
 72
    65
 73
     0
 40
0.0
  0
LTYPE
  5
6E
330
5
100
AcDbSymbolTableRecord
100
AcDbLinetypeTableRecord
  2
HIDDEN
 70
     0
  3
Hidden __ __ __ __ __ __ __ __ __ __ __ __ __ __
 72
    65
 73
     2
 40
1.905
 49
1.27
 74
     0
 49
-0.635
 74
     0
  0
LTYPE
  5
6F
330
5
100
AcDbSymbolTableRecord
100
AcDbLinetypeTableRecord
  2
PHANTOM
 70
     0
  3
Phantom ______  __  __  ______  __  __  ______
 72
    65
 73
     6
 40
12.7
 49
6.35
 74
     0
 49
-1.27
 74
     0
 49
1.27
 74
     0
 49
-1.27
 74
     0
 49
1.27
 74
     0
 49
-1.27
 74
     0
  0
LTYPE
  5
70
330
5
100
AcDbSymbolTableRecord
100
AcDbLinetypeTableRecord
  2
CENTER
 70
     0
  3
Center ____ _ ____ _ ____ _ ____ _ ____ _ ____
 72
    65
 73
     4
 40
10.16
 49
6.35
 74
     0
 49
-1.27
 74
     0
 49
1.27
 74
     0
 49
-1.27
 74
     0
  0
LTYPE
  5
71
330
5
100
AcDbSymbolTableRecord
100
AcDbLinetypeTableRecord
  2
CENTERX2
 70
     0
  3
Center (2x) ________  __  ________  __  _____
 72
    65
 73
     4
 40
20.32
 49
12.7
 74
     0
 49
-2.54
 74
     0
 49
2.54
 74
     0
 49
-2.54
 74
     0
  0
LTYPE
  5
72
330
5
100
AcDbSymbolTableRecord
100
AcDbLinetypeTableRecord
  2
DOT2
 70
     0
  3
Dot (.5x) ........................................
 72
    65
 73
     2
 40
0.635
 49
0.0
 74
     0
 49
-0.635
 74
     0
  0
ENDTAB
  0
TABLE
  2
LAYER
  5
2
330
0
100
AcDbSymbolTable
 70
     9
  0
LAYER
  5
10
330
2
100
AcDbSymbolTableRecord
100
AcDbLayerTableRecord
  2
0
 70
     0
 62
     7
  6
Continuous
370
    -3
390
F
  0
LAYER
  5
73
330
2
100
AcDbSymbolTableRecord
100
AcDbLayerTableRecord
  2
SLD-0_0
 70
     0
 62
   179
  6
Continuous
370
    -3
390
F
  0
LAYER
  5
74
330
2
100
AcDbSymbolTableRecord
100
AcDbLayerTableRecord
  2
SLD-0
 70
     0
 62
   179
  6
Continuous
370
    -3
390
F
  0
LAYER
  5
75
330
2
100
AcDbSymbolTableRecord
100
AcDbLayerTableRecord
  2
PREDETERMINADO
 70
     0
 62
   179
  6
Continuous
370
    -3
390
F
  0
LAYER
  5
76
330
2
100
AcDbSymbolTableRecord
100
AcDbLayerTableRecord
  2
CAJETIN
 70
     0
 62
   179
  6
Continuous
370
    -3
390
F
  0
LAYER
  5
77
330
2
100
AcDbSymbolTableRecord
100
AcDbLayerTableRecord
  2
FORMATO
 70
     0
 62
   179
  6
Continuous
370
    -3
390
F
  0
LAYER
  5
78
330
2
100
AcDbSymbolTableRecord
100
AcDbLayerTableRecord
  2
NONPLOT
 70
     0
 62
     1
  6
DOT2
290
     0
370
    -3
390
F
  0
LAYER
  5
79
330
2
100
AcDbSymbolTableRecord
100
AcDbLayerTableRecord
  2
TEXTOS
 70
     0
 62
   142
  6
Continuous
370
    -3
390
F
  0
LAYER
  5
7A
330
2
100
AcDbSymbolTableRecord
100
AcDbLayerTableRecord
  2
TEXTO
 70
     0
 62
   140
  6
Continuous
370
    -3
390
F
  0
ENDTAB
  0
TABLE
  2
STYLE
  5
3
330
0
100
AcDbSymbolTable
 70
     6
  0
STYLE
  5
11
330
3
100
AcDbSymbolTableRecord
100
AcDbTextStyleTableRecord
  2
Standard
 70
     0
 40
0.0
 41
1.0
 50
0.0
 71
     0
 42
2.5
  3
txt
  4

  0
STYLE
  5
CC
330
3
100
AcDbSymbolTableRecord
100
AcDbTextStyleTableRecord
  2
SLDTEXTSTYLE0
 70
     0
 40
0.0
 41
0.605
 50
0.0
 71
     0
 42
2.5
  3
TXT
  4

  0
STYLE
  5
D2
330
3
100
AcDbSymbolTableRecord
100
AcDbTextStyleTableRecord
  2
SLDTEXTSTYLE1
 70
     0
 40
0.0
 41
0.5636394322
 50
0.0
 71
     0
 42
2.5
  3
TXT
  4

  0
STYLE
  5
EF
330
3
100
AcDbSymbolTableRecord
100
AcDbTextStyleTableRecord
  2
SLDTEXTSTYLE2
 70
     0
 40
0.0
 41
0.574375
 50
0.0
 71
     0
 42
2.5
  3
TXT
  4

  0
STYLE
  5
12D
330
3
100
AcDbSymbolTableRecord
100
AcDbTextStyleTableRecord
  2
SLDTEXTSTYLE3
 70
     0
 40
0.0
 41
0.575
 50
0.0
 71
     0
 42
2.5
  3
TXT
  4

  0
STYLE
  5
140
330
3
100
AcDbSymbolTableRecord
100
AcDbTextStyleTableRecord
  2
SLDTEXTSTYLE4
 70
     0
 40
0.0
 41
0.57
 50
0.0
 71
     0
 42
2.5
  3
TXT
  4

  0
ENDTAB
  0
TABLE
  2
VIEW
  5
6
330
0
100
AcDbSymbolTable
 70
     0
  0
ENDTAB
  0
TABLE
  2
UCS
  5
7
330
0
100
AcDbSymbolTable
 70
     0
  0
ENDTAB
  0
TABLE
  2
APPID
  5
9
330
0
100
AcDbSymbolTable
 70
     1
  0
APPID
  5
12
330
9
100
AcDbSymbolTableRecord
100
AcDbRegAppTableRecord
  2
ACAD
 70
     0
  0
ENDTAB
  0
TABLE
  2
DIMSTYLE
  5
A
330
0
100
AcDbSymbolTable
 70
    11
100
AcDbDimStyleTable
  0
DIMSTYLE
105
27
330
A
100
AcDbSymbolTableRecord
100
AcDbDimStyleTableRecord
  2
ISO-25
 70
     0
 41
2.5
 42
0.625
 43
3.75
 44
1.25
 73
     0
 74
     0
 77
     1
 78
     8
140
2.5
141
2.5
143
0.0393700787
147
0.625
171
     3
172
     1
178
     0
271
     2
272
     2
274
     3
278
    44
283
     0
284
     8
340
11
  0
DIMSTYLE
105
22E
330
A
100
AcDbSymbolTableRecord
100
AcDbDimStyleTableRecord
  2
SLDDIMSTYLE0
 70
     0
 41
2.844906851
 44
0.0
 45
0.000000001
146
2.844906851
147
0.0
173
     1
178
     0
271
     0
272
     0
276
     2
340
11
341
22F
343
22F
344
22F
  0
DIMSTYLE
105
28A
102
{ACAD_REACTORS
330
289
330
29F
330
2A9
330
2EA
330
2F4
330
308
330
312
330
31C
330
326
330
330
330
33A
330
344
330
34E
330
42C
330
436
330
444
330
44E
330
45C
330
466
330
480
330
48A
330
4D6
330
521
330
52B
102
}
330
A
100
AcDbSymbolTableRecord
100
AcDbDimStyleTableRecord
  2
SLDDIMSTYLE1
 70
     0
 41
9.2459472656
 44
0.0
 45
0.000000001
 73
     0
 74
     0
 77
     1
 78
    12
 79
     3
140
9.2459472656
147
2.3114868164
173
     1
178
     0
271
     2
272
     2
276
     2
284
    12
340
CC
  0
DIMSTYLE
105
295
102
{ACAD_REACTORS
330
294
330
2FE
330
4CC
102
}
330
A
100
AcDbSymbolTableRecord
100
AcDbDimStyleTableRecord
  2
SLDDIMSTYLE2
 70
     0
 41
9.2459472656
 44
0.0
 45
0.000000001
 73
     0
 74
     0
 77
     1
 78
     4
 79
     1
140
9.2459472656
147
2.3114868164
173
     1
178
     0
271
     2
272
     2
276
     2
284
    12
340
CC
  0
DIMSTYLE
105
2B4
102
{ACAD_REACTORS
330
2B3
102
}
330
A
100
AcDbSymbolTableRecord
100
AcDbDimStyleTableRecord
  2
SLDDIMSTYLE3
 70
     0
 41
9.2459472656
 44
0.0
 45
0.000000001
 73
     0
 74
     0
 77
     1
 78
    12
 79
     3
140
9.2459472656
141
0.0
147
2.3114868164
172
     1
173
     1
178
     0
271
     2
272
     2
276
     2
284
    12
340
CC
  0
DIMSTYLE
105
2BE
102
{ACAD_REACTORS
330
2BD
102
}
330
A
100
AcDbSymbolTableRecord
100
AcDbDimStyleTableRecord
  2
SLDDIMSTYLE4
 70
     0
 41
9.2459472656
 44
0.0
 45
0.000000001
 73
     0
 74
     0
 77
     1
 78
    12
 79
     3
140
9.2459472656
141
0.0
147
2.3114868164
172
     1
173
     1
178
     0
271
     2
272
     2
276
     2
284
    12
340
CC
  0
DIMSTYLE
105
2C9
102
{ACAD_REACTORS
330
2C8
102
}
330
A
100
AcDbSymbolTableRecord
100
AcDbDimStyleTableRecord
  2
SLDDIMSTYLE5
 70
     0
 41
9.2459472656
 44
0.0
 45
0.000000001
 73
     0
 74
     0
 77
     1
 78
    12
 79
     3
140
9.2459472656
141
0.0
147
2.3114868164
173
     1
178
     0
271
     2
272
     2
276
     2
284
    12
340
CC
  0
DIMSTYLE
105
2D2
102
{ACAD_REACTORS
330
2D1
102
}
330
A
100
AcDbSymbolTableRecord
100
AcDbDimStyleTableRecord
  2
SLDDIMSTYLE6
 70
     0
 41
9.2459472656
 44
0.0
 45
0.000000001
 73
     0
 74
     0
 77
     1
 78
     4
 79
     1
140
9.2459472656
141
0.0
147
2.3114868164
172
     1
173
     1
178
     0
271
     2
272
     2
276
     2
284
    12
340
CC
  0
DIMSTYLE
105
2DD
102
{ACAD_REACTORS
330
2DC
102
}
330
A
100
AcDbSymbolTableRecord
100
AcDbDimStyleTableRecord
  2
SLDDIMSTYLE7
 70
     0
 41
9.2459472656
 44
0.0
 45
0.000000001
 78
     4
 79
     1
140
9.2459472656
141
0.0
147
2.3114868164
172
     1
173
     1
178
     0
271
     2
272
     2
276
     2
284
    12
340
CC
341
2DE
343
2DE
  0
DIMSTYLE
105
495
102
{ACAD_REACTORS
330
494
330
4A1
330
4AD
330
4B9
330
4E0
330
4EC
102
}
330
A
100
AcDbSymbolTableRecord
100
AcDbDimStyleTableRecord
  2
SLDDIMSTYLE8
 70
     0
 41
9.2459472656
 44
0.0
 45
0.000000001
 73
     0
 74
     0
 77
     1
 78
    12
 79
     3
140
9.2459472656
147
2.3114868164
172
     1
173
     1
178
     0
271
     2
272
     2
276
     2
284
    12
289
     0
340
CC
  0
DIMSTYLE
105
4F9
102
{ACAD_REACTORS
330
4F8
102
}
330
A
100
AcDbSymbolTableRecord
100
AcDbDimStyleTableRecord
  2
SLDDIMSTYLE9
 70
     0
 41
9.2459472656
 44
0.0
 45
0.000000001
 73
     0
 74
     0
 77
     1
 78
    12
 79
     3
140
9.2459472656
141
0.0
147
2.3114868164
173
     1
178
     0
271
     2
272
     2
276
     2
284
    12
340
CC
  0
ENDTAB
  0
TABLE
  2
BLOCK_RECORD
  5
1
330
0
100
AcDbSymbolTable
 70
    67
  0
BLOCK_RECORD
  5
1F
330
1
100
AcDbSymbolTableRecord
100
AcDbBlockTableRecord
  2
*Model_Space
340
22
  0
BLOCK_RECORD
  5
1B
330
1
100
AcDbSymbolTableRecord
100
AcDbBlockTableRecord
  2
*Paper_Space
340
1E
  0
BLOCK_RECORD
  5
23
330
1
100
AcDbSymbolTableRecord
100
AcDbBlockTableRecord
  2
*Paper_Space0
340
26
  0
BLOCK_RECORD
  5
C9
330
1
100
AcDbSymbolTableRecord
100
AcDbBlockTableRecord
  2
SW_NOTE_0
340
0
102
{BLKREFS
331
CF
102
}
  0
BLOCK_RECORD
  5
F1
330
1
100
AcDbSymbolTableRecord
100
AcDbBlockTableRecord
  2
SW_NOTE_1
340
0
102
{BLKREFS
331
F6
102
}
  0
BLOCK_RECORD
  5
F7
330
1
100
AcDbSymbolTableRecord
100
AcDbBlockTableRecord
  2
SW_NOTE_2
340
0
102
{BLKREFS
331
FC
102
}
  0
BLOCK_RECORD
  5
FD
330
1
100
AcDbSymbolTableRecord
100
AcDbBlockTableRecord
  2
SW_NOTE_3
340
0
102
{BLKREFS
331
102
102
}
  0
BLOCK_RECORD
  5
103
330
1
100
AcDbSymbolTableRecord
100
AcDbBlockTableRecord
  2
SW_NOTE_4
340
0
102
{BLKREFS
331
108
102
}
  0
BLOCK_RECORD
  5
109
330
1
100
AcDbSymbolTableRecord
100
AcDbBlockTableRecord
  2
SW_NOTE_5
340
0
102
{BLKREFS
331
10E
102
}
  0
BLOCK_RECORD
  5
10F
330
1
100
AcDbSymbolTableRecord
100
AcDbBlockTableRecord
  2
SW_NOTE_6
340
0
102
{BLKREFS
331
114
102
}
  0
BLOCK_RECORD
  5
115
330
1
100
AcDbSymbolTableRecord
100
AcDbBlockTableRecord
  2
SW_TABLEANNOTATION_0
340
0
102
{BLKREFS
331
143
102
}
  0
BLOCK_RECORD
  5
228
330
1
100
AcDbSymbolTableRecord
100
AcDbBlockTableRecord
  2
SW_NOTE_7
340
0
102
{BLKREFS
331
22D
102
}
  0
BLOCK_RECORD
  5
22F
330
1
100
AcDbSymbolTableRecord
100
AcDbBlockTableRecord
  2
_DOT
340
0
  0
BLOCK_RECORD
  5
238
330
1
100
AcDbSymbolTableRecord
100
AcDbBlockTableRecord
  2
SW_NOTE_8
340
0
102
{BLKREFS
331
23D
102
}
  0
BLOCK_RECORD
  5
23F
330
1
100
AcDbSymbolTableRecord
100
AcDbBlockTableRecord
  2
SW_NOTE_9
340
0
102
{BLKREFS
331
244
102
}
  0
BLOCK_RECORD
  5
246
330
1
100
AcDbSymbolTableRecord
100
AcDbBlockTableRecord
  2
SW_NOTE_10
340
0
102
{BLKREFS
331
24B
102
}
  0
BLOCK_RECORD
  5
24D
330
1
100
AcDbSymbolTableRecord
100
AcDbBlockTableRecord
  2
SW_NOTE_11
340
0
102
{BLKREFS
331
252
102
}
  0
BLOCK_RECORD
  5
254
330
1
100
AcDbSymbolTableRecord
100
AcDbBlockTableRecord
  2
SW_NOTE_12
340
0
102
{BLKREFS
331
259
102
}
  0
BLOCK_RECORD
  5
25B
330
1
100
AcDbSymbolTableRecord
100
AcDbBlockTableRecord
  2
SW_NOTE_13
340
0
102
{BLKREFS
331
260
102
}
  0
BLOCK_RECORD
  5
262
330
1
100
AcDbSymbolTableRecord
100
AcDbBlockTableRecord
  2
SW_NOTE_14
340
0
102
{BLKREFS
331
267
102
}
  0
BLOCK_RECORD
  5
28B
330
1
100
AcDbSymbolTableRecord
100
AcDbBlockTableRecord
  2
_D
340
0
  0
BLOCK_RECORD
  5
296
330
1
100
AcDbSymbolTableRecord
100
AcDbBlockTableRecord
  2
_D_1
340
0
  0
BLOCK_RECORD
  5
2A0
330
1
100
AcDbSymbolTableRecord
100
AcDbBlockTableRecord
  2
_D_2
340
0
  0
BLOCK_RECORD
  5
2AA
330
1
100
AcDbSymbolTableRecord
100
AcDbBlockTableRecord
  2
_D_3
340
0
  0
BLOCK_RECORD
  5
2B5
330
1
100
AcDbSymbolTableRecord
100
AcDbBlockTableRecord
  2
_D_4
340
0
  0
BLOCK_RECORD
  5
2BF
330
1
100
AcDbSymbolTableRecord
100
AcDbBlockTableRecord
  2
_D_5
340
0
  0
BLOCK_RECORD
  5
2CA
330
1
100
AcDbSymbolTableRecord
100
AcDbBlockTableRecord
  2
_D_6
340
0
  0
BLOCK_RECORD
  5
2D3
330
1
100
AcDbSymbolTableRecord
100
AcDbBlockTableRecord
  2
_D_7
340
0
  0
BLOCK_RECORD
  5
2DE
330
1
100
AcDbSymbolTableRecord
100
AcDbBlockTableRecord
  2
_NONE
340
0
  0
BLOCK_RECORD
  5
2E1
330
1
100
AcDbSymbolTableRecord
100
AcDbBlockTableRecord
  2
_D_8
340
0
  0
BLOCK_RECORD
  5
2EB
330
1
100
AcDbSymbolTableRecord
100
AcDbBlockTableRecord
  2
_D_9
340
0
  0
BLOCK_RECORD
  5
2F5
330
1
100
AcDbSymbolTableRecord
100
AcDbBlockTableRecord
  2
_D_10
340
0
  0
BLOCK_RECORD
  5
2FF
330
1
100
AcDbSymbolTableRecord
100
AcDbBlockTableRecord
  2
_D_11
340
0
  0
BLOCK_RECORD
  5
309
330
1
100
AcDbSymbolTableRecord
100
AcDbBlockTableRecord
  2
_D_12
340
0
  0
BLOCK_RECORD
  5
313
330
1
100
AcDbSymbolTableRecord
100
AcDbBlockTableRecord
  2
_D_13
340
0
  0
BLOCK_RECORD
  5
31D
330
1
100
AcDbSymbolTableRecord
100
AcDbBlockTableRecord
  2
_D_14
340
0
  0
BLOCK_RECORD
  5
327
330
1
100
AcDbSymbolTableRecord
100
AcDbBlockTableRecord
  2
_D_15
340
0
  0
BLOCK_RECORD
  5
331
330
1
100
AcDbSymbolTableRecord
100
AcDbBlockTableRecord
  2
_D_16
340
0
  0
BLOCK_RECORD
  5
33B
330
1
100
AcDbSymbolTableRecord
100
AcDbBlockTableRecord
  2
_D_17
340
0
  0
BLOCK_RECORD
  5
345
330
1
100
AcDbSymbolTableRecord
100
AcDbBlockTableRecord
  2
_D_18
340
0
  0
BLOCK_RECORD
  5
34F
330
1
100
AcDbSymbolTableRecord
100
AcDbBlockTableRecord
  2
_D_19
340
0
  0
BLOCK_RECORD
  5
358
330
1
100
AcDbSymbolTableRecord
100
AcDbBlockTableRecord
  2
SW_CENTERMARKSYMBOL_0
340
0
102
{BLKREFS
331
363
102
}
  0
BLOCK_RECORD
  5
364
330
1
100
AcDbSymbolTableRecord
100
AcDbBlockTableRecord
  2
SW_CENTERMARKSYMBOL_1
340
0
102
{BLKREFS
331
36F
102
}
  0
BLOCK_RECORD
  5
370
330
1
100
AcDbSymbolTableRecord
100
AcDbBlockTableRecord
  2
SW_CENTERMARKSYMBOL_2
340
0
102
{BLKREFS
331
37B
102
}
  0
BLOCK_RECORD
  5
37C
330
1
100
AcDbSymbolTableRecord
100
AcDbBlockTableRecord
  2
SW_CENTERMARKSYMBOL_3
340
0
102
{BLKREFS
331
387
102
}
  0
BLOCK_RECORD
  5
388
330
1
100
AcDbSymbolTableRecord
100
AcDbBlockTableRecord
  2
SW_CENTERMARKSYMBOL_4
340
0
102
{BLKREFS
331
393
102
}
  0
BLOCK_RECORD
  5
394
330
1
100
AcDbSymbolTableRecord
100
AcDbBlockTableRecord
  2
SW_CENTERMARKSYMBOL_5
340
0
102
{BLKREFS
331
39F
102
}
  0
BLOCK_RECORD
  5
3A0
330
1
100
AcDbSymbolTableRecord
100
AcDbBlockTableRecord
  2
SW_CENTERMARKSYMBOL_6
340
0
102
{BLKREFS
331
3E3
102
}
  0
BLOCK_RECORD
  5
3E4
330
1
100
AcDbSymbolTableRecord
100
AcDbBlockTableRecord
  2
SW_CENTERMARKSYMBOL_7
340
0
102
{BLKREFS
331
427
102
}
  0
BLOCK_RECORD
  5
42D
330
1
100
AcDbSymbolTableRecord
100
AcDbBlockTableRecord
  2
_D_20
340
0
  0
BLOCK_RECORD
  5
437
330
1
100
AcDbSymbolTableRecord
100
AcDbBlockTableRecord
  2
_D_21
340
0
  0
BLOCK_RECORD
  5
445
330
1
100
AcDbSymbolTableRecord
100
AcDbBlockTableRecord
  2
_D_22
340
0
  0
BLOCK_RECORD
  5
44F
330
1
100
AcDbSymbolTableRecord
100
AcDbBlockTableRecord
  2
_D_23
340
0
  0
BLOCK_RECORD
  5
45D
330
1
100
AcDbSymbolTableRecord
100
AcDbBlockTableRecord
  2
_D_24
340
0
  0
BLOCK_RECORD
  5
467
330
1
100
AcDbSymbolTableRecord
100
AcDbBlockTableRecord
  2
_D_25
340
0
  0
BLOCK_RECORD
  5
481
330
1
100
AcDbSymbolTableRecord
100
AcDbBlockTableRecord
  2
_D_26
340
0
  0
BLOCK_RECORD
  5
48B
330
1
100
AcDbSymbolTableRecord
100
AcDbBlockTableRecord
  2
_D_27
340
0
  0
BLOCK_RECORD
  5
496
330
1
100
AcDbSymbolTableRecord
100
AcDbBlockTableRecord
  2
_D_28
340
0
  0
BLOCK_RECORD
  5
4A2
330
1
100
AcDbSymbolTableRecord
100
AcDbBlockTableRecord
  2
_D_29
340
0
  0
BLOCK_RECORD
  5
4AE
330
1
100
AcDbSymbolTableRecord
100
AcDbBlockTableRecord
  2
_D_30
340
0
  0
BLOCK_RECORD
  5
4BA
330
1
100
AcDbSymbolTableRecord
100
AcDbBlockTableRecord
  2
_D_31
340
0
  0
BLOCK_RECORD
  5
4CD
330
1
100
AcDbSymbolTableRecord
100
AcDbBlockTableRecord
  2
_D_32
340
0
  0
BLOCK_RECORD
  5
4D7
330
1
100
AcDbSymbolTableRecord
100
AcDbBlockTableRecord
  2
_D_33
340
0
  0
BLOCK_RECORD
  5
4E1
330
1
100
AcDbSymbolTableRecord
100
AcDbBlockTableRecord
  2
_D_34
340
0
  0
BLOCK_RECORD
  5
4ED
330
1
100
AcDbSymbolTableRecord
100
AcDbBlockTableRecord
  2
_D_35
340
0
  0
BLOCK_RECORD
  5
4FA
330
1
100
AcDbSymbolTableRecord
100
AcDbBlockTableRecord
  2
_D_36
340
0
  0
BLOCK_RECORD
  5
502
330
1
100
AcDbSymbolTableRecord
100
AcDbBlockTableRecord
  2
SW_CENTERMARKSYMBOL_8
340
0
102
{BLKREFS
331
50D
102
}
  0
BLOCK_RECORD
  5
522
330
1
100
AcDbSymbolTableRecord
100
AcDbBlockTableRecord
  2
_D_37
340
0
  0
BLOCK_RECORD
  5
52C
330
1
100
AcDbSymbolTableRecord
100
AcDbBlockTableRecord
  2
_D_38
340
0
  0
ENDTAB
  0
ENDSEC
  0
SECTION
  2
BLOCKS
  0
BLOCK
  5
20
330
1F
100
AcDbEntity
  8
0
100
AcDbBlockBegin
  2
*Model_Space
 70
     0
 10
0.0
 20
0.0
 30
0.0
  3
*Model_Space
  1

  0
ENDBLK
  5
21
330
1F
100
AcDbEntity
  8
0
100
AcDbBlockEnd
  0
BLOCK
  5
1C
330
1B
100
AcDbEntity
 67
     1
  8
0
100
AcDbBlockBegin
  2
*Paper_Space
 70
     0
 10
0.0
 20
0.0
 30
0.0
  3
*Paper_Space
  1

  0
ENDBLK
  5
1D
330
1B
100
AcDbEntity
 67
     1
  8
0
100
AcDbBlockEnd
  0
BLOCK
  5
24
330
23
100
AcDbEntity
  8
0
100
AcDbBlockBegin
  2
*Paper_Space0
 70
     0
 10
0.0
 20
0.0
 30
0.0
  3
*Paper_Space0
  1

  0
ENDBLK
  5
25
330
23
100
AcDbEntity
  8
0
100
AcDbBlockEnd
  0
BLOCK
  5
CA
330
C9
100
AcDbEntity
  8
0
100
AcDbBlockBegin
  2
SW_NOTE_0
 70
     0
 10
0.0
 20
0.0
 30
0.0
  3
SW_NOTE_0
  1

  0
MTEXT
  5
CD
330
C9
100
AcDbEntity
  8
CAJETIN
 62
     0
100
AcDbMText
 10
0.0
 20
12.2400402414
 30
0.0
 40
9.525
 41
0.0
 71
     1
 72
     1
  1
Birch Plywood
  7
SLDTEXTSTYLE0
 73
     1
 44
1.0
  0
MTEXT
  5
CE
330
C9
100
AcDbEntity
  8
CAJETIN
 62
     0
100
AcDbMText
 10
0.0
 20
-0.4599596051
 30
0.0
 40
9.525
 41
0.0
 71
     1
 72
     1
  1
15mm
  7
SLDTEXTSTYLE0
 73
     1
 44
1.0
  0
ENDBLK
  5
CB
330
C9
100
AcDbEntity
  8
0
100
AcDbBlockEnd
  0
BLOCK
  5
F2
330
F1
100
AcDbEntity
  8
0
100
AcDbBlockBegin
  2
SW_NOTE_1
 70
     0
 10
0.0
 20
0.0
 30
0.0
  3
SW_NOTE_1
  1

  0
CIRCLE
  5
F4
330
F1
100
AcDbEntity
  8
SLD-0_0
 62
     0
100
AcDbCircle
 10
7.0212519676
 20
14.2575417093
 30
0.0
 40
15.00146441371887
  0
MTEXT
  5
F5
330
F1
100
AcDbEntity
  8
SLD-0_0
 62
     0
100
AcDbMText
 10
0.0
 20
24.4800804829
 30
0.0
 40
19.05
 41
0.0
 71
     1
 72
     1
  1
2
  7
SLDTEXTSTYLE0
 73
     1
 44
1.0
  0
ENDBLK
  5
F3
330
F1
100
AcDbEntity
  8
0
100
AcDbBlockEnd
  0
BLOCK
  5
F8
330
F7
100
AcDbEntity
  8
0
100
AcDbBlockBegin
  2
SW_NOTE_2
 70
     0
 10
0.0
 20
0.0
 30
0.0
  3
SW_NOTE_2
  1

  0
CIRCLE
  5
FA
330
F7
100
AcDbEntity
  8
SLD-0_0
 62
     0
100
AcDbCircle
 10
6.9720763586
 20
14.2500861161
 30
0.0
 40
14.95759374542592
  0
MTEXT
  5
FB
330
F7
100
AcDbEntity
  8
SLD-0_0
 62
     0
100
AcDbMText
 10
0.0
 20
24.4800804829
 30
0.0
 40
19.05
 41
0.0
 71
     1
 72
     1
  1
6
  7
SLDTEXTSTYLE0
 73
     1
 44
1.0
  0
ENDBLK
  5
F9
330
F7
100
AcDbEntity
  8
0
100
AcDbBlockEnd
  0
BLOCK
  5
FE
330
FD
100
AcDbEntity
  8
0
100
AcDbBlockBegin
  2
SW_NOTE_3
 70
     0
 10
0.0
 20
0.0
 30
0.0
  3
SW_NOTE_3
  1

  0
CIRCLE
  5
100
330
FD
100
AcDbEntity
  8
SLD-0_0
 62
     0
100
AcDbCircle
 10
7.010233802
 20
14.2500861161
 30
0.0
 40
14.95759374542581
  0
MTEXT
  5
101
330
FD
100
AcDbEntity
  8
SLD-0_0
 62
     0
100
AcDbMText
 10
0.0
 20
24.4800804829
 30
0.0
 40
19.05
 41
0.0
 71
     1
 72
     1
  1
5
  7
SLDTEXTSTYLE0
 73
     1
 44
1.0
  0
ENDBLK
  5
FF
330
FD
100
AcDbEntity
  8
0
100
AcDbBlockEnd
  0
BLOCK
  5
104
330
103
100
AcDbEntity
  8
0
100
AcDbBlockBegin
  2
SW_NOTE_4
 70
     0
 10
0.0
 20
0.0
 30
0.0
  3
SW_NOTE_4
  1

  0
CIRCLE
  5
106
330
103
100
AcDbEntity
  8
SLD-0_0
 62
     0
100
AcDbCircle
 10
6.9929278157
 20
14.2337050712
 30
0.0
 40
15.00146441371887
  0
MTEXT
  5
107
330
103
100
AcDbEntity
  8
SLD-0_0
 62
     0
100
AcDbMText
 10
0.0
 20
24.4800804829
 30
0.0
 40
19.05
 41
0.0
 71
     1
 72
     1
  1
3
  7
SLDTEXTSTYLE0
 73
     1
 44
1.0
  0
ENDBLK
  5
105
330
103
100
AcDbEntity
  8
0
100
AcDbBlockEnd
  0
BLOCK
  5
10A
330
109
100
AcDbEntity
  8
0
100
AcDbBlockBegin
  2
SW_NOTE_5
 70
     0
 10
0.0
 20
0.0
 30
0.0
  3
SW_NOTE_5
  1

  0
CIRCLE
  5
10C
330
109
100
AcDbEntity
  8
SLD-0_0
 62
     0
100
AcDbCircle
 10
6.9752685147
 20
14.2340308125
 30
0.0
 40
14.95759374542582
  0
MTEXT
  5
10D
330
109
100
AcDbEntity
  8
SLD-0_0
 62
     0
100
AcDbMText
 10
0.0
 20
24.4800804829
 30
0.0
 40
19.05
 41
0.0
 71
     1
 72
     1
  1
4
  7
SLDTEXTSTYLE0
 73
     1
 44
1.0
  0
ENDBLK
  5
10B
330
109
100
AcDbEntity
  8
0
100
AcDbBlockEnd
  0
BLOCK
  5
110
330
10F
100
AcDbEntity
  8
0
100
AcDbBlockBegin
  2
SW_NOTE_6
 70
     0
 10
0.0
 20
0.0
 30
0.0
  3
SW_NOTE_6
  1

  0
CIRCLE
  5
112
330
10F
100
AcDbEntity
  8
SLD-0_0
 62
     0
100
AcDbCircle
 10
7.0069846173
 20
14.2353337778
 30
0.0
 40
14.93415993426658
  0
MTEXT
  5
113
330
10F
100
AcDbEntity
  8
SLD-0_0
 62
     0
100
AcDbMText
 10
0.0
 20
24.4800804829
 30
0.0
 40
19.05
 41
0.0
 71
     1
 72
     1
  1
1
  7
SLDTEXTSTYLE0
 73
     1
 44
1.0
  0
ENDBLK
  5
111
330
10F
100
AcDbEntity
  8
0
100
AcDbBlockEnd
  0
BLOCK
  5
116
330
115
100
AcDbEntity
  8
0
100
AcDbBlockBegin
  2
SW_TABLEANNOTATION_0
 70
     0
 10
0.0
 20
0.0
 30
0.0
  3
SW_TABLEANNOTATION_0
  1

  0
LINE
  5
118
330
115
100
AcDbEntity
  8
SLD-0_0
 62
     0
100
AcDbLine
 10
0.0
 20
0.0
 30
0.0
 11
0.0
 21
-351.2043709948
 31
0.0
  0
LINE
  5
119
330
115
100
AcDbEntity
  8
SLD-0_0
 62
     0
100
AcDbLine
 10
0.0
 20
-351.2043709948
 30
0.0
 11
667.6222278178
 21
-351.2043709948
 31
0.0
  0
LINE
  5
11A
330
115
100
AcDbEntity
  8
SLD-0_0
 62
     0
100
AcDbLine
 10
667.6222278178
 20
-351.2043709948
 30
0.0
 11
667.6222278178
 21
0.0
 31
0.0
  0
LINE
  5
11B
330
115
100
AcDbEntity
  8
SLD-0_0
 62
     0
100
AcDbLine
 10
667.6222278178
 20
0.0
 30
0.0
 11
0.0
 21
0.0
 31
0.0
  0
LINE
  5
11C
330
115
100
AcDbEntity
  8
SLD-0_0
 62
     0
100
AcDbLine
 10
180.6777779758
 20
0.0
 30
0.0
 11
180.6777779758
 21
-65.9689854696
 31
0.0
  0
LINE
  5
11D
330
115
100
AcDbEntity
  8
SLD-0_0
 62
     0
100
AcDbLine
 10
488.35556373
 20
0.0
 30
0.0
 11
488.35556373
 21
-65.9689854696
 31
0.0
  0
LINE
  5
11E
330
115
100
AcDbEntity
  8
SLD-0_0
 62
     0
100
AcDbLine
 10
180.6777779758
 20
-65.9689854696
 30
0.0
 11
180.6777779758
 21
-351.2043709948
 31
0.0
  0
LINE
  5
11F
330
115
100
AcDbEntity
  8
SLD-0_0
 62
     0
100
AcDbLine
 10
488.35556373
 20
-65.9689854696
 30
0.0
 11
488.35556373
 21
-351.2043709948
 31
0.0
  0
LINE
  5
120
330
115
100
AcDbEntity
  8
SLD-0_0
 62
     0
100
AcDbLine
 10
0.0
 20
-106.7168976875
 30
0.0
 11
667.6222278178
 21
-106.7168976875
 31
0.0
  0
LINE
  5
121
330
115
100
AcDbEntity
  8
SLD-0_0
 62
     0
100
AcDbLine
 10
0.0
 20
-147.4648099053
 30
0.0
 11
667.6222278178
 21
-147.4648099053
 31
0.0
  0
LINE
  5
122
330
115
100
AcDbEntity
  8
SLD-0_0
 62
     0
100
AcDbLine
 10
0.0
 20
-188.2127221232
 30
0.0
 11
667.6222278178
 21
-188.2127221232
 31
0.0
  0
LINE
  5
123
330
115
100
AcDbEntity
  8
SLD-0_0
 62
     0
100
AcDbLine
 10
0.0
 20
-228.9606343411
 30
0.0
 11
667.6222278178
 21
-228.9606343411
 31
0.0
  0
LINE
  5
124
330
115
100
AcDbEntity
  8
SLD-0_0
 62
     0
100
AcDbLine
 10
0.0
 20
-269.708546559
 30
0.0
 11
667.6222278178
 21
-269.708546559
 31
0.0
  0
LINE
  5
125
330
115
100
AcDbEntity
  8
SLD-0_0
 62
     0
100
AcDbLine
 10
0.0
 20
-310.4564587769
 30
0.0
 11
667.6222278178
 21
-310.4564587769
 31
0.0
  0
LINE
  5
126
330
115
100
AcDbEntity
  8
SLD-0_0
 62
     0
100
AcDbLine
 10
0.0
 20
-65.9689854696
 30
0.0
 11
667.6222278178
 21
-65.9689854696
 31
0.0
  0
MTEXT
  5
127
330
115
100
AcDbEntity
  8
SLD-0_0
 62
     0
100
AcDbMText
 10
60.0
 20
-10.8456622742
 30
0.0
 40
19.05
 41
0.0
 71
     1
 72
     1
  1
ITEM
  7
SLDTEXTSTYLE0
 73
     1
 44
1.0
  0
MTEXT
  5
128
330
115
100
AcDbEntity
  8
SLD-0_0
 62
     0
100
AcDbMText
 10
67.761111483
 20
-36.2456619673
 30
0.0
 40
19.05
 41
0.0
 71
     1
 72
     1
  1
NO.
  7
SLDTEXTSTYLE0
 73
     1
 44
1.0
  0
MTEXT
  5
129
330
115
100
AcDbEntity
  8
SLD-0_0
 62
     0
100
AcDbMText
 10
291.4777810872
 20
-10.8456622742
 30
0.0
 40
19.05
 41
0.0
 71
     1
 72
     1
  1
PARTS
  7
SLDTEXTSTYLE0
 73
     1
 44
1.0
  0
MTEXT
  5
12A
330
115
100
AcDbEntity
  8
SLD-0_0
 62
     0
100
AcDbMText
 10
254.0833319724
 20
-36.2456619673
 30
0.0
 40
19.05
 41
0.0
 71
     1
 72
     1
  1
DIMENSIONS
  7
SLDTEXTSTYLE0
 73
     1
 44
1.0
  0
MTEXT
  5
12B
330
115
100
AcDbEntity
  8
SLD-0_0
 62
     0
100
AcDbMText
 10
548.35556373
 20
-23.5456621207
 30
0.0
 40
19.05
 41
0.0
 71
     1
 72
     1
  1
QTY.
  7
SLDTEXTSTYLE0
 73
     1
 44
1.0
  0
MTEXT
  5
12C
330
115
100
AcDbEntity
  8
SLD-0_0
 62
     0
100
AcDbMText
 10
83.2833335176
 20
-76.8145587257
 30
0.0
 40
19.05
 41
0.0
 71
     1
 72
     1
  1
1
  7
SLDTEXTSTYLE0
 73
     1
 44
1.0
  0
MTEXT
  5
12E
330
115
100
AcDbEntity
  8
SLD-0_0
 62
     0
100
AcDbMText
 10
251.2611116469
 20
-76.8145587257
 30
0.0
 40
19.05
 41
0.0
 71
     1
 72
     1
  1
440 x 490 x 15
  7
SLDTEXTSTYLE3
 73
     1
 44
1.0
  0
MTEXT
  5
12F
330
115
100
AcDbEntity
  8
SLD-0_0
 62
     0
100
AcDbMText
 10
570.9333403036
 20
-76.8145587257
 30
0.0
 40
19.05
 41
0.0
 71
     1
 72
     1
  1
1
  7
SLDTEXTSTYLE0
 73
     1
 44
1.0
  0
MTEXT
  5
130
330
115
100
AcDbEntity
  8
SLD-0_0
 62
     0
100
AcDbMText
 10
83.2833335176
 20
-117.5624709436
 30
0.0
 40
19.05
 41
0.0
 71
     1
 72
     1
  1
2
  7
SLDTEXTSTYLE0
 73
     1
 44
1.0
  0
MTEXT
  5
131
330
115
100
AcDbEntity
  8
SLD-0_0
 62
     0
100
AcDbMText
 10
251.2611116469
 20
-117.5624709436
 30
0.0
 40
19.05
 41
0.0
 71
     1
 72
     1
  1
470 x 310 x 15
  7
SLDTEXTSTYLE3
 73
     1
 44
1.0
  0
MTEXT
  5
132
330
115
100
AcDbEntity
  8
SLD-0_0
 62
     0
100
AcDbMText
 10
570.9333403036
 20
-117.5624709436
 30
0.0
 40
19.05
 41
0.0
 71
     1
 72
     1
  1
2
  7
SLDTEXTSTYLE0
 73
     1
 44
1.0
  0
MTEXT
  5
133
330
115
100
AcDbEntity
  8
SLD-0_0
 62
     0
100
AcDbMText
 10
83.2833335176
 20
-158.3103831614
 30
0.0
 40
19.05
 41
0.0
 71
     1
 72
     1
  1
3
  7
SLDTEXTSTYLE0
 73
     1
 44
1.0
  0
MTEXT
  5
134
330
115
100
AcDbEntity
  8
SLD-0_0
 62
     0
100
AcDbMText
 10
251.2611116469
 20
-158.3103831614
 30
0.0
 40
19.05
 41
0.0
 71
     1
 72
     1
  1
440 x 310 x 15
  7
SLDTEXTSTYLE3
 73
     1
 44
1.0
  0
MTEXT
  5
135
330
115
100
AcDbEntity
  8
SLD-0_0
 62
     0
100
AcDbMText
 10
570.9333403036
 20
-158.3103831614
 30
0.0
 40
19.05
 41
0.0
 71
     1
 72
     1
  1
2
  7
SLDTEXTSTYLE0
 73
     1
 44
1.0
  0
MTEXT
  5
136
330
115
100
AcDbEntity
  8
SLD-0_0
 62
     0
100
AcDbMText
 10
83.2833335176
 20
-199.0582953793
 30
0.0
 40
19.05
 41
0.0
 71
     1
 72
     1
  1
4
  7
SLDTEXTSTYLE0
 73
     1
 44
1.0
  0
MTEXT
  5
137
330
115
100
AcDbEntity
  8
SLD-0_0
 62
     0
100
AcDbMText
 10
251.2611116469
 20
-199.0582953793
 30
0.0
 40
19.05
 41
0.0
 71
     1
 72
     1
  1
440 x 490 x 15
  7
SLDTEXTSTYLE3
 73
     1
 44
1.0
  0
MTEXT
  5
138
330
115
100
AcDbEntity
  8
SLD-0_0
 62
     0
100
AcDbMText
 10
570.9333403036
 20
-199.0582953793
 30
0.0
 40
19.05
 41
0.0
 71
     1
 72
     1
  1
1
  7
SLDTEXTSTYLE0
 73
     1
 44
1.0
  0
MTEXT
  5
139
330
115
100
AcDbEntity
  8
SLD-0_0
 62
     0
100
AcDbMText
 10
83.2833335176
 20
-239.8062075972
 30
0.0
 40
19.05
 41
0.0
 71
     1
 72
     1
  1
5
  7
SLDTEXTSTYLE0
 73
     1
 44
1.0
  0
MTEXT
  5
13A
330
115
100
AcDbEntity
  8
SLD-0_0
 62
     0
100
AcDbMText
 10
251.2611116469
 20
-239.8062075972
 30
0.0
 40
19.05
 41
0.0
 71
     1
 72
     1
  1
250 x 490 x 15
  7
SLDTEXTSTYLE3
 73
     1
 44
1.0
  0
MTEXT
  5
13B
330
115
100
AcDbEntity
  8
SLD-0_0
 62
     0
100
AcDbMText
 10
570.9333403036
 20
-239.8062075972
 30
0.0
 40
19.05
 41
0.0
 71
     1
 72
     1
  1
1
  7
SLDTEXTSTYLE0
 73
     1
 44
1.0
  0
MTEXT
  5
13C
330
115
100
AcDbEntity
  8
SLD-0_0
 62
     0
100
AcDbMText
 10
83.2833335176
 20
-280.5541198151
 30
0.0
 40
19.05
 41
0.0
 71
     1
 72
     1
  1
6
  7
SLDTEXTSTYLE0
 73
     1
 44
1.0
  0
MTEXT
  5
13D
330
115
100
AcDbEntity
  8
SLD-0_0
 62
     0
100
AcDbMText
 10
240.6777779758
 20
-280.5541198151
 30
0.0
 40
19.05
 41
0.0
 71
     1
 72
     1
  1
250 x 212,5 x 15
  7
SLDTEXTSTYLE0
 73
     1
 44
1.0
  0
MTEXT
  5
13E
330
115
100
AcDbEntity
  8
SLD-0_0
 62
     0
100
AcDbMText
 10
570.9333403036
 20
-280.5541198151
 30
0.0
 40
19.05
 41
0.0
 71
     1
 72
     1
  1
2
  7
SLDTEXTSTYLE0
 73
     1
 44
1.0
  0
MTEXT
  5
13F
330
115
100
AcDbEntity
  8
SLD-0_0
 62
     0
100
AcDbMText
 10
83.2833335176
 20
-321.302032033
 30
0.0
 40
19.05
 41
0.0
 71
     1
 72
     1
  1
7
  7
SLDTEXTSTYLE0
 73
     1
 44
1.0
  0
MTEXT
  5
141
330
115
100
AcDbEntity
  8
SLD-0_0
 62
     0
100
AcDbMText
 10
262.5500003994
 20
-321.302032033
 30
0.0
 40
19.05
 41
0.0
 71
     1
 72
     1
  1
Ø76 x 3 x 80
  7
SLDTEXTSTYLE4
 73
     1
 44
1.0
  0
MTEXT
  5
142
330
115
100
AcDbEntity
  8
SLD-0_0
 62
     0
100
AcDbMText
 10
570.9333403036
 20
-321.302032033
 30
0.0
 40
19.05
 41
0.0
 71
     1
 72
     1
  1
2
  7
SLDTEXTSTYLE0
 73
     1
 44
1.0
  0
ENDBLK
  5
117
330
115
100
AcDbEntity
  8
0
100
AcDbBlockEnd
  0
BLOCK
  5
229
330
228
100
AcDbEntity
  8
0
100
AcDbBlockBegin
  2
SW_NOTE_7
 70
     0
 10
0.0
 20
0.0
 30
0.0
  3
SW_NOTE_7
  1

  0
CIRCLE
  5
22B
330
228
100
AcDbEntity
  8
SLD-0_0
 62
     0
100
AcDbCircle
 10
-16.981660031
 20
6.0510476973
 30
0.0
 40
18.02753326566517
  0
MTEXT
  5
22C
330
228
100
AcDbEntity
  8
SLD-0_0
 62
     0
100
AcDbMText
 10
-16.9228638331
 20
13.2394199652
 30
0.0
 40
12.7
 41
0.0
 71
     2
 72
     1
  1
4
  7
SLDTEXTSTYLE0
 73
     1
 44
1.0
  0
ENDBLK
  5
22A
330
228
100
AcDbEntity
  8
0
100
AcDbBlockEnd
  0
BLOCK
  5
230
330
22F
100
AcDbEntity
  8
0
100
AcDbBlockBegin
  2
_DOT
 70
     0
 10
0.0
 20
0.0
 30
0.0
  3
_DOT
  1

  0
POLYLINE
  5
232
330
22F
100
AcDbEntity
  8
0
  6
ByBlock
 62
     0
100
AcDb2dPolyline
 66
     1
 10
0.0
 20
0.0
 30
0.0
 70
     1
 40
0.5
 41
0.5
  0
VERTEX
  5
234
330
232
100
AcDbEntity
  8
0
  6
ByBlock
 62
     0
100
AcDbVertex
100
AcDb2dVertex
 10
-0.25
 20
0.0
 30
0.0
 42
1.0
  0
VERTEX
  5
235
330
232
100
AcDbEntity
  8
0
  6
ByBlock
 62
     0
100
AcDbVertex
100
AcDb2dVertex
 10
0.25
 20
0.0
 30
0.0
 42
1.0
  0
SEQEND
  5
236
330
232
100
AcDbEntity
  8
0
  6
ByBlock
 62
     0
  0
LINE
  5
233
330
22F
100
AcDbEntity
  8
0
  6
ByBlock
 62
     0
370
    -2
100
AcDbLine
 10
-0.5
 20
0.0
 30
0.0
 11
-1.0
 21
0.0
 31
0.0
  0
ENDBLK
  5
231
330
22F
100
AcDbEntity
  8
0
100
AcDbBlockEnd
  0
BLOCK
  5
239
330
238
100
AcDbEntity
  8
0
100
AcDbBlockBegin
  2
SW_NOTE_8
 70
     0
 10
0.0
 20
0.0
 30
0.0
  3
SW_NOTE_8
  1

  0
CIRCLE
  5
23B
330
238
100
AcDbEntity
  8
SLD-0_0
 62
     0
100
AcDbCircle
 10
-2.8903765333
 20
17.7943159222
 30
0.0
 40
18.02753326566497
  0
MTEXT
  5
23C
330
238
100
AcDbEntity
  8
SLD-0_0
 62
     0
100
AcDbMText
 10
-2.8315803354
 20
24.9826881901
 30
0.0
 40
12.7
 41
0.0
 71
     2
 72
     1
  1
2
  7
SLDTEXTSTYLE0
 73
     1
 44
1.0
  0
ENDBLK
  5
23A
330
238
100
AcDbEntity
  8
0
100
AcDbBlockEnd
  0
BLOCK
  5
240
330
23F
100
AcDbEntity
  8
0
100
AcDbBlockBegin
  2
SW_NOTE_9
 70
     0
 10
0.0
 20
0.0
 30
0.0
  3
SW_NOTE_9
  1

  0
CIRCLE
  5
242
330
23F
100
AcDbEntity
  8
SLD-0_0
 62
     0
100
AcDbCircle
 10
4.3204219715
 20
17.5021687123
 30
0.0
 40
18.02753326566507
  0
MTEXT
  5
243
330
23F
100
AcDbEntity
  8
SLD-0_0
 62
     0
100
AcDbMText
 10
4.3792181695
 20
24.6905409801
 30
0.0
 40
12.7
 41
0.0
 71
     2
 72
     1
  1
6
  7
SLDTEXTSTYLE0
 73
     1
 44
1.0
  0
ENDBLK
  5
241
330
23F
100
AcDbEntity
  8
0
100
AcDbBlockEnd
  0
BLOCK
  5
247
330
246
100
AcDbEntity
  8
0
100
AcDbBlockBegin
  2
SW_NOTE_10
 70
     0
 10
0.0
 20
0.0
 30
0.0
  3
SW_NOTE_10
  1

  0
CIRCLE
  5
249
330
246
100
AcDbEntity
  8
SLD-0_0
 62
     0
100
AcDbCircle
 10
17.3701368885
 20
4.8239299457
 30
0.0
 40
18.02753326566518
  0
MTEXT
  5
24A
330
246
100
AcDbEntity
  8
SLD-0_0
 62
     0
100
AcDbMText
 10
17.4289330864
 20
12.0123022136
 30
0.0
 40
12.7
 41
0.0
 71
     2
 72
     1
  1
3
  7
SLDTEXTSTYLE0
 73
     1
 44
1.0
  0
ENDBLK
  5
248
330
246
100
AcDbEntity
  8
0
100
AcDbBlockEnd
  0
BLOCK
  5
24E
330
24D
100
AcDbEntity
  8
0
100
AcDbBlockBegin
  2
SW_NOTE_11
 70
     0
 10
0.0
 20
0.0
 30
0.0
  3
SW_NOTE_11
  1

  0
CIRCLE
  5
250
330
24D
100
AcDbEntity
  8
SLD-0_0
 62
     0
100
AcDbCircle
 10
15.9259833249
 20
8.4471895196
 30
0.0
 40
18.02753326566518
  0
MTEXT
  5
251
330
24D
100
AcDbEntity
  8
SLD-0_0
 62
     0
100
AcDbMText
 10
15.9847795228
 20
15.6355617874
 30
0.0
 40
12.7
 41
0.0
 71
     2
 72
     1
  1
5
  7
SLDTEXTSTYLE0
 73
     1
 44
1.0
  0
ENDBLK
  5
24F
330
24D
100
AcDbEntity
  8
0
100
AcDbBlockEnd
  0
BLOCK
  5
255
330
254
100
AcDbEntity
  8
0
100
AcDbBlockBegin
  2
SW_NOTE_12
 70
     0
 10
0.0
 20
0.0
 30
0.0
  3
SW_NOTE_12
  1

  0
CIRCLE
  5
257
330
254
100
AcDbEntity
  8
SLD-0_0
 62
     0
100
AcDbCircle
 10
5.6921153412
 20
-17.1053143376
 30
0.0
 40
18.02753326566512
  0
MTEXT
  5
258
330
254
100
AcDbEntity
  8
SLD-0_0
 62
     0
100
AcDbMText
 10
5.7509115391
 20
-9.9169420697
 30
0.0
 40
12.7
 41
0.0
 71
     2
 72
     1
  1
7
  7
SLDTEXTSTYLE0
 73
     1
 44
1.0
  0
ENDBLK
  5
256
330
254
100
AcDbEntity
  8
0
100
AcDbBlockEnd
  0
BLOCK
  5
25C
330
25B
100
AcDbEntity
  8
0
100
AcDbBlockBegin
  2
SW_NOTE_13
 70
     0
 10
0.0
 20
0.0
 30
0.0
  3
SW_NOTE_13
  1

  0
CIRCLE
  5
25E
330
25B
100
AcDbEntity
  8
SLD-0_0
 62
     0
100
AcDbCircle
 10
-14.9275079752
 20
-10.1074953027
 30
0.0
 40
18.02753326566512
  0
MTEXT
  5
25F
330
25B
100
AcDbEntity
  8
SLD-0_0
 62
     0
100
AcDbMText
 10
-14.8687117773
 20
-2.9191230348
 30
0.0
 40
12.7
 41
0.0
 71
     2
 72
     1
  1
1
  7
SLDTEXTSTYLE0
 73
     1
 44
1.0
  0
ENDBLK
  5
25D
330
25B
100
AcDbEntity
  8
0
100
AcDbBlockEnd
  0
BLOCK
  5
263
330
262
100
AcDbEntity
  8
0
100
AcDbBlockBegin
  2
SW_NOTE_14
 70
     0
 10
0.0
 20
0.0
 30
0.0
  3
SW_NOTE_14
  1

  0
CIRCLE
  5
265
330
262
100
AcDbEntity
  8
SLD-0_0
 62
     0
100
AcDbCircle
 10
-11.8524207744
 20
13.5835222763
 30
0.0
 40
18.02753326566518
  0
MTEXT
  5
266
330
262
100
AcDbEntity
  8
SLD-0_0
 62
     0
100
AcDbMText
 10
-11.7936245764
 20
20.7718945442
 30
0.0
 40
12.7
 41
0.0
 71
     2
 72
     1
  1
6
  7
SLDTEXTSTYLE0
 73
     1
 44
1.0
  0
ENDBLK
  5
264
330
262
100
AcDbEntity
  8
0
100
AcDbBlockEnd
  0
BLOCK
  5
28C
330
28B
100
AcDbEntity
  8
0
100
AcDbBlockBegin
  2
_D
 70
     0
 10
0.0
 20
0.0
 30
0.0
  3
_D
  1

  0
SOLID
  5
28E
330
28B
100
AcDbEntity
  8
SLD-0_0
 62
     7
100
AcDbTrace
 10
1189.1514098968
 20
1060.6383447681
 30
0.0
 11
1198.3973571624
 21
1059.2158913426
 31
0.0
 12
1198.3973571624
 22
1062.0607981935
 32
0.0
 13
1198.3973571624
 23
1062.0607981935
 33
0.0
  0
SOLID
  5
28F
330
28B
100
AcDbEntity
  8
SLD-0_0
 62
     7
100
AcDbTrace
 10
1629.1514098968
 20
1060.6383447681
 30
0.0
 11
1619.9054626312
 21
1062.0607981935
 31
0.0
 12
1619.9054626312
 22
1059.2158913426
 32
0.0
 13
1619.9054626312
 23
1059.2158913426
 33
0.0
  0
LINE
  5
290
330
28B
100
AcDbEntity
  8
SLD-0_0
 62
     7
100
AcDbLine
 10
1189.1514098968
 20
1112.3581835201
 30
0.0
 11
1189.1514098968
 21
1059.6383447681
 31
0.0
  0
LINE
  5
291
330
28B
100
AcDbEntity
  8
SLD-0_0
 62
     7
100
AcDbLine
 10
1629.1514098968
 20
1112.3581835201
 30
0.0
 11
1629.1514098968
 21
1059.6383447681
 31
0.0
  0
LINE
  5
292
330
28B
100
AcDbEntity
  8
SLD-0_0
 62
     7
100
AcDbLine
 10
1189.1514098968
 20
1060.6383447681
 30
0.0
 11
1629.1514098968
 21
1060.6383447681
 31
0.0
  0
MTEXT
  5
293
330
28B
100
AcDbEntity
  8
SLD-0_0
 62
     7
100
AcDbMText
 10
1399.5123965321
 20
1072.9167152222
 30
0.0
 40
9.525
 41
0.0
 71
     1
 72
     1
  1
440
  7
SLDTEXTSTYLE0
 73
     1
 44
1.0
  0
ENDBLK
  5
28D
330
28B
100
AcDbEntity
  8
0
100
AcDbBlockEnd
  0
BLOCK
  5
297
330
296
100
AcDbEntity
  8
0
100
AcDbBlockBegin
  2
_D_1
 70
     0
 10
0.0
 20
0.0
 30
0.0
  3
_D_1
  1

  0
SOLID
  5
299
330
296
100
AcDbEntity
  8
SLD-0_0
 62
     7
100
AcDbTrace
 10
1531.6514098968
 20
1082.3581835201
 30
0.0
 11
1540.8973571624
 21
1080.9357300947
 31
0.0
 12
1540.8973571624
 22
1083.7806369456
 32
0.0
 13
1540.8973571624
 23
1083.7806369456
 33
0.0
  0
SOLID
  5
29A
330
296
100
AcDbEntity
  8
SLD-0_0
 62
     7
100
AcDbTrace
 10
1629.1514098968
 20
1082.3581835201
 30
0.0
 11
1619.9054626312
 21
1083.7806369456
 31
0.0
 12
1619.9054626312
 22
1080.9357300947
 32
0.0
 13
1619.9054626312
 23
1080.9357300947
 33
0.0
  0
LINE
  5
29B
330
296
100
AcDbEntity
  8
SLD-0_0
 62
     7
100
AcDbLine
 10
1531.6514098968
 20
1127.6081835201
 30
0.0
 11
1531.6514098968
 21
1081.3581835201
 31
0.0
  0
LINE
  5
29C
330
296
100
AcDbEntity
  8
SLD-0_0
 62
     7
100
AcDbLine
 10
1629.1514098968
 20
1112.3581835201
 30
0.0
 11
1629.1514098968
 21
1081.3581835201
 31
0.0
  0
LINE
  5
29D
330
296
100
AcDbEntity
  8
SLD-0_0
 62
     7
100
AcDbLine
 10
1531.6514098968
 20
1082.3581835201
 30
0.0
 11
1629.1514098968
 21
1082.3581835201
 31
0.0
  0
MTEXT
  5
29E
330
296
100
AcDbEntity
  8
SLD-0_0
 62
     7
100
AcDbMText
 10
1562.6735472651
 20
1094.6365539743
 30
0.0
 40
9.525
 41
0.0
 71
     1
 72
     1
  1
97.50
  7
SLDTEXTSTYLE0
 73
     1
 44
1.0
  0
ENDBLK
  5
298
330
296
100
AcDbEntity
  8
0
100
AcDbBlockEnd
  0
BLOCK
  5
2A1
330
2A0
100
AcDbEntity
  8
0
100
AcDbBlockBegin
  2
_D_2
 70
     0
 10
0.0
 20
0.0
 30
0.0
  3
_D_2
  1

  0
SOLID
  5
2A3
330
2A0
100
AcDbEntity
  8
SLD-0_0
 62
     7
100
AcDbTrace
 10
1667.1514098968
 20
1169.1081835201
 30
0.0
 11
1665.7289564713
 21
1159.8622362545
 31
0.0
 12
1668.5738633223
 22
1159.8622362545
 32
0.0
 13
1668.5738633223
 23
1159.8622362545
 33
0.0
  0
SOLID
  5
2A4
330
2A0
100
AcDbEntity
  8
SLD-0_0
 62
     7
100
AcDbTrace
 10
1667.1514098968
 20
1113.3581835201
 30
0.0
 11
1668.5738633223
 21
1122.6041307858
 31
0.0
 12
1665.7289564713
 22
1122.6041307858
 32
0.0
 13
1665.7289564713
 23
1122.6041307858
 33
0.0
  0
LINE
  5
2A5
330
2A0
100
AcDbEntity
  8
SLD-0_0
 62
     7
100
AcDbLine
 10
1573.1514098968
 20
1169.1081835201
 30
0.0
 11
1668.1514098968
 21
1169.1081835201
 31
0.0
  0
LINE
  5
2A6
330
2A0
100
AcDbEntity
  8
SLD-0_0
 62
     7
100
AcDbLine
 10
1630.1514098968
 20
1113.3581835201
 30
0.0
 11
1668.1514098968
 21
1113.3581835201
 31
0.0
  0
LINE
  5
2A7
330
2A0
100
AcDbEntity
  8
SLD-0_0
 62
     7
100
AcDbLine
 10
1667.1514098968
 20
1169.1081835201
 30
0.0
 11
1667.1514098968
 21
1113.3581835201
 31
0.0
  0
MTEXT
  5
2A8
330
2A0
100
AcDbEntity
  8
SLD-0_0
 62
     7
100
AcDbMText
 10
1654.8730394427
 20
1124.8791369124
 30
0.0
 40
9.525
 41
0.0
 71
     1
 72
     1
  1
55.75
  7
SLDTEXTSTYLE0
 11
-7.044195017643634E-15
 21
1.0
 31
0.0
 73
     1
 44
1.0
  0
ENDBLK
  5
2A2
330
2A0
100
AcDbEntity
  8
0
100
AcDbBlockEnd
  0
BLOCK
  5
2AB
330
2AA
100
AcDbEntity
  8
0
100
AcDbBlockBegin
  2
_D_3
 70
     0
 10
0.0
 20
0.0
 30
0.0
  3
_D_3
  1

  0
SOLID
  5
2AD
330
2AA
100
AcDbEntity
  8
SLD-0_0
 62
     7
100
AcDbTrace
 10
1702.1514098968
 20
1113.3581835201
 30
0.0
 11
1703.5738633223
 21
1122.6041307858
 31
0.0
 12
1700.7289564713
 22
1122.6041307858
 32
0.0
 13
1700.7289564713
 23
1122.6041307858
 33
0.0
  0
SOLID
  5
2AE
330
2AA
100
AcDbEntity
  8
SLD-0_0
 62
     7
100
AcDbTrace
 10
1702.1514098968
 20
1603.3581835201
 30
0.0
 11
1700.7289564713
 21
1594.1122362545
 31
0.0
 12
1703.5738633223
 22
1594.1122362545
 32
0.0
 13
1703.5738633223
 23
1594.1122362545
 33
0.0
  0
LINE
  5
2AF
330
2AA
100
AcDbEntity
  8
SLD-0_0
 62
     7
100
AcDbLine
 10
1630.1514098968
 20
1113.3581835201
 30
0.0
 11
1703.1514098968
 21
1113.3581835201
 31
0.0
  0
LINE
  5
2B0
330
2AA
100
AcDbEntity
  8
SLD-0_0
 62
     7
100
AcDbLine
 10
1630.1514098968
 20
1603.3581835201
 30
0.0
 11
1703.1514098968
 21
1603.3581835201
 31
0.0
  0
LINE
  5
2B1
330
2AA
100
AcDbEntity
  8
SLD-0_0
 62
     7
100
AcDbLine
 10
1702.1514098968
 20
1113.3581835201
 30
0.0
 11
1702.1514098968
 21
1603.3581835201
 31
0.0
  0
MTEXT
  5
2B2
330
2AA
100
AcDbEntity
  8
SLD-0_0
 62
     7
100
AcDbMText
 10
1689.8730394427
 20
1351.119502451
 30
0.0
 40
9.525
 41
0.0
 71
     1
 72
     1
  1
490
  7
SLDTEXTSTYLE0
 11
-1.608122649676637E-16
 21
1.0
 31
0.0
 73
     1
 44
1.0
  0
ENDBLK
  5
2AC
330
2AA
100
AcDbEntity
  8
0
100
AcDbBlockEnd
  0
BLOCK
  5
2B6
330
2B5
100
AcDbEntity
  8
0
100
AcDbBlockBegin
  2
_D_4
 70
     0
 10
0.0
 20
0.0
 30
0.0
  3
_D_4
  1

  0
SOLID
  5
2B8
330
2B5
100
AcDbEntity
  8
SLD-0_0
 62
     7
100
AcDbTrace
 10
1388.2252260688
 20
1409.2827231161
 30
0.0
 11
1397.0468679664
 21
1412.3955271279
 31
0.0
 12
1395.7032902566
 22
1414.903174218
 32
0.0
 13
1395.7032902566
 23
1414.903174218
 33
0.0
  0
SOLID
  5
2B9
330
2B5
100
AcDbEntity
  8
SLD-0_0
 62
     7
100
AcDbTrace
 10
1590.0775937249
 20
1517.4336439242
 30
0.0
 11
1581.2559518272
 21
1514.3208399124
 31
0.0
 12
1582.599529537
 22
1511.8131928223
 32
0.0
 13
1582.599529537
 23
1511.8131928223
 33
0.0
  0
LINE
  5
2BA
330
2B5
100
AcDbEntity
  8
SLD-0_0
 62
     7
100
AcDbLine
 10
1590.0775937249
 20
1517.4336439242
 30
0.0
 11
1388.2252260688
 21
1409.2827231161
 31
0.0
  0
MTEXT
  5
2BB
330
2B5
100
AcDbEntity
  8
SLD-0_0
 62
     7
100
AcDbMText
 10
1509.4627311067
 20
1488.0580524963
 30
0.0
 40
9.525
 41
0.0
 71
     1
 72
     1
  1
%%c
  7
SLDTEXTSTYLE0
 11
0.8814513871443944
 21
0.4722747633541548
 31
0.0
 73
     1
 44
1.0
  0
MTEXT
  5
2BC
330
2B5
100
AcDbEntity
  8
SLD-0_0
 62
     7
100
AcDbMText
 10
1521.3529289421
 20
1494.4287275566
 30
0.0
 40
9.525
 41
0.0
 71
     1
 72
     1
  1
229
  7
SLDTEXTSTYLE0
 11
0.8814513871443944
 21
0.4722747633541548
 31
0.0
 73
     1
 44
1.0
  0
ENDBLK
  5
2B7
330
2B5
100
AcDbEntity
  8
0
100
AcDbBlockEnd
  0
BLOCK
  5
2C0
330
2BF
100
AcDbEntity
  8
0
100
AcDbBlockBegin
  2
_D_5
 70
     0
 10
0.0
 20
0.0
 30
0.0
  3
_D_5
  1

  0
SOLID
  5
2C2
330
2BF
100
AcDbEntity
  8
SLD-0_0
 62
     7
100
AcDbTrace
 10
1501.432660501
 20
1146.0684963488
 30
0.0
 11
1509.6477616927
 21
1150.5432060596
 31
0.0
 12
1507.9228731696
 22
1152.8055620381
 32
0.0
 13
1507.9228731696
 23
1152.8055620381
 33
0.0
  0
SOLID
  5
2C3
330
2BF
100
AcDbEntity
  8
SLD-0_0
 62
     7
100
AcDbTrace
 10
1561.8701592926
 20
1192.1478706915
 30
0.0
 11
1553.6550581009
 21
1187.6731609807
 31
0.0
 12
1555.379946624
 22
1185.4108050021
 32
0.0
 13
1555.379946624
 23
1185.4108050021
 33
0.0
  0
LINE
  5
2C4
330
2BF
100
AcDbEntity
  8
SLD-0_0
 62
     7
100
AcDbLine
 10
1561.8701592926
 20
1192.1478706915
 30
0.0
 11
1593.9278586814
 21
1216.5896288753
 31
0.0
  0
LINE
  5
2C5
330
2BF
100
AcDbEntity
  8
SLD-0_0
 62
     7
100
AcDbLine
 10
1561.8701592926
 20
1192.1478706915
 30
0.0
 11
1501.432660501
 21
1146.0684963488
 31
0.0
  0
MTEXT
  5
2C6
330
2BF
100
AcDbEntity
  8
SLD-0_0
 62
     7
100
AcDbMText
 10
1564.5671198783
 20
1209.5768435724
 30
0.0
 40
9.525
 41
0.0
 71
     1
 72
     1
  1
%%c
  7
SLDTEXTSTYLE0
 11
0.7952302472582806
 21
0.606307557140379
 31
0.0
 73
     1
 44
1.0
  0
MTEXT
  5
2C7
330
2BF
100
AcDbEntity
  8
SLD-0_0
 62
     7
100
AcDbMText
 10
1575.2942514053
 20
1217.7555326171
 30
0.0
 40
9.525
 41
0.0
 71
     1
 72
     1
  1
76
  7
SLDTEXTSTYLE0
 11
0.7952302472582806
 21
0.606307557140379
 31
0.0
 73
     1
 44
1.0
  0
ENDBLK
  5
2C1
330
2BF
100
AcDbEntity
  8
0
100
AcDbBlockEnd
  0
BLOCK
  5
2CB
330
2CA
100
AcDbEntity
  8
0
100
AcDbBlockBegin
  2
_D_6
 70
     0
 10
0.0
 20
0.0
 30
0.0
  3
_D_6
  1

  0
SOLID
  5
2CD
330
2CA
100
AcDbEntity
  8
SLD-0_0
 62
     7
100
AcDbTrace
 10
1566.2314009635
 20
1294.863316583
 30
0.0
 11
1575.2349724593
 21
1297.4023350756
 31
0.0
 12
1574.0554491439
 22
1299.9911996411
 32
0.0
 13
1574.0554491439
 23
1299.9911996411
 33
0.0
  0
LINE
  5
2CE
330
2CA
100
AcDbEntity
  8
SLD-0_0
 62
     7
100
AcDbLine
 10
1566.2314009635
 20
1294.863316583
 30
0.0
 11
1604.9934856516
 21
1312.5238706554
 31
0.0
  0
MTEXT
  5
2CF
330
2CA
100
AcDbEntity
  8
SLD-0_0
 62
     7
100
AcDbMText
 10
1574.8070894162
 20
1312.2082988749
 30
0.0
 40
9.525
 41
0.0
 71
     1
 72
     1
  1
%%c
  7
SLDTEXTSTYLE0
 11
0.909999764912214
 21
0.4146087648129442
 31
0.0
 73
     1
 44
1.0
  0
MTEXT
  5
2D0
330
2CA
100
AcDbEntity
  8
SLD-0_0
 62
     7
100
AcDbMText
 10
1587.0823860381
 20
1317.8010976495
 30
0.0
 40
9.525
 41
0.0
 71
     1
 72
     1
  1
76
  7
SLDTEXTSTYLE0
 11
0.909999764912214
 21
0.4146087648129442
 31
0.0
 73
     1
 44
1.0
  0
ENDBLK
  5
2CC
330
2CA
100
AcDbEntity
  8
0
100
AcDbBlockEnd
  0
BLOCK
  5
2D4
330
2D3
100
AcDbEntity
  8
0
100
AcDbBlockBegin
  2
_D_7
 70
     0
 10
0.0
 20
0.0
 30
0.0
  3
_D_7
  1

  0
ARC
  5
2D6
330
2D3
100
AcDbEntity
  8
SLD-0_0
 62
     7
100
AcDbCircle
 10
1329.1514098968
 20
1253.3581835201
 30
0.0
 40
122.6705445492114
100
AcDbArc
 50
41.3529874567
 51
69.9173634475
  0
SOLID
  5
2D7
330
2D3
100
AcDbEntity
  8
SLD-0_0
 62
     7
100
AcDbTrace
 10
1238.4231101702
 20
1172.1705112496
 30
0.0
 11
1246.2617529406
 21
1177.2760566762
 31
0.0
 12
1244.3646575398
 22
1179.3960859285
 32
0.0
 13
1244.3646575398
 23
1179.3960859285
 33
0.0
  0
SOLID
  5
2D8
330
2D3
100
AcDbEntity
  8
SLD-0_0
 62
     7
100
AcDbTrace
 10
1419.8797096235
 20
1334.5458557907
 30
0.0
 11
1412.041066853
 21
1329.440310364
 31
0.0
 12
1413.9381622539
 22
1327.3202811117
 32
0.0
 13
1413.9381622539
 23
1327.3202811117
 33
0.0
  0
LINE
  5
2D9
330
2D3
100
AcDbEntity
  8
SLD-0_0
 62
     7
100
AcDbLine
 10
1419.8797096235
 20
1334.5458557907
 30
0.0
 11
1238.4231101702
 21
1172.1705112496
 31
0.0
  0
MTEXT
  5
2DA
330
2D3
100
AcDbEntity
  8
SLD-0_0
 62
     7
100
AcDbMText
 10
1342.8776396925
 20
1282.021341869
 30
0.0
 40
9.525
 41
0.0
 71
     1
 72
     1
  1
%%c
  7
SLDTEXTSTYLE0
 11
0.7452016404651226
 21
0.6668391972942879
 31
0.0
 73
     1
 44
1.0
  0
MTEXT
  5
2DB
330
2D3
100
AcDbEntity
  8
SLD-0_0
 62
     7
100
AcDbMText
 10
1352.9299183112
 20
1291.0165628147
 30
0.0
 40
9.525
 41
0.0
 71
     1
 72
     1
  1
243.50
  7
SLDTEXTSTYLE0
 11
0.7452016404651226
 21
0.6668391972942879
 31
0.0
 73
     1
 44
1.0
  0
ENDBLK
  5
2D5
330
2D3
100
AcDbEntity
  8
0
100
AcDbBlockEnd
  0
BLOCK
  5
2DF
330
2DE
100
AcDbEntity
  8
0
100
AcDbBlockBegin
  2
_NONE
 70
     0
 10
0.0
 20
0.0
 30
0.0
  3
_NONE
  1

  0
ENDBLK
  5
2E0
330
2DE
100
AcDbEntity
  8
0
100
AcDbBlockEnd
  0
BLOCK
  5
2E2
330
2E1
100
AcDbEntity
  8
0
100
AcDbBlockBegin
  2
_D_8
 70
     0
 10
0.0
 20
0.0
 30
0.0
  3
_D_8
  1

  0
SOLID
  5
2E4
330
2E1
100
AcDbEntity
  8
SLD-0_0
 62
     7
100
AcDbTrace
 10
1213.753768682
 20
1301.4961703305
 30
0.0
 11
1206.2521700455
 21
1307.0851713577
 31
0.0
 12
1204.9191338355
 22
1304.571904668
 32
0.0
 13
1204.9191338355
 23
1304.571904668
 33
0.0
  0
LINE
  5
2E5
330
2E1
100
AcDbEntity
  8
SLD-0_0
 62
     7
100
AcDbLine
 10
1213.753768682
 20
1301.4961703305
 30
0.0
 11
1176.0430617866
 21
1321.4979226317
 31
0.0
  0
LINE
  5
2E6
330
2E1
100
AcDbEntity
  8
SLD-0_0
 62
     7
100
AcDbLine
 10
1219.5843849451
 20
1298.4036124906
 30
0.0
 11
1213.753768682
 21
1301.4961703305
 31
0.0
  0
LINE
  5
2E7
330
2E1
100
AcDbEntity
  8
SLD-0_0
 62
     7
100
AcDbLine
 10
1176.0430617866
 20
1321.4979226317
 30
0.0
 11
1136.271779537
 21
1321.4979226317
 31
0.0
  0
MTEXT
  5
2E8
330
2E1
100
AcDbEntity
  8
SLD-0_0
 62
     7
100
AcDbMText
 10
1136.271779537
 20
1333.7762930859
 30
0.0
 40
9.525
 41
0.0
 71
     1
 72
     1
  1
%%c
  7
SLDTEXTSTYLE0
 73
     1
 44
1.0
  0
MTEXT
  5
2E9
330
2E1
100
AcDbEntity
  8
SLD-0_0
 62
     7
100
AcDbMText
 10
1149.7611199689
 20
1333.7762930859
 30
0.0
 40
9.525
 41
0.0
 71
     1
 72
     1
  1
6.60
  7
SLDTEXTSTYLE0
 73
     1
 44
1.0
  0
ENDBLK
  5
2E3
330
2E1
100
AcDbEntity
  8
0
100
AcDbBlockEnd
  0
BLOCK
  5
2EC
330
2EB
100
AcDbEntity
  8
0
100
AcDbBlockBegin
  2
_D_9
 70
     0
 10
0.0
 20
0.0
 30
0.0
  3
_D_9
  1

  0
SOLID
  5
2EE
330
2EB
100
AcDbEntity
  8
SLD-0_0
 62
     7
100
AcDbTrace
 10
1144.1514098968
 20
1603.3581835201
 30
0.0
 11
1142.7289564713
 21
1594.1122362545
 31
0.0
 12
1145.5738633223
 22
1594.1122362545
 32
0.0
 13
1145.5738633223
 23
1594.1122362545
 33
0.0
  0
SOLID
  5
2EF
330
2EB
100
AcDbEntity
  8
SLD-0_0
 62
     7
100
AcDbTrace
 10
1144.1514098968
 20
1538.3581835201
 30
0.0
 11
1145.5738633223
 21
1547.6041307858
 31
0.0
 12
1142.7289564713
 22
1547.6041307858
 32
0.0
 13
1142.7289564713
 23
1547.6041307858
 33
0.0
  0
LINE
  5
2F0
330
2EB
100
AcDbEntity
  8
SLD-0_0
 62
     7
100
AcDbLine
 10
1188.1514098968
 20
1603.3581835201
 30
0.0
 11
1143.1514098968
 21
1603.3581835201
 31
0.0
  0
LINE
  5
2F1
330
2EB
100
AcDbEntity
  8
SLD-0_0
 62
     7
100
AcDbLine
 10
1240.5514098968
 20
1538.3581835201
 30
0.0
 11
1143.1514098968
 21
1538.3581835201
 31
0.0
  0
LINE
  5
2F2
330
2EB
100
AcDbEntity
  8
SLD-0_0
 62
     7
100
AcDbLine
 10
1144.1514098968
 20
1603.3581835201
 30
0.0
 11
1144.1514098968
 21
1538.3581835201
 31
0.0
  0
MTEXT
  5
2F3
330
2EB
100
AcDbEntity
  8
SLD-0_0
 62
     7
100
AcDbMText
 10
1131.8730394427
 20
1565.3464085404
 30
0.0
 40
9.525
 41
0.0
 71
     1
 72
     1
  1
65
  7
SLDTEXTSTYLE0
 11
-7.044195017643634E-15
 21
1.0
 31
0.0
 73
     1
 44
1.0
  0
ENDBLK
  5
2ED
330
2EB
100
AcDbEntity
  8
0
100
AcDbBlockEnd
  0
BLOCK
  5
2F6
330
2F5
100
AcDbEntity
  8
0
100
AcDbBlockBegin
  2
_D_10
 70
     0
 10
0.0
 20
0.0
 30
0.0
  3
_D_10
  1

  0
SOLID
  5
2F8
330
2F5
100
AcDbEntity
  8
SLD-0_0
 62
     7
100
AcDbTrace
 10
1144.1514098968
 20
1538.3581835201
 30
0.0
 11
1142.7289564713
 21
1529.1122362545
 31
0.0
 12
1145.5738633223
 22
1529.1122362545
 32
0.0
 13
1145.5738633223
 23
1529.1122362545
 33
0.0
  0
SOLID
  5
2F9
330
2F5
100
AcDbEntity
  8
SLD-0_0
 62
     7
100
AcDbTrace
 10
1144.1514098968
 20
1468.3581835201
 30
0.0
 11
1145.5738633223
 21
1477.6041307858
 31
0.0
 12
1142.7289564713
 22
1477.6041307858
 32
0.0
 13
1142.7289564713
 23
1477.6041307858
 33
0.0
  0
LINE
  5
2FA
330
2F5
100
AcDbEntity
  8
SLD-0_0
 62
     7
100
AcDbLine
 10
1240.5514098968
 20
1538.3581835201
 30
0.0
 11
1143.1514098968
 21
1538.3581835201
 31
0.0
  0
LINE
  5
2FB
330
2F5
100
AcDbEntity
  8
SLD-0_0
 62
     7
100
AcDbLine
 10
1240.5514098968
 20
1468.3581835201
 30
0.0
 11
1143.1514098968
 21
1468.3581835201
 31
0.0
  0
LINE
  5
2FC
330
2F5
100
AcDbEntity
  8
SLD-0_0
 62
     7
100
AcDbLine
 10
1144.1514098968
 20
1538.3581835201
 30
0.0
 11
1144.1514098968
 21
1468.3581835201
 31
0.0
  0
MTEXT
  5
2FD
330
2F5
100
AcDbEntity
  8
SLD-0_0
 62
     7
100
AcDbMText
 10
1131.8730394427
 20
1495.861265166
 30
0.0
 40
9.525
 41
0.0
 71
     1
 72
     1
  1
70
  7
SLDTEXTSTYLE0
 11
-7.044195017643634E-15
 21
1.0
 31
0.0
 73
     1
 44
1.0
  0
ENDBLK
  5
2F7
330
2F5
100
AcDbEntity
  8
0
100
AcDbBlockEnd
  0
BLOCK
  5
300
330
2FF
100
AcDbEntity
  8
0
100
AcDbBlockBegin
  2
_D_11
 70
     0
 10
0.0
 20
0.0
 30
0.0
  3
_D_11
  1

  0
SOLID
  5
302
330
2FF
100
AcDbEntity
  8
SLD-0_0
 62
     7
100
AcDbTrace
 10
1189.1514098968
 20
1415.008795213
 30
0.0
 11
1198.3973571624
 21
1413.5863417875
 31
0.0
 12
1198.3973571624
 22
1416.4312486385
 32
0.0
 13
1198.3973571624
 23
1416.4312486385
 33
0.0
  0
SOLID
  5
303
330
2FF
100
AcDbEntity
  8
SLD-0_0
 62
     7
100
AcDbTrace
 10
1241.5514098968
 20
1415.008795213
 30
0.0
 11
1232.3054626312
 21
1416.4312486385
 31
0.0
 12
1232.3054626312
 22
1413.5863417875
 32
0.0
 13
1232.3054626312
 23
1413.5863417875
 33
0.0
  0
LINE
  5
304
330
2FF
100
AcDbEntity
  8
SLD-0_0
 62
     7
100
AcDbLine
 10
1241.5514098968
 20
1467.3581835201
 30
0.0
 11
1241.5514098968
 21
1414.008795213
 31
0.0
  0
LINE
  5
305
330
2FF
100
AcDbEntity
  8
SLD-0_0
 62
     7
100
AcDbLine
 10
1189.1514098968
 20
1415.008795213
 30
0.0
 11
1139.4886720178
 21
1415.008795213
 31
0.0
  0
LINE
  5
306
330
2FF
100
AcDbEntity
  8
SLD-0_0
 62
     7
100
AcDbLine
 10
1189.1514098968
 20
1415.008795213
 30
0.0
 11
1241.5514098968
 21
1415.008795213
 31
0.0
  0
MTEXT
  5
307
330
2FF
100
AcDbEntity
  8
SLD-0_0
 62
     7
100
AcDbMText
 10
1139.4886720178
 20
1427.2871656672
 30
0.0
 40
9.525
 41
0.0
 71
     1
 72
     1
  1
52.40
  7
SLDTEXTSTYLE0
 73
     1
 44
1.0
  0
ENDBLK
  5
301
330
2FF
100
AcDbEntity
  8
0
100
AcDbBlockEnd
  0
BLOCK
  5
30A
330
309
100
AcDbEntity
  8
0
100
AcDbBlockBegin
  2
_D_12
 70
     0
 10
0.0
 20
0.0
 30
0.0
  3
_D_12
  1

  0
SOLID
  5
30C
330
309
100
AcDbEntity
  8
SLD-0_0
 62
     7
100
AcDbTrace
 10
1241.5514098968
 20
1415.008795213
 30
0.0
 11
1250.7973571624
 21
1413.5863417875
 31
0.0
 12
1250.7973571624
 22
1416.4312486385
 32
0.0
 13
1250.7973571624
 23
1416.4312486385
 33
0.0
  0
SOLID
  5
30D
330
309
100
AcDbEntity
  8
SLD-0_0
 62
     7
100
AcDbTrace
 10
1331.5514098968
 20
1415.008795213
 30
0.0
 11
1322.3054626312
 21
1416.4312486385
 31
0.0
 12
1322.3054626312
 22
1413.5863417875
 32
0.0
 13
1322.3054626312
 23
1413.5863417875
 33
0.0
  0
LINE
  5
30E
330
309
100
AcDbEntity
  8
SLD-0_0
 62
     7
100
AcDbLine
 10
1241.5514098968
 20
1467.3581835201
 30
0.0
 11
1241.5514098968
 21
1414.008795213
 31
0.0
  0
LINE
  5
30F
330
309
100
AcDbEntity
  8
SLD-0_0
 62
     7
100
AcDbLine
 10
1331.5514098968
 20
1467.3581835201
 30
0.0
 11
1331.5514098968
 21
1414.008795213
 31
0.0
  0
LINE
  5
310
330
309
100
AcDbEntity
  8
SLD-0_0
 62
     7
100
AcDbLine
 10
1241.5514098968
 20
1415.008795213
 30
0.0
 11
1331.5514098968
 21
1415.008795213
 31
0.0
  0
MTEXT
  5
311
330
309
100
AcDbEntity
  8
SLD-0_0
 62
     7
100
AcDbMText
 10
1277.5982247997
 20
1427.2871656672
 30
0.0
 40
9.525
 41
0.0
 71
     1
 72
     1
  1
90
  7
SLDTEXTSTYLE0
 73
     1
 44
1.0
  0
ENDBLK
  5
30B
330
309
100
AcDbEntity
  8
0
100
AcDbBlockEnd
  0
BLOCK
  5
314
330
313
100
AcDbEntity
  8
0
100
AcDbBlockBegin
  2
_D_13
 70
     0
 10
0.0
 20
0.0
 30
0.0
  3
_D_13
  1

  0
SOLID
  5
316
330
313
100
AcDbEntity
  8
SLD-0_0
 62
     7
100
AcDbTrace
 10
1354.8718480247
 20
1544.8581835201
 30
0.0
 11
1353.4493945992
 21
1535.6122362545
 31
0.0
 12
1356.2943014502
 22
1535.6122362545
 32
0.0
 13
1356.2943014502
 23
1535.6122362545
 33
0.0
  0
SOLID
  5
317
330
313
100
AcDbEntity
  8
SLD-0_0
 62
     7
100
AcDbTrace
 10
1354.8718480247
 20
1461.8581835201
 30
0.0
 11
1356.2943014502
 21
1471.1041307858
 31
0.0
 12
1353.4493945992
 22
1471.1041307858
 32
0.0
 13
1353.4493945992
 23
1471.1041307858
 33
0.0
  0
LINE
  5
318
330
313
100
AcDbEntity
  8
SLD-0_0
 62
     7
100
AcDbLine
 10
1326.8014098968
 20
1544.8581835201
 30
0.0
 11
1355.8718480247
 21
1544.8581835201
 31
0.0
  0
LINE
  5
319
330
313
100
AcDbEntity
  8
SLD-0_0
 62
     7
100
AcDbLine
 10
1326.8014098968
 20
1461.8581835201
 30
0.0
 11
1355.8718480247
 21
1461.8581835201
 31
0.0
  0
LINE
  5
31A
330
313
100
AcDbEntity
  8
SLD-0_0
 62
     7
100
AcDbLine
 10
1354.8718480247
 20
1544.8581835201
 30
0.0
 11
1354.8718480247
 21
1461.8581835201
 31
0.0
  0
MTEXT
  5
31B
330
313
100
AcDbEntity
  8
SLD-0_0
 62
     7
100
AcDbMText
 10
1342.5934775706
 20
1494.0446522974
 30
0.0
 40
9.525
 41
0.0
 71
     1
 72
     1
  1
83
  7
SLDTEXTSTYLE0
 11
-7.044195017643634E-15
 21
1.0
 31
0.0
 73
     1
 44
1.0
  0
ENDBLK
  5
315
330
313
100
AcDbEntity
  8
0
100
AcDbBlockEnd
  0
BLOCK
  5
31E
330
31D
100
AcDbEntity
  8
0
100
AcDbBlockBegin
  2
_D_14
 70
     0
 10
0.0
 20
0.0
 30
0.0
  3
_D_14
  1

  0
SOLID
  5
320
330
31D
100
AcDbEntity
  8
SLD-0_0
 62
     7
100
AcDbTrace
 10
1253.0514098968
 20
1433.2365373122
 30
0.0
 11
1262.2973571624
 21
1431.8140838867
 31
0.0
 12
1262.2973571624
 22
1434.6589907376
 32
0.0
 13
1262.2973571624
 23
1434.6589907376
 33
0.0
  0
SOLID
  5
321
330
31D
100
AcDbEntity
  8
SLD-0_0
 62
     7
100
AcDbTrace
 10
1320.0514098968
 20
1433.2365373122
 30
0.0
 11
1310.8054626312
 21
1434.6589907376
 31
0.0
 12
1310.8054626312
 22
1431.8140838867
 32
0.0
 13
1310.8054626312
 23
1431.8140838867
 33
0.0
  0
LINE
  5
322
330
31D
100
AcDbEntity
  8
SLD-0_0
 62
     7
100
AcDbLine
 10
1253.0514098968
 20
1455.1081835201
 30
0.0
 11
1253.0514098968
 21
1432.2365373122
 31
0.0
  0
LINE
  5
323
330
31D
100
AcDbEntity
  8
SLD-0_0
 62
     7
100
AcDbLine
 10
1320.0514098968
 20
1455.1081835201
 30
0.0
 11
1320.0514098968
 21
1432.2365373122
 31
0.0
  0
LINE
  5
324
330
31D
100
AcDbEntity
  8
SLD-0_0
 62
     7
100
AcDbLine
 10
1253.0514098968
 20
1433.2365373122
 30
0.0
 11
1320.0514098968
 21
1433.2365373122
 31
0.0
  0
MTEXT
  5
325
330
31D
100
AcDbEntity
  8
SLD-0_0
 62
     7
100
AcDbMText
 10
1277.5982247997
 20
1445.5149077663
 30
0.0
 40
9.525
 41
0.0
 71
     1
 72
     1
  1
67
  7
SLDTEXTSTYLE0
 73
     1
 44
1.0
  0
ENDBLK
  5
31F
330
31D
100
AcDbEntity
  8
0
100
AcDbBlockEnd
  0
BLOCK
  5
328
330
327
100
AcDbEntity
  8
0
100
AcDbBlockBegin
  2
_D_15
 70
     0
 10
0.0
 20
0.0
 30
0.0
  3
_D_15
  1

  0
SOLID
  5
32A
330
327
100
AcDbEntity
  8
SLD-0_0
 62
     7
100
AcDbTrace
 10
1144.1514098968
 20
1253.3581835201
 30
0.0
 11
1142.7289564713
 21
1244.1122362545
 31
0.0
 12
1145.5738633223
 22
1244.1122362545
 32
0.0
 13
1145.5738633223
 23
1244.1122362545
 33
0.0
  0
SOLID
  5
32B
330
327
100
AcDbEntity
  8
SLD-0_0
 62
     7
100
AcDbTrace
 10
1144.1514098968
 20
1113.3581835201
 30
0.0
 11
1145.5738633223
 21
1122.6041307858
 31
0.0
 12
1142.7289564713
 22
1122.6041307858
 32
0.0
 13
1142.7289564713
 23
1122.6041307858
 33
0.0
  0
LINE
  5
32C
330
327
100
AcDbEntity
  8
SLD-0_0
 62
     7
100
AcDbLine
 10
1203.9014098968
 20
1253.3581835201
 30
0.0
 11
1143.1514098968
 21
1253.3581835201
 31
0.0
  0
LINE
  5
32D
330
327
100
AcDbEntity
  8
SLD-0_0
 62
     7
100
AcDbLine
 10
1188.1514098968
 20
1113.3581835201
 30
0.0
 11
1143.1514098968
 21
1113.3581835201
 31
0.0
  0
LINE
  5
32E
330
327
100
AcDbEntity
  8
SLD-0_0
 62
     7
100
AcDbLine
 10
1144.1514098968
 20
1253.3581835201
 30
0.0
 11
1144.1514098968
 21
1113.3581835201
 31
0.0
  0
MTEXT
  5
32F
330
327
100
AcDbEntity
  8
SLD-0_0
 62
     7
100
AcDbMText
 10
1131.8730394427
 20
1176.7358072112
 30
0.0
 40
9.525
 41
0.0
 71
     1
 72
     1
  1
140
  7
SLDTEXTSTYLE0
 11
-7.044195017643634E-15
 21
1.0
 31
0.0
 73
     1
 44
1.0
  0
ENDBLK
  5
329
330
327
100
AcDbEntity
  8
0
100
AcDbBlockEnd
  0
BLOCK
  5
332
330
331
100
AcDbEntity
  8
0
100
AcDbBlockBegin
  2
_D_16
 70
     0
 10
0.0
 20
0.0
 30
0.0
  3
_D_16
  1

  0
SOLID
  5
334
330
331
100
AcDbEntity
  8
SLD-0_0
 62
     7
100
AcDbTrace
 10
1189.1514098968
 20
1082.3581835201
 30
0.0
 11
1198.3973571624
 21
1080.9357300947
 31
0.0
 12
1198.3973571624
 22
1083.7806369456
 32
0.0
 13
1198.3973571624
 23
1083.7806369456
 33
0.0
  0
SOLID
  5
335
330
331
100
AcDbEntity
  8
SLD-0_0
 62
     7
100
AcDbTrace
 10
1329.1514098968
 20
1082.3581835201
 30
0.0
 11
1319.9054626312
 21
1083.7806369456
 31
0.0
 12
1319.9054626312
 22
1080.9357300947
 32
0.0
 13
1319.9054626312
 23
1080.9357300947
 33
0.0
  0
LINE
  5
336
330
331
100
AcDbEntity
  8
SLD-0_0
 62
     7
100
AcDbLine
 10
1189.1514098968
 20
1112.3581835201
 30
0.0
 11
1189.1514098968
 21
1081.3581835201
 31
0.0
  0
LINE
  5
337
330
331
100
AcDbEntity
  8
SLD-0_0
 62
     7
100
AcDbLine
 10
1329.1514098968
 20
1128.1081835201
 30
0.0
 11
1329.1514098968
 21
1081.3581835201
 31
0.0
  0
LINE
  5
338
330
331
100
AcDbEntity
  8
SLD-0_0
 62
     7
100
AcDbLine
 10
1189.1514098968
 20
1082.3581835201
 30
0.0
 11
1329.1514098968
 21
1082.3581835201
 31
0.0
  0
MTEXT
  5
339
330
331
100
AcDbEntity
  8
SLD-0_0
 62
     7
100
AcDbMText
 10
1247.9777208205
 20
1094.6365539743
 30
0.0
 40
9.525
 41
0.0
 71
     1
 72
     1
  1
140
  7
SLDTEXTSTYLE0
 73
     1
 44
1.0
  0
ENDBLK
  5
333
330
331
100
AcDbEntity
  8
0
100
AcDbBlockEnd
  0
BLOCK
  5
33C
330
33B
100
AcDbEntity
  8
0
100
AcDbBlockBegin
  2
_D_17
 70
     0
 10
0.0
 20
0.0
 30
0.0
  3
_D_17
  1

  0
SOLID
  5
33E
330
33B
100
AcDbEntity
  8
SLD-0_0
 62
     7
100
AcDbTrace
 10
1667.1514098968
 20
1463.3581835201
 30
0.0
 11
1668.5738633223
 21
1472.6041307858
 31
0.0
 12
1665.7289564713
 22
1472.6041307858
 32
0.0
 13
1665.7289564713
 23
1472.6041307858
 33
0.0
  0
SOLID
  5
33F
330
33B
100
AcDbEntity
  8
SLD-0_0
 62
     7
100
AcDbTrace
 10
1667.1514098968
 20
1603.3581835201
 30
0.0
 11
1665.7289564713
 21
1594.1122362545
 31
0.0
 12
1668.5738633223
 22
1594.1122362545
 32
0.0
 13
1668.5738633223
 23
1594.1122362545
 33
0.0
  0
LINE
  5
340
330
33B
100
AcDbEntity
  8
SLD-0_0
 62
     7
100
AcDbLine
 10
1614.4014098968
 20
1463.3581835201
 30
0.0
 11
1668.1514098968
 21
1463.3581835201
 31
0.0
  0
LINE
  5
341
330
33B
100
AcDbEntity
  8
SLD-0_0
 62
     7
100
AcDbLine
 10
1630.1514098968
 20
1603.3581835201
 30
0.0
 11
1668.1514098968
 21
1603.3581835201
 31
0.0
  0
LINE
  5
342
330
33B
100
AcDbEntity
  8
SLD-0_0
 62
     7
100
AcDbLine
 10
1667.1514098968
 20
1463.3581835201
 30
0.0
 11
1667.1514098968
 21
1603.3581835201
 31
0.0
  0
MTEXT
  5
343
330
33B
100
AcDbEntity
  8
SLD-0_0
 62
     7
100
AcDbMText
 10
1654.8730394427
 20
1523.8897340497
 30
0.0
 40
9.525
 41
0.0
 71
     1
 72
     1
  1
140
  7
SLDTEXTSTYLE0
 11
6.123233995736766E-17
 21
1.0
 31
0.0
 73
     1
 44
1.0
  0
ENDBLK
  5
33D
330
33B
100
AcDbEntity
  8
0
100
AcDbBlockEnd
  0
BLOCK
  5
346
330
345
100
AcDbEntity
  8
0
100
AcDbBlockBegin
  2
_D_18
 70
     0
 10
0.0
 20
0.0
 30
0.0
  3
_D_18
  1

  0
SOLID
  5
348
330
345
100
AcDbEntity
  8
SLD-0_0
 62
     7
100
AcDbTrace
 10
1489.1514098968
 20
1627.3581835201
 30
0.0
 11
1498.3973571624
 21
1625.9357300947
 31
0.0
 12
1498.3973571624
 22
1628.7806369456
 32
0.0
 13
1498.3973571624
 23
1628.7806369456
 33
0.0
  0
SOLID
  5
349
330
345
100
AcDbEntity
  8
SLD-0_0
 62
     7
100
AcDbTrace
 10
1629.1514098968
 20
1627.3581835201
 30
0.0
 11
1619.9054626312
 21
1628.7806369456
 31
0.0
 12
1619.9054626312
 22
1625.9357300947
 32
0.0
 13
1619.9054626312
 23
1625.9357300947
 33
0.0
  0
LINE
  5
34A
330
345
100
AcDbEntity
  8
SLD-0_0
 62
     7
100
AcDbLine
 10
1489.1514098968
 20
1588.6081835201
 30
0.0
 11
1489.1514098968
 21
1628.3581835201
 31
0.0
  0
LINE
  5
34B
330
345
100
AcDbEntity
  8
SLD-0_0
 62
     7
100
AcDbLine
 10
1629.1514098968
 20
1604.3581835201
 30
0.0
 11
1629.1514098968
 21
1628.3581835201
 31
0.0
  0
LINE
  5
34C
330
345
100
AcDbEntity
  8
SLD-0_0
 62
     7
100
AcDbLine
 10
1489.1514098968
 20
1627.3581835201
 30
0.0
 11
1629.1514098968
 21
1627.3581835201
 31
0.0
  0
MTEXT
  5
34D
330
345
100
AcDbEntity
  8
SLD-0_0
 62
     7
100
AcDbMText
 10
1550.1164274036
 20
1639.6365539743
 30
0.0
 40
9.525
 41
0.0
 71
     1
 72
     1
  1
140
  7
SLDTEXTSTYLE0
 73
     1
 44
1.0
  0
ENDBLK
  5
347
330
345
100
AcDbEntity
  8
0
100
AcDbBlockEnd
  0
BLOCK
  5
350
330
34F
100
AcDbEntity
  8
0
100
AcDbBlockBegin
  2
_D_19
 70
     0
 10
0.0
 20
0.0
 30
0.0
  3
_D_19
  1

  0
SOLID
  5
352
330
34F
100
AcDbEntity
  8
SLD-0_0
 62
     7
100
AcDbTrace
 10
1667.1514098968
 20
1279.1081835201
 30
0.0
 11
1665.7289564713
 21
1269.8622362545
 31
0.0
 12
1668.5738633223
 22
1269.8622362545
 32
0.0
 13
1668.5738633223
 23
1269.8622362545
 33
0.0
  0
SOLID
  5
353
330
34F
100
AcDbEntity
  8
SLD-0_0
 62
     7
100
AcDbTrace
 10
1667.1514098968
 20
1169.1081835201
 30
0.0
 11
1668.5738633223
 21
1178.3541307858
 31
0.0
 12
1665.7289564713
 22
1178.3541307858
 32
0.0
 13
1665.7289564713
 23
1178.3541307858
 33
0.0
  0
LINE
  5
354
330
34F
100
AcDbEntity
  8
SLD-0_0
 62
     7
100
AcDbLine
 10
1573.1514098968
 20
1279.1081835201
 30
0.0
 11
1668.1514098968
 21
1279.1081835201
 31
0.0
  0
LINE
  5
355
330
34F
100
AcDbEntity
  8
SLD-0_0
 62
     7
100
AcDbLine
 10
1573.1514098968
 20
1169.1081835201
 30
0.0
 11
1668.1514098968
 21
1169.1081835201
 31
0.0
  0
LINE
  5
356
330
34F
100
AcDbEntity
  8
SLD-0_0
 62
     7
100
AcDbLine
 10
1667.1514098968
 20
1279.1081835201
 30
0.0
 11
1667.1514098968
 21
1169.1081835201
 31
0.0
  0
MTEXT
  5
357
330
34F
100
AcDbEntity
  8
SLD-0_0
 62
     7
100
AcDbMText
 10
1654.8730394427
 20
1212.7532984725
 30
0.0
 40
9.525
 41
0.0
 71
     1
 72
     1
  1
110
  7
SLDTEXTSTYLE0
 11
-7.044195017643634E-15
 21
1.0
 31
0.0
 73
     1
 44
1.0
  0
ENDBLK
  5
351
330
34F
100
AcDbEntity
  8
0
100
AcDbBlockEnd
  0
BLOCK
  5
359
330
358
100
AcDbEntity
  8
0
100
AcDbBlockBegin
  2
SW_CENTERMARKSYMBOL_0
 70
     0
 10
0.0
 20
0.0
 30
0.0
  3
SW_CENTERMARKSYMBOL_0
  1

  0
LINE
  5
35B
330
358
100
AcDbEntity
  8
SLD-0_0
 62
     0
100
AcDbLine
 10
0.0
 20
0.0
 30
0.0
 11
0.0
 21
2.5
 31
0.0
  0
LINE
  5
35C
330
358
100
AcDbEntity
  8
SLD-0_0
 62
     0
100
AcDbLine
 10
0.0
 20
0.0
 30
0.0
 11
-2.5
 21
0.0
 31
0.0
  0
LINE
  5
35D
330
358
100
AcDbEntity
  8
SLD-0_0
 62
     0
100
AcDbLine
 10
0.0
 20
0.0
 30
0.0
 11
0.0
 21
-2.5
 31
0.0
  0
LINE
  5
35E
330
358
100
AcDbEntity
  8
SLD-0_0
 62
     0
100
AcDbLine
 10
0.0
 20
0.0
 30
0.0
 11
2.5
 21
0.0
 31
0.0
  0
LINE
  5
35F
330
358
100
AcDbEntity
  8
SLD-0_0
 62
     0
100
AcDbLine
 10
0.0
 20
5.0
 30
0.0
 11
0.0
 21
5.75
 31
0.0
  0
LINE
  5
360
330
358
100
AcDbEntity
  8
SLD-0_0
 62
     0
100
AcDbLine
 10
-5.0
 20
0.0
 30
0.0
 11
-5.75
 21
0.0
 31
0.0
  0
LINE
  5
361
330
358
100
AcDbEntity
  8
SLD-0_0
 62
     0
100
AcDbLine
 10
0.0
 20
-5.0
 30
0.0
 11
0.0
 21
-5.75
 31
0.0
  0
LINE
  5
362
330
358
100
AcDbEntity
  8
SLD-0_0
 62
     0
100
AcDbLine
 10
5.0
 20
0.0
 30
0.0
 11
5.75
 21
0.0
 31
0.0
  0
ENDBLK
  5
35A
330
358
100
AcDbEntity
  8
0
100
AcDbBlockEnd
  0
BLOCK
  5
365
330
364
100
AcDbEntity
  8
0
100
AcDbBlockBegin
  2
SW_CENTERMARKSYMBOL_1
 70
     0
 10
0.0
 20
0.0
 30
0.0
  3
SW_CENTERMARKSYMBOL_1
  1

  0
LINE
  5
367
330
364
100
AcDbEntity
  8
SLD-0_0
 62
     0
100
AcDbLine
 10
0.0
 20
0.0
 30
0.0
 11
0.0
 21
2.5
 31
0.0
  0
LINE
  5
368
330
364
100
AcDbEntity
  8
SLD-0_0
 62
     0
100
AcDbLine
 10
0.0
 20
0.0
 30
0.0
 11
-2.5
 21
0.0
 31
0.0
  0
LINE
  5
369
330
364
100
AcDbEntity
  8
SLD-0_0
 62
     0
100
AcDbLine
 10
0.0
 20
0.0
 30
0.0
 11
0.0
 21
-2.5
 31
0.0
  0
LINE
  5
36A
330
364
100
AcDbEntity
  8
SLD-0_0
 62
     0
100
AcDbLine
 10
0.0
 20
0.0
 30
0.0
 11
2.5
 21
0.0
 31
0.0
  0
LINE
  5
36B
330
364
100
AcDbEntity
  8
SLD-0_0
 62
     0
100
AcDbLine
 10
0.0
 20
5.0
 30
0.0
 11
0.0
 21
5.75
 31
0.0
  0
LINE
  5
36C
330
364
100
AcDbEntity
  8
SLD-0_0
 62
     0
100
AcDbLine
 10
-5.0
 20
0.0
 30
0.0
 11
-5.75
 21
0.0
 31
0.0
  0
LINE
  5
36D
330
364
100
AcDbEntity
  8
SLD-0_0
 62
     0
100
AcDbLine
 10
0.0
 20
-5.0
 30
0.0
 11
0.0
 21
-5.75
 31
0.0
  0
LINE
  5
36E
330
364
100
AcDbEntity
  8
SLD-0_0
 62
     0
100
AcDbLine
 10
5.0
 20
0.0
 30
0.0
 11
5.75
 21
0.0
 31
0.0
  0
ENDBLK
  5
366
330
364
100
AcDbEntity
  8
0
100
AcDbBlockEnd
  0
BLOCK
  5
371
330
370
100
AcDbEntity
  8
0
100
AcDbBlockBegin
  2
SW_CENTERMARKSYMBOL_2
 70
     0
 10
0.0
 20
0.0
 30
0.0
  3
SW_CENTERMARKSYMBOL_2
  1

  0
LINE
  5
373
330
370
100
AcDbEntity
  8
SLD-0_0
 62
     0
100
AcDbLine
 10
0.0
 20
0.0
 30
0.0
 11
0.0
 21
2.5
 31
0.0
  0
LINE
  5
374
330
370
100
AcDbEntity
  8
SLD-0_0
 62
     0
100
AcDbLine
 10
0.0
 20
0.0
 30
0.0
 11
-2.5
 21
0.0
 31
0.0
  0
LINE
  5
375
330
370
100
AcDbEntity
  8
SLD-0_0
 62
     0
100
AcDbLine
 10
0.0
 20
0.0
 30
0.0
 11
0.0
 21
-2.5
 31
0.0
  0
LINE
  5
376
330
370
100
AcDbEntity
  8
SLD-0_0
 62
     0
100
AcDbLine
 10
0.0
 20
0.0
 30
0.0
 11
2.5
 21
0.0
 31
0.0
  0
LINE
  5
377
330
370
100
AcDbEntity
  8
SLD-0_0
 62
     0
100
AcDbLine
 10
0.0
 20
5.0
 30
0.0
 11
0.0
 21
5.75
 31
0.0
  0
LINE
  5
378
330
370
100
AcDbEntity
  8
SLD-0_0
 62
     0
100
AcDbLine
 10
-5.0
 20
0.0
 30
0.0
 11
-5.75
 21
0.0
 31
0.0
  0
LINE
  5
379
330
370
100
AcDbEntity
  8
SLD-0_0
 62
     0
100
AcDbLine
 10
0.0
 20
-5.0
 30
0.0
 11
0.0
 21
-5.75
 31
0.0
  0
LINE
  5
37A
330
370
100
AcDbEntity
  8
SLD-0_0
 62
     0
100
AcDbLine
 10
5.0
 20
0.0
 30
0.0
 11
5.75
 21
0.0
 31
0.0
  0
ENDBLK
  5
372
330
370
100
AcDbEntity
  8
0
100
AcDbBlockEnd
  0
BLOCK
  5
37D
330
37C
100
AcDbEntity
  8
0
100
AcDbBlockBegin
  2
SW_CENTERMARKSYMBOL_3
 70
     0
 10
0.0
 20
0.0
 30
0.0
  3
SW_CENTERMARKSYMBOL_3
  1

  0
LINE
  5
37F
330
37C
100
AcDbEntity
  8
SLD-0_0
 62
     0
100
AcDbLine
 10
0.0
 20
0.0
 30
0.0
 11
0.0
 21
2.5
 31
0.0
  0
LINE
  5
380
330
37C
100
AcDbEntity
  8
SLD-0_0
 62
     0
100
AcDbLine
 10
0.0
 20
0.0
 30
0.0
 11
-2.5
 21
0.0
 31
0.0
  0
LINE
  5
381
330
37C
100
AcDbEntity
  8
SLD-0_0
 62
     0
100
AcDbLine
 10
0.0
 20
0.0
 30
0.0
 11
0.0
 21
-2.5
 31
0.0
  0
LINE
  5
382
330
37C
100
AcDbEntity
  8
SLD-0_0
 62
     0
100
AcDbLine
 10
0.0
 20
0.0
 30
0.0
 11
2.5
 21
0.0
 31
0.0
  0
LINE
  5
383
330
37C
100
AcDbEntity
  8
SLD-0_0
 62
     0
100
AcDbLine
 10
0.0
 20
5.0
 30
0.0
 11
0.0
 21
5.75
 31
0.0
  0
LINE
  5
384
330
37C
100
AcDbEntity
  8
SLD-0_0
 62
     0
100
AcDbLine
 10
-5.0
 20
0.0
 30
0.0
 11
-5.75
 21
0.0
 31
0.0
  0
LINE
  5
385
330
37C
100
AcDbEntity
  8
SLD-0_0
 62
     0
100
AcDbLine
 10
0.0
 20
-5.0
 30
0.0
 11
0.0
 21
-5.75
 31
0.0
  0
LINE
  5
386
330
37C
100
AcDbEntity
  8
SLD-0_0
 62
     0
100
AcDbLine
 10
5.0
 20
0.0
 30
0.0
 11
5.75
 21
0.0
 31
0.0
  0
ENDBLK
  5
37E
330
37C
100
AcDbEntity
  8
0
100
AcDbBlockEnd
  0
BLOCK
  5
389
330
388
100
AcDbEntity
  8
0
100
AcDbBlockBegin
  2
SW_CENTERMARKSYMBOL_4
 70
     0
 10
0.0
 20
0.0
 30
0.0
  3
SW_CENTERMARKSYMBOL_4
  1

  0
LINE
  5
38B
330
388
100
AcDbEntity
  8
SLD-0_0
 62
     0
100
AcDbLine
 10
0.0
 20
0.0
 30
0.0
 11
0.0
 21
2.5
 31
0.0
  0
LINE
  5
38C
330
388
100
AcDbEntity
  8
SLD-0_0
 62
     0
100
AcDbLine
 10
0.0
 20
0.0
 30
0.0
 11
-2.5
 21
0.0
 31
0.0
  0
LINE
  5
38D
330
388
100
AcDbEntity
  8
SLD-0_0
 62
     0
100
AcDbLine
 10
0.0
 20
0.0
 30
0.0
 11
0.0
 21
-2.5
 31
0.0
  0
LINE
  5
38E
330
388
100
AcDbEntity
  8
SLD-0_0
 62
     0
100
AcDbLine
 10
0.0
 20
0.0
 30
0.0
 11
2.5
 21
0.0
 31
0.0
  0
LINE
  5
38F
330
388
100
AcDbEntity
  8
SLD-0_0
 62
     0
100
AcDbLine
 10
0.0
 20
5.0
 30
0.0
 11
0.0
 21
40.5
 31
0.0
  0
LINE
  5
390
330
388
100
AcDbEntity
  8
SLD-0_0
 62
     0
100
AcDbLine
 10
-5.0
 20
0.0
 30
0.0
 11
-40.5
 21
0.0
 31
0.0
  0
LINE
  5
391
330
388
100
AcDbEntity
  8
SLD-0_0
 62
     0
100
AcDbLine
 10
0.0
 20
-5.0
 30
0.0
 11
0.0
 21
-40.5
 31
0.0
  0
LINE
  5
392
330
388
100
AcDbEntity
  8
SLD-0_0
 62
     0
100
AcDbLine
 10
5.0
 20
0.0
 30
0.0
 11
40.5
 21
0.0
 31
0.0
  0
ENDBLK
  5
38A
330
388
100
AcDbEntity
  8
0
100
AcDbBlockEnd
  0
BLOCK
  5
395
330
394
100
AcDbEntity
  8
0
100
AcDbBlockBegin
  2
SW_CENTERMARKSYMBOL_5
 70
     0
 10
0.0
 20
0.0
 30
0.0
  3
SW_CENTERMARKSYMBOL_5
  1

  0
LINE
  5
397
330
394
100
AcDbEntity
  8
SLD-0_0
 62
     0
100
AcDbLine
 10
0.0
 20
0.0
 30
0.0
 11
0.0
 21
2.5
 31
0.0
  0
LINE
  5
398
330
394
100
AcDbEntity
  8
SLD-0_0
 62
     0
100
AcDbLine
 10
0.0
 20
0.0
 30
0.0
 11
-2.5
 21
0.0
 31
0.0
  0
LINE
  5
399
330
394
100
AcDbEntity
  8
SLD-0_0
 62
     0
100
AcDbLine
 10
0.0
 20
0.0
 30
0.0
 11
0.0
 21
-2.5
 31
0.0
  0
LINE
  5
39A
330
394
100
AcDbEntity
  8
SLD-0_0
 62
     0
100
AcDbLine
 10
0.0
 20
0.0
 30
0.0
 11
2.5
 21
0.0
 31
0.0
  0
LINE
  5
39B
330
394
100
AcDbEntity
  8
SLD-0_0
 62
     0
100
AcDbLine
 10
0.0
 20
5.0
 30
0.0
 11
0.0
 21
40.5
 31
0.0
  0
LINE
  5
39C
330
394
100
AcDbEntity
  8
SLD-0_0
 62
     0
100
AcDbLine
 10
-5.0
 20
0.0
 30
0.0
 11
-40.5
 21
0.0
 31
0.0
  0
LINE
  5
39D
330
394
100
AcDbEntity
  8
SLD-0_0
 62
     0
100
AcDbLine
 10
0.0
 20
-5.0
 30
0.0
 11
0.0
 21
-40.5
 31
0.0
  0
LINE
  5
39E
330
394
100
AcDbEntity
  8
SLD-0_0
 62
     0
100
AcDbLine
 10
5.0
 20
0.0
 30
0.0
 11
40.5
 21
0.0
 31
0.0
  0
ENDBLK
  5
396
330
394
100
AcDbEntity
  8
0
100
AcDbBlockEnd
  0
BLOCK
  5
3A1
330
3A0
100
AcDbEntity
  8
0
100
AcDbBlockBegin
  2
SW_CENTERMARKSYMBOL_6
 70
     0
 10
0.0
 20
0.0
 30
0.0
  3
SW_CENTERMARKSYMBOL_6
  1

  0
ARC
  5
3A3
330
3A0
100
AcDbEntity
  8
SLD-0_0
 62
     0
100
AcDbCircle
 10
46.5917078904
 20
-112.4823330832
 30
0.0
 40
121.7500000000003
100
AcDbArc
 50
112.5
 51
113.6765047128
  0
ARC
  5
3A4
330
3A0
100
AcDbEntity
  8
SLD-0_0
 62
     0
100
AcDbCircle
 10
46.5917078904
 20
-112.4823330832
 30
0.0
 40
121.7500000000003
100
AcDbArc
 50
111.3234952872
 51
112.5
  0
ARC
  5
3A5
330
3A0
100
AcDbEntity
  8
SLD-0_0
 62
     0
100
AcDbCircle
 10
46.5917078904
 20
-112.4823330832
 30
0.0
 40
121.7500000000001
100
AcDbArc
 50
157.5
 51
158.6765047128
  0
ARC
  5
3A6
330
3A0
100
AcDbEntity
  8
SLD-0_0
 62
     0
100
AcDbCircle
 10
46.5917078904
 20
-112.4823330832
 30
0.0
 40
121.75
100
AcDbArc
 50
156.3234952872
 51
157.5
  0
ARC
  5
3A7
330
3A0
100
AcDbEntity
  8
SLD-0_0
 62
     0
100
AcDbCircle
 10
46.5917078904
 20
-112.4823330832
 30
0.0
 40
121.7499999999998
100
AcDbArc
 50
202.5
 51
203.6765047128
  0
ARC
  5
3A8
330
3A0
100
AcDbEntity
  8
SLD-0_0
 62
     0
100
AcDbCircle
 10
46.5917078904
 20
-112.4823330832
 30
0.0
 40
121.7499999999999
100
AcDbArc
 50
201.3234952872
 51
202.5
  0
ARC
  5
3A9
330
3A0
100
AcDbEntity
  8
SLD-0_0
 62
     0
100
AcDbCircle
 10
46.5917078904
 20
-112.4823330832
 30
0.0
 40
121.7499999999998
100
AcDbArc
 50
247.5
 51
248.6765047128
  0
ARC
  5
3AA
330
3A0
100
AcDbEntity
  8
SLD-0_0
 62
     0
100
AcDbCircle
 10
46.5917078904
 20
-112.4823330832
 30
0.0
 40
121.7499999999998
100
AcDbArc
 50
246.3234952872
 51
247.5
  0
ARC
  5
3AB
330
3A0
100
AcDbEntity
  8
SLD-0_0
 62
     0
100
AcDbCircle
 10
46.5917078904
 20
-112.4823330832
 30
0.0
 40
121.7499999999999
100
AcDbArc
 50
292.5
 51
293.6765047128
  0
ARC
  5
3AC
330
3A0
100
AcDbEntity
  8
SLD-0_0
 62
     0
100
AcDbCircle
 10
46.5917078904
 20
-112.4823330832
 30
0.0
 40
121.7499999999999
100
AcDbArc
 50
291.3234952872
 51
292.5
  0
ARC
  5
3AD
330
3A0
100
AcDbEntity
  8
SLD-0_0
 62
     0
100
AcDbCircle
 10
46.5917078904
 20
-112.4823330832
 30
0.0
 40
121.75
100
AcDbArc
 50
337.5
 51
338.6765047128
  0
ARC
  5
3AE
330
3A0
100
AcDbEntity
  8
SLD-0_0
 62
     0
100
AcDbCircle
 10
46.5917078904
 20
-112.4823330832
 30
0.0
 40
121.75
100
AcDbArc
 50
336.3234952872
 51
337.5
  0
ARC
  5
3AF
330
3A0
100
AcDbEntity
  8
SLD-0_0
 62
     0
100
AcDbCircle
 10
46.5917078904
 20
-112.4823330832
 30
0.0
 40
121.7500000000002
100
AcDbArc
 50
22.5
 51
23.6765047128
  0
ARC
  5
3B0
330
3A0
100
AcDbEntity
  8
SLD-0_0
 62
     0
100
AcDbCircle
 10
46.5917078904
 20
-112.4823330832
 30
0.0
 40
121.7500000000001
100
AcDbArc
 50
21.3234952872
 51
22.5
  0
ARC
  5
3B1
330
3A0
100
AcDbEntity
  8
SLD-0_0
 62
     0
100
AcDbCircle
 10
46.5917078904
 20
-112.4823330832
 30
0.0
 40
121.7500000000003
100
AcDbArc
 50
67.5
 51
68.6765047128
  0
ARC
  5
3B2
330
3A0
100
AcDbEntity
  8
SLD-0_0
 62
     0
100
AcDbCircle
 10
46.5917078904
 20
-112.4823330832
 30
0.0
 40
121.7500000000003
100
AcDbArc
 50
66.3234952872
 51
67.5
  0
ARC
  5
3B3
330
3A0
100
AcDbEntity
  8
SLD-0_0
 62
     0
100
AcDbCircle
 10
46.5917078904
 20
-112.4823330832
 30
0.0
 40
121.7500000000003
100
AcDbArc
 50
24.8530094256
 51
65.1469905744
  0
ARC
  5
3B4
330
3A0
100
AcDbEntity
  8
SLD-0_0
 62
     0
100
AcDbCircle
 10
46.5917078904
 20
-112.4823330832
 30
0.0
 40
121.7500000000002
100
AcDbArc
 50
69.8530094256
 51
110.1469905744
  0
ARC
  5
3B5
330
3A0
100
AcDbEntity
  8
SLD-0_0
 62
     0
100
AcDbCircle
 10
46.5917078904
 20
-112.4823330832
 30
0.0
 40
121.7500000000002
100
AcDbArc
 50
114.8530094256
 51
155.1469905744
  0
ARC
  5
3B6
330
3A0
100
AcDbEntity
  8
SLD-0_0
 62
     0
100
AcDbCircle
 10
46.5917078904
 20
-112.4823330832
 30
0.0
 40
121.7500000000001
100
AcDbArc
 50
159.8530094256
 51
200.1469905744
  0
ARC
  5
3B7
330
3A0
100
AcDbEntity
  8
SLD-0_0
 62
     0
100
AcDbCircle
 10
46.5917078904
 20
-112.4823330832
 30
0.0
 40
121.7499999999999
100
AcDbArc
 50
204.8530094256
 51
245.1469905744
  0
ARC
  5
3B8
330
3A0
100
AcDbEntity
  8
SLD-0_0
 62
     0
100
AcDbCircle
 10
46.5917078904
 20
-112.4823330832
 30
0.0
 40
121.7499999999999
100
AcDbArc
 50
249.8530094256
 51
290.1469905744
  0
ARC
  5
3B9
330
3A0
100
AcDbEntity
  8
SLD-0_0
 62
     0
100
AcDbCircle
 10
46.5917078904
 20
-112.4823330832
 30
0.0
 40
121.7499999999999
100
AcDbArc
 50
294.8530094256
 51
335.1469905744
  0
ARC
  5
3BA
330
3A0
100
AcDbEntity
  8
SLD-0_0
 62
     0
100
AcDbCircle
 10
46.5917078904
 20
-112.4823330832
 30
0.0
 40
121.7500000000001
100
AcDbArc
 50
339.8530094256
 51
20.1469905744
  0
LINE
  5
3BB
330
3A0
100
AcDbEntity
  8
SLD-0_0
 62
     0
100
AcDbLine
 10
0.0
 20
0.0
 30
0.0
 11
-0.9567085809
 21
2.3096988313
 31
0.0
  0
LINE
  5
3BC
330
3A0
100
AcDbEntity
  8
SLD-0_0
 62
     0
100
AcDbLine
 10
0.0
 20
0.0
 30
0.0
 11
0.9567085809
 21
-2.3096988313
 31
0.0
  0
LINE
  5
3BD
330
3A0
100
AcDbEntity
  8
SLD-0_0
 62
     0
100
AcDbLine
 10
-1.9134171618
 20
4.6193976626
 30
0.0
 11
-2.2195639077
 21
5.3585012886
 31
0.0
  0
LINE
  5
3BE
330
3A0
100
AcDbEntity
  8
SLD-0_0
 62
     0
100
AcDbLine
 10
1.9134171618
 20
-4.6193976626
 30
0.0
 11
2.2195639077
 21
-5.3585012886
 31
0.0
  0
LINE
  5
3BF
330
3A0
100
AcDbEntity
  8
SLD-0_0
 62
     0
100
AcDbLine
 10
46.5917078904
 20
-112.4823330832
 30
0.0
 11
46.5917078904
 21
-109.9823330832
 31
0.0
  0
LINE
  5
3C0
330
3A0
100
AcDbEntity
  8
SLD-0_0
 62
     0
100
AcDbLine
 10
46.5917078904
 20
-112.4823330832
 30
0.0
 11
44.0917078904
 21
-112.4823330832
 31
0.0
  0
LINE
  5
3C1
330
3A0
100
AcDbEntity
  8
SLD-0_0
 62
     0
100
AcDbLine
 10
46.5917078904
 20
-112.4823330832
 30
0.0
 11
46.5917078904
 21
-114.9823330832
 31
0.0
  0
LINE
  5
3C2
330
3A0
100
AcDbEntity
  8
SLD-0_0
 62
     0
100
AcDbLine
 10
46.5917078904
 20
-112.4823330832
 30
0.0
 11
49.0917078904
 21
-112.4823330832
 31
0.0
  0
LINE
  5
3C3
330
3A0
100
AcDbEntity
  8
SLD-0_0
 62
     0
100
AcDbLine
 10
46.5917078904
 20
-107.4823330832
 30
0.0
 11
46.5917078904
 21
11.7676669168
 31
0.0
  0
LINE
  5
3C4
330
3A0
100
AcDbEntity
  8
SLD-0_0
 62
     0
100
AcDbLine
 10
41.5917078904
 20
-112.4823330832
 30
0.0
 11
-77.6582921096
 21
-112.4823330832
 31
0.0
  0
LINE
  5
3C5
330
3A0
100
AcDbEntity
  8
SLD-0_0
 62
     0
100
AcDbLine
 10
46.5917078904
 20
-117.4823330832
 30
0.0
 11
46.5917078904
 21
-236.7323330832
 31
0.0
  0
LINE
  5
3C6
330
3A0
100
AcDbEntity
  8
SLD-0_0
 62
     0
100
AcDbLine
 10
51.5917078904
 20
-112.4823330832
 30
0.0
 11
170.8417078904
 21
-112.4823330832
 31
0.0
  0
LINE
  5
3C7
330
3A0
100
AcDbEntity
  8
SLD-0_0
 62
     0
100
AcDbLine
 10
-65.8906251928
 20
-65.8906251928
 30
0.0
 11
-68.2003240241
 21
-64.9339166119
 31
0.0
  0
LINE
  5
3C8
330
3A0
100
AcDbEntity
  8
SLD-0_0
 62
     0
100
AcDbLine
 10
-65.8906251928
 20
-65.8906251928
 30
0.0
 11
-63.5809263615
 21
-66.8473337737
 31
0.0
  0
LINE
  5
3C9
330
3A0
100
AcDbEntity
  8
SLD-0_0
 62
     0
100
AcDbLine
 10
-70.5100228554
 20
-63.977208031
 30
0.0
 11
-71.2491264814
 21
-63.6710612851
 31
0.0
  0
LINE
  5
3CA
330
3A0
100
AcDbEntity
  8
SLD-0_0
 62
     0
100
AcDbLine
 10
-61.2712275302
 20
-67.8040423546
 30
0.0
 11
-60.5321239042
 21
-68.1101891005
 31
0.0
  0
LINE
  5
3CB
330
3A0
100
AcDbEntity
  8
SLD-0_0
 62
     0
100
AcDbLine
 10
-65.8906251928
 20
-159.0740409737
 30
0.0
 11
-68.2003240241
 21
-160.0307495546
 31
0.0
  0
LINE
  5
3CC
330
3A0
100
AcDbEntity
  8
SLD-0_0
 62
     0
100
AcDbLine
 10
-65.8906251928
 20
-159.0740409737
 30
0.0
 11
-63.5809263615
 21
-158.1173323928
 31
0.0
  0
LINE
  5
3CD
330
3A0
100
AcDbEntity
  8
SLD-0_0
 62
     0
100
AcDbLine
 10
-70.5100228554
 20
-160.9874581355
 30
0.0
 11
-71.2491264814
 21
-161.2936048814
 31
0.0
  0
LINE
  5
3CE
330
3A0
100
AcDbEntity
  8
SLD-0_0
 62
     0
100
AcDbLine
 10
-61.2712275302
 20
-157.1606238119
 30
0.0
 11
-60.5321239042
 21
-156.854477066
 31
0.0
  0
LINE
  5
3CF
330
3A0
100
AcDbEntity
  8
SLD-0_0
 62
     0
100
AcDbLine
 10
0.0
 20
-224.9646661665
 30
0.0
 11
-0.9567085809
 21
-227.2743649978
 31
0.0
  0
LINE
  5
3D0
330
3A0
100
AcDbEntity
  8
SLD-0_0
 62
     0
100
AcDbLine
 10
0.0
 20
-224.9646661665
 30
0.0
 11
0.9567085809
 21
-222.6549673352
 31
0.0
  0
LINE
  5
3D1
330
3A0
100
AcDbEntity
  8
SLD-0_0
 62
     0
100
AcDbLine
 10
-1.9134171618
 20
-229.5840638291
 30
0.0
 11
-2.2195639077
 21
-230.3231674551
 31
0.0
  0
LINE
  5
3D2
330
3A0
100
AcDbEntity
  8
SLD-0_0
 62
     0
100
AcDbLine
 10
1.9134171618
 20
-220.3452685039
 30
0.0
 11
2.2195639077
 21
-219.6061648779
 31
0.0
  0
LINE
  5
3D3
330
3A0
100
AcDbEntity
  8
SLD-0_0
 62
     0
100
AcDbLine
 10
93.1834157809
 20
-224.9646661665
 30
0.0
 11
94.1401243618
 21
-227.2743649978
 31
0.0
  0
LINE
  5
3D4
330
3A0
100
AcDbEntity
  8
SLD-0_0
 62
     0
100
AcDbLine
 10
93.1834157809
 20
-224.9646661665
 30
0.0
 11
92.2267072
 21
-222.6549673352
 31
0.0
  0
LINE
  5
3D5
330
3A0
100
AcDbEntity
  8
SLD-0_0
 62
     0
100
AcDbLine
 10
95.0968329427
 20
-229.5840638291
 30
0.0
 11
95.4029796886
 21
-230.3231674551
 31
0.0
  0
LINE
  5
3D6
330
3A0
100
AcDbEntity
  8
SLD-0_0
 62
     0
100
AcDbLine
 10
91.2699986191
 20
-220.3452685039
 30
0.0
 11
90.9638518732
 21
-219.6061648779
 31
0.0
  0
LINE
  5
3D7
330
3A0
100
AcDbEntity
  8
SLD-0_0
 62
     0
100
AcDbLine
 10
159.0740409737
 20
-159.0740409737
 30
0.0
 11
161.383739805
 21
-160.0307495546
 31
0.0
  0
LINE
  5
3D8
330
3A0
100
AcDbEntity
  8
SLD-0_0
 62
     0
100
AcDbLine
 10
159.0740409737
 20
-159.0740409737
 30
0.0
 11
156.7643421424
 21
-158.1173323928
 31
0.0
  0
LINE
  5
3D9
330
3A0
100
AcDbEntity
  8
SLD-0_0
 62
     0
100
AcDbLine
 10
163.6934386363
 20
-160.9874581355
 30
0.0
 11
164.4325422623
 21
-161.2936048814
 31
0.0
  0
LINE
  5
3DA
330
3A0
100
AcDbEntity
  8
SLD-0_0
 62
     0
100
AcDbLine
 10
154.4546433111
 20
-157.1606238119
 30
0.0
 11
153.7155396851
 21
-156.854477066
 31
0.0
  0
LINE
  5
3DB
330
3A0
100
AcDbEntity
  8
SLD-0_0
 62
     0
100
AcDbLine
 10
159.0740409737
 20
-65.8906251928
 30
0.0
 11
161.383739805
 21
-64.9339166119
 31
0.0
  0
LINE
  5
3DC
330
3A0
100
AcDbEntity
  8
SLD-0_0
 62
     0
100
AcDbLine
 10
159.0740409737
 20
-65.8906251928
 30
0.0
 11
156.7643421424
 21
-66.8473337737
 31
0.0
  0
LINE
  5
3DD
330
3A0
100
AcDbEntity
  8
SLD-0_0
 62
     0
100
AcDbLine
 10
163.6934386363
 20
-63.977208031
 30
0.0
 11
164.4325422623
 21
-63.6710612851
 31
0.0
  0
LINE
  5
3DE
330
3A0
100
AcDbEntity
  8
SLD-0_0
 62
     0
100
AcDbLine
 10
154.4546433111
 20
-67.8040423546
 30
0.0
 11
153.7155396851
 21
-68.1101891005
 31
0.0
  0
LINE
  5
3DF
330
3A0
100
AcDbEntity
  8
SLD-0_0
 62
     0
100
AcDbLine
 10
93.1834157809
 20
0.0
 30
0.0
 11
94.1401243618
 21
2.3096988313
 31
0.0
  0
LINE
  5
3E0
330
3A0
100
AcDbEntity
  8
SLD-0_0
 62
     0
100
AcDbLine
 10
93.1834157809
 20
0.0
 30
0.0
 11
92.2267072
 21
-2.3096988313
 31
0.0
  0
LINE
  5
3E1
330
3A0
100
AcDbEntity
  8
SLD-0_0
 62
     0
100
AcDbLine
 10
95.0968329427
 20
4.6193976626
 30
0.0
 11
95.4029796886
 21
5.3585012886
 31
0.0
  0
LINE
  5
3E2
330
3A0
100
AcDbEntity
  8
SLD-0_0
 62
     0
100
AcDbLine
 10
91.2699986191
 20
-4.6193976626
 30
0.0
 11
90.9638518732
 21
-5.3585012886
 31
0.0
  0
ENDBLK
  5
3A2
330
3A0
100
AcDbEntity
  8
0
100
AcDbBlockEnd
  0
BLOCK
  5
3E5
330
3E4
100
AcDbEntity
  8
0
100
AcDbBlockBegin
  2
SW_CENTERMARKSYMBOL_7
 70
     0
 10
0.0
 20
0.0
 30
0.0
  3
SW_CENTERMARKSYMBOL_7
  1

  0
ARC
  5
3E7
330
3E4
100
AcDbEntity
  8
SLD-0_0
 62
     0
100
AcDbCircle
 10
112.4823330832
 20
-46.5917078905
 30
0.0
 40
121.7500000000002
100
AcDbArc
 50
157.5
 51
158.6765047128
  0
ARC
  5
3E8
330
3E4
100
AcDbEntity
  8
SLD-0_0
 62
     0
100
AcDbCircle
 10
112.4823330832
 20
-46.5917078905
 30
0.0
 40
121.7500000000002
100
AcDbArc
 50
156.3234952872
 51
157.5
  0
ARC
  5
3E9
330
3E4
100
AcDbEntity
  8
SLD-0_0
 62
     0
100
AcDbCircle
 10
112.4823330832
 20
-46.5917078905
 30
0.0
 40
121.7499999999999
100
AcDbArc
 50
112.5
 51
113.6765047128
  0
ARC
  5
3EA
330
3E4
100
AcDbEntity
  8
SLD-0_0
 62
     0
100
AcDbCircle
 10
112.4823330832
 20
-46.5917078905
 30
0.0
 40
121.7499999999999
100
AcDbArc
 50
111.3234952872
 51
112.5
  0
ARC
  5
3EB
330
3E4
100
AcDbEntity
  8
SLD-0_0
 62
     0
100
AcDbCircle
 10
112.4823330832
 20
-46.5917078905
 30
0.0
 40
121.7500000000002
100
AcDbArc
 50
202.5
 51
203.6765047128
  0
ARC
  5
3EC
330
3E4
100
AcDbEntity
  8
SLD-0_0
 62
     0
100
AcDbCircle
 10
112.4823330832
 20
-46.5917078905
 30
0.0
 40
121.7500000000003
100
AcDbArc
 50
201.3234952872
 51
202.5
  0
ARC
  5
3ED
330
3E4
100
AcDbEntity
  8
SLD-0_0
 62
     0
100
AcDbCircle
 10
112.4823330832
 20
-46.5917078905
 30
0.0
 40
121.7500000000003
100
AcDbArc
 50
247.5
 51
248.6765047128
  0
ARC
  5
3EE
330
3E4
100
AcDbEntity
  8
SLD-0_0
 62
     0
100
AcDbCircle
 10
112.4823330832
 20
-46.5917078905
 30
0.0
 40
121.7500000000003
100
AcDbArc
 50
246.3234952872
 51
247.5
  0
ARC
  5
3EF
330
3E4
100
AcDbEntity
  8
SLD-0_0
 62
     0
100
AcDbCircle
 10
112.4823330832
 20
-46.5917078905
 30
0.0
 40
121.7500000000003
100
AcDbArc
 50
292.5
 51
293.6765047128
  0
ARC
  5
3F0
330
3E4
100
AcDbEntity
  8
SLD-0_0
 62
     0
100
AcDbCircle
 10
112.4823330832
 20
-46.5917078905
 30
0.0
 40
121.7500000000003
100
AcDbArc
 50
291.3234952872
 51
292.5
  0
ARC
  5
3F1
330
3E4
100
AcDbEntity
  8
SLD-0_0
 62
     0
100
AcDbCircle
 10
112.4823330832
 20
-46.5917078905
 30
0.0
 40
121.75
100
AcDbArc
 50
337.5
 51
338.6765047128
  0
ARC
  5
3F2
330
3E4
100
AcDbEntity
  8
SLD-0_0
 62
     0
100
AcDbCircle
 10
112.4823330832
 20
-46.5917078905
 30
0.0
 40
121.7500000000001
100
AcDbArc
 50
336.3234952872
 51
337.5
  0
ARC
  5
3F3
330
3E4
100
AcDbEntity
  8
SLD-0_0
 62
     0
100
AcDbCircle
 10
112.4823330832
 20
-46.5917078905
 30
0.0
 40
121.75
100
AcDbArc
 50
22.5
 51
23.6765047128
  0
ARC
  5
3F4
330
3E4
100
AcDbEntity
  8
SLD-0_0
 62
     0
100
AcDbCircle
 10
112.4823330832
 20
-46.5917078905
 30
0.0
 40
121.75
100
AcDbArc
 50
21.3234952872
 51
22.5
  0
ARC
  5
3F5
330
3E4
100
AcDbEntity
  8
SLD-0_0
 62
     0
100
AcDbCircle
 10
112.4823330832
 20
-46.5917078905
 30
0.0
 40
121.7499999999999
100
AcDbArc
 50
67.5
 51
68.6765047128
  0
ARC
  5
3F6
330
3E4
100
AcDbEntity
  8
SLD-0_0
 62
     0
100
AcDbCircle
 10
112.4823330832
 20
-46.5917078905
 30
0.0
 40
121.7499999999999
100
AcDbArc
 50
66.3234952872
 51
67.5
  0
ARC
  5
3F7
330
3E4
100
AcDbEntity
  8
SLD-0_0
 62
     0
100
AcDbCircle
 10
112.4823330832
 20
-46.5917078905
 30
0.0
 40
121.75
100
AcDbArc
 50
24.8530094256
 51
65.1469905744
  0
ARC
  5
3F8
330
3E4
100
AcDbEntity
  8
SLD-0_0
 62
     0
100
AcDbCircle
 10
112.4823330832
 20
-46.5917078905
 30
0.0
 40
121.75
100
AcDbArc
 50
69.8530094256
 51
110.1469905744
  0
ARC
  5
3F9
330
3E4
100
AcDbEntity
  8
SLD-0_0
 62
     0
100
AcDbCircle
 10
112.4823330832
 20
-46.5917078905
 30
0.0
 40
121.75
100
AcDbArc
 50
114.8530094256
 51
155.1469905744
  0
ARC
  5
3FA
330
3E4
100
AcDbEntity
  8
SLD-0_0
 62
     0
100
AcDbCircle
 10
112.4823330832
 20
-46.5917078905
 30
0.0
 40
121.7500000000002
100
AcDbArc
 50
159.8530094256
 51
200.1469905744
  0
ARC
  5
3FB
330
3E4
100
AcDbEntity
  8
SLD-0_0
 62
     0
100
AcDbCircle
 10
112.4823330832
 20
-46.5917078905
 30
0.0
 40
121.7500000000002
100
AcDbArc
 50
204.8530094256
 51
245.1469905744
  0
ARC
  5
3FC
330
3E4
100
AcDbEntity
  8
SLD-0_0
 62
     0
100
AcDbCircle
 10
112.4823330832
 20
-46.5917078905
 30
0.0
 40
121.7500000000003
100
AcDbArc
 50
249.8530094256
 51
290.1469905744
  0
ARC
  5
3FD
330
3E4
100
AcDbEntity
  8
SLD-0_0
 62
     0
100
AcDbCircle
 10
112.4823330832
 20
-46.5917078905
 30
0.0
 40
121.7500000000001
100
AcDbArc
 50
294.8530094256
 51
335.1469905744
  0
ARC
  5
3FE
330
3E4
100
AcDbEntity
  8
SLD-0_0
 62
     0
100
AcDbCircle
 10
112.4823330832
 20
-46.5917078905
 30
0.0
 40
121.75
100
AcDbArc
 50
339.8530094256
 51
20.1469905744
  0
LINE
  5
3FF
330
3E4
100
AcDbEntity
  8
SLD-0_0
 62
     0
100
AcDbLine
 10
0.0
 20
0.0
 30
0.0
 11
-2.3096988313
 21
0.9567085809
 31
0.0
  0
LINE
  5
400
330
3E4
100
AcDbEntity
  8
SLD-0_0
 62
     0
100
AcDbLine
 10
0.0
 20
0.0
 30
0.0
 11
2.3096988313
 21
-0.9567085809
 31
0.0
  0
LINE
  5
401
330
3E4
100
AcDbEntity
  8
SLD-0_0
 62
     0
100
AcDbLine
 10
-4.6193976626
 20
1.9134171618
 30
0.0
 11
-5.3585012886
 21
2.2195639077
 31
0.0
  0
LINE
  5
402
330
3E4
100
AcDbEntity
  8
SLD-0_0
 62
     0
100
AcDbLine
 10
4.6193976626
 20
-1.9134171618
 30
0.0
 11
5.3585012886
 21
-2.2195639077
 31
0.0
  0
LINE
  5
403
330
3E4
100
AcDbEntity
  8
SLD-0_0
 62
     0
100
AcDbLine
 10
112.4823330832
 20
-46.5917078905
 30
0.0
 11
112.4823330832
 21
-44.0917078905
 31
0.0
  0
LINE
  5
404
330
3E4
100
AcDbEntity
  8
SLD-0_0
 62
     0
100
AcDbLine
 10
112.4823330832
 20
-46.5917078905
 30
0.0
 11
109.9823330832
 21
-46.5917078905
 31
0.0
  0
LINE
  5
405
330
3E4
100
AcDbEntity
  8
SLD-0_0
 62
     0
100
AcDbLine
 10
112.4823330832
 20
-46.5917078905
 30
0.0
 11
112.4823330832
 21
-49.0917078905
 31
0.0
  0
LINE
  5
406
330
3E4
100
AcDbEntity
  8
SLD-0_0
 62
     0
100
AcDbLine
 10
112.4823330832
 20
-46.5917078905
 30
0.0
 11
114.9823330832
 21
-46.5917078905
 31
0.0
  0
LINE
  5
407
330
3E4
100
AcDbEntity
  8
SLD-0_0
 62
     0
100
AcDbLine
 10
112.4823330832
 20
-41.5917078905
 30
0.0
 11
112.4823330832
 21
77.6582921095
 31
0.0
  0
LINE
  5
408
330
3E4
100
AcDbEntity
  8
SLD-0_0
 62
     0
100
AcDbLine
 10
107.4823330832
 20
-46.5917078905
 30
0.0
 11
-11.7676669168
 21
-46.5917078905
 31
0.0
  0
LINE
  5
409
330
3E4
100
AcDbEntity
  8
SLD-0_0
 62
     0
100
AcDbLine
 10
112.4823330832
 20
-51.5917078905
 30
0.0
 11
112.4823330832
 21
-170.8417078905
 31
0.0
  0
LINE
  5
40A
330
3E4
100
AcDbEntity
  8
SLD-0_0
 62
     0
100
AcDbLine
 10
117.4823330832
 20
-46.5917078905
 30
0.0
 11
236.7323330832
 21
-46.5917078905
 31
0.0
  0
LINE
  5
40B
330
3E4
100
AcDbEntity
  8
SLD-0_0
 62
     0
100
AcDbLine
 10
65.8906251928
 20
65.8906251928
 30
0.0
 11
64.9339166119
 21
68.2003240241
 31
0.0
  0
LINE
  5
40C
330
3E4
100
AcDbEntity
  8
SLD-0_0
 62
     0
100
AcDbLine
 10
65.8906251928
 20
65.8906251928
 30
0.0
 11
66.8473337737
 21
63.5809263615
 31
0.0
  0
LINE
  5
40D
330
3E4
100
AcDbEntity
  8
SLD-0_0
 62
     0
100
AcDbLine
 10
63.977208031
 20
70.5100228554
 30
0.0
 11
63.6710612851
 21
71.2491264814
 31
0.0
  0
LINE
  5
40E
330
3E4
100
AcDbEntity
  8
SLD-0_0
 62
     0
100
AcDbLine
 10
67.8040423546
 20
61.2712275302
 30
0.0
 11
68.1101891005
 21
60.5321239042
 31
0.0
  0
LINE
  5
40F
330
3E4
100
AcDbEntity
  8
SLD-0_0
 62
     0
100
AcDbLine
 10
0.0
 20
-93.1834157809
 30
0.0
 11
-2.3096988313
 21
-94.1401243618
 31
0.0
  0
LINE
  5
410
330
3E4
100
AcDbEntity
  8
SLD-0_0
 62
     0
100
AcDbLine
 10
0.0
 20
-93.1834157809
 30
0.0
 11
2.3096988313
 21
-92.2267072
 31
0.0
  0
LINE
  5
411
330
3E4
100
AcDbEntity
  8
SLD-0_0
 62
     0
100
AcDbLine
 10
-4.6193976626
 20
-95.0968329427
 30
0.0
 11
-5.3585012886
 21
-95.4029796886
 31
0.0
  0
LINE
  5
412
330
3E4
100
AcDbEntity
  8
SLD-0_0
 62
     0
100
AcDbLine
 10
4.6193976626
 20
-91.2699986191
 30
0.0
 11
5.3585012886
 21
-90.9638518732
 31
0.0
  0
LINE
  5
413
330
3E4
100
AcDbEntity
  8
SLD-0_0
 62
     0
100
AcDbLine
 10
65.8906251928
 20
-159.0740409737
 30
0.0
 11
64.9339166119
 21
-161.383739805
 31
0.0
  0
LINE
  5
414
330
3E4
100
AcDbEntity
  8
SLD-0_0
 62
     0
100
AcDbLine
 10
65.8906251928
 20
-159.0740409737
 30
0.0
 11
66.8473337737
 21
-156.7643421424
 31
0.0
  0
LINE
  5
415
330
3E4
100
AcDbEntity
  8
SLD-0_0
 62
     0
100
AcDbLine
 10
63.977208031
 20
-163.6934386363
 30
0.0
 11
63.6710612851
 21
-164.4325422623
 31
0.0
  0
LINE
  5
416
330
3E4
100
AcDbEntity
  8
SLD-0_0
 62
     0
100
AcDbLine
 10
67.8040423546
 20
-154.4546433111
 30
0.0
 11
68.1101891005
 21
-153.7155396851
 31
0.0
  0
LINE
  5
417
330
3E4
100
AcDbEntity
  8
SLD-0_0
 62
     0
100
AcDbLine
 10
159.0740409737
 20
-159.0740409737
 30
0.0
 11
160.0307495546
 21
-161.383739805
 31
0.0
  0
LINE
  5
418
330
3E4
100
AcDbEntity
  8
SLD-0_0
 62
     0
100
AcDbLine
 10
159.0740409737
 20
-159.0740409737
 30
0.0
 11
158.1173323928
 21
-156.7643421424
 31
0.0
  0
LINE
  5
419
330
3E4
100
AcDbEntity
  8
SLD-0_0
 62
     0
100
AcDbLine
 10
160.9874581355
 20
-163.6934386363
 30
0.0
 11
161.2936048814
 21
-164.4325422623
 31
0.0
  0
LINE
  5
41A
330
3E4
100
AcDbEntity
  8
SLD-0_0
 62
     0
100
AcDbLine
 10
157.1606238119
 20
-154.4546433111
 30
0.0
 11
156.854477066
 21
-153.7155396851
 31
0.0
  0
LINE
  5
41B
330
3E4
100
AcDbEntity
  8
SLD-0_0
 62
     0
100
AcDbLine
 10
224.9646661665
 20
-93.1834157809
 30
0.0
 11
227.2743649978
 21
-94.1401243618
 31
0.0
  0
LINE
  5
41C
330
3E4
100
AcDbEntity
  8
SLD-0_0
 62
     0
100
AcDbLine
 10
224.9646661665
 20
-93.1834157809
 30
0.0
 11
222.6549673352
 21
-92.2267072
 31
0.0
  0
LINE
  5
41D
330
3E4
100
AcDbEntity
  8
SLD-0_0
 62
     0
100
AcDbLine
 10
229.5840638291
 20
-95.0968329427
 30
0.0
 11
230.3231674551
 21
-95.4029796886
 31
0.0
  0
LINE
  5
41E
330
3E4
100
AcDbEntity
  8
SLD-0_0
 62
     0
100
AcDbLine
 10
220.3452685039
 20
-91.2699986191
 30
0.0
 11
219.6061648779
 21
-90.9638518732
 31
0.0
  0
LINE
  5
41F
330
3E4
100
AcDbEntity
  8
SLD-0_0
 62
     0
100
AcDbLine
 10
224.9646661665
 20
0.0
 30
0.0
 11
227.2743649978
 21
0.9567085809
 31
0.0
  0
LINE
  5
420
330
3E4
100
AcDbEntity
  8
SLD-0_0
 62
     0
100
AcDbLine
 10
224.9646661665
 20
0.0
 30
0.0
 11
222.6549673352
 21
-0.9567085809
 31
0.0
  0
LINE
  5
421
330
3E4
100
AcDbEntity
  8
SLD-0_0
 62
     0
100
AcDbLine
 10
229.5840638291
 20
1.9134171618
 30
0.0
 11
230.3231674551
 21
2.2195639077
 31
0.0
  0
LINE
  5
422
330
3E4
100
AcDbEntity
  8
SLD-0_0
 62
     0
100
AcDbLine
 10
220.3452685039
 20
-1.9134171618
 30
0.0
 11
219.6061648779
 21
-2.2195639077
 31
0.0
  0
LINE
  5
423
330
3E4
100
AcDbEntity
  8
SLD-0_0
 62
     0
100
AcDbLine
 10
159.0740409737
 20
65.8906251928
 30
0.0
 11
160.0307495546
 21
68.2003240241
 31
0.0
  0
LINE
  5
424
330
3E4
100
AcDbEntity
  8
SLD-0_0
 62
     0
100
AcDbLine
 10
159.0740409737
 20
65.8906251928
 30
0.0
 11
158.1173323928
 21
63.5809263615
 31
0.0
  0
LINE
  5
425
330
3E4
100
AcDbEntity
  8
SLD-0_0
 62
     0
100
AcDbLine
 10
160.9874581355
 20
70.5100228554
 30
0.0
 11
161.2936048814
 21
71.2491264814
 31
0.0
  0
LINE
  5
426
330
3E4
100
AcDbEntity
  8
SLD-0_0
 62
     0
100
AcDbLine
 10
157.1606238119
 20
61.2712275302
 30
0.0
 11
156.854477066
 21
60.5321239042
 31
0.0
  0
ENDBLK
  5
3E6
330
3E4
100
AcDbEntity
  8
0
100
AcDbBlockEnd
  0
BLOCK
  5
42E
330
42D
100
AcDbEntity
  8
0
100
AcDbBlockBegin
  2
_D_20
 70
     0
 10
0.0
 20
0.0
 30
0.0
  3
_D_20
  1

  0
SOLID
  5
430
330
42D
100
AcDbEntity
  8
SLD-0_0
 62
     7
100
AcDbTrace
 10
1174.1514098968
 20
509.7740215162
 30
0.0
 11
1183.3973571624
 21
508.3515680908
 31
0.0
 12
1183.3973571624
 22
511.1964749417
 32
0.0
 13
1183.3973571624
 23
511.1964749417
 33
0.0
  0
SOLID
  5
431
330
42D
100
AcDbEntity
  8
SLD-0_0
 62
     7
100
AcDbTrace
 10
1644.1514098968
 20
509.7740215162
 30
0.0
 11
1634.9054626312
 21
511.1964749417
 31
0.0
 12
1634.9054626312
 22
508.3515680908
 32
0.0
 13
1634.9054626312
 23
508.3515680908
 33
0.0
  0
LINE
  5
432
330
42D
100
AcDbEntity
  8
SLD-0_0
 62
     7
100
AcDbLine
 10
1174.1514098968
 20
552.5116546027
 30
0.0
 11
1174.1514098968
 21
508.7740215162
 31
0.0
  0
LINE
  5
433
330
42D
100
AcDbEntity
  8
SLD-0_0
 62
     7
100
AcDbLine
 10
1644.1514098968
 20
552.5116546027
 30
0.0
 11
1644.1514098968
 21
508.7740215162
 31
0.0
  0
LINE
  5
434
330
42D
100
AcDbEntity
  8
SLD-0_0
 62
     7
100
AcDbLine
 10
1174.1514098968
 20
509.7740215162
 30
0.0
 11
1644.1514098968
 21
509.7740215162
 31
0.0
  0
MTEXT
  5
435
330
42D
100
AcDbEntity
  8
SLD-0_0
 62
     7
100
AcDbMText
 10
1396.2476019499
 20
522.0523919704
 30
0.0
 40
9.525
 41
0.0
 71
     1
 72
     1
  1
470
  7
SLDTEXTSTYLE0
 73
     1
 44
1.0
  0
ENDBLK
  5
42F
330
42D
100
AcDbEntity
  8
0
100
AcDbBlockEnd
  0
BLOCK
  5
438
330
437
100
AcDbEntity
  8
0
100
AcDbBlockBegin
  2
_D_21
 70
     0
 10
0.0
 20
0.0
 30
0.0
  3
_D_21
  1

  0
SOLID
  5
43A
330
437
100
AcDbEntity
  8
SLD-0_0
 62
     7
100
AcDbTrace
 10
1689.1514098968
 20
553.5116546027
 30
0.0
 11
1690.5738633223
 21
562.7576018683
 31
0.0
 12
1687.7289564713
 22
562.7576018683
 32
0.0
 13
1687.7289564713
 23
562.7576018683
 33
0.0
  0
SOLID
  5
43B
330
437
100
AcDbEntity
  8
SLD-0_0
 62
     7
100
AcDbTrace
 10
1689.1514098968
 20
863.5116546027
 30
0.0
 11
1687.7289564713
 21
854.2657073371
 31
0.0
 12
1690.5738633223
 22
854.2657073371
 32
0.0
 13
1690.5738633223
 23
854.2657073371
 33
0.0
  0
LINE
  5
43C
330
437
100
AcDbEntity
  8
SLD-0_0
 62
     7
100
AcDbLine
 10
1645.1514098968
 20
553.5116546027
 30
0.0
 11
1690.1514098968
 21
553.5116546027
 31
0.0
  0
LINE
  5
43D
330
437
100
AcDbEntity
  8
SLD-0_0
 62
     7
100
AcDbLine
 10
1645.1514098968
 20
863.5116546027
 30
0.0
 11
1690.1514098968
 21
863.5116546027
 31
0.0
  0
LINE
  5
43E
330
437
100
AcDbEntity
  8
SLD-0_0
 62
     7
100
AcDbLine
 10
1689.1514098968
 20
553.5116546027
 30
0.0
 11
1689.1514098968
 21
863.5116546027
 31
0.0
  0
MTEXT
  5
43F
330
437
100
AcDbEntity
  8
SLD-0_0
 62
     7
100
AcDbMText
 10
1676.8730394427
 20
697.0708551381
 30
0.0
 40
9.525
 41
0.0
 71
     1
 72
     1
  1
310
  7
SLDTEXTSTYLE0
 11
-1.608122649676637E-16
 21
1.0
 31
0.0
 73
     1
 44
1.0
  0
ENDBLK
  5
439
330
437
100
AcDbEntity
  8
0
100
AcDbBlockEnd
  0
BLOCK
  5
446
330
445
100
AcDbEntity
  8
0
100
AcDbBlockBegin
  2
_D_22
 70
     0
 10
0.0
 20
0.0
 30
0.0
  3
_D_22
  1

  0
SOLID
  5
448
330
445
100
AcDbEntity
  8
SLD-0_0
 62
     7
100
AcDbTrace
 10
2215.5595279061
 20
1603.3581835201
 30
0.0
 11
2214.1370744806
 21
1594.1122362545
 31
0.0
 12
2216.9819813316
 22
1594.1122362545
 32
0.0
 13
2216.9819813316
 23
1594.1122362545
 33
0.0
  0
SOLID
  5
449
330
445
100
AcDbEntity
  8
SLD-0_0
 62
     7
100
AcDbTrace
 10
2215.5595279061
 20
1113.3581835201
 30
0.0
 11
2216.9819813316
 21
1122.6041307858
 31
0.0
 12
2214.1370744806
 22
1122.6041307858
 32
0.0
 13
2214.1370744806
 23
1122.6041307858
 33
0.0
  0
LINE
  5
44A
330
445
100
AcDbEntity
  8
SLD-0_0
 62
     7
100
AcDbLine
 10
2171.5595279061
 20
1603.3581835201
 30
0.0
 11
2216.5595279061
 21
1603.3581835201
 31
0.0
  0
LINE
  5
44B
330
445
100
AcDbEntity
  8
SLD-0_0
 62
     7
100
AcDbLine
 10
2171.5595279061
 20
1113.3581835201
 30
0.0
 11
2216.5595279061
 21
1113.3581835201
 31
0.0
  0
LINE
  5
44C
330
445
100
AcDbEntity
  8
SLD-0_0
 62
     7
100
AcDbLine
 10
2215.5595279061
 20
1603.3581835201
 30
0.0
 11
2215.5595279061
 21
1113.3581835201
 31
0.0
  0
MTEXT
  5
44D
330
445
100
AcDbEntity
  8
SLD-0_0
 62
     7
100
AcDbMText
 10
2203.2811574519
 20
1334.4348708165
 30
0.0
 40
9.525
 41
0.0
 71
     1
 72
     1
  1
490
  7
SLDTEXTSTYLE0
 11
-1.059690869644414E-14
 21
1.0
 31
0.0
 73
     1
 44
1.0
  0
ENDBLK
  5
447
330
445
100
AcDbEntity
  8
0
100
AcDbBlockEnd
  0
BLOCK
  5
450
330
44F
100
AcDbEntity
  8
0
100
AcDbBlockBegin
  2
_D_23
 70
     0
 10
0.0
 20
0.0
 30
0.0
  3
_D_23
  1

  0
SOLID
  5
452
330
44F
100
AcDbEntity
  8
SLD-0_0
 62
     7
100
AcDbTrace
 10
1860.5595279061
 20
1086.0973130691
 30
0.0
 11
1869.8054751717
 21
1084.6748596437
 31
0.0
 12
1869.8054751717
 22
1087.5197664946
 32
0.0
 13
1869.8054751717
 23
1087.5197664946
 33
0.0
  0
SOLID
  5
453
330
44F
100
AcDbEntity
  8
SLD-0_0
 62
     7
100
AcDbTrace
 10
2170.5595279061
 20
1086.0973130691
 30
0.0
 11
2161.3135806405
 21
1087.5197664946
 31
0.0
 12
2161.3135806405
 22
1084.6748596437
 32
0.0
 13
2161.3135806405
 23
1084.6748596437
 33
0.0
  0
LINE
  5
454
330
44F
100
AcDbEntity
  8
SLD-0_0
 62
     7
100
AcDbLine
 10
1860.5595279061
 20
1112.3581835201
 30
0.0
 11
1860.5595279061
 21
1085.0973130691
 31
0.0
  0
LINE
  5
455
330
44F
100
AcDbEntity
  8
SLD-0_0
 62
     7
100
AcDbLine
 10
2170.5595279061
 20
1112.3581835201
 30
0.0
 11
2170.5595279061
 21
1085.0973130691
 31
0.0
  0
LINE
  5
456
330
44F
100
AcDbEntity
  8
SLD-0_0
 62
     7
100
AcDbLine
 10
1860.5595279061
 20
1086.0973130691
 30
0.0
 11
2170.5595279061
 21
1086.0973130691
 31
0.0
  0
MTEXT
  5
457
330
44F
100
AcDbEntity
  8
SLD-0_0
 62
     7
100
AcDbMText
 10
2006.8157029803
 20
1098.3756835233
 30
0.0
 40
9.525
 41
0.0
 71
     1
 72
     1
  1
310
  7
SLDTEXTSTYLE0
 73
     1
 44
1.0
  0
ENDBLK
  5
451
330
44F
100
AcDbEntity
  8
0
100
AcDbBlockEnd
  0
BLOCK
  5
45E
330
45D
100
AcDbEntity
  8
0
100
AcDbBlockBegin
  2
_D_24
 70
     0
 10
0.0
 20
0.0
 30
0.0
  3
_D_24
  1

  0
SOLID
  5
460
330
45D
100
AcDbEntity
  8
SLD-0_0
 62
     7
100
AcDbTrace
 10
2772.7234249064
 20
1089.3581835201
 30
0.0
 11
2763.4774776408
 21
1090.7806369456
 31
0.0
 12
2763.4774776408
 22
1087.9357300947
 32
0.0
 13
2763.4774776408
 23
1087.9357300947
 33
0.0
  0
SOLID
  5
461
330
45D
100
AcDbEntity
  8
SLD-0_0
 62
     7
100
AcDbTrace
 10
2332.7234249064
 20
1089.3581835201
 30
0.0
 11
2341.9693721721
 21
1087.9357300947
 31
0.0
 12
2341.9693721721
 22
1090.7806369456
 32
0.0
 13
2341.9693721721
 23
1090.7806369456
 33
0.0
  0
LINE
  5
462
330
45D
100
AcDbEntity
  8
SLD-0_0
 62
     7
100
AcDbLine
 10
2772.7234249064
 20
1112.3581835201
 30
0.0
 11
2772.7234249064
 21
1088.3581835201
 31
0.0
  0
LINE
  5
463
330
45D
100
AcDbEntity
  8
SLD-0_0
 62
     7
100
AcDbLine
 10
2332.7234249064
 20
1112.3581835201
 30
0.0
 11
2332.7234249064
 21
1088.3581835201
 31
0.0
  0
LINE
  5
464
330
45D
100
AcDbEntity
  8
SLD-0_0
 62
     7
100
AcDbLine
 10
2772.7234249064
 20
1089.3581835201
 30
0.0
 11
2332.7234249064
 21
1089.3581835201
 31
0.0
  0
MTEXT
  5
465
330
45D
100
AcDbEntity
  8
SLD-0_0
 62
     7
100
AcDbMText
 10
2540.898696347
 20
1101.6365539743
 30
0.0
 40
9.525
 41
0.0
 71
     1
 72
     1
  1
440
  7
SLDTEXTSTYLE0
 73
     1
 44
1.0
  0
ENDBLK
  5
45F
330
45D
100
AcDbEntity
  8
0
100
AcDbBlockEnd
  0
BLOCK
  5
468
330
467
100
AcDbEntity
  8
0
100
AcDbBlockBegin
  2
_D_25
 70
     0
 10
0.0
 20
0.0
 30
0.0
  3
_D_25
  1

  0
SOLID
  5
46A
330
467
100
AcDbEntity
  8
SLD-0_0
 62
     7
100
AcDbTrace
 10
2803.0906455799
 20
1113.3581835201
 30
0.0
 11
2804.5130990054
 21
1122.6041307858
 31
0.0
 12
2801.6681921544
 22
1122.6041307858
 32
0.0
 13
2801.6681921544
 23
1122.6041307858
 33
0.0
  0
SOLID
  5
46B
330
467
100
AcDbEntity
  8
SLD-0_0
 62
     7
100
AcDbTrace
 10
2803.0906455799
 20
1603.3581835201
 30
0.0
 11
2801.6681921544
 21
1594.1122362545
 31
0.0
 12
2804.5130990054
 22
1594.1122362545
 32
0.0
 13
2804.5130990054
 23
1594.1122362545
 33
0.0
  0
LINE
  5
46C
330
467
100
AcDbEntity
  8
SLD-0_0
 62
     7
100
AcDbLine
 10
2773.7234249064
 20
1113.3581835201
 30
0.0
 11
2804.0906455799
 21
1113.3581835201
 31
0.0
  0
LINE
  5
46D
330
467
100
AcDbEntity
  8
SLD-0_0
 62
     7
100
AcDbLine
 10
2773.7234249064
 20
1603.3581835201
 30
0.0
 11
2804.0906455799
 21
1603.3581835201
 31
0.0
  0
LINE
  5
46E
330
467
100
AcDbEntity
  8
SLD-0_0
 62
     7
100
AcDbLine
 10
2803.0906455799
 20
1113.3581835201
 30
0.0
 11
2803.0906455799
 21
1603.3581835201
 31
0.0
  0
MTEXT
  5
46F
330
467
100
AcDbEntity
  8
SLD-0_0
 62
     7
100
AcDbMText
 10
2790.8122751257
 20
1342.0796309384
 30
0.0
 40
9.525
 41
0.0
 71
     1
 72
     1
  1
490
  7
SLDTEXTSTYLE0
 11
-1.608122649676637E-16
 21
1.0
 31
0.0
 73
     1
 44
1.0
  0
ENDBLK
  5
469
330
467
100
AcDbEntity
  8
0
100
AcDbBlockEnd
  0
BLOCK
  5
482
330
481
100
AcDbEntity
  8
0
100
AcDbBlockBegin
  2
_D_26
 70
     0
 10
0.0
 20
0.0
 30
0.0
  3
_D_26
  1

  0
SOLID
  5
484
330
481
100
AcDbEntity
  8
SLD-0_0
 62
     7
100
AcDbTrace
 10
2373.0404786961
 20
857.5116546027
 30
0.0
 11
2363.7945314304
 21
858.9341080282
 31
0.0
 12
2363.7945314304
 22
856.0892011772
 32
0.0
 13
2363.7945314304
 23
856.0892011772
 33
0.0
  0
SOLID
  5
485
330
481
100
AcDbEntity
  8
SLD-0_0
 62
     7
100
AcDbTrace
 10
1883.0404786961
 20
857.5116546027
 30
0.0
 11
1892.2864259617
 21
856.0892011772
 31
0.0
 12
1892.2864259617
 22
858.9341080282
 32
0.0
 13
1892.2864259617
 23
858.9341080282
 33
0.0
  0
LINE
  5
486
330
481
100
AcDbEntity
  8
SLD-0_0
 62
     7
100
AcDbLine
 10
2373.0404786961
 20
834.5116546027
 30
0.0
 11
2373.0404786961
 21
858.5116546027
 31
0.0
  0
LINE
  5
487
330
481
100
AcDbEntity
  8
SLD-0_0
 62
     7
100
AcDbLine
 10
1883.0404786961
 20
834.5116546027
 30
0.0
 11
1883.0404786961
 21
858.5116546027
 31
0.0
  0
LINE
  5
488
330
481
100
AcDbEntity
  8
SLD-0_0
 62
     7
100
AcDbLine
 10
2373.0404786961
 20
857.5116546027
 30
0.0
 11
1883.0404786961
 21
857.5116546027
 31
0.0
  0
MTEXT
  5
489
330
481
100
AcDbEntity
  8
SLD-0_0
 62
     7
100
AcDbMText
 10
2117.457145025
 20
869.7900250569
 30
0.0
 40
9.525
 41
0.0
 71
     1
 72
     1
  1
490
  7
SLDTEXTSTYLE0
 73
     1
 44
1.0
  0
ENDBLK
  5
483
330
481
100
AcDbEntity
  8
0
100
AcDbBlockEnd
  0
BLOCK
  5
48C
330
48B
100
AcDbEntity
  8
0
100
AcDbBlockBegin
  2
_D_27
 70
     0
 10
0.0
 20
0.0
 30
0.0
  3
_D_27
  1

  0
SOLID
  5
48E
330
48B
100
AcDbEntity
  8
SLD-0_0
 62
     7
100
AcDbTrace
 10
2397.0404786961
 20
583.5116546027
 30
0.0
 11
2398.4629321215
 21
592.7576018683
 31
0.0
 12
2395.6180252706
 22
592.7576018683
 32
0.0
 13
2395.6180252706
 23
592.7576018683
 33
0.0
  0
SOLID
  5
48F
330
48B
100
AcDbEntity
  8
SLD-0_0
 62
     7
100
AcDbTrace
 10
2397.0404786961
 20
833.5116546027
 30
0.0
 11
2395.6180252706
 21
824.2657073371
 31
0.0
 12
2398.4629321215
 22
824.2657073371
 32
0.0
 13
2398.4629321215
 23
824.2657073371
 33
0.0
  0
LINE
  5
490
330
48B
100
AcDbEntity
  8
SLD-0_0
 62
     7
100
AcDbLine
 10
2374.0404786961
 20
583.5116546027
 30
0.0
 11
2398.0404786961
 21
583.5116546027
 31
0.0
  0
LINE
  5
491
330
48B
100
AcDbEntity
  8
SLD-0_0
 62
     7
100
AcDbLine
 10
2374.0404786961
 20
833.5116546027
 30
0.0
 11
2398.0404786961
 21
833.5116546027
 31
0.0
  0
LINE
  5
492
330
48B
100
AcDbEntity
  8
SLD-0_0
 62
     7
100
AcDbLine
 10
2397.0404786961
 20
583.5116546027
 30
0.0
 11
2397.0404786961
 21
833.5116546027
 31
0.0
  0
MTEXT
  5
493
330
48B
100
AcDbEntity
  8
SLD-0_0
 62
     7
100
AcDbMText
 10
2384.7621082419
 20
698.6214855614
 30
0.0
 40
9.525
 41
0.0
 71
     1
 72
     1
  1
250
  7
SLDTEXTSTYLE0
 11
6.123233995736766E-17
 21
1.0
 31
0.0
 73
     1
 44
1.0
  0
ENDBLK
  5
48D
330
48B
100
AcDbEntity
  8
0
100
AcDbBlockEnd
  0
BLOCK
  5
497
330
496
100
AcDbEntity
  8
0
100
AcDbBlockBegin
  2
_D_28
 70
     0
 10
0.0
 20
0.0
 30
0.0
  3
_D_28
  1

  0
SOLID
  5
499
330
496
100
AcDbEntity
  8
SLD-0_0
 62
     7
100
AcDbTrace
 10
2113.0404786961
 20
566.5116546027
 30
0.0
 11
2103.7945314304
 21
567.9341080282
 31
0.0
 12
2103.7945314304
 22
565.0892011772
 32
0.0
 13
2103.7945314304
 23
565.0892011772
 33
0.0
  0
SOLID
  5
49A
330
496
100
AcDbEntity
  8
SLD-0_0
 62
     7
100
AcDbTrace
 10
2143.0404786961
 20
566.5116546027
 30
0.0
 11
2152.2864259617
 21
565.0892011772
 31
0.0
 12
2152.2864259617
 22
567.9341080282
 32
0.0
 13
2152.2864259617
 23
567.9341080282
 33
0.0
  0
LINE
  5
49B
330
496
100
AcDbEntity
  8
SLD-0_0
 62
     7
100
AcDbLine
 10
2113.0404786961
 20
582.5116546027
 30
0.0
 11
2113.0404786961
 21
565.5116546027
 31
0.0
  0
LINE
  5
49C
330
496
100
AcDbEntity
  8
SLD-0_0
 62
     7
100
AcDbLine
 10
2143.0404786961
 20
582.5116546027
 30
0.0
 11
2143.0404786961
 21
565.5116546027
 31
0.0
  0
LINE
  5
49D
330
496
100
AcDbEntity
  8
SLD-0_0
 62
     7
100
AcDbLine
 10
2113.0404786961
 20
566.5116546027
 30
0.0
 11
2095.2598108776
 21
566.5116546027
 31
0.0
  0
LINE
  5
49E
330
496
100
AcDbEntity
  8
SLD-0_0
 62
     7
100
AcDbLine
 10
2113.0404786961
 20
566.5116546027
 30
0.0
 11
2143.0404786961
 21
566.5116546027
 31
0.0
  0
LINE
  5
49F
330
496
100
AcDbEntity
  8
SLD-0_0
 62
     7
100
AcDbLine
 10
2143.0404786961
 20
566.5116546027
 30
0.0
 11
2160.8211465146
 21
566.5116546027
 31
0.0
  0
MTEXT
  5
4A0
330
496
100
AcDbEntity
  8
SLD-0_0
 62
     7
100
AcDbMText
 10
2120.9849232258
 20
578.7900250569
 30
0.0
 40
9.525
 41
0.0
 71
     1
 72
     1
  1
30
  7
SLDTEXTSTYLE0
 73
     1
 44
1.0
  0
ENDBLK
  5
498
330
496
100
AcDbEntity
  8
0
100
AcDbBlockEnd
  0
BLOCK
  5
4A3
330
4A2
100
AcDbEntity
  8
0
100
AcDbBlockBegin
  2
_D_29
 70
     0
 10
0.0
 20
0.0
 30
0.0
  3
_D_29
  1

  0
SOLID
  5
4A5
330
4A2
100
AcDbEntity
  8
SLD-0_0
 62
     7
100
AcDbTrace
 10
2338.0404786961
 20
566.5116546027
 30
0.0
 11
2328.7945314304
 21
567.9341080282
 31
0.0
 12
2328.7945314304
 22
565.0892011772
 32
0.0
 13
2328.7945314304
 23
565.0892011772
 33
0.0
  0
SOLID
  5
4A6
330
4A2
100
AcDbEntity
  8
SLD-0_0
 62
     7
100
AcDbTrace
 10
2373.0404786961
 20
566.5116546027
 30
0.0
 11
2382.2864259617
 21
565.0892011772
 31
0.0
 12
2382.2864259617
 22
567.9341080282
 32
0.0
 13
2382.2864259617
 23
567.9341080282
 33
0.0
  0
LINE
  5
4A7
330
4A2
100
AcDbEntity
  8
SLD-0_0
 62
     7
100
AcDbLine
 10
2338.0404786961
 20
582.5116546027
 30
0.0
 11
2338.0404786961
 21
565.5116546027
 31
0.0
  0
LINE
  5
4A8
330
4A2
100
AcDbEntity
  8
SLD-0_0
 62
     7
100
AcDbLine
 10
2373.0404786961
 20
582.5116546027
 30
0.0
 11
2373.0404786961
 21
565.5116546027
 31
0.0
  0
LINE
  5
4A9
330
4A2
100
AcDbEntity
  8
SLD-0_0
 62
     7
100
AcDbLine
 10
2338.0404786961
 20
566.5116546027
 30
0.0
 11
2320.2598108775
 21
566.5116546027
 31
0.0
  0
LINE
  5
4AA
330
4A2
100
AcDbEntity
  8
SLD-0_0
 62
     7
100
AcDbLine
 10
2338.0404786961
 20
566.5116546027
 30
0.0
 11
2373.0404786961
 21
566.5116546027
 31
0.0
  0
LINE
  5
4AB
330
4A2
100
AcDbEntity
  8
SLD-0_0
 62
     7
100
AcDbLine
 10
2373.0404786961
 20
566.5116546027
 30
0.0
 11
2390.8211465146
 21
566.5116546027
 31
0.0
  0
MTEXT
  5
4AC
330
4A2
100
AcDbEntity
  8
SLD-0_0
 62
     7
100
AcDbMText
 10
2348.4849232258
 20
578.7900250569
 30
0.0
 40
9.525
 41
0.0
 71
     1
 72
     1
  1
35
  7
SLDTEXTSTYLE0
 73
     1
 44
1.0
  0
ENDBLK
  5
4A4
330
4A2
100
AcDbEntity
  8
0
100
AcDbBlockEnd
  0
BLOCK
  5
4AF
330
4AE
100
AcDbEntity
  8
0
100
AcDbBlockBegin
  2
_D_30
 70
     0
 10
0.0
 20
0.0
 30
0.0
  3
_D_30
  1

  0
SOLID
  5
4B1
330
4AE
100
AcDbEntity
  8
SLD-0_0
 62
     7
100
AcDbTrace
 10
1883.0404786961
 20
566.5116546027
 30
0.0
 11
1873.7945314304
 21
567.9341080282
 31
0.0
 12
1873.7945314304
 22
565.0892011772
 32
0.0
 13
1873.7945314304
 23
565.0892011772
 33
0.0
  0
SOLID
  5
4B2
330
4AE
100
AcDbEntity
  8
SLD-0_0
 62
     7
100
AcDbTrace
 10
1918.0404786961
 20
566.5116546027
 30
0.0
 11
1927.2864259617
 21
565.0892011772
 31
0.0
 12
1927.2864259617
 22
567.9341080282
 32
0.0
 13
1927.2864259617
 23
567.9341080282
 33
0.0
  0
LINE
  5
4B3
330
4AE
100
AcDbEntity
  8
SLD-0_0
 62
     7
100
AcDbLine
 10
1883.0404786961
 20
582.5116546027
 30
0.0
 11
1883.0404786961
 21
565.5116546027
 31
0.0
  0
LINE
  5
4B4
330
4AE
100
AcDbEntity
  8
SLD-0_0
 62
     7
100
AcDbLine
 10
1918.0404786961
 20
582.5116546027
 30
0.0
 11
1918.0404786961
 21
565.5116546027
 31
0.0
  0
LINE
  5
4B5
330
4AE
100
AcDbEntity
  8
SLD-0_0
 62
     7
100
AcDbLine
 10
1883.0404786961
 20
566.5116546027
 30
0.0
 11
1865.2598108776
 21
566.5116546027
 31
0.0
  0
LINE
  5
4B6
330
4AE
100
AcDbEntity
  8
SLD-0_0
 62
     7
100
AcDbLine
 10
1883.0404786961
 20
566.5116546027
 30
0.0
 11
1918.0404786961
 21
566.5116546027
 31
0.0
  0
LINE
  5
4B7
330
4AE
100
AcDbEntity
  8
SLD-0_0
 62
     7
100
AcDbLine
 10
1918.0404786961
 20
566.5116546027
 30
0.0
 11
1935.8211465146
 21
566.5116546027
 31
0.0
  0
MTEXT
  5
4B8
330
4AE
100
AcDbEntity
  8
SLD-0_0
 62
     7
100
AcDbMText
 10
1893.4849232258
 20
578.7900250569
 30
0.0
 40
9.525
 41
0.0
 71
     1
 72
     1
  1
35
  7
SLDTEXTSTYLE0
 73
     1
 44
1.0
  0
ENDBLK
  5
4B0
330
4AE
100
AcDbEntity
  8
0
100
AcDbBlockEnd
  0
BLOCK
  5
4BB
330
4BA
100
AcDbEntity
  8
0
100
AcDbBlockBegin
  2
_D_31
 70
     0
 10
0.0
 20
0.0
 30
0.0
  3
_D_31
  1

  0
SOLID
  5
4BD
330
4BA
100
AcDbEntity
  8
SLD-0_0
 62
     7
100
AcDbTrace
 10
1873.0404786961
 20
833.5116546027
 30
0.0
 11
1874.4629321215
 21
842.7576018683
 31
0.0
 12
1871.6180252706
 22
842.7576018683
 32
0.0
 13
1871.6180252706
 23
842.7576018683
 33
0.0
  0
SOLID
  5
4BE
330
4BA
100
AcDbEntity
  8
SLD-0_0
 62
     7
100
AcDbTrace
 10
1873.0404786961
 20
798.5116546027
 30
0.0
 11
1871.6180252706
 21
789.2657073371
 31
0.0
 12
1874.4629321215
 22
789.2657073371
 32
0.0
 13
1874.4629321215
 23
789.2657073371
 33
0.0
  0
LINE
  5
4BF
330
4BA
100
AcDbEntity
  8
SLD-0_0
 62
     7
100
AcDbLine
 10
1882.0404786961
 20
833.5116546027
 30
0.0
 11
1872.0404786961
 21
833.5116546027
 31
0.0
  0
LINE
  5
4C0
330
4BA
100
AcDbEntity
  8
SLD-0_0
 62
     7
100
AcDbLine
 10
1967.0404786961
 20
798.5116546027
 30
0.0
 11
1872.0404786961
 21
798.5116546027
 31
0.0
  0
LINE
  5
4C1
330
4BA
100
AcDbEntity
  8
SLD-0_0
 62
     7
100
AcDbLine
 10
1873.0404786961
 20
833.5116546027
 30
0.0
 11
1873.0404786961
 21
851.2923224212
 31
0.0
  0
LINE
  5
4C2
330
4BA
100
AcDbEntity
  8
SLD-0_0
 62
     7
100
AcDbLine
 10
1873.0404786961
 20
833.5116546027
 30
0.0
 11
1873.0404786961
 21
798.5116546027
 31
0.0
  0
LINE
  5
4C3
330
4BA
100
AcDbEntity
  8
SLD-0_0
 62
     7
100
AcDbLine
 10
1873.0404786961
 20
798.5116546027
 30
0.0
 11
1873.0404786961
 21
780.7309867842
 31
0.0
  0
MTEXT
  5
4C4
330
4BA
100
AcDbEntity
  8
SLD-0_0
 62
     7
100
AcDbMText
 10
1860.7621082419
 20
808.9560991324
 30
0.0
 40
9.525
 41
0.0
 71
     1
 72
     1
  1
35
  7
SLDTEXTSTYLE0
 11
-7.044195017643634E-15
 21
1.0
 31
0.0
 73
     1
 44
1.0
  0
ENDBLK
  5
4BC
330
4BA
100
AcDbEntity
  8
0
100
AcDbBlockEnd
  0
BLOCK
  5
4CE
330
4CD
100
AcDbEntity
  8
0
100
AcDbBlockBegin
  2
_D_32
 70
     0
 10
0.0
 20
0.0
 30
0.0
  3
_D_32
  1

  0
SOLID
  5
4D0
330
4CD
100
AcDbEntity
  8
SLD-0_0
 62
     7
100
AcDbTrace
 10
2586.5973258885
 20
854.522607949
 30
0.0
 11
2595.8432731541
 21
853.1001545235
 31
0.0
 12
2595.8432731541
 22
855.9450613745
 32
0.0
 13
2595.8432731541
 23
855.9450613745
 33
0.0
  0
SOLID
  5
4D1
330
4CD
100
AcDbEntity
  8
SLD-0_0
 62
     7
100
AcDbTrace
 10
2799.0973258885
 20
854.522607949
 30
0.0
 11
2789.8513786229
 21
855.9450613745
 31
0.0
 12
2789.8513786229
 22
853.1001545235
 32
0.0
 13
2789.8513786229
 23
853.1001545235
 33
0.0
  0
LINE
  5
4D2
330
4CD
100
AcDbEntity
  8
SLD-0_0
 62
     7
100
AcDbLine
 10
2586.5973258885
 20
834.5116546027
 30
0.0
 11
2586.5973258885
 21
855.522607949
 31
0.0
  0
LINE
  5
4D3
330
4CD
100
AcDbEntity
  8
SLD-0_0
 62
     7
100
AcDbLine
 10
2799.0973258885
 20
834.5116546027
 30
0.0
 11
2799.0973258885
 21
855.522607949
 31
0.0
  0
LINE
  5
4D4
330
4CD
100
AcDbEntity
  8
SLD-0_0
 62
     7
100
AcDbLine
 10
2586.5973258885
 20
854.522607949
 30
0.0
 11
2799.0973258885
 21
854.522607949
 31
0.0
  0
MTEXT
  5
4D5
330
4CD
100
AcDbEntity
  8
SLD-0_0
 62
     7
100
AcDbMText
 10
2668.8080339879
 20
866.8009784032
 30
0.0
 40
9.525
 41
0.0
 71
     1
 72
     1
  1
212.50
  7
SLDTEXTSTYLE0
 73
     1
 44
1.0
  0
ENDBLK
  5
4CF
330
4CD
100
AcDbEntity
  8
0
100
AcDbBlockEnd
  0
BLOCK
  5
4D8
330
4D7
100
AcDbEntity
  8
0
100
AcDbBlockBegin
  2
_D_33
 70
     0
 10
0.0
 20
0.0
 30
0.0
  3
_D_33
  1

  0
SOLID
  5
4DA
330
4D7
100
AcDbEntity
  8
SLD-0_0
 62
     7
100
AcDbTrace
 10
2830.0973258885
 20
833.5116546027
 30
0.0
 11
2828.674872463
 21
824.2657073371
 31
0.0
 12
2831.519779314
 22
824.2657073371
 32
0.0
 13
2831.519779314
 23
824.2657073371
 33
0.0
  0
SOLID
  5
4DB
330
4D7
100
AcDbEntity
  8
SLD-0_0
 62
     7
100
AcDbTrace
 10
2830.0973258885
 20
583.5116546027
 30
0.0
 11
2831.519779314
 21
592.7576018683
 31
0.0
 12
2828.674872463
 22
592.7576018683
 32
0.0
 13
2828.674872463
 23
592.7576018683
 33
0.0
  0
LINE
  5
4DC
330
4D7
100
AcDbEntity
  8
SLD-0_0
 62
     7
100
AcDbLine
 10
2800.0973258885
 20
833.5116546027
 30
0.0
 11
2831.0973258885
 21
833.5116546027
 31
0.0
  0
LINE
  5
4DD
330
4D7
100
AcDbEntity
  8
SLD-0_0
 62
     7
100
AcDbLine
 10
2800.0973258885
 20
583.5116546027
 30
0.0
 11
2831.0973258885
 21
583.5116546027
 31
0.0
  0
LINE
  5
4DE
330
4D7
100
AcDbEntity
  8
SLD-0_0
 62
     7
100
AcDbLine
 10
2830.0973258885
 20
833.5116546027
 30
0.0
 11
2830.0973258885
 21
583.5116546027
 31
0.0
  0
MTEXT
  5
4DF
330
4D7
100
AcDbEntity
  8
SLD-0_0
 62
     7
100
AcDbMText
 10
2817.8189554344
 20
697.9283209316
 30
0.0
 40
9.525
 41
0.0
 71
     1
 72
     1
  1
250
  7
SLDTEXTSTYLE0
 11
-1.414962237524464E-14
 21
1.0
 31
0.0
 73
     1
 44
1.0
  0
ENDBLK
  5
4D9
330
4D7
100
AcDbEntity
  8
0
100
AcDbBlockEnd
  0
BLOCK
  5
4E2
330
4E1
100
AcDbEntity
  8
0
100
AcDbBlockBegin
  2
_D_34
 70
     0
 10
0.0
 20
0.0
 30
0.0
  3
_D_34
  1

  0
SOLID
  5
4E4
330
4E1
100
AcDbEntity
  8
SLD-0_0
 62
     7
100
AcDbTrace
 10
2576.5973258885
 20
798.5116546027
 30
0.0
 11
2575.174872463
 21
789.2657073371
 31
0.0
 12
2578.019779314
 22
789.2657073371
 32
0.0
 13
2578.019779314
 23
789.2657073371
 33
0.0
  0
SOLID
  5
4E5
330
4E1
100
AcDbEntity
  8
SLD-0_0
 62
     7
100
AcDbTrace
 10
2576.5973258885
 20
833.5116546027
 30
0.0
 11
2578.019779314
 21
842.7576018683
 31
0.0
 12
2575.174872463
 22
842.7576018683
 32
0.0
 13
2575.174872463
 23
842.7576018683
 33
0.0
  0
LINE
  5
4E6
330
4E1
100
AcDbEntity
  8
SLD-0_0
 62
     7
100
AcDbLine
 10
2585.5973258885
 20
798.5116546027
 30
0.0
 11
2575.5973258885
 21
798.5116546027
 31
0.0
  0
LINE
  5
4E7
330
4E1
100
AcDbEntity
  8
SLD-0_0
 62
     7
100
AcDbLine
 10
2585.5973258885
 20
833.5116546027
 30
0.0
 11
2575.5973258885
 21
833.5116546027
 31
0.0
  0
LINE
  5
4E8
330
4E1
100
AcDbEntity
  8
SLD-0_0
 62
     7
100
AcDbLine
 10
2576.5973258885
 20
798.5116546027
 30
0.0
 11
2576.5973258885
 21
780.7309867842
 31
0.0
  0
LINE
  5
4E9
330
4E1
100
AcDbEntity
  8
SLD-0_0
 62
     7
100
AcDbLine
 10
2576.5973258885
 20
798.5116546027
 30
0.0
 11
2576.5973258885
 21
833.5116546027
 31
0.0
  0
LINE
  5
4EA
330
4E1
100
AcDbEntity
  8
SLD-0_0
 62
     7
100
AcDbLine
 10
2576.5973258885
 20
833.5116546027
 30
0.0
 11
2576.5973258885
 21
851.2923224212
 31
0.0
  0
MTEXT
  5
4EB
330
4E1
100
AcDbEntity
  8
SLD-0_0
 62
     7
100
AcDbMText
 10
2564.3189554344
 20
808.9560991324
 30
0.0
 40
9.525
 41
0.0
 71
     1
 72
     1
  1
35
  7
SLDTEXTSTYLE0
 11
-7.710328832418728E-15
 21
1.0
 31
0.0
 73
     1
 44
1.0
  0
ENDBLK
  5
4E3
330
4E1
100
AcDbEntity
  8
0
100
AcDbBlockEnd
  0
BLOCK
  5
4EE
330
4ED
100
AcDbEntity
  8
0
100
AcDbBlockBegin
  2
_D_35
 70
     0
 10
0.0
 20
0.0
 30
0.0
  3
_D_35
  1

  0
SOLID
  5
4F0
330
4ED
100
AcDbEntity
  8
SLD-0_0
 62
     7
100
AcDbTrace
 10
2799.0973258885
 20
566.5116546027
 30
0.0
 11
2808.3432731541
 21
565.0892011772
 31
0.0
 12
2808.3432731541
 22
567.9341080282
 32
0.0
 13
2808.3432731541
 23
567.9341080282
 33
0.0
  0
SOLID
  5
4F1
330
4ED
100
AcDbEntity
  8
SLD-0_0
 62
     7
100
AcDbTrace
 10
2764.0973258885
 20
566.5116546027
 30
0.0
 11
2754.8513786229
 21
567.9341080282
 31
0.0
 12
2754.8513786229
 22
565.0892011772
 32
0.0
 13
2754.8513786229
 23
565.0892011772
 33
0.0
  0
LINE
  5
4F2
330
4ED
100
AcDbEntity
  8
SLD-0_0
 62
     7
100
AcDbLine
 10
2799.0973258885
 20
582.5116546027
 30
0.0
 11
2799.0973258885
 21
565.5116546027
 31
0.0
  0
LINE
  5
4F3
330
4ED
100
AcDbEntity
  8
SLD-0_0
 62
     7
100
AcDbLine
 10
2764.0973258885
 20
582.5116546027
 30
0.0
 11
2764.0973258885
 21
565.5116546027
 31
0.0
  0
LINE
  5
4F4
330
4ED
100
AcDbEntity
  8
SLD-0_0
 62
     7
100
AcDbLine
 10
2799.0973258885
 20
566.5116546027
 30
0.0
 11
2816.877993707
 21
566.5116546027
 31
0.0
  0
LINE
  5
4F5
330
4ED
100
AcDbEntity
  8
SLD-0_0
 62
     7
100
AcDbLine
 10
2799.0973258885
 20
566.5116546027
 30
0.0
 11
2764.0973258885
 21
566.5116546027
 31
0.0
  0
LINE
  5
4F6
330
4ED
100
AcDbEntity
  8
SLD-0_0
 62
     7
100
AcDbLine
 10
2764.0973258885
 20
566.5116546027
 30
0.0
 11
2746.31665807
 21
566.5116546027
 31
0.0
  0
MTEXT
  5
4F7
330
4ED
100
AcDbEntity
  8
SLD-0_0
 62
     7
100
AcDbMText
 10
2774.5417704182
 20
578.7900250569
 30
0.0
 40
9.525
 41
0.0
 71
     1
 72
     1
  1
35
  7
SLDTEXTSTYLE0
 73
     1
 44
1.0
  0
ENDBLK
  5
4EF
330
4ED
100
AcDbEntity
  8
0
100
AcDbBlockEnd
  0
BLOCK
  5
4FB
330
4FA
100
AcDbEntity
  8
0
100
AcDbBlockBegin
  2
_D_36
 70
     0
 10
0.0
 20
0.0
 30
0.0
  3
_D_36
  1

  0
SOLID
  5
4FD
330
4FA
100
AcDbEntity
  8
SLD-0_0
 62
     7
100
AcDbTrace
 10
2751.5104036367
 20
781.6818462424
 30
0.0
 11
2743.6483557041
 21
776.6124166006
 31
0.0
 12
2745.535677813
 22
774.4836821765
 32
0.0
 13
2745.535677813
 23
774.4836821765
 33
0.0
  0
LINE
  5
4FE
330
4FA
100
AcDbEntity
  8
SLD-0_0
 62
     7
100
AcDbLine
 10
2751.5104036367
 20
781.6818462424
 30
0.0
 11
2714.0973258885
 21
748.5116546027
 31
0.0
  0
MTEXT
  5
4FF
330
4FA
100
AcDbEntity
  8
SLD-0_0
 62
     7
100
AcDbMText
 10
2709.575168341
 20
760.201707905
 30
0.0
 40
9.525
 41
0.0
 71
     1
 72
     1
  1
R50
  7
SLDTEXTSTYLE0
 11
0.7482615549627128
 21
0.6634038327932565
 31
0.0
 73
     1
 44
1.0
  0
ENDBLK
  5
4FC
330
4FA
100
AcDbEntity
  8
0
100
AcDbBlockEnd
  0
BLOCK
  5
503
330
502
100
AcDbEntity
  8
0
100
AcDbBlockBegin
  2
SW_CENTERMARKSYMBOL_8
 70
     0
 10
0.0
 20
0.0
 30
0.0
  3
SW_CENTERMARKSYMBOL_8
  1

  0
LINE
  5
505
330
502
100
AcDbEntity
  8
SLD-0_0
 62
     0
100
AcDbLine
 10
0.0
 20
0.0
 30
0.0
 11
0.0
 21
2.5
 31
0.0
  0
LINE
  5
506
330
502
100
AcDbEntity
  8
SLD-0_0
 62
     0
100
AcDbLine
 10
0.0
 20
0.0
 30
0.0
 11
-2.5
 21
0.0
 31
0.0
  0
LINE
  5
507
330
502
100
AcDbEntity
  8
SLD-0_0
 62
     0
100
AcDbLine
 10
0.0
 20
0.0
 30
0.0
 11
0.0
 21
-2.5
 31
0.0
  0
LINE
  5
508
330
502
100
AcDbEntity
  8
SLD-0_0
 62
     0
100
AcDbLine
 10
0.0
 20
0.0
 30
0.0
 11
2.5
 21
0.0
 31
0.0
  0
LINE
  5
509
330
502
100
AcDbEntity
  8
SLD-0_0
 62
     0
100
AcDbLine
 10
0.0
 20
5.0
 30
0.0
 11
0.0
 21
40.5
 31
0.0
  0
LINE
  5
50A
330
502
100
AcDbEntity
  8
SLD-0_0
 62
     0
100
AcDbLine
 10
-5.0
 20
0.0
 30
0.0
 11
-40.5
 21
0.0
 31
0.0
  0
LINE
  5
50B
330
502
100
AcDbEntity
  8
SLD-0_0
 62
     0
100
AcDbLine
 10
0.0
 20
-5.0
 30
0.0
 11
0.0
 21
-40.5
 31
0.0
  0
LINE
  5
50C
330
502
100
AcDbEntity
  8
SLD-0_0
 62
     0
100
AcDbLine
 10
5.0
 20
0.0
 30
0.0
 11
40.5
 21
0.0
 31
0.0
  0
ENDBLK
  5
504
330
502
100
AcDbEntity
  8
0
100
AcDbBlockEnd
  0
BLOCK
  5
523
330
522
100
AcDbEntity
  8
0
100
AcDbBlockBegin
  2
_D_37
 70
     0
 10
0.0
 20
0.0
 30
0.0
  3
_D_37
  1

  0
SOLID
  5
525
330
522
100
AcDbEntity
  8
SLD-0_0
 62
     7
100
AcDbTrace
 10
1521.4741303971
 20
398.4598076425
 30
0.0
 11
1530.7200776627
 21
397.037354217
 31
0.0
 12
1530.7200776627
 22
399.8822610679
 32
0.0
 13
1530.7200776627
 23
399.8822610679
 33
0.0
  0
SOLID
  5
526
330
522
100
AcDbEntity
  8
SLD-0_0
 62
     7
100
AcDbTrace
 10
1601.4741303971
 20
398.4598076425
 30
0.0
 11
1592.2281831315
 21
399.8822610679
 31
0.0
 12
1592.2281831315
 22
397.037354217
 32
0.0
 13
1592.2281831315
 23
397.037354217
 33
0.0
  0
LINE
  5
527
330
522
100
AcDbEntity
  8
SLD-0_0
 62
     7
100
AcDbLine
 10
1521.4741303971
 20
316.4598076425
 30
0.0
 11
1521.4741303971
 21
399.4598076425
 31
0.0
  0
LINE
  5
528
330
522
100
AcDbEntity
  8
SLD-0_0
 62
     7
100
AcDbLine
 10
1601.4741303971
 20
316.4598076425
 30
0.0
 11
1601.4741303971
 21
399.4598076425
 31
0.0
  0
LINE
  5
529
330
522
100
AcDbEntity
  8
SLD-0_0
 62
     7
100
AcDbLine
 10
1521.4741303971
 20
398.4598076425
 30
0.0
 11
1601.4741303971
 21
398.4598076425
 31
0.0
  0
MTEXT
  5
52A
330
522
100
AcDbEntity
  8
SLD-0_0
 62
     7
100
AcDbMText
 10
1555.8571099033
 20
410.7381780966
 30
0.0
 40
9.525
 41
0.0
 71
     1
 72
     1
  1
80
  7
SLDTEXTSTYLE0
 73
     1
 44
1.0
  0
ENDBLK
  5
524
330
522
100
AcDbEntity
  8
0
100
AcDbBlockEnd
  0
BLOCK
  5
52D
330
52C
100
AcDbEntity
  8
0
100
AcDbBlockBegin
  2
_D_38
 70
     0
 10
0.0
 20
0.0
 30
0.0
  3
_D_38
  1

  0
SOLID
  5
52F
330
52C
100
AcDbEntity
  8
SLD-0_0
 62
     7
100
AcDbTrace
 10
1498.9336891735
 20
388.4598076425
 30
0.0
 11
1497.5112357481
 21
379.2138603769
 31
0.0
 12
1500.356142599
 22
379.2138603769
 32
0.0
 13
1500.356142599
 23
379.2138603769
 33
0.0
  0
SOLID
  5
530
330
52C
100
AcDbEntity
  8
SLD-0_0
 62
     7
100
AcDbTrace
 10
1498.9336891735
 20
312.4598076425
 30
0.0
 11
1500.356142599
 21
321.7057549081
 31
0.0
 12
1497.5112357481
 22
321.7057549081
 32
0.0
 13
1497.5112357481
 23
321.7057549081
 33
0.0
  0
LINE
  5
531
330
52C
100
AcDbEntity
  8
SLD-0_0
 62
     7
100
AcDbLine
 10
1520.4741303971
 20
388.4598076425
 30
0.0
 11
1497.9336891735
 21
388.4598076425
 31
0.0
  0
LINE
  5
532
330
52C
100
AcDbEntity
  8
SLD-0_0
 62
     7
100
AcDbLine
 10
1520.4741303971
 20
312.4598076425
 30
0.0
 11
1497.9336891735
 21
312.4598076425
 31
0.0
  0
LINE
  5
533
330
52C
100
AcDbEntity
  8
SLD-0_0
 62
     7
100
AcDbLine
 10
1498.9336891735
 20
388.4598076425
 30
0.0
 11
1498.9336891735
 21
312.4598076425
 31
0.0
  0
MTEXT
  5
534
330
52C
100
AcDbEntity
  8
SLD-0_0
 62
     7
100
AcDbMText
 10
1486.6553187194
 20
339.350652942
 30
0.0
 40
9.525
 41
0.0
 71
     1
 72
     1
  1
%%c
  7
SLDTEXTSTYLE0
 11
-1.592597921464489E-14
 21
1.0
 31
0.0
 73
     1
 44
1.0
  0
MTEXT
  5
535
330
52C
100
AcDbEntity
  8
SLD-0_0
 62
     7
100
AcDbMText
 10
1486.6553187194
 20
352.839993374
 30
0.0
 40
9.525
 41
0.0
 71
     1
 72
     1
  1
76
  7
SLDTEXTSTYLE0
 11
-1.592597921464489E-14
 21
1.0
 31
0.0
 73
     1
 44
1.0
  0
ENDBLK
  5
52E
330
52C
100
AcDbEntity
  8
0
100
AcDbBlockEnd
  0
ENDSEC
  0
SECTION
  2
ENTITIES
  0
LINE
  5
7B
330
1F
100
AcDbEntity
  8
PREDETERMINADO
100
AcDbLine
 10
2953.7805788193
 20
57.3214178067
 30
0.0
 11
2945.0142650341
 21
57.3214178067
 31
0.0
  0
LINE
  5
7C
330
1F
100
AcDbEntity
  8
PREDETERMINADO
100
AcDbLine
 10
2939.2971038697
 20
28.9261840238
 30
0.0
 11
2944.6331209564
 21
28.9261840238
 31
0.0
  0
LINE
  5
7D
330
1F
100
AcDbEntity
  8
PREDETERMINADO
100
AcDbLine
 10
2974.7435030885
 20
57.3214178067
 30
0.0
 11
2966.7394774585
 21
57.3214178067
 31
0.0
  0
LINE
  5
7E
330
1F
100
AcDbEntity
  8
PREDETERMINADO
100
AcDbLine
 10
2961.6881755553
 20
31.4036205284
 30
0.0
 11
2969.6197096358
 21
31.4036205284
 31
0.0
  0
LINE
  5
7F
330
1F
100
AcDbEntity
  8
PREDETERMINADO
100
AcDbLine
 10
2704.7140912713
 20
138.474581476
 30
0.0
 11
2704.7140912713
 21
97.0915389877
 31
0.0
  0
LINE
  5
80
330
1F
100
AcDbEntity
  8
PREDETERMINADO
100
AcDbLine
 10
2704.7140912713
 20
97.0915389877
 30
0.0
 11
2217.7381926647
 21
97.0915389877
 31
0.0
  0
LINE
  5
81
330
1F
100
AcDbEntity
  8
PREDETERMINADO
100
AcDbLine
 10
2217.7381926647
 20
97.0915389877
 30
0.0
 11
2217.7381926647
 21
92.8525389877
 31
0.0
  0
LINE
  5
82
330
1F
100
AcDbEntity
  8
PREDETERMINADO
100
AcDbLine
 10
2217.7381926647
 20
92.8525389877
 30
0.0
 11
2708.9530912713
 21
92.8525389877
 31
0.0
  0
LINE
  5
83
330
1F
100
AcDbEntity
  8
PREDETERMINADO
100
AcDbLine
 10
2708.9530912713
 20
92.8525389877
 30
0.0
 11
2708.9530912713
 21
138.474581476
 31
0.0
  0
LINE
  5
84
330
1F
100
AcDbEntity
  8
PREDETERMINADO
100
AcDbLine
 10
2708.9530912713
 20
138.474581476
 30
0.0
 11
2704.7140912713
 21
138.474581476
 31
0.0
  0
LINE
  5
85
330
1F
100
AcDbEntity
  8
PREDETERMINADO
100
AcDbLine
 10
2961.6881755553
 20
31.4036205284
 30
0.0
 11
2969.6197096358
 21
31.4036205284
 31
0.0
  0
LINE
  5
86
330
1F
100
AcDbEntity
  8
PREDETERMINADO
100
AcDbLine
 10
2974.7435030885
 20
57.3214178067
 30
0.0
 11
2966.7394774585
 21
57.3214178067
 31
0.0
  0
LINE
  5
87
330
1F
100
AcDbEntity
  8
PREDETERMINADO
100
AcDbLine
 10
2953.7805788193
 20
57.3214178067
 30
0.0
 11
2945.0142650341
 21
57.3214178067
 31
0.0
  0
LINE
  5
88
330
1F
100
AcDbEntity
  8
PREDETERMINADO
100
AcDbLine
 10
2939.2971038697
 20
28.9261840238
 30
0.0
 11
2944.6331209564
 21
28.9261840238
 31
0.0
  0
LINE
  5
89
330
1F
100
AcDbEntity
  8
PREDETERMINADO
  6
Continuous
 62
   179
370
    15
100
AcDbLine
 10
2217.7381926647
 20
228.3629821305
 30
0.0
 11
2217.7381926647
 21
142.713581476
 31
0.0
  0
LINE
  5
8A
330
1F
100
AcDbEntity
  8
SLD-0_0
100
AcDbLine
 10
2406.4846980495
 20
92.8525389877
 30
0.0
 11
2406.4846980495
 21
16.4129821305
 31
0.0
  0
LINE
  5
8B
330
1F
100
AcDbEntity
  8
FORMATO
  6
Continuous
 62
   179
100
AcDbLine
 10
2412.2230912713
 20
142.713581476
 30
0.0
 11
2412.2230912713
 21
228.3629821305
 31
0.0
  0
LINE
  5
8C
330
1F
100
AcDbEntity
  8
FORMATO
  6
Continuous
 62
   179
100
AcDbLine
 10
2331.7302571214
 20
142.713581476
 30
0.0
 11
2412.2230912713
 21
142.713581476
 31
0.0
  0
LINE
  5
8D
330
1F
100
AcDbEntity
  8
FORMATO
  6
Continuous
 62
   179
100
AcDbLine
 10
2331.7302571214
 20
142.713581476
 30
0.0
 11
2331.7302571214
 21
228.3629821305
 31
0.0
  0
LINE
  5
8E
330
1F
100
AcDbEntity
  8
FORMATO
  6
Continuous
 62
   179
100
AcDbLine
 10
2217.7381926647
 20
163.908581476
 30
0.0
 11
2497.0030912713
 21
163.908581476
 31
0.0
  0
LINE
  5
8F
330
1F
100
AcDbEntity
  8
FORMATO
  6
Continuous
 62
   179
100
AcDbLine
 10
2217.7381926647
 20
185.103581476
 30
0.0
 11
2497.0030912713
 21
185.103581476
 31
0.0
  0
LINE
  5
90
330
1F
100
AcDbEntity
  8
FORMATO
  6
Continuous
 62
   179
100
AcDbLine
 10
2497.0030912713
 20
142.713581476
 30
0.0
 11
2497.0030912713
 21
228.3629821305
 31
0.0
  0
LINE
  5
91
330
1F
100
AcDbEntity
  8
FORMATO
  6
Continuous
 62
   179
100
AcDbLine
 10
2984.4880912713
 20
206.298581476
 30
0.0
 11
2217.7381926647
 21
206.298581476
 31
0.0
  0
LINE
  5
92
330
1F
100
AcDbEntity
  8
FORMATO
  6
Continuous
 62
   179
100
AcDbLine
 10
2803.9424890692
 20
228.3629821305
 30
0.0
 11
2803.9424890692
 21
180.662106425
 31
0.0
  0
LINE
  5
93
330
1F
100
AcDbEntity
  8
FORMATO
  6
Continuous
 62
   179
100
AcDbLine
 10
2751.3430912713
 20
228.3629821305
 30
0.0
 11
2751.3430912713
 21
180.662106425
 31
0.0
  0
LINE
  5
94
330
1F
100
AcDbEntity
  8
FORMATO
  6
Continuous
 62
   179
100
AcDbLine
 10
2708.9530912713
 20
180.662106425
 30
0.0
 11
2984.4880912713
 21
180.662106425
 31
0.0
  0
LINE
  5
95
330
1F
100
AcDbEntity
  8
FORMATO
  6
Continuous
 62
   179
100
AcDbLine
 10
2873.3093560384
 20
138.474581476
 30
0.0
 11
2873.3093560384
 21
228.3629821305
 31
0.0
  0
LINE
  5
96
330
1F
100
AcDbEntity
  8
PREDETERMINADO
370
    15
100
AcDbLine
 10
2217.7381926647
 20
97.0915389877
 30
0.0
 11
2217.7381926647
 21
16.4129821305
 31
0.0
  0
LINE
  5
97
330
1F
100
AcDbEntity
  8
FORMATO
  6
Continuous
 62
   179
100
AcDbLine
 10
2836.1230912713
 20
83.1376372178
 30
0.0
 11
2984.4880912713
 21
83.1376372178
 31
0.0
  0
LINE
  5
98
330
1F
100
AcDbEntity
  8
FORMATO
  6
Continuous
 62
   179
100
AcDbLine
 10
2836.1230912713
 20
16.4129821305
 30
0.0
 11
2836.1230912713
 21
138.474581476
 31
0.0
  0
LINE
  5
99
330
1F
100
AcDbEntity
  8
FORMATO
  6
Continuous
 62
   179
370
    15
100
AcDbLine
 10
2213.4991926647
 20
142.713581476
 30
0.0
 11
2704.7140912713
 21
142.713581476
 31
0.0
  0
LINE
  5
9A
330
1F
100
AcDbEntity
  8
FORMATO
  6
Continuous
 62
   179
370
    15
100
AcDbLine
 10
2708.9530912713
 20
92.8525389877
 30
0.0
 11
2708.9530912713
 21
138.474581476
 31
0.0
  0
LINE
  5
9B
330
1F
100
AcDbEntity
  8
FORMATO
  6
Continuous
 62
   179
100
AcDbLine
 10
2567.6318618685
 20
92.8525389877
 30
0.0
 11
2567.6318618685
 21
16.4129821305
 31
0.0
  0
LINE
  5
9C
330
1F
100
AcDbEntity
  8
SLD-0
  6
Continuous
 62
   179
100
AcDbLine
 10
2966.7394774585
 20
57.3214178067
 30
0.0
 11
2974.7435030885
 21
57.3214178067
 31
0.0
  0
LINE
  5
9D
330
1F
100
AcDbEntity
  8
SLD-0
  6
Continuous
 62
   179
100
AcDbLine
 10
2961.4034603718
 20
31.4036205284
 30
0.0
 11
2969.6197096358
 21
31.4036205284
 31
0.0
  0
LINE
  5
9E
330
1F
100
AcDbEntity
  8
SLD-0
  6
Continuous
 62
   179
100
AcDbLine
 10
2945.0142650341
 20
57.3214178067
 30
0.0
 11
2953.7805788193
 21
57.3214178067
 31
0.0
  0
LINE
  5
9F
330
1F
100
AcDbEntity
  8
FORMATO
  6
Continuous
 62
   179
100
AcDbLine
 10
2500.6815956676
 20
186.4703293891
 30
0.0
 11
2507.3729793132
 21
186.4703293891
 31
0.0
  0
LINE
  5
A0
330
1F
100
AcDbEntity
  8
FORMATO
  6
Continuous
 62
   179
100
AcDbLine
 10
2500.6815956676
 20
169.5143293891
 30
0.0
 11
2507.3729793132
 21
169.5143293891
 31
0.0
  0
LINE
  5
A1
330
1F
100
AcDbEntity
  8
FORMATO
  6
Continuous
 62
   179
100
AcDbLine
 10
2500.6815956676
 20
152.5583293891
 30
0.0
 11
2507.3729793132
 21
152.5583293891
 31
0.0
  0
LINE
  5
A2
330
1F
100
AcDbEntity
  8
FORMATO
  6
Continuous
 62
   179
100
AcDbLine
 10
2711.6154207231
 20
98.1907042008
 30
0.0
 11
2718.3068043687
 21
98.1907042008
 31
0.0
  0
LINE
  5
A3
330
1F
100
AcDbEntity
  8
FORMATO
  6
Continuous
 62
   179
100
AcDbLine
 10
2711.6154207231
 20
76.5279877943
 30
0.0
 11
2718.3068043687
 21
76.5279877943
 31
0.0
  0
LINE
  5
A4
330
1F
100
AcDbEntity
  8
FORMATO
  6
Continuous
 62
   179
100
AcDbLine
 10
2711.6154207231
 20
54.8652713877
 30
0.0
 11
2718.3068043687
 21
54.8652713877
 31
0.0
  0
LINE
  5
A5
330
1F
100
AcDbEntity
  8
FORMATO
  6
Continuous
 62
   179
100
AcDbLine
 10
2711.6154207231
 20
33.2025549812
 30
0.0
 11
2718.3068043687
 21
33.2025549812
 31
0.0
  0
LINE
  5
A6
330
1F
100
AcDbEntity
  8
PREDETERMINADO
100
AcDbLine
 10
2708.9530912713
 20
138.474581476
 30
0.0
 11
2984.8421506311
 21
138.474581476
 31
0.0
  0
LINE
  5
A7
330
1F
100
AcDbEntity
  8
FORMATO
  6
Continuous
 62
   179
370
    15
100
AcDbLine
 10
2217.7381926647
 20
228.3629821305
 30
0.0
 11
2984.4880912713
 21
228.3629821305
 31
0.0
  0
LINE
  5
A8
330
1F
100
AcDbEntity
  8
FORMATO
  6
Continuous
 62
   179
370
    15
100
AcDbLine
 10
2708.9530912713
 20
92.8525389877
 30
0.0
 11
2217.7381926647
 21
92.8525389877
 31
0.0
  0
LINE
  5
A9
330
1F
100
AcDbEntity
  8
PREDETERMINADO
  6
Continuous
 62
   179
100
AcDbLine
 10
2253.8107979238
 20
224.5145210547
 30
0.0
 11
2253.8107979238
 21
208.17856127
 31
0.0
  0
LINE
  5
AA
330
1F
100
AcDbEntity
  8
PREDETERMINADO
  6
Continuous
 62
   179
100
AcDbLine
 10
2237.4150149106
 20
220.7667408783
 30
0.0
 11
2237.4150149106
 21
211.9263414463
 31
0.0
  0
LINE
  5
AB
330
1F
100
AcDbEntity
  8
PREDETERMINADO
  6
CENTER
 62
   179
100
AcDbLine
 10
2273.9088545206
 20
225.5608423291
 30
0.0
 11
2273.9088545206
 21
206.9482771675
 31
0.0
  0
LINE
  5
AC
330
1F
100
AcDbEntity
  8
PREDETERMINADO
  6
Continuous
 62
   179
100
AcDbLine
 10
2253.8107979238
 20
224.5145210547
 30
0.0
 11
2237.4150149106
 21
220.7667408783
 31
0.0
  0
LINE
  5
AD
330
1F
100
AcDbEntity
  8
PREDETERMINADO
  6
Continuous
 62
   179
100
AcDbLine
 10
2237.4150149106
 20
211.9263414463
 30
0.0
 11
2253.8107979238
 21
208.17856127
 31
0.0
  0
LINE
  5
AE
330
1F
100
AcDbEntity
  8
PREDETERMINADO
  6
CENTER
 62
   179
100
AcDbLine
 10
2283.7373939059
 20
216.3465411623
 30
0.0
 11
2235.7240888713
 21
216.3465411623
 31
0.0
  0
LINE
  5
AF
330
1F
100
AcDbEntity
  8
PREDETERMINADO
370
    15
100
AcDbLine
 10
2217.7381926647
 20
16.4129821305
 30
0.0
 11
2984.4880912713
 21
16.4129821305
 31
0.0
  0
LINE
  5
B0
330
1F
100
AcDbEntity
  8
PREDETERMINADO
370
    15
100
AcDbLine
 10
2984.4880912713
 20
16.4129821305
 30
0.0
 11
2984.4880912713
 21
228.3629821305
 31
0.0
  0
LINE
  5
B1
330
1F
100
AcDbEntity
  8
PREDETERMINADO
370
    15
100
AcDbLine
 10
2704.7140912713
 20
138.474581476
 30
0.0
 11
2708.9530912713
 21
138.474581476
 31
0.0
  0
LINE
  5
B2
330
1F
100
AcDbEntity
  8
PREDETERMINADO
100
AcDbLine
 10
2708.9530912713
 20
138.474581476
 30
0.0
 11
2708.9530912713
 21
228.3629821305
 31
0.0
  0
LINE
  5
B3
330
1F
100
AcDbEntity
  8
PREDETERMINADO
100
AcDbLine
 10
2708.9530912713
 20
92.8525389877
 30
0.0
 11
2708.9530912713
 21
16.4129821305
 31
0.0
  0
LINE
  5
B4
330
1F
100
AcDbEntity
  8
PREDETERMINADO
370
    15
100
AcDbLine
 10
2213.4991926647
 20
142.713581476
 30
0.0
 11
2213.4991926647
 21
97.0915389877
 31
0.0
  0
LINE
  5
B5
330
1F
100
AcDbEntity
  8
PREDETERMINADO
370
    15
100
AcDbLine
 10
2213.4991926647
 20
97.0915389877
 30
0.0
 11
2704.7140912713
 21
97.0915389877
 31
0.0
  0
LINE
  5
B6
330
1F
100
AcDbEntity
  8
PREDETERMINADO
370
    15
100
AcDbLine
 10
2704.7140912713
 20
97.0915389877
 30
0.0
 11
2704.7140912713
 21
142.713581476
 31
0.0
  0
LINE
  5
B7
330
1F
100
AcDbEntity
  8
SLD-0
  6
Continuous
 62
   179
100
AcDbLine
 10
2939.2971038697
 20
28.9261840238
 30
0.0
 11
2944.6331209564
 21
28.9261840238
 31
0.0
  0
ARC
  5
B8
330
1F
100
AcDbEntity
  8
PREDETERMINADO
100
AcDbCircle
 10
2871.6408538915
 20
57.3214178067
 30
0.0
 40
73.37341114253053
100
AcDbArc
 50
337.2322750577
 51
0.0
  0
ARC
  5
B9
330
1F
100
AcDbEntity
  8
PREDETERMINADO
100
AcDbCircle
 10
2905.1350807874
 20
57.3214178067
 30
0.0
 40
48.64549803190766
100
AcDbArc
 50
324.2875534854
 51
0.0
  0
ARC
  5
BA
330
1F
100
AcDbEntity
  8
PREDETERMINADO
100
AcDbCircle
 10
2897.7228278856
 20
57.3214178067
 30
0.0
 40
69.01664957284447
100
AcDbArc
 50
337.9429486592
 51
0.0
  0
ARC
  5
BB
330
1F
100
AcDbEntity
  8
PREDETERMINADO
100
AcDbCircle
 10
2906.6313239444
 20
57.3214178067
 30
0.0
 40
68.11217914413874
100
AcDbArc
 50
337.634330245
 51
0.0
  0
ARC
  5
BC
330
1F
100
AcDbEntity
  8
PREDETERMINADO
100
AcDbCircle
 10
2906.6313239444
 20
57.3214178067
 30
0.0
 40
68.11217914413874
100
AcDbArc
 50
337.634330245
 51
0.0
  0
ARC
  5
BD
330
1F
100
AcDbEntity
  8
PREDETERMINADO
100
AcDbCircle
 10
2897.7228278856
 20
57.3214178067
 30
0.0
 40
69.01664957284447
100
AcDbArc
 50
337.9429486592
 51
0.0
  0
ARC
  5
BE
330
1F
100
AcDbEntity
  8
PREDETERMINADO
100
AcDbCircle
 10
2905.1350807874
 20
57.3214178067
 30
0.0
 40
48.64549803190766
100
AcDbArc
 50
324.2875534854
 51
0.0
  0
ARC
  5
BF
330
1F
100
AcDbEntity
  8
PREDETERMINADO
100
AcDbCircle
 10
2871.6408538915
 20
57.3214178067
 30
0.0
 40
73.37341114253053
100
AcDbArc
 50
337.2322750577
 51
0.0
  0
CIRCLE
  5
C0
330
1F
100
AcDbEntity
  8
PREDETERMINADO
  6
Continuous
 62
   179
100
AcDbCircle
 10
2273.9088545206
 20
216.3465411623
 30
0.0
 40
8.16797989235628
  0
CIRCLE
  5
C1
330
1F
100
AcDbEntity
  8
PREDETERMINADO
  6
Continuous
 62
   179
100
AcDbCircle
 10
2273.8976301581
 20
216.3465411623
 30
0.0
 40
4.420199715998793
  0
ARC
  5
C2
330
1F
100
AcDbEntity
  8
SLD-0
  6
Continuous
 62
   179
100
AcDbCircle
 10
2897.7228278856
 20
57.3214178067
 30
0.0
 40
69.01664957284447
100
AcDbArc
 50
337.9429486592
 51
0.0
  0
ARC
  5
C3
330
1F
100
AcDbEntity
  8
SLD-0
  6
Continuous
 62
   179
100
AcDbCircle
 10
2906.6313239444
 20
57.3214178067
 30
0.0
 40
68.11217914413874
100
AcDbArc
 50
337.634330245
 51
0.0
  0
ARC
  5
C4
330
1F
100
AcDbEntity
  8
SLD-0
  6
Continuous
 62
   179
100
AcDbCircle
 10
2905.1350807874
 20
57.3214178067
 30
0.0
 40
48.64549803190766
100
AcDbArc
 50
324.2875534854
 51
0.0
  0
ARC
  5
C5
330
1F
100
AcDbEntity
  8
SLD-0
  6
Continuous
 62
   179
100
AcDbCircle
 10
2871.6408538915
 20
57.3214178067
 30
0.0
 40
73.37341114253053
100
AcDbArc
 50
337.2322750577
 51
0.0
  0
HATCH
  5
C6
330
1F
100
AcDbEntity
  8
0
  6
Continuous
 62
   179
100
AcDbHatch
 10
0.0
 20
0.0
 30
0.0
210
0.0
220
0.0
230
1.0
  2
ANSI31
 70
     0
 71
     0
 91
        1
 92
        0
 93
        4
 72
     1
 10
2939.297103869709
 20
28.92618402383318
 11
2944.633120956416
 21
28.92618402383318
 72
     2
 10
2905.135080787436
 20
57.3214178066691
 40
48.64549803190743
 50
324.2875534853725
 51
360.0000000000008
 73
     1
 72
     1
 10
2953.780578819344
 20
57.3214178066691
 11
2945.014265034066
 21
57.3214178066691
 72
     2
 10
2871.640853891537
 20
57.3214178066691
 40
73.37341114252966
 50
0.0
 51
22.76772494225683
 73
     0
 97
        0
 75
     0
 76
     1
 52
90.0
 41
0.03125
 77
     0
 78
     1
 53
135.0000000000002
 43
0.0
 44
0.0
 45
-0.0701582509458525
 46
-0.070158250945853
 79
     0
 98
        1
 10
0.0
 20
0.0
  0
HATCH
  5
C7
330
1F
100
AcDbEntity
  8
0
  6
Continuous
 62
   179
100
AcDbHatch
 10
0.0
 20
0.0
 30
0.0
210
0.0
220
0.0
230
1.0
  2
ANSI31
 70
     0
 71
     0
 91
        1
 92
        0
 93
        4
 72
     1
 10
2961.688175555317
 20
31.40362052837686
 11
2969.619709635777
 21
31.40362052837686
 72
     2
 10
2906.631323944409
 20
57.3214178066691
 40
68.11217914413834
 50
337.6343302449529
 51
360.0000000000008
 73
     1
 72
     1
 10
2974.743503088548
 20
57.3214178066691
 11
2966.739477458489
 21
57.3214178066691
 72
     2
 10
2897.722827885644
 20
57.3214178066691
 40
69.01664957284461
 50
0.0
 51
22.05705134075574
 73
     0
 97
        0
 75
     0
 76
     1
 52
90.0
 41
0.03125
 77
     0
 78
     1
 53
135.0000000000002
 43
0.0
 44
0.0
 45
-0.0701582509458525
 46
-0.070158250945853
 79
     0
 98
        1
 10
0.0
 20
0.0
  0
HATCH
  5
C8
330
1F
100
AcDbEntity
  8
0
  6
Continuous
 62
   179
100
AcDbHatch
 10
0.0
 20
0.0
 30
0.0
210
0.0
220
0.0
230
1.0
  2
ANSI31
 70
     0
 71
     0
 91
        1
 92
        0
 93
        6
 72
     1
 10
2708.953091271272
 20
92.85253898767476
 11
2708.953091271272
 21
138.4745814760103
 72
     1
 10
2708.953091271272
 20
138.4745814760103
 11
2704.71409127127
 21
138.4745814760103
 72
     1
 10
2704.71409127127
 20
138.4745814760103
 11
2704.71409127127
 21
97.09153898767443
 72
     1
 10
2704.71409127127
 20
97.09153898767443
 11
2217.738192664704
 21
97.09153898767443
 72
     1
 10
2217.738192664704
 20
97.09153898767443
 11
2217.738192664704
 21
92.85253898767476
 72
     1
 10
2217.738192664704
 20
92.85253898767476
 11
2708.953091271272
 21
92.85253898767476
 97
        0
 75
     0
 76
     1
 52
0.0
 41
0.0625
 77
     0
 78
     1
 53
45.0
 43
0.0
 44
0.0
 45
-0.1403165018917055
 46
0.1403165018917055
 79
     0
 98
        1
 10
0.0
 20
0.0
  0
INSERT
  5
CF
330
1F
100
AcDbEntity
  8
CAJETIN
100
AcDbBlockReference
  2
SW_NOTE_0
 10
2728.6204549186
 20
101.3150087962
 30
0.0
  0
MTEXT
  5
D0
330
1F
100
AcDbEntity
  8
CAJETIN
100
AcDbMText
 10
2939.3791067988
 20
157.4872413264
 30
0.0
 40
9.525
 41
0.0
 71
     1
 72
     1
  1
g.
  7
SLDTEXTSTYLE0
 73
     1
 44
1.0
  0
MTEXT
  5
D1
330
1F
100
AcDbEntity
  8
CAJETIN
100
AcDbMText
 10
2343.8799013218
 20
201.7437690723
 30
0.0
 40
9.525
 41
0.0
 71
     1
 72
     1
  1
R&D Dep.
  7
SLDTEXTSTYLE0
 73
     1
 44
1.0
  0
MTEXT
  5
D3
330
1F
100
AcDbEntity
  8
PREDETERMINADO
100
AcDbMText
 10
2849.7878404293
 20
60.740140865
 30
0.0
 40
19.05
 41
0.0
 71
     1
 72
     1
  1
beyma
  7
SLDTEXTSTYLE1
 73
     1
 44
1.0
  0
MTEXT
  5
D4
330
1F
100
AcDbEntity
  8
CAJETIN
100
AcDbMText
 10
2772.883428931
 20
199.1385222051
 30
0.0
 40
9.525
 41
0.0
 71
     1
 72
     1
  1
01
  7
SLDTEXTSTYLE0
 73
     1
 44
1.0
  0
MTEXT
  5
D5
330
1F
100
AcDbEntity
  8
CAJETIN
100
AcDbMText
 10
2756.0456523869
 20
157.4872413264
 30
0.0
 40
9.525
 41
0.0
 71
     1
 72
     1
  1
B-210WR
  7
SLDTEXTSTYLE0
 73
     1
 44
1.0
  0
MTEXT
  5
D6
330
1F
100
AcDbEntity
  8
CAJETIN
100
AcDbMText
 10
2928.8662679386
 20
200.0545839416
 30
0.0
 40
9.525
 41
0.0
 71
     2
 72
     1
  1
1:1
  7
SLDTEXTSTYLE0
 73
     1
 44
1.0
  0
MTEXT
  5
D7
330
1F
100
AcDbEntity
  8
CAJETIN
100
AcDbMText
 10
2356.8590279323
 20
224.804662271
 30
0.0
 40
9.525
 41
0.0
 71
     1
 72
     1
  1
NAME
  7
SLDTEXTSTYLE0
 73
     1
 44
1.0
  0
MTEXT
  5
D8
330
1F
100
AcDbEntity
  8
CAJETIN
100
AcDbMText
 10
2900.7759952373
 20
175.6724939512
 30
0.0
 40
9.525
 41
0.0
 71
     1
 72
     1
  1
WEIGHT
  7
SLDTEXTSTYLE0
 73
     1
 44
1.0
  0
MTEXT
  5
D9
330
1F
100
AcDbEntity
  8
CAJETIN
100
AcDbMText
 10
2282.6506455293
 20
223.9343364208
 30
0.0
 40
9.525
 41
0.0
 71
     1
 72
     1
  1
CAD
  7
SLDTEXTSTYLE0
 73
     1
 44
1.0
  0
MTEXT
  5
DA
330
1F
100
AcDbEntity
  8
CAJETIN
100
AcDbMText
 10
2442.0695596789
 20
224.804662271
 30
0.0
 40
9.525
 41
0.0
 71
     1
 72
     1
  1
DATE
  7
SLDTEXTSTYLE0
 73
     1
 44
1.0
  0
MTEXT
  5
DB
330
1F
100
AcDbEntity
  8
CAJETIN
100
AcDbMText
 10
2222.8401384976
 20
201.9689717443
 30
0.0
 40
9.525
 41
0.0
 71
     1
 72
     1
  1
DESIGNED BY
  7
SLDTEXTSTYLE0
 73
     1
 44
1.0
  0
MTEXT
  5
DC
330
1F
100
AcDbEntity
  8
CAJETIN
100
AcDbMText
 10
2222.8401384976
 20
160.7204530065
 30
0.0
 40
9.525
 41
0.0
 71
     1
 72
     1
  1
REVISED BY
  7
SLDTEXTSTYLE0
 73
     1
 44
1.0
  0
MTEXT
  5
DD
330
1F
100
AcDbEntity
  8
CAJETIN
100
AcDbMText
 10
2222.8401384976
 20
181.9642477551
 30
0.0
 40
9.525
 41
0.0
 71
     1
 72
     1
  1
DRAWN BY
  7
SLDTEXTSTYLE0
 73
     1
 44
1.0
  0
MTEXT
  5
DE
330
1F
100
AcDbEntity
  8
CAJETIN
100
AcDbMText
 10
2217.3543736071
 20
137.8524578628
 30
0.0
 40
9.525
 41
0.0
 71
     1
 72
     1
  1
TITLE:
  7
SLDTEXTSTYLE0
 73
     1
 44
1.0
  0
MTEXT
  5
DF
330
1F
100
AcDbEntity
  8
CAJETIN
100
AcDbMText
 10
2222.8401384976
 20
87.5810092341
 30
0.0
 40
9.525
 41
0.0
 71
     1
 72
     1
  1
MODEL CODE:
  7
SLDTEXTSTYLE0
 73
     1
 44
1.0
  0
MTEXT
  5
E0
330
1F
100
AcDbEntity
  8
CAJETIN
100
AcDbMText
 10
2578.7227350005
 20
88.0350546673
 30
0.0
 40
9.525
 41
0.0
 71
     1
 72
     1
  1
PART NUMBER
  7
SLDTEXTSTYLE0
 73
     1
 44
1.0
  0
MTEXT
  5
E1
330
1F
100
AcDbEntity
  8
CAJETIN
100
AcDbMText
 10
2567.9292050847
 20
224.804662271
 30
0.0
 40
9.525
 41
0.0
 71
     1
 72
     1
  1
NOTES
  7
SLDTEXTSTYLE0
 73
     1
 44
1.0
  0
MTEXT
  5
E2
330
1F
100
AcDbEntity
  8
CAJETIN
100
AcDbMText
 10
2712.1524917175
 20
223.8484128476
 30
0.0
 40
9.525
 41
0.0
 71
     1
 72
     1
  1
UNIT
  7
SLDTEXTSTYLE0
 73
     1
 44
1.0
  0
MTEXT
  5
E3
330
1F
100
AcDbEntity
  8
CAJETIN
100
AcDbMText
 10
2755.7445257684
 20
223.8484128476
 30
0.0
 40
9.525
 41
0.0
 71
     1
 72
     1
  1
LEVEL
  7
SLDTEXTSTYLE0
 73
     1
 44
1.0
  0
MTEXT
  5
E4
330
1F
100
AcDbEntity
  8
CAJETIN
100
AcDbMText
 10
2819.0473228062
 20
223.8484128476
 30
0.0
 40
9.525
 41
0.0
 71
     1
 72
     1
  1
DATE
  7
SLDTEXTSTYLE0
 73
     1
 44
1.0
  0
MTEXT
  5
E5
330
1F
100
AcDbEntity
  8
CAJETIN
100
AcDbMText
 10
2906.3306803736
 20
224.804662271
 30
0.0
 40
9.525
 41
0.0
 71
     1
 72
     1
  1
SCALE
  7
SLDTEXTSTYLE0
 73
     1
 44
1.0
  0
MTEXT
  5
E6
330
1F
100
AcDbEntity
  8
CAJETIN
100
AcDbMText
 10
2721.1134880288
 20
175.6724939512
 30
0.0
 40
9.525
 41
0.0
 71
     1
 72
     1
  1
DRAWING NUMBER
  7
SLDTEXTSTYLE0
 73
     1
 44
1.0
  0
MTEXT
  5
E7
330
1F
100
AcDbEntity
  8
CAJETIN
100
AcDbMText
 10
2453.3880459835
 20
88.0350546673
 30
0.0
 40
9.525
 41
0.0
 71
     1
 72
     1
  1
SIGNED
  7
SLDTEXTSTYLE0
 73
     1
 44
1.0
  0
MTEXT
  5
E8
330
1F
100
AcDbEntity
  8
CAJETIN
100
AcDbMText
 10
2735.5558527015
 20
133.3873364221
 30
0.0
 40
9.525
 41
0.0
 71
     1
 72
     1
  1
MATERIAL
  7
SLDTEXTSTYLE0
 73
     1
 44
1.0
  0
MTEXT
  5
E9
330
1F
100
AcDbEntity
  8
CAJETIN
100
AcDbMText
 10
2424.2261660469
 20
201.7437690723
 30
0.0
 40
9.525
 41
0.0
 71
     1
 72
     1
  1
26/02/2019
  7
SLDTEXTSTYLE0
 73
     1
 44
1.0
  0
MTEXT
  5
EA
330
1F
100
AcDbEntity
  8
CAJETIN
100
AcDbMText
 10
2345.2549001502
 20
180.8923398585
 30
0.0
 40
9.525
 41
0.0
 71
     1
 72
     1
  1
R. Climent
  7
SLDTEXTSTYLE0
 73
     1
 44
1.0
  0
MTEXT
  5
EB
330
1F
100
AcDbEntity
  8
CAJETIN
100
AcDbMText
 10
2345.2549001502
 20
159.6161257638
 30
0.0
 40
9.525
 41
0.0
 71
     1
 72
     1
  1
J. Serrano
  7
SLDTEXTSTYLE0
 73
     1
 44
1.0
  0
MTEXT
  5
EC
330
1F
100
AcDbEntity
  8
CAJETIN
100
AcDbMText
 10
2424.2261660469
 20
180.8923398585
 30
0.0
 40
9.525
 41
0.0
 71
     1
 72
     1
  1
26/02/2019
  7
SLDTEXTSTYLE0
 73
     1
 44
1.0
  0
MTEXT
  5
ED
330
1F
100
AcDbEntity
  8
CAJETIN
100
AcDbMText
 10
2424.2261660469
 20
159.6161257638
 30
0.0
 40
9.525
 41
0.0
 71
     1
 72
     1
  1
26/02/2019
  7
SLDTEXTSTYLE0
 73
     1
 44
1.0
  0
MTEXT
  5
EE
330
1F
100
AcDbEntity
  8
CAJETIN
100
AcDbMText
 10
2717.7131164799
 20
199.1385222051
 30
0.0
 40
9.525
 41
0.0
 71
     1
 72
     1
  1
mm
  7
SLDTEXTSTYLE0
 73
     1
 44
1.0
  0
MTEXT
  5
F0
330
1F
100
AcDbEntity
  8
CAJETIN
100
AcDbMText
 10
2470.5472943607
 20
126.7367287288
 30
0.0
 40
12.7
 41
0.0
 71
     2
 72
     1
  1
B-210WR    -   MI-SERIES
  7
SLDTEXTSTYLE2
 73
     1
 44
1.0
  0
INSERT
  5
F6
330
1F
100
AcDbEntity
  8
SLD-0_0
100
AcDbBlockReference
  2
SW_NOTE_1
 10
1139.8941709179
 20
914.7960901315
 30
0.0
  0
INSERT
  5
FC
330
1F
100
AcDbEntity
  8
SLD-0_0
100
AcDbBlockReference
  2
SW_NOTE_2
 10
2546.2120032433
 20
920.7239437346
 30
0.0
  0
INSERT
  5
102
330
1F
100
AcDbEntity
  8
SLD-0_0
100
AcDbBlockReference
  2
SW_NOTE_3
 10
1858.0146418199
 20
920.7239437346
 30
0.0
  0
INSERT
  5
108
330
1F
100
AcDbEntity
  8
SLD-0_0
100
AcDbBlockReference
  2
SW_NOTE_4
 10
1850.7682662141
 20
1686.2627128392
 30
0.0
  0
INSERT
  5
10E
330
1F
100
AcDbEntity
  8
SLD-0_0
100
AcDbBlockReference
  2
SW_NOTE_5
 10
2320.0396568585
 20
1684.3220885904
 30
0.0
  0
INSERT
  5
114
330
1F
100
AcDbEntity
  8
SLD-0_0
100
AcDbBlockReference
  2
SW_NOTE_6
 10
1151.7989855319
 20
1676.5595915954
 30
0.0
  0
INSERT
  5
143
330
1F
100
AcDbEntity
  8
SLD-0_0
100
AcDbBlockReference
  2
SW_TABLEANNOTATION_0
 10
301.5430538756
 20
529.1645750527
 30
0.0
  0
LINE
  5
144
330
1F
100
AcDbEntity
  8
0
  6
Continuous
 62
     7
100
AcDbLine
 10
985.8600259017
 20
861.0393708311
 30
0.0
 11
985.8600259017
 21
1323.01580122
 31
0.0
  0
LINE
  5
145
330
1F
100
AcDbEntity
  8
0
  6
Continuous
 62
     7
100
AcDbLine
 10
172.84216245
 20
1319.585647274
 30
0.0
 11
172.84216245
 21
857.6092168851
 31
0.0
  0
ARC
  5
146
330
1F
100
AcDbEntity
  8
0
  6
Continuous
 62
     7
100
AcDbCircle
 10
741.914562244
 20
671.6869758658
 30
0.0
 40
10.00000000000008
100
AcDbArc
 50
262.8192442221
 51
311.40962211
  0
LINE
  5
147
330
1F
100
AcDbEntity
  8
0
  6
Continuous
 62
     7
100
AcDbLine
 10
319.7281062188
 20
714.7984170135
 30
0.0
 11
740.6645622447
 21
661.7654084493
 31
0.0
  0
LINE
  5
148
330
1F
100
AcDbEntity
  8
0
  6
Continuous
 62
     7
100
AcDbLine
 10
748.5289405218
 20
664.1869758659
 30
0.0
 11
851.0594237703
 21
754.6103626944
 31
0.0
  0
LINE
  5
149
330
1F
100
AcDbEntity
  8
0
  6
Continuous
 62
     7
100
AcDbLine
 10
310.9781062182
 20
729.4340296381
 30
0.0
 11
310.9781062182
 21
724.71998443
 31
0.0
  0
ARC
  5
14A
330
1F
100
AcDbEntity
  8
0
  6
Continuous
 62
     7
100
AcDbCircle
 10
320.9781062182
 20
724.71998443
 30
0.0
 40
10.0
100
AcDbArc
 50
180.0
 51
262.8192442221
  0
LINE
  5
14B
330
1F
100
AcDbEntity
  8
0
  6
Continuous
 62
     7
100
AcDbLine
 10
854.4450454926
 20
762.1103626943
 30
0.0
 11
854.4450454926
 21
766.8244079024
 31
0.0
  0
ARC
  5
14C
330
1F
100
AcDbEntity
  8
0
  6
Continuous
 62
     7
100
AcDbCircle
 10
844.4450454926
 20
762.1103626943
 30
0.0
 40
10.0
100
AcDbArc
 50
311.40962211
 51
0.0
  0
ARC
  5
14D
330
1F
100
AcDbEntity
  8
0
  6
Continuous
 62
     7
100
AcDbCircle
 10
320.9781062182
 20
1452.7987152314
 30
0.0
 40
10.0000000000001
100
AcDbArc
 50
131.40962211
 51
180.0
  0
LINE
  5
14E
330
1F
100
AcDbEntity
  8
0
  6
Continuous
 62
     7
100
AcDbLine
 10
310.9781062182
 20
1452.7987152314
 30
0.0
 11
310.9781062182
 21
1448.0846700234
 31
0.0
  0
LINE
  5
14F
330
1F
100
AcDbEntity
  8
0
  6
Continuous
 62
     7
100
AcDbLine
 10
416.8942111889
 20
1550.7221020598
 30
0.0
 11
314.3637279404
 21
1460.2987152313
 31
0.0
  0
ARC
  5
150
330
1F
100
AcDbEntity
  8
0
  6
Continuous
 62
     7
100
AcDbCircle
 10
844.4450454926
 20
1490.1890934957
 30
0.0
 40
10.00000000000007
100
AcDbArc
 50
0.0
 51
82.8192442221
  0
LINE
  5
151
330
1F
100
AcDbEntity
  8
0
  6
Continuous
 62
     7
100
AcDbLine
 10
854.4450454926
 20
1485.4750482876
 30
0.0
 11
854.4450454926
 21
1490.1890934957
 31
0.0
  0
LINE
  5
152
330
1F
100
AcDbEntity
  8
0
  6
Continuous
 62
     7
100
AcDbLine
 10
845.6950454919
 20
1500.1106609123
 30
0.0
 11
424.7585894661
 21
1553.1436694765
 31
0.0
  0
ARC
  5
153
330
1F
100
AcDbEntity
  8
0
  6
Continuous
 62
     7
100
AcDbCircle
 10
423.5085894667
 20
1543.2221020599
 30
0.0
 40
10.00000000000007
100
AcDbArc
 50
82.8192442221
 51
131.40962211
  0
LINE
  5
154
330
1F
100
AcDbEntity
  8
0
  6
Continuous
 62
     7
100
AcDbLine
 10
527.8339086281
 20
798.1432418631
 30
0.0
 11
499.5496373871
 21
773.1988592898
 31
0.0
  0
LINE
  5
155
330
1F
100
AcDbEntity
  8
0
  6
Continuous
 62
     7
100
AcDbLine
 10
549.818912298
 20
716.1988592904
 30
0.0
 11
578.103183539
 21
741.1432418637
 31
0.0
  0
LINE
  5
156
330
1F
100
AcDbEntity
  8
0
  6
Continuous
 62
     7
100
AcDbLine
 10
527.7403671934
 20
901.8640215533
 30
0.0
 11
499.4560959524
 21
876.9196389799
 31
0.0
  0
LINE
  5
157
330
1F
100
AcDbEntity
  8
0
  6
Continuous
 62
     7
100
AcDbLine
 10
549.7253708633
 20
819.9196389805
 30
0.0
 11
578.0096421043
 21
844.8640215539
 31
0.0
  0
LINE
  5
158
330
1F
100
AcDbEntity
  8
0
  6
Continuous
 62
     7
100
AcDbLine
 10
865.1169370144
 20
1230.0636222206
 30
0.0
 11
974.7184880732
 21
1326.7231046924
 31
0.0
  0
LINE
  5
159
330
1F
100
AcDbEntity
  8
0
  6
Continuous
 62
     7
100
AcDbLine
 10
974.7184880732
 20
1326.7231046924
 30
0.0
 11
979.3955598068
 21
1326.1338490417
 31
0.0
  0
LWPOLYLINE
  5
15A
330
1F
100
AcDbEntity
  8
0
  6
Continuous
 62
     7
100
AcDbPolyline
 90
        9
 70
   128
 43
0.0
 10
985.2141693689
 20
1321.8372899186
 10
985.7241805732
 20
1322.4682356364
 10
985.8551178453
 20
1323.1202239925
 10
985.6019493393
 20
1323.76819944
 10
984.974404179
 20
1324.3872606458
 10
983.9965985729
 20
1324.9536174351
 10
982.706109042
 20
1325.4455050339
 10
981.1525283754
 20
1325.8440204778
 10
979.3955598068
 20
1326.1338490417
  0
LINE
  5
15B
330
1F
100
AcDbEntity
  8
0
  6
Continuous
 62
     7
100
AcDbLine
 10
882.6836861204
 20
1231.4139030901
 30
0.0
 11
985.2141693689
 21
1321.8372899186
 31
0.0
  0
LWPOLYLINE
  5
15C
330
1F
100
AcDbEntity
  8
0
  6
Continuous
 62
     7
100
AcDbPolyline
 90
        9
 70
   128
 43
0.0
 10
869.794008748
 20
1229.4743665698
 10
871.6868459019
 20
1229.3043628351
 10
873.6428109706
 20
1229.2607170778
 10
875.5867373136
 20
1229.3451065797
 10
877.4439209316
 20
1229.5542882998
 10
879.1429912998
 20
1229.8802235018
 10
880.6186540967
 20
1230.3103866786
 10
881.8142004286
 20
1230.8282469007
 10
882.6836861204
 20
1231.4139030901
  0
LINE
  5
15D
330
1F
100
AcDbEntity
  8
0
  6
Continuous
 62
     7
100
AcDbLine
 10
865.1169370144
 20
1230.0636222206
 30
0.0
 11
869.794008748
 21
1229.4743665698
 31
0.0
  0
LWPOLYLINE
  5
15E
330
1F
100
AcDbEntity
  8
0
  6
Continuous
 62
     7
100
AcDbPolyline
 90
        9
 70
   128
 43
0.0
 10
882.6836861204
 20
769.4374727011
 10
881.8142004286
 20
768.8518165117
 10
880.6186540967
 20
768.3339562897
 10
879.1429912998
 20
767.9037931128
 10
877.4439209316
 20
767.5778579109
 10
875.5867373136
 20
767.3686761908
 10
873.6428109706
 20
767.2842866888
 10
871.6868459019
 20
767.3279324462
 10
869.794008748
 20
767.4979361809
  0
LINE
  5
15F
330
1F
100
AcDbEntity
  8
0
  6
Continuous
 62
     7
100
AcDbLine
 10
865.1169370144
 20
768.0871918316
 30
0.0
 11
865.1169370144
 21
1230.0636222206
 31
0.0
  0
LINE
  5
160
330
1F
100
AcDbEntity
  8
0
  6
Continuous
 62
     7
100
AcDbLine
 10
865.1169370144
 20
768.0871918316
 30
0.0
 11
869.794008748
 21
767.4979361809
 31
0.0
  0
LINE
  5
161
330
1F
100
AcDbEntity
  8
0
  6
Continuous
 62
     7
100
AcDbLine
 10
985.2141693689
 20
859.8608595296
 30
0.0
 11
882.6836861204
 21
769.4374727011
 31
0.0
  0
LWPOLYLINE
  5
162
330
1F
100
AcDbEntity
  8
0
  6
Continuous
 62
     7
100
AcDbPolyline
 90
        3
 70
   128
 43
0.0
 10
985.8600259017
 20
861.0393708311
 10
985.7241805732
 20
860.4918052474
 10
985.2141693689
 20
859.8608595296
  0
LINE
  5
163
330
1F
100
AcDbEntity
  8
0
  6
Continuous
 62
     7
100
AcDbLine
 10
183.9837002785
 20
853.9019134127
 30
0.0
 11
183.9837002785
 21
1315.8783438016
 31
0.0
  0
LINE
  5
164
330
1F
100
AcDbEntity
  8
0
  6
Continuous
 62
     7
100
AcDbLine
 10
179.3066285449
 20
854.4911690634
 30
0.0
 11
183.9837002785
 21
853.9019134127
 31
0.0
  0
LINE
  5
165
330
1F
100
AcDbEntity
  8
0
  6
Continuous
 62
     7
100
AcDbLine
 10
179.3066285449
 20
1316.4675994523
 30
0.0
 11
183.9837002785
 21
1315.8783438016
 31
0.0
  0
LWPOLYLINE
  5
166
330
1F
100
AcDbEntity
  8
0
  6
Continuous
 62
     7
100
AcDbPolyline
 90
        9
 70
   128
 43
0.0
 10
288.9081796037
 20
1413.1270819242
 10
287.0153424498
 20
1413.2970856589
 10
285.0593773811
 20
1413.3407314162
 10
283.1154510381
 20
1413.2563419143
 10
281.2582674201
 20
1413.0471601942
 10
279.5591970519
 20
1412.7212249922
 10
278.083534255
 20
1412.2910618154
 10
276.8879879231
 20
1411.7732015933
 10
276.0185022313
 20
1411.1875454039
  0
LINE
  5
167
330
1F
100
AcDbEntity
  8
0
  6
Continuous
 62
     7
100
AcDbLine
 10
288.9081796037
 20
1413.1270819242
 30
0.0
 11
293.5852513373
 21
1412.5378262735
 31
0.0
  0
LINE
  5
168
330
1F
100
AcDbEntity
  8
0
  6
Continuous
 62
     7
100
AcDbLine
 10
183.9837002785
 20
1315.8783438016
 30
0.0
 11
293.5852513373
 21
1412.5378262735
 31
0.0
  0
LWPOLYLINE
  5
169
330
1F
100
AcDbEntity
  8
0
  6
Continuous
 62
     7
100
AcDbPolyline
 90
        9
 70
   128
 43
0.0
 10
173.4880189828
 20
1320.7641585754
 10
172.9780077785
 20
1320.1332128577
 10
172.8470705064
 20
1319.4812245016
 10
173.1002390124
 20
1318.8332490541
 10
173.7277841727
 20
1318.2141878482
 10
174.7055897788
 20
1317.6478310589
 10
175.9960793097
 20
1317.1559434601
 10
177.5496599763
 20
1316.7574280162
 10
179.3066285449
 20
1316.4675994523
  0
LINE
  5
16A
330
1F
100
AcDbEntity
  8
0
  6
Continuous
 62
     7
100
AcDbLine
 10
173.4880189828
 20
1320.7641585754
 30
0.0
 11
276.0185022313
 21
1411.1875454039
 31
0.0
  0
LINE
  5
16B
330
1F
100
AcDbEntity
  8
0
  6
Continuous
 62
     7
100
AcDbLine
 10
293.5852513373
 20
1412.5378262735
 30
0.0
 11
293.5852513373
 21
1247.1832985329
 31
0.0
  0
LINE
  5
16C
330
1F
100
AcDbEntity
  8
0
  6
Continuous
 62
     7
100
AcDbLine
 10
262.3602847809
 20
923.0235638157
 30
0.0
 11
183.9837002785
 21
853.9019134127
 31
0.0
  0
LWPOLYLINE
  5
16D
330
1F
100
AcDbEntity
  8
0
  6
Continuous
 62
     7
100
AcDbPolyline
 90
        8
 70
   128
 43
0.0
 10
179.3066285449
 20
854.4911690634
 10
177.5496599763
 20
854.7809976273
 10
175.9960793097
 20
855.1795130711
 10
174.7055897788
 20
855.67140067
 10
173.7277841727
 20
856.2377574592
 10
173.1002390124
 20
856.8568186651
 10
172.8470705064
 20
857.5047941126
 10
172.84216245
 20
857.6092168851
  0
LWPOLYLINE
  5
16E
330
1F
100
AcDbEntity
  8
0
  6
Continuous
 62
     7
100
AcDbPolyline
 90
        9
 70
   128
 43
0.0
 10
738.3790283389
 20
673.2829732522
 10
740.2718654927
 20
673.1129695175
 10
742.2278305615
 20
673.0693237601
 10
744.1717569045
 20
673.1537132621
 10
746.0289405225
 20
673.3628949822
 10
747.7280108906
 20
673.6888301841
 10
749.2036736875
 20
674.118993361
 10
750.3992200194
 20
674.6368535831
 10
751.2687057113
 20
675.2225097724
  0
LINE
  5
16F
330
1F
100
AcDbEntity
  8
0
  6
Continuous
 62
     7
100
AcDbLine
 10
317.4425723131
 20
726.3159818164
 30
0.0
 11
738.3790283389
 21
673.2829732522
 31
0.0
  0
LWPOLYLINE
  5
170
330
1F
100
AcDbEntity
  8
0
  6
Continuous
 62
     7
100
AcDbPolyline
 90
        9
 70
   128
 43
0.0
 10
311.6239627509
 20
730.6125409395
 10
311.1139515467
 20
729.9815952217
 10
310.9830142746
 20
729.3296068656
 10
311.2361827805
 20
728.6816314181
 10
311.8637279409
 20
728.0625702123
 10
312.841533547
 20
727.496213423
 10
314.1320230779
 20
727.0043258242
 10
315.6856037445
 20
726.6058103803
 10
317.4425723131
 20
726.3159818164
  0
LINE
  5
171
330
1F
100
AcDbEntity
  8
0
  6
Continuous
 62
     7
100
AcDbLine
 10
414.1544459995
 20
821.035927768
 30
0.0
 11
387.9239036733
 21
797.902763851
 31
0.0
  0
LINE
  5
172
330
1F
100
AcDbEntity
  8
0
  6
Continuous
 62
     7
100
AcDbLine
 10
358.2319527615
 20
771.7169244993
 30
0.0
 11
311.6239627509
 21
730.6125409395
 31
0.0
  0
LWPOLYLINE
  5
173
330
1F
100
AcDbEntity
  8
0
  6
Continuous
 62
     7
100
AcDbPolyline
 90
        9
 70
   128
 43
0.0
 10
427.0441233718
 20
822.9754642882
 10
425.151286218
 20
823.145468023
 10
423.1953211493
 20
823.1891137803
 10
421.2513948063
 20
823.1047242783
 10
419.3942111882
 20
822.8955425583
 10
417.6951408201
 20
822.5696073563
 10
416.2194780232
 20
822.1394441795
 10
415.0239316913
 20
821.6215839574
 10
414.1544459995
 20
821.035927768
  0
LINE
  5
174
330
1F
100
AcDbEntity
  8
0
  6
Continuous
 62
     7
100
AcDbLine
 10
847.9805793977
 20
769.942455724
 30
0.0
 11
679.2458981972
 21
791.2010273328
 31
0.0
  0
LINE
  5
175
330
1F
100
AcDbEntity
  8
0
  6
Continuous
 62
     7
100
AcDbLine
 10
617.5259492093
 20
798.9770099934
 30
0.0
 11
552.5538677404
 21
807.1627228336
 31
0.0
  0
LINE
  5
176
330
1F
100
AcDbEntity
  8
0
  6
Continuous
 62
     7
100
AcDbLine
 10
473.0630198594
 20
817.1776283047
 30
0.0
 11
427.0441233718
 21
822.9754642882
 31
0.0
  0
LWPOLYLINE
  5
177
330
1F
100
AcDbEntity
  8
0
  6
Continuous
 62
     7
100
AcDbPolyline
 90
        9
 70
   128
 43
0.0
 10
853.7991889598
 20
765.6458966009
 10
854.3092001641
 20
766.2768423187
 10
854.4401374362
 20
766.9288306748
 10
854.1869689302
 20
767.5768061223
 10
853.5594237699
 20
768.1958673282
 10
852.5816181637
 20
768.7622241174
 10
851.2911286329
 20
769.2541117163
 10
849.7375479663
 20
769.6526271602
 10
847.9805793977
 20
769.942455724
  0
LINE
  5
178
330
1F
100
AcDbEntity
  8
0
  6
Continuous
 62
     7
100
AcDbLine
 10
751.2687057113
 20
675.2225097724
 30
0.0
 11
853.7991889598
 21
765.6458966009
 31
0.0
  0
LWPOLYLINE
  5
179
330
1F
100
AcDbEntity
  8
0
  6
Continuous
 62
     7
100
AcDbPolyline
 90
        9
 70
   128
 43
0.0
 10
751.2687057113
 20
1393.8731501577
 10
750.3992200194
 20
1393.2874939683
 10
749.2036736875
 20
1392.7696337463
 10
747.7280108906
 20
1392.3394705694
 10
746.0289405225
 20
1392.0135353674
 10
744.1717569045
 20
1391.8043536474
 10
742.2278305615
 20
1391.7199641454
 10
740.2718654927
 20
1391.7636099028
 10
738.3790283389
 20
1391.9336136375
  0
LINE
  5
17A
330
1F
100
AcDbEntity
  8
0
  6
Continuous
 62
     7
100
AcDbLine
 10
317.4425723131
 20
1444.9666222017
 30
0.0
 11
738.3790283389
 21
1391.9336136375
 31
0.0
  0
LINE
  5
17B
330
1F
100
AcDbEntity
  8
0
  6
Continuous
 62
     7
100
AcDbLine
 10
751.2687057113
 20
1393.8731501577
 30
0.0
 11
853.7991889598
 21
1484.2965369862
 31
0.0
  0
LWPOLYLINE
  5
17C
330
1F
100
AcDbEntity
  8
0
  6
Continuous
 62
     7
100
AcDbPolyline
 90
        8
 70
   128
 43
0.0
 10
317.4425723131
 20
1444.9666222017
 10
315.6856037445
 20
1445.2564507656
 10
314.1320230779
 20
1445.6549662094
 10
312.841533547
 20
1446.1468538083
 10
311.8637279409
 20
1446.7132105975
 10
311.2361827805
 20
1447.3322718034
 10
310.9830142746
 20
1447.9802472509
 10
310.9781062182
 20
1448.0846700234
  0
LWPOLYLINE
  5
17D
330
1F
100
AcDbEntity
  8
0
  6
Continuous
 62
     7
100
AcDbPolyline
 90
        3
 70
   128
 43
0.0
 10
854.4450454926
 20
1485.4750482876
 10
854.3092001641
 20
1484.927482704
 10
853.7991889598
 20
1484.2965369862
  0
LWPOLYLINE
  5
17E
330
1F
100
AcDbEntity
  8
0
  6
Continuous
 62
     7
100
AcDbPolyline
 90
       66
 70
   128
 43
0.0
 10
543.4610340482
 20
772.7534758152
 10
546.2863287645
 20
770.4289645113
 10
548.9099309236
 20
767.8642181475
 10
551.3073446592
 20
765.0831830696
 10
553.456185965
 20
762.1118250528
 10
555.3363916889
 20
758.9778868664
 10
556.9304068566
 20
755.7106292468
 10
558.2233485779
 20
752.3405576981
 10
559.2031450043
 20
748.8991376702
 10
559.8606480407
 20
745.4185007749
 10
560.1897187582
 20
741.9311447809
 10
560.1872847123
 20
738.4696301915
 10
559.8533686291
 20
735.0662762359
 10
559.1910881929
 20
731.7528591128
 10
558.2066269379
 20
728.5603153054
 10
556.9091765134
 20
725.5184527348
 10
555.3108508646
 20
722.6556724523
 10
553.4265731273
 20
719.9987034662
 10
551.2739362951
 20
717.5723531798
 10
548.8730389582
 20
715.3992757722
 10
546.246297648
 20
713.4997606815
 10
543.4182375404
 20
711.8915431685
 10
540.4152634707
 20
710.5896387266
 10
537.2654133987
 20
709.6062028868
 10
533.9980966258
 20
708.9504177247
 10
530.6438192083
 20
708.6284061296
 10
527.2338991309
 20
708.643174637
 10
523.8001738984
 20
708.9945853574
 10
520.3747032782
 20
709.6793572634
 10
516.9894699666
 20
710.6910968244
 10
513.6760809748
 20
712.0203577007
 10
510.4654725232
 20
713.6547289415
 10
507.3876211978
 20
715.578950863
 10
504.4712640671
 20
717.7750575236
 10
501.743630372
 20
720.2225444671
 10
499.2301872932
 20
722.8985601672
 10
496.9544021717
 20
725.7781193865
 10
494.9375233999
 20
728.8343364564
 10
493.1983820315
 20
732.0386763015
 10
491.7532159609
 20
735.3612208641
 10
490.6155183142
 20
738.7709484407
 10
489.795911468
 20
742.2360233238
 10
489.3020478704
 20
745.7240930427
 10
489.1385385928
 20
749.2025904303
 10
489.3069102773
 20
752.6390376937
 10
489.8055908828
 20
756.0013496507
 10
490.629924363
 20
759.2581333005
 10
491.7722141381
 20
762.3789809317
 10
493.2217949563
 20
765.3347540307
 10
494.9651324721
 20
768.0978553406
 10
496.9859496129
 20
770.6424865289
 10
499.2653785534
 20
772.9448890598
 10
501.7821368798
 20
774.9835660211
 10
504.5127262978
 20
776.7394828356
 10
507.4316520295
 20
778.1962449808
 10
510.5116608521
 20
779.3402510612
 10
513.7239955528
 20
780.1608198003
 10
517.0386634282
 20
780.6502897688
 10
520.4247163173
 20
780.8040909175
 10
523.8505395568
 20
780.6207872465
 10
527.2841471579
 20
780.1020902128
 10
530.6934804518
 20
779.2528427509
 10
534.0467074119
 20
778.0809740555
 10
537.3125198618
 20
776.5974255488
 10
540.4604257904
 20
774.8160487235
 10
543.4610340482
 20
772.7534758152
  0
LWPOLYLINE
  5
17F
330
1F
100
AcDbEntity
  8
0
  6
Continuous
 62
     7
100
AcDbPolyline
 90
       20
 70
   128
 43
0.0
 10
571.7453052892
 20
797.6978583886
 10
574.5706000054
 20
795.3733470846
 10
577.1942021646
 20
792.8086007208
 10
579.5916159001
 20
790.027565643
 10
581.740457206
 20
787.0562076262
 10
583.6206629299
 20
783.9222694398
 10
585.2146780976
 20
780.6550118202
 10
586.5076198189
 20
777.2849402715
 10
587.4874162453
 20
773.8435202436
 10
588.1449192816
 20
770.3628833483
 10
588.4739899992
 20
766.8755273542
 10
588.4715559533
 20
763.4140127649
 10
588.1376398701
 20
760.0106588092
 10
587.4753594339
 20
756.6972416862
 10
586.4908981788
 20
753.5046978787
 10
585.1934477544
 20
750.4628353082
 10
583.5951221055
 20
747.6000550257
 10
581.7108443683
 20
744.9430860395
 10
579.5582075361
 20
742.5167357532
 10
578.103183539
 20
741.1432418637
  0
LWPOLYLINE
  5
180
330
1F
100
AcDbEntity
  8
0
  6
Continuous
 62
     7
100
AcDbPolyline
 90
       15
 70
   128
 43
0.0
 10
527.8339086281
 20
798.1432418631
 10
530.0664081208
 20
799.9279485945
 10
532.7969975387
 20
801.6838654089
 10
535.7159232705
 20
803.1406275542
 10
538.795932093
 20
804.2846336346
 10
542.0082667938
 20
805.1052023737
 10
545.3229346691
 20
805.5946723422
 10
548.7089875583
 20
805.7484734909
 10
552.1348107977
 20
805.5651698199
 10
555.5684183989
 20
805.0464727862
 10
558.9777516927
 20
804.1972253243
 10
562.3309786529
 20
803.0253566288
 10
565.5967911027
 20
801.5418081222
 10
568.7446970313
 20
799.7604312969
 10
571.7453052892
 20
797.6978583886
  0
LWPOLYLINE
  5
181
330
1F
100
AcDbEntity
  8
0
  6
Continuous
 62
     7
100
AcDbPolyline
 90
       63
 70
   128
 43
0.0
 10
541.9786583214
 20
770.5386376685
 10
544.7022953339
 20
768.2882617981
 10
547.2205203674
 20
765.7958267364
 10
549.5074930254
 20
763.0869082399
 10
551.5397458736
 20
760.1893034782
 10
553.2964252479
 20
757.1327457973
 10
554.7595052405
 20
753.948599615
 10
555.913972671
 20
750.6695385801
 10
556.7479811412
 20
747.3292102961
 10
557.2529725956
 20
743.9618910513
 10
557.4237651387
 20
740.6021340979
 10
557.2586062077
 20
737.2844150887
 10
556.7591905567
 20
734.0427783104
 10
555.9306428662
 20
730.9104873429
 10
554.7814651568
 20
727.9196837303
 10
553.3234495467
 20
725.1010571647
 10
551.5715572491
 20
722.483530569
 10
549.5437650497
 20
720.0939633082
 10
547.2608808406
 20
717.9568755758
 10
544.7463301028
 20
716.0941967841
 10
542.0259155298
 20
714.5250405379
 10
539.1275522564
 20
713.2655085039
 10
536.0809814118
 20
712.328525185
 10
532.9174649356
 20
711.7237052981
 10
529.6694647878
 20
711.4572551137
 10
526.3703098451
 20
711.5319087712
 10
523.0538539017
 20
711.9469002231
 10
519.7541282835
 20
712.6979710955
 10
516.5049926405
 20
713.7774143849
 10
513.3397875012
 20
715.1741535424
 10
510.2909921536
 20
716.8738561342
 10
507.3898913636
 20
718.8590809116
 10
504.6662543512
 20
721.109456782
 10
502.1480293177
 20
723.6018918437
 10
499.8610566597
 20
726.3108103402
 10
497.8288038114
 20
729.2084151019
 10
496.0721244372
 20
732.2649727828
 10
494.6090444446
 20
735.4491189651
 10
493.4545770141
 20
738.72818
 10
492.6205685439
 20
742.0685082841
 10
492.1155770894
 20
745.4358275289
 10
491.9447845464
 20
748.7955844822
 10
492.1099434774
 20
752.1133034914
 10
492.6093591284
 20
755.3549402697
 10
493.4379068188
 20
758.4872312372
 10
494.5870845283
 20
761.4780348498
 10
496.0451001384
 20
764.2966614154
 10
497.796992436
 20
766.9141880111
 10
499.8247846354
 20
769.303755272
 10
502.1076688445
 20
771.4408430043
 10
504.6222195822
 20
773.3035217961
 10
507.3426341552
 20
774.8726780422
 10
510.2409974287
 20
776.1322100763
 10
513.2875682732
 20
777.0691933951
 10
516.4510847494
 20
777.674013282
 10
519.6990848973
 20
777.9404634664
 10
522.99823984
 20
777.8658098089
 10
526.3146957834
 20
777.450818357
 10
529.6144214016
 20
776.6997474846
 10
532.8635570446
 20
775.6203041952
 10
536.0287621839
 20
774.2235650377
 10
539.0775575315
 20
772.5238624459
 10
541.9786583214
 20
770.5386376685
  0
LWPOLYLINE
  5
182
330
1F
100
AcDbEntity
  8
0
  6
Continuous
 62
     7
100
AcDbPolyline
 90
       20
 70
   128
 43
0.0
 10
557.1550083396
 20
736.388374065
 10
554.6545810861
 20
736.4762913446
 10
551.3381251427
 20
736.8912827965
 10
548.0383995244
 20
737.6423536689
 10
544.7892638814
 20
738.7217969583
 10
541.6240587422
 20
740.1185361158
 10
538.5752633946
 20
741.8182387076
 10
535.6741626046
 20
743.803463485
 10
532.9505255922
 20
746.0538393554
 10
530.4323005587
 20
748.5462744171
 10
528.1453279007
 20
751.2551929136
 10
526.1130750524
 20
754.1527976752
 10
524.3563956782
 20
757.2093553562
 10
522.8933156855
 20
760.3935015385
 10
521.7388482551
 20
763.6725625734
 10
520.9048397849
 20
767.0128908574
 10
520.3998483304
 20
770.3802101022
 10
520.2290557874
 20
773.7399670556
 10
520.3942147184
 20
777.0576860648
 10
520.4978125864
 20
777.9537270885
  0
LWPOLYLINE
  5
183
330
1F
100
AcDbEntity
  8
0
  6
Continuous
 62
     7
100
AcDbPolyline
 90
       66
 70
   128
 43
0.0
 10
539.5016453318
 20
879.0632043255
 10
542.5462585353
 20
877.0773066582
 10
545.4232258385
 20
874.8238400692
 10
548.1056857729
 20
872.3238445688
 10
550.5685929329
 20
869.6006619415
 10
552.7889518178
 20
866.6797178097
 10
554.746031535
 20
863.5882842418
 10
556.4215593586
 20
860.3552251201
 10
557.7998913365
 20
857.0107266464
 10
558.8681583546
 20
853.586015502
 10
559.6163862915
 20
850.1130672919
 10
560.0375891446
 20
846.624307998
 10
560.1278342563
 20
843.1523112257
 10
559.8862790324
 20
839.7294940735
 10
559.3151788088
 20
836.3878144628
 10
558.4198657945
 20
833.1584727559
 10
557.2086992858
 20
830.0716204461
 10
555.6929876182
 20
827.1560786417
 10
553.8868825831
 20
824.4390689711
 10
551.8072472965
 20
821.9459594214
 10
549.4734987529
 20
819.7000274849
 10
546.9074265335
 20
817.7222428228
 10
544.1329893633
 20
816.0310714776
 10
541.1760914147
 20
814.6423034606
 10
538.064340447
 20
813.5689053245
 10
534.8267900406
 20
812.8208990986
 10
531.4936683314
 20
812.4052687154
 10
528.0960957787
 20
812.3258948038
 10
524.6657946021
 20
812.5835184566
 10
521.2347925993
 20
813.1757343113
 10
517.8351241116
 20
814.0970130078
 10
514.4985309277
 20
815.3387528154
 10
511.2561659192
 20
816.889359944
 10
508.1383021745
 20
818.7343567925
 10
505.1740503474
 20
820.8565171225
 10
502.3910868584
 20
823.2360268949
 10
499.815395488
 20
825.8506692679
 10
497.4710247723
 20
828.6760320303
 10
495.3798634692
 20
831.6857355311
 10
493.5614361882
 20
834.8516789798
 10
492.032721095
 20
838.1443028152
 10
490.8079913905
 20
841.5328646959
 10
489.8986820459
 20
844.9857265326
 10
489.3132830377
 20
848.4706498846
 10
489.0572600785
 20
851.9550969615
 10
489.1330035859
 20
855.4065344198
 10
489.539806363
 20
858.7927371179
 10
490.273870202
 20
862.0820889935
 10
491.3283413466
 20
865.2438782546
 10
492.6933744838
 20
868.2485841265
 10
494.356224667
 20
871.0681524803
 10
496.3013663121
 20
873.6762577658
 10
498.5106381556
 20
876.0485488067
 10
500.9634128215
 20
878.1628761608
 10
503.6367894138
 20
879.9994989233
 10
506.5058073353
 20
881.5412690421
 10
509.5436793389
 20
882.7737914252
 10
512.7220416322
 20
883.6855583432
 10
516.0112187027
 20
884.2680568739
 10
519.3805003903
 20
884.5158483856
 10
522.7984286199
 20
884.4266193157
 10
526.2330911163
 20
884.0012027719
 10
529.6524193613
 20
883.2435707539
 10
533.0244880084
 20
882.1607970678
 10
536.3178129611
 20
880.7629912796
 10
539.5016453318
 20
879.0632043255
  0
LWPOLYLINE
  5
184
330
1F
100
AcDbEntity
  8
0
  6
Continuous
 62
     7
100
AcDbPolyline
 90
       21
 70
   128
 43
0.0
 10
567.7859165727
 20
904.0075868989
 10
570.8305297762
 20
902.0216892316
 10
573.7074970795
 20
899.7682226426
 10
576.3899570139
 20
897.2682271422
 10
578.8528641739
 20
894.5450445149
 10
581.0732230588
 20
891.6241003831
 10
583.030302776
 20
888.5326668152
 10
584.7058305995
 20
885.2996076935
 10
586.0841625775
 20
881.9551092198
 10
587.1524295956
 20
878.5303980753
 10
587.9006575325
 20
875.0574498653
 10
588.3218603856
 20
871.5686905714
 10
588.4121054973
 20
868.0966937991
 10
588.1705502734
 20
864.6738766469
 10
587.5994500498
 20
861.3321970362
 10
586.7041370355
 20
858.1028553293
 10
585.4929705268
 20
855.0160030195
 10
583.9772588592
 20
852.1004612151
 10
582.1711538241
 20
849.3834515445
 10
580.0915185375
 20
846.8903419948
 10
578.0096421043
 20
844.8640215539
  0
LWPOLYLINE
  5
185
330
1F
100
AcDbEntity
  8
0
  6
Continuous
 62
     7
100
AcDbPolyline
 90
       14
 70
   128
 43
0.0
 10
527.7403671934
 20
901.8640215533
 10
529.2476840625
 20
903.1072587342
 10
531.9210606547
 20
904.9438814966
 10
534.7900785763
 20
906.4856516155
 10
537.8279505799
 20
907.7181739986
 10
541.0063128731
 20
908.6299409165
 10
544.2954899436
 20
909.2124394473
 10
547.6647716313
 20
909.460230959
 10
551.0826998609
 20
909.371001889
 10
554.5173623573
 20
908.9455853453
 10
557.9366906023
 20
908.1879533273
 10
561.3087592494
 20
907.1051796412
 10
564.6020842021
 20
905.707373853
 10
567.7859165727
 20
904.0075868989
  0
LWPOLYLINE
  5
186
330
1F
100
AcDbEntity
  8
0
  6
Continuous
 62
     7
100
AcDbPolyline
 90
       63
 70
   128
 43
0.0
 10
538.3244680746
 20
876.6439754825
 10
541.2606951392
 20
874.7199555431
 10
544.0258658384
 20
872.5260587658
 10
546.5916057789
 20
870.0847975003
 10
548.9315869969
 20
867.4212223907
 10
551.0217981187
 20
864.5626653221
 10
552.8407907496
 20
861.5384589582
 10
554.3698995637
 20
858.3796357487
 10
555.5934338355
 20
855.1186094944
 10
556.4988384474
 20
851.7888427374
 10
557.0768227232
 20
848.4245033906
 10
557.3214557618
 20
845.0601141284
 10
557.2302272973
 20
841.7301981373
 10
556.8040734573
 20
838.4689248616
 10
556.0473671567
 20
835.3097593781
 10
554.9678732262
 20
832.2851189999
 10
553.5766687344
 20
829.4260406302
 10
551.8880293218
 20
826.761862282
 10
549.9192827141
 20
824.3199220303
 10
547.6906309155
 20
822.1252774867
 10
545.2249429092
 20
820.200448674
 10
542.547519991
 20
818.5651869405
 10
539.685836143
 20
817.2362722844
 10
536.669256114
 20
816.2273411685
 10
533.5287340971
 20
815.5487465913
 10
530.2964960982
 20
815.2074518514
 10
527.0057092529
 20
815.2069590947
 10
523.6901414875
 20
815.5472733775
 10
520.3838150139
 20
816.2249026149
 10
517.1206572158
 20
817.2328934138
 10
513.9341525081
 20
818.5609024247
 10
510.8569987411
 20
820.1953024779
 10
507.9207716765
 20
822.1193224173
 10
505.1556009774
 20
824.3132191946
 10
502.5898610369
 20
826.7544804601
 10
500.2498798188
 20
829.4180555697
 10
498.159668697
 20
832.2766126383
 10
496.3406760661
 20
835.3008190022
 10
494.811567252
 20
838.4596422117
 10
493.5880329803
 20
841.720668466
 10
492.6826283683
 20
845.050435223
 10
492.1046440926
 20
848.4147745698
 10
491.8600110539
 20
851.779163832
 10
491.9512395184
 20
855.109079823
 10
492.3773933585
 20
858.3703530988
 10
493.134099659
 20
861.5295185822
 10
494.2135935895
 20
864.5541589605
 10
495.6047980814
 20
867.4132373302
 10
497.2934374939
 20
870.0774156784
 10
499.2621841016
 20
872.51935593
 10
501.4908359003
 20
874.7140004736
 10
503.9565239065
 20
876.6388292864
 10
506.6339468247
 20
878.2740910199
 10
509.4956306728
 20
879.6030056759
 10
512.5122107018
 20
880.6119367919
 10
515.6527327186
 20
881.2905313691
 10
518.8849707175
 20
881.631826109
 10
522.1757575628
 20
881.6323188657
 10
525.4913253282
 20
881.2920045828
 10
528.7976518019
 20
880.6143753455
 10
532.0608095999
 20
879.6063845465
 10
535.2473143076
 20
878.2783755357
 10
538.3244680746
 20
876.6439754825
  0
LWPOLYLINE
  5
187
330
1F
100
AcDbEntity
  8
0
  6
Continuous
 62
     7
100
AcDbPolyline
 90
       20
 70
   128
 43
0.0
 10
557.0614669049
 20
840.1091537551
 10
555.2899804939
 20
840.151341668
 10
551.9744127285
 20
840.4916559509
 10
548.6680862548
 20
841.1692851883
 10
545.4049284568
 20
842.1772759872
 10
542.2184237491
 20
843.505284998
 10
539.1412699821
 20
845.1396850513
 10
536.2050429175
 20
847.0637049906
 10
533.4398722183
 20
849.257601768
 10
530.8741322778
 20
851.6988630335
 10
528.5341510598
 20
854.3624381431
 10
526.443939938
 20
857.2209952117
 10
524.6249473071
 20
860.2452015756
 10
523.095838493
 20
863.404024785
 10
521.8723042213
 20
866.6650510394
 10
520.9668996093
 20
869.9948177963
 10
520.3889153336
 20
873.3591571431
 10
520.1442822949
 20
876.7235464053
 10
520.2355107594
 20
880.0534623964
 10
520.4042711518
 20
881.6745067786
  0
LINE
  5
188
330
1F
100
AcDbEntity
  8
0
  6
Continuous
 62
     7
100
AcDbLine
 10
323.2404310069
 20
1116.1678764654
 30
0.0
 11
356.0627308796
 21
1145.1144241063
 31
0.0
  0
LINE
  5
189
330
1F
100
AcDbEntity
  8
0
  6
Continuous
 62
     7
100
AcDbLine
 10
350.676632287
 20
1173.3626480903
 30
0.0
 11
316.679297407
 21
1143.3798169791
 31
0.0
  0
LINE
  5
18A
330
1F
100
AcDbEntity
  8
0
  6
Continuous
 62
     7
100
AcDbLine
 10
552.1508156166
 20
1150.6992549901
 30
0.0
 11
465.1718515818
 21
1161.6575744194
 31
0.0
  0
LINE
  5
18B
330
1F
100
AcDbEntity
  8
0
  6
Continuous
 62
     7
100
AcDbLine
 10
539.7764469487
 20
1139.7860876143
 30
0.0
 11
552.1508156166
 21
1150.6992549901
 31
0.0
  0
LINE
  5
18C
330
1F
100
AcDbEntity
  8
0
  6
Continuous
 62
     7
100
AcDbLine
 10
456.4893990207
 20
1150.2792693352
 30
0.0
 11
539.7764469487
 21
1139.7860876143
 31
0.0
  0
LWPOLYLINE
  5
18D
330
1F
100
AcDbEntity
  8
0
  6
Continuous
 62
     7
100
AcDbPolyline
 90
       14
 70
   128
 43
0.0
 10
356.0627308796
 20
1145.1144241063
 10
357.781417997
 20
1146.4507800188
 10
359.8429782676
 20
1147.732119543
 10
362.2317219729
 20
1148.9486909112
 10
364.9294693309
 20
1150.0912352808
 10
367.9156888552
 20
1151.1510571992
 10
371.1676536122
 20
1152.1200907817
 10
374.6606141864
 20
1152.9909610977
 10
378.3679870389
 20
1153.7570402981
 10
382.2615568235
 20
1154.4124980577
 10
386.3116911233
 20
1154.9523459471
 10
390.4875659707
 20
1155.372475398
 10
394.7574004365
 20
1155.6696889716
 10
395.5632877545
 20
1155.7114089501
  0
LINE
  5
18E
330
1F
100
AcDbEntity
  8
0
  6
Continuous
 62
     7
100
AcDbLine
 10
337.2716462083
 20
1114.4001095132
 30
0.0
 11
356.0627308796
 21
1130.9722884821
 31
0.0
  0
LWPOLYLINE
  5
18F
330
1F
100
AcDbEntity
  8
0
  6
Continuous
 62
     7
100
AcDbPolyline
 90
       14
 70
   128
 43
0.0
 10
356.0627308796
 20
1130.9722884821
 10
357.781417997
 20
1132.3086443947
 10
359.8429782676
 20
1133.5899839188
 10
362.2317219729
 20
1134.806555287
 10
364.9294693309
 20
1135.9490996566
 10
367.9156888552
 20
1137.008921575
 10
371.1676536122
 20
1137.9779551576
 10
374.6606141864
 20
1138.8488254735
 10
378.3679870389
 20
1139.6149046739
 10
382.2615568235
 20
1140.2703624335
 10
386.3116911233
 20
1140.810210323
 10
390.4875659707
 20
1141.2303397739
 10
394.7574004365
 20
1141.5275533475
 10
395.5632877545
 20
1141.569273326
  0
LINE
  5
190
330
1F
100
AcDbEntity
  8
0
  6
Continuous
 62
     7
100
AcDbLine
 10
552.1508156166
 20
1136.557119366
 30
0.0
 11
552.1508156166
 21
1150.6992549901
 31
0.0
  0
LINE
  5
191
330
1F
100
AcDbEntity
  8
0
  6
Continuous
 62
     7
100
AcDbLine
 10
539.7764469487
 20
1125.6439519901
 30
0.0
 11
539.7764469487
 21
1139.7860876143
 31
0.0
  0
LINE
  5
192
330
1F
100
AcDbEntity
  8
0
  6
Continuous
 62
     7
100
AcDbLine
 10
539.7764469487
 20
1125.6439519901
 30
0.0
 11
552.1508156166
 21
1136.557119366
 31
0.0
  0
LINE
  5
193
330
1F
100
AcDbEntity
  8
0
  6
Continuous
 62
     7
100
AcDbLine
 10
449.4016430926
 20
1137.030107022
 30
0.0
 11
539.7764469487
 21
1125.6439519901
 31
0.0
  0
LINE
  5
194
330
1F
100
AcDbEntity
  8
0
  6
Continuous
 62
     7
100
AcDbLine
 10
792.0584605071
 20
1108.0015415287
 30
0.0
 11
679.2458981972
 21
1122.2145884091
 31
0.0
  0
LINE
  5
195
330
1F
100
AcDbEntity
  8
0
  6
Continuous
 62
     7
100
AcDbLine
 10
679.2458981972
 20
1128.718366115
 30
0.0
 11
685.1674999677
 21
1133.9407279978
 31
0.0
  0
LINE
  5
196
330
1F
100
AcDbEntity
  8
0
  6
Continuous
 62
     7
100
AcDbLine
 10
685.1674999677
 20
1133.9407279978
 30
0.0
 11
865.1169370144
 21
1111.2692299619
 31
0.0
  0
LINE
  5
197
330
1F
100
AcDbEntity
  8
0
  6
Continuous
 62
     7
100
AcDbLine
 10
865.1169370144
 20
1092.2942929977
 30
0.0
 11
795.5547010186
 21
1030.9461673007
 31
0.0
  0
LINE
  5
198
330
1F
100
AcDbEntity
  8
0
  6
Continuous
 62
     7
100
AcDbLine
 10
795.5547010186
 20
1030.9461673007
 30
0.0
 11
762.8151988832
 21
1035.0709568557
 31
0.0
  0
LINE
  5
199
330
1F
100
AcDbEntity
  8
0
  6
Continuous
 62
     7
100
AcDbLine
 10
762.8151988832
 20
1035.0709568557
 30
0.0
 11
821.1515083177
 21
1086.5187459133
 31
0.0
  0
LWPOLYLINE
  5
19A
330
1F
100
AcDbEntity
  8
0
  6
Continuous
 62
     7
100
AcDbPolyline
 90
       19
 70
   128
 43
0.0
 10
821.1515083177
 20
1086.5187459133
 10
822.5142420354
 20
1087.8999477389
 10
823.5106511267
 20
1089.3154836977
 10
824.1331523169
 20
1090.7545807062
 10
824.3770079961
 20
1092.2062863674
 10
824.2403622752
 20
1093.6595523245
 10
823.7242551107
 20
1095.1033183462
 10
822.8326143898
 20
1096.5265965011
 10
821.5722260368
 20
1097.9185547832
 10
819.9526823681
 20
1099.2685995495
 10
817.9863090888
 20
1100.5664561441
 10
815.688071487
 20
1101.8022470946
 10
813.0754605385
 20
1102.9665672857
 10
810.1683597903
 20
1104.0505555378
 10
806.9888940342
 20
1105.0459620457
 10
803.5612609246
 20
1105.9452111648
 10
799.9115468192
 20
1106.7414590663
 10
796.0675282458
 20
1107.4286458231
 10
792.0584605071
 20
1108.0015415287
  0
LINE
  5
19B
330
1F
100
AcDbEntity
  8
0
  6
Continuous
 62
     7
100
AcDbLine
 10
762.8151988832
 20
1035.0709568557
 30
0.0
 11
762.8151988832
 21
1020.9288212315
 31
0.0
  0
LINE
  5
19C
330
1F
100
AcDbEntity
  8
0
  6
Continuous
 62
     7
100
AcDbLine
 10
795.5547010186
 20
1030.9461673007
 30
0.0
 11
795.5547010186
 21
1016.8040316765
 31
0.0
  0
LINE
  5
19D
330
1F
100
AcDbEntity
  8
0
  6
Continuous
 62
     7
100
AcDbLine
 10
795.5547010186
 20
1016.8040316765
 30
0.0
 11
762.8151988832
 21
1020.9288212315
 31
0.0
  0
LINE
  5
19E
330
1F
100
AcDbEntity
  8
0
  6
Continuous
 62
     7
100
AcDbLine
 10
865.1169370144
 20
1078.1521573735
 30
0.0
 11
795.5547010186
 21
1016.8040316765
 31
0.0
  0
LWPOLYLINE
  5
19F
330
1F
100
AcDbEntity
  8
0
  6
Continuous
 62
     7
100
AcDbPolyline
 90
       10
 70
   128
 43
0.0
 10
819.7446742866
 20
1085.2780349191
 10
817.9863090888
 20
1086.4243205199
 10
815.688071487
 20
1087.6601114704
 10
813.0754605385
 20
1088.8244316616
 10
810.1683597903
 20
1089.9084199136
 10
806.9888940342
 20
1090.9038264215
 10
803.5612609246
 20
1091.8030755406
 10
799.9115468192
 20
1092.5993234422
 10
796.0675282458
 20
1093.2865101989
 10
792.0584605071
 20
1093.8594059046
  0
LINE
  5
1A0
330
1F
100
AcDbEntity
  8
0
  6
Continuous
 62
     7
100
AcDbLine
 10
792.0584605071
 20
1093.8594059046
 30
0.0
 11
679.2458981972
 21
1108.0724527849
 31
0.0
  0
LINE
  5
1A1
330
1F
100
AcDbEntity
  8
0
  6
Continuous
 62
     7
100
AcDbLine
 10
536.8050952986
 20
1287.4627007892
 30
0.0
 11
550.8363104995
 21
1285.6949338371
 31
0.0
  0
LINE
  5
1A2
330
1F
100
AcDbEntity
  8
0
  6
Continuous
 62
     7
100
AcDbLine
 10
536.8050952986
 20
1287.4627007892
 30
0.0
 11
625.1934429266
 21
1365.413896331
 31
0.0
  0
LINE
  5
1A3
330
1F
100
AcDbEntity
  8
0
  6
Continuous
 62
     7
100
AcDbLine
 10
625.1934429266
 20
1365.413896331
 30
0.0
 11
639.2246581275
 21
1363.6461293789
 31
0.0
  0
LINE
  5
1A4
330
1F
100
AcDbEntity
  8
0
  6
Continuous
 62
     7
100
AcDbLine
 10
550.8363104995
 20
1285.6949338371
 30
0.0
 11
639.2246581275
 21
1363.6461293789
 31
0.0
  0
LINE
  5
1A5
330
1F
100
AcDbEntity
  8
0
  6
Continuous
 62
     7
100
AcDbLine
 10
536.8050952986
 20
1254.4643843329
 30
0.0
 11
550.8363104995
 21
1252.6966173807
 31
0.0
  0
LINE
  5
1A6
330
1F
100
AcDbEntity
  8
0
  6
Continuous
 62
     7
100
AcDbLine
 10
536.8050952986
 20
1254.4643843329
 30
0.0
 11
536.8050952986
 21
1287.4627007892
 31
0.0
  0
LINE
  5
1A7
330
1F
100
AcDbEntity
  8
0
  6
Continuous
 62
     7
100
AcDbLine
 10
550.8363104995
 20
1252.6966173807
 30
0.0
 11
550.8363104995
 21
1285.6949338371
 31
0.0
  0
LINE
  5
1A8
330
1F
100
AcDbEntity
  8
0
  6
Continuous
 62
     7
100
AcDbLine
 10
639.2246581275
 20
1363.6461293789
 30
0.0
 11
639.2246581275
 21
1203.6368264751
 31
0.0
  0
LINE
  5
1A9
330
1F
100
AcDbEntity
  8
0
  6
Continuous
 62
     7
100
AcDbLine
 10
639.2246581275
 20
1113.6732906185
 30
0.0
 11
639.2246581275
 21
1018.9233810073
 31
0.0
  0
LINE
  5
1AA
330
1F
100
AcDbEntity
  8
0
  6
Continuous
 62
     7
100
AcDbLine
 10
614.7429835858
 20
880.0788914842
 30
0.0
 11
603.5119924402
 21
870.1740883012
 31
0.0
  0
LINE
  5
1AB
330
1F
100
AcDbEntity
  8
0
  6
Continuous
 62
     7
100
AcDbLine
 10
584.2723378511
 20
886.204624306
 30
0.0
 11
609.172619934
 21
908.1646089621
 31
0.0
  0
ARC
  5
1AC
330
1F
100
AcDbEntity
  8
0
  6
Continuous
 62
     7
100
AcDbCircle
 10
591.8561013638
 20
926.860943454
 30
0.0
 40
25.48361706715716
100
AcDbArc
 50
312.8058118003
 51
328.593408757
  0
LINE
  5
1AD
330
1F
100
AcDbEntity
  8
0
  6
Continuous
 62
     7
100
AcDbLine
 10
626.8502894596
 20
1000.7123103585
 30
0.0
 11
626.8502894596
 21
1060.4621591039
 31
0.0
  0
LWPOLYLINE
  5
1AE
330
1F
100
AcDbEntity
  8
0
  6
Continuous
 62
     7
100
AcDbPolyline
 90
       19
 70
   128
 43
0.0
 10
626.8502894596
 20
1060.4621591039
 10
626.78302059
 20
1064.5113946518
 10
626.581725938
 20
1068.4111619389
 10
626.2479374774
 20
1072.1317813815
 10
625.7841955399
 20
1075.644936819
 10
625.1940294817
 20
1078.9238910171
 10
624.4819308229
 20
1081.9436891547
 10
623.6533190641
 20
1084.6813487444
 10
622.7145004414
 20
1087.1160345438
 10
621.6726199311
 20
1089.2292171237
 10
620.5356068732
 20
1091.0048138888
 10
619.3121146235
 20
1092.4293114756
 10
618.0114546968
 20
1093.4918685973
 10
616.6435259005
 20
1094.1843985526
 10
615.2187389988
 20
1094.5016307704
 10
613.7479374802
 20
1094.441150922
 10
612.2423150325
 20
1094.0034192955
 10
610.7133303515
 20
1093.1917672929
 10
609.172619934
 20
1092.012372076
  0
LINE
  5
1AF
330
1F
100
AcDbEntity
  8
0
  6
Continuous
 62
     7
100
AcDbLine
 10
609.172619934
 20
1092.012372076
 30
0.0
 11
550.8363104995
 21
1040.5645830184
 31
0.0
  0
LINE
  5
1B0
330
1F
100
AcDbEntity
  8
0
  6
Continuous
 62
     7
100
AcDbLine
 10
550.8363104995
 20
1040.5645830184
 30
0.0
 11
550.8363104995
 21
1068.8488542668
 31
0.0
  0
LINE
  5
1B1
330
1F
100
AcDbEntity
  8
0
  6
Continuous
 62
     7
100
AcDbLine
 10
550.8363104995
 20
1068.8488542668
 30
0.0
 11
609.172619934
 21
1120.2966433243
 31
0.0
  0
LWPOLYLINE
  5
1B2
330
1F
100
AcDbEntity
  8
0
  6
Continuous
 62
     7
100
AcDbPolyline
 90
       10
 70
   128
 43
0.0
 10
609.172619934
 20
1120.2966433243
 10
610.7133303515
 20
1121.8348058457
 10
612.2423150325
 20
1123.720029326
 10
613.7479374802
 20
1125.9379660763
 10
615.2187389988
 20
1128.4717362586
 10
616.6435259005
 20
1131.302056352
 10
618.0114546968
 20
1134.4073859114
 10
619.3121146235
 20
1137.764091504
 10
620.5356068732
 20
1141.3466265734
 10
620.9384386795
 20
1142.6312019443
  0
LINE
  5
1B3
330
1F
100
AcDbEntity
  8
0
  6
Continuous
 62
     7
100
AcDbLine
 10
626.8502894596
 20
1205.1958503851
 30
0.0
 11
626.8502894596
 21
1272.5941934662
 31
0.0
  0
LWPOLYLINE
  5
1B4
330
1F
100
AcDbEntity
  8
0
  6
Continuous
 62
     7
100
AcDbPolyline
 90
       19
 70
   128
 43
0.0
 10
626.8502894596
 20
1272.5941934662
 10
626.78302059
 20
1276.6434290141
 10
626.581725938
 20
1280.5431963012
 10
626.2479374774
 20
1284.2638157438
 10
625.7841955399
 20
1287.7769711812
 10
625.1940294817
 20
1291.0559253794
 10
624.4819308229
 20
1294.075723517
 10
623.6533190641
 20
1296.8133831067
 10
622.7145004414
 20
1299.248068906
 10
621.6726199311
 20
1301.361251486
 10
620.5356068732
 20
1303.1368482511
 10
619.3121146235
 20
1304.5613458379
 10
618.0114546968
 20
1305.6239029596
 10
616.6435259005
 20
1306.3164329149
 10
615.2187389988
 20
1306.6336651327
 10
613.7479374802
 20
1306.5731852843
 10
612.2423150325
 20
1306.1354536577
 10
610.7133303515
 20
1305.3238016552
 10
609.172619934
 20
1304.1444064383
  0
LINE
  5
1B5
330
1F
100
AcDbEntity
  8
0
  6
Continuous
 62
     7
100
AcDbLine
 10
609.172619934
 20
1304.1444064383
 30
0.0
 11
550.8363104995
 21
1252.6966173807
 31
0.0
  0
LINE
  5
1B6
330
1F
100
AcDbEntity
  8
0
  6
Continuous
 62
     7
100
AcDbLine
 10
536.8050952986
 20
1042.3323499706
 30
0.0
 11
550.8363104995
 21
1040.5645830184
 31
0.0
  0
LINE
  5
1B7
330
1F
100
AcDbEntity
  8
0
  6
Continuous
 62
     7
100
AcDbLine
 10
536.8050952986
 20
1070.6166212189
 30
0.0
 11
550.8363104995
 21
1068.8488542668
 31
0.0
  0
LINE
  5
1B8
330
1F
100
AcDbEntity
  8
0
  6
Continuous
 62
     7
100
AcDbLine
 10
536.8050952986
 20
1042.3323499706
 30
0.0
 11
536.8050952986
 21
1070.6166212189
 31
0.0
  0
LINE
  5
1B9
330
1F
100
AcDbEntity
  8
0
  6
Continuous
 62
     7
100
AcDbLine
 10
536.8050952986
 20
1070.6166212189
 30
0.0
 11
595.1414047331
 21
1122.0644102765
 31
0.0
  0
LINE
  5
1BA
330
1F
100
AcDbEntity
  8
0
  6
Continuous
 62
     7
100
AcDbLine
 10
578.3579746133
 20
895.1307818326
 30
0.0
 11
595.1414047331
 21
909.9323759142
 31
0.0
  0
LWPOLYLINE
  5
1BB
330
1F
100
AcDbEntity
  8
0
  6
Continuous
 62
     7
100
AcDbPolyline
 90
       10
 70
   128
 43
0.0
 10
612.8190742587
 20
1274.3619604183
 10
612.7518053891
 20
1278.4111959662
 10
612.5505107371
 20
1282.3109632533
 10
612.2167222765
 20
1286.0315826959
 10
611.752980339
 20
1289.5447381334
 10
611.1628142808
 20
1292.8236923315
 10
610.450715622
 20
1295.8434904691
 10
609.6221038633
 20
1298.5811500588
 10
608.6832852405
 20
1301.0158358582
 10
607.765785903
 20
1302.9036954443
  0
LWPOLYLINE
  5
1BC
330
1F
100
AcDbEntity
  8
0
  6
Continuous
 62
     7
100
AcDbPolyline
 90
       12
 70
   128
 43
0.0
 10
595.1414047331
 20
1122.0644102765
 10
596.6821151507
 20
1123.6025727978
 10
598.2110998316
 20
1125.4877962782
 10
599.7167222794
 20
1127.7057330284
 10
601.1875237979
 20
1130.2395032107
 10
602.6123106996
 20
1133.0698233041
 10
603.9802394959
 20
1136.1751528636
 10
605.2808994226
 20
1139.5318584562
 10
606.5043916723
 20
1143.1143935255
 10
607.6414047302
 20
1146.8954928165
 10
608.6832852405
 20
1150.8463798805
 10
609.5512997186
 20
1154.6068766657
  0
LINE
  5
1BD
330
1F
100
AcDbEntity
  8
0
  6
Continuous
 62
     7
100
AcDbLine
 10
612.8190742587
 20
1206.9636173373
 30
0.0
 11
612.8190742587
 21
1274.3619604183
 31
0.0
  0
LWPOLYLINE
  5
1BE
330
1F
100
AcDbEntity
  8
0
  6
Continuous
 62
     7
100
AcDbPolyline
 90
       10
 70
   128
 43
0.0
 10
612.8190742587
 20
1062.229926056
 10
612.7518053891
 20
1066.2791616039
 10
612.5505107371
 20
1070.1789288911
 10
612.2167222765
 20
1073.8995483336
 10
611.752980339
 20
1077.4127037711
 10
611.1628142808
 20
1080.6916579693
 10
610.450715622
 20
1083.7114561068
 10
609.6221038633
 20
1086.4491156966
 10
608.6832852405
 20
1088.8838014959
 10
607.765785903
 20
1090.771661082
  0
LWPOLYLINE
  5
1BF
330
1F
100
AcDbEntity
  8
0
  6
Continuous
 62
     7
100
AcDbPolyline
 90
        8
 70
   128
 43
0.0
 10
595.1414047331
 20
909.9323759142
 10
596.6821151507
 20
911.4705384356
 10
598.2110998316
 20
913.3557619159
 10
599.7167222794
 20
915.5736986662
 10
601.1875237979
 20
918.1074688485
 10
602.6123106996
 20
920.9377889418
 10
603.9802394959
 20
924.0431185013
 10
604.4872087669
 20
925.3011928712
  0
LINE
  5
1C0
330
1F
100
AcDbEntity
  8
0
  6
Continuous
 62
     7
100
AcDbLine
 10
612.8190742587
 20
988.8124604854
 30
0.0
 11
612.8190742587
 21
1062.229926056
 31
0.0
  0
LINE
  5
1C1
330
1F
100
AcDbEntity
  8
0
  6
Continuous
 62
     7
100
AcDbLine
 10
679.2458981972
 20
949.9321308594
 30
0.0
 11
865.1169370144
 21
926.5145811264
 31
0.0
  0
LINE
  5
1C2
330
1F
100
AcDbEntity
  8
0
  6
Continuous
 62
     7
100
AcDbLine
 10
479.3044464038
 20
1424.5739428982
 30
0.0
 11
479.3044464038
 21
1223.7848793142
 31
0.0
  0
LINE
  5
1C3
330
1F
100
AcDbEntity
  8
0
  6
Continuous
 62
     7
100
AcDbLine
 10
479.3044464038
 20
1173.2451639508
 30
0.0
 11
479.3044464038
 21
1159.8770348356
 31
0.0
  0
LINE
  5
1C4
330
1F
100
AcDbEntity
  8
0
  6
Continuous
 62
     7
100
AcDbLine
 10
479.3044464038
 20
1133.2627079256
 30
0.0
 11
479.3044464038
 21
1009.212530498
 31
0.0
  0
LINE
  5
1C5
330
1F
100
AcDbEntity
  8
0
  6
Continuous
 62
     7
100
AcDbLine
 10
890.8867589625
 20
1385.2443191262
 30
0.0
 11
760.1598094789
 21
1401.7143666412
 31
0.0
  0
LINE
  5
1C6
330
1F
100
AcDbEntity
  8
0
  6
Continuous
 62
     7
100
AcDbLine
 10
890.8867589625
 20
1252.7904689561
 30
0.0
 11
890.8867589625
 21
1385.2443191262
 31
0.0
  0
LINE
  5
1C7
330
1F
100
AcDbEntity
  8
0
  6
Continuous
 62
     7
100
AcDbLine
 10
890.8867589625
 20
1385.2443191262
 30
0.0
 11
896.1900598201
 21
1389.9213908587
 31
0.0
  0
LINE
  5
1C8
330
1F
100
AcDbEntity
  8
0
  6
Continuous
 62
     7
100
AcDbLine
 10
896.1900598201
 20
1257.4675406886
 30
0.0
 11
896.1900598201
 21
1389.9213908587
 31
0.0
  0
LINE
  5
1C9
330
1F
100
AcDbEntity
  8
0
  6
Continuous
 62
     7
100
AcDbLine
 10
896.1900598201
 20
1389.9213908587
 30
0.0
 11
765.4631103365
 21
1406.3914383737
 31
0.0
  0
LINE
  5
1CA
330
1F
100
AcDbEntity
  8
0
  6
Continuous
 62
     7
100
AcDbLine
 10
673.9425973396
 20
1193.9175524411
 30
0.0
 11
679.2458981972
 21
1198.5946241736
 31
0.0
  0
LINE
  5
1CB
330
1F
100
AcDbEntity
  8
0
  6
Continuous
 62
     7
100
AcDbLine
 10
673.9425973396
 20
1193.9175524411
 30
0.0
 11
262.3602847809
 21
1245.7720497038
 31
0.0
  0
LINE
  5
1CC
330
1F
100
AcDbEntity
  8
0
  6
Continuous
 62
     7
100
AcDbLine
 10
262.3602847809
 20
1245.7720497038
 30
0.0
 11
267.6635856386
 21
1250.4491214363
 31
0.0
  0
LINE
  5
1CD
330
1F
100
AcDbEntity
  8
0
  6
Continuous
 62
     7
100
AcDbLine
 10
679.2458981972
 20
1198.5946241736
 30
0.0
 11
267.6635856386
 21
1250.4491214363
 31
0.0
  0
LINE
  5
1CE
330
1F
100
AcDbEntity
  8
0
  6
Continuous
 62
     7
100
AcDbLine
 10
262.3602847809
 20
783.7956193149
 30
0.0
 11
489.6485128784
 21
755.1599942112
 31
0.0
  0
LINE
  5
1CF
330
1F
100
AcDbEntity
  8
0
  6
Continuous
 62
     7
100
AcDbLine
 10
528.9837778036
 20
750.2042166543
 30
0.0
 11
556.8693585988
 21
746.6909637061
 31
0.0
  0
LINE
  5
1D0
330
1F
100
AcDbEntity
  8
0
  6
Continuous
 62
     7
100
AcDbLine
 10
580.6613991228
 20
743.6934483548
 30
0.0
 11
673.9425973396
 21
731.9411220521
 31
0.0
  0
LINE
  5
1D1
330
1F
100
AcDbEntity
  8
0
  6
Continuous
 62
     7
100
AcDbLine
 10
262.3602847809
 20
1245.7720497038
 30
0.0
 11
262.3602847809
 21
783.7956193149
 31
0.0
  0
LINE
  5
1D2
330
1F
100
AcDbEntity
  8
0
  6
Continuous
 62
     7
100
AcDbLine
 10
673.9425973396
 20
731.9411220521
 30
0.0
 11
673.9425973396
 21
1193.9175524411
 31
0.0
  0
LWPOLYLINE
  5
1D3
330
1F
100
AcDbEntity
  8
0
  6
Continuous
 62
     7
100
AcDbPolyline
 90
       22
 70
   128
 43
0.0
 10
393.3182933223
 20
791.338091656
 10
399.2706250598
 20
790.755004506
 10
405.2045584809
 20
790.5073919631
 10
411.1017521376
 20
790.5960193835
 10
416.9439781423
 20
791.0206128249
 10
422.7131785091
 20
791.7798598934
 10
428.3915209703
 20
792.8714137997
 10
433.9614540948
 20
794.2919006132
 10
439.4057615386
 20
796.0369296907
 10
444.7076152593
 20
798.1011072472
 10
449.8506275308
 20
800.4780530283
 10
454.8189015971
 20
803.1604200307
 10
459.5970808076
 20
806.1399172118
 10
464.1703960844
 20
809.4073351164
 10
468.5247115718
 20
812.9525743432
 10
472.6465683303
 20
816.7646767608
 10
476.5232259369
 20
820.8318593792
 10
480.1427018651
 20
825.1415507698
 10
483.4938085222
 20
829.6804299237
 10
486.5661878295
 20
834.4344674255
 10
489.3503432388
 20
839.3889688176
 10
490.664191389
 20
842.0040190028
  0
LWPOLYLINE
  5
1D4
330
1F
100
AcDbEntity
  8
0
  6
Continuous
 62
     7
100
AcDbPolyline
 90
       89
 70
   128
 43
0.0
 10
500.1026366682
 20
877.4898342954
 10
500.1646365988
 20
878.3312938055
 10
500.4128880467
 20
884.2965048158
 10
500.3301162397
 20
890.3080590164
 10
499.9165770207
 20
896.3473750378
 10
499.1735486156
 20
902.3957857002
 10
498.1033276828
 20
908.4345957129
 10
496.7092222137
 20
914.4451394603
 10
494.9955413085
 20
920.4088386961
 10
492.9675818567
 20
926.3072599676
 10
490.6316121647
 20
932.1221715928
 10
487.9948525809
 20
937.835600013
 10
485.0654531782
 20
943.4298853485
 10
481.8524685621
 20
948.8877359839
 10
478.3658298841
 20
954.1922820156
 10
474.6163141445
 20
959.3271273958
 10
470.6155108815
 20
964.2764006118
 10
466.3757863487
 20
969.0248037436
 10
461.9102452918
 20
973.5576597494
 10
457.2326904421
 20
977.8609578308
 10
452.3575798538
 20
981.9213967403
 10
447.2999822142
 20
985.7264258938
 10
442.0755302677
 20
989.2642841642
 10
436.7003724961
 20
992.5240362344
 10
431.1911232038
 20
995.4956063976
 10
425.5648111648
 20
998.1698097006
 10
419.8388269871
 20
1000.5383803344
 10
414.0308693597
 20
1002.5939971828
 10
408.1588903468
 20
1004.3303064519
 10
402.2410398989
 20
1005.7419413093
 10
396.2956097527
 20
1006.8245384726
 10
390.340976892
 20
1007.574751696
 10
384.3955467458
 20
1007.9902621133
 10
378.4776962979
 20
1008.0697854057
 10
372.6057172849
 20
1007.8130757713
 10
366.7977596575
 20
1007.2209266848
 10
361.0717754798
 20
1006.2951684451
 10
355.4454634408
 20
1005.0386625178
 10
349.9362141486
 20
1003.4552926909
 10
344.5610563769
 20
1001.5499530697
 10
339.3366044305
 20
999.3285329497
 10
334.2790067909
 20
996.7978986133
 10
329.4038962025
 20
993.9658721062
 10
324.7263413529
 20
990.8412070599
 10
320.2608002959
 20
987.4335616352
 10
316.0210757632
 20
983.7534686686
 10
312.0202725002
 20
979.8123031168
 10
308.2707567605
 20
975.6222468964
 10
304.7841180825
 20
971.1962512313
 10
301.5711334665
 20
966.5479966203
 10
298.6417340637
 20
961.6918505521
 10
296.00497448
 20
956.6428230959
 10
293.669004788
 20
951.4165205061
 10
291.6410453361
 20
946.0290969847
 10
289.9273644309
 20
940.4972047489
 10
288.5332589619
 20
934.8379425606
 10
287.463038029
 20
929.068802875
 10
286.720009624
 20
923.2076177722
 10
286.3064704049
 20
917.2725038394
 10
286.2236985979
 20
911.2818061737
 10
286.4719500458
 20
905.2540416783
 10
287.0504574177
 20
899.2078418278
 10
287.9574325804
 20
893.1618950794
 10
289.1900721257
 20
887.134889108
 10
290.7445660354
 20
881.1454530438
 10
292.6161094578
 20
875.2120998903
 10
294.7989175596
 20
869.3531693021
 10
297.2862434059
 20
863.586770898
 10
300.0703988151
 20
857.9307282848
 10
303.1427781225
 20
852.4025239663
 10
306.4938847795
 20
847.019245305
 10
310.1133607077
 20
841.797531707
 10
313.9900183143
 20
836.7535231896
 10
318.1118750729
 20
831.9028104941
 10
322.4661905603
 20
827.2603868955
 10
327.039505837
 20
822.8406018591
 10
331.8176850475
 20
818.6571166872
 10
336.7859591138
 20
814.7228622926
 10
341.9289713854
 20
811.0499992302
 10
347.230825106
 20
807.6498801094
 10
352.6751325498
 20
804.5330145033
 10
358.2450656744
 20
801.709036465
 10
363.9234081356
 20
799.1866747489
 10
369.6926085024
 20
796.9737258303
 10
375.534834507
 20
795.0770298075
 10
381.4320281637
 20
793.5024492594
 10
387.3659615849
 20
792.2548511241
 10
393.3182933223
 20
791.338091656
 10
393.3182933223
 20
791.338091656
  0
LWPOLYLINE
  5
1D5
330
1F
100
AcDbEntity
  8
0
  6
Continuous
 62
     7
100
AcDbPolyline
 90
      114
 70
   128
 43
0.0
 10
542.9845887982
 20
970.4718095713
 10
548.9369205356
 20
969.8887224213
 10
554.8708539568
 20
969.6411098784
 10
560.7680476135
 20
969.7297372988
 10
566.6102736181
 20
970.1543307402
 10
572.3794739849
 20
970.9135778087
 10
578.0578164462
 20
972.005131715
 10
583.6277495707
 20
973.4256185285
 10
589.0720570145
 20
975.170647606
 10
594.3739107351
 20
977.2348251625
 10
599.5169230067
 20
979.6117709436
 10
604.485197073
 20
982.294137946
 10
609.2633762835
 20
985.2736351271
 10
613.8366915602
 20
988.5410530317
 10
618.1910070477
 20
992.0862922585
 10
622.3128638062
 20
995.8983946761
 10
626.1895214128
 20
999.9655772945
 10
629.808997341
 20
1004.2752686851
 10
633.160103998
 20
1008.814147839
 10
636.2324833054
 20
1013.5681853408
 10
639.0166387146
 20
1018.5226867329
 10
641.5039645609
 20
1023.6623379356
 10
643.6867726627
 20
1028.9712525815
 10
645.5583160851
 20
1034.4330211196
 10
647.1128099948
 20
1040.0307615365
 10
648.3454495401
 20
1045.7471715372
 10
649.2524247028
 20
1051.5645820261
 10
649.8309320747
 20
1057.4650117208
 10
650.0791835226
 20
1063.4302227311
 10
649.9964117156
 20
1069.4417769317
 10
649.5828724966
 20
1075.4810929531
 10
648.8398440915
 20
1081.5295036155
 10
647.7696231586
 20
1087.5683136282
 10
646.3755176896
 20
1093.5788573756
 10
644.6618367844
 20
1099.5425566114
 10
642.6338773325
 20
1105.4409778829
 10
640.2979076405
 20
1111.2558895081
 10
637.6611480568
 20
1116.9693179283
 10
634.731748654
 20
1122.5636032638
 10
631.518764038
 20
1128.0214538992
 10
628.03212536
 20
1133.3259999309
 10
624.2826096204
 20
1138.4608453111
 10
620.2818063573
 20
1143.4101185271
 10
616.0420818246
 20
1148.1585216589
 10
611.5765407676
 20
1152.6913776647
 10
606.898985918
 20
1156.9946757461
 10
602.0238753296
 20
1161.0551146556
 10
596.96627769
 20
1164.8601438091
 10
591.7418257436
 20
1168.3980020795
 10
586.366667972
 20
1171.6577541497
 10
580.8574186797
 20
1174.6293243129
 10
575.2311066407
 20
1177.3035276159
 10
569.505122463
 20
1179.6720982497
 10
563.6971648356
 20
1181.7277150981
 10
557.8251858226
 20
1183.4640243672
 10
551.9073353747
 20
1184.8756592246
 10
545.9619052285
 20
1185.9582563879
 10
540.0072723678
 20
1186.7084696112
 10
534.0618422216
 20
1187.1239800286
 10
528.1439917738
 20
1187.203503321
 10
522.2720127608
 20
1186.9467936866
 10
516.4640551334
 20
1186.3546446
 10
510.7380709557
 20
1185.4288863604
 10
505.1117589167
 20
1184.1723804331
 10
499.6025096244
 20
1182.5890106062
 10
494.2273518528
 20
1180.683670985
 10
489.0028999063
 20
1178.462250865
 10
483.9453022667
 20
1175.9316165286
 10
479.0701916784
 20
1173.0995900215
 10
474.3926368287
 20
1169.9749249752
 10
469.9270957718
 20
1166.5672795505
 10
465.687371239
 20
1162.8871865839
 10
461.686567976
 20
1158.946021032
 10
457.9370522364
 20
1154.7559648117
 10
454.4504135584
 20
1150.3299691466
 10
451.2374289423
 20
1145.6817145356
 10
448.3080295396
 20
1140.8255684674
 10
445.6712699558
 20
1135.7765410112
 10
443.3353002638
 20
1130.5502384214
 10
441.307340812
 20
1125.1628149
 10
439.5936599068
 20
1119.6309226642
 10
438.1995544377
 20
1113.9716604759
 10
437.1293335049
 20
1108.2025207903
 10
436.3863050998
 20
1102.3413356875
 10
435.9727658808
 20
1096.4062217547
 10
435.8899940738
 20
1090.415524089
 10
436.1382455217
 20
1084.3877595936
 10
436.7167528936
 20
1078.3415597431
 10
437.6237280563
 20
1072.2956129947
 10
438.8563676016
 20
1066.2686070233
 10
440.4108615112
 20
1060.2791709591
 10
442.2824049337
 20
1054.3458178056
 10
444.4652130354
 20
1048.4868872174
 10
446.9525388817
 20
1042.7204888133
 10
449.736694291
 20
1037.0644462001
 10
452.8090735983
 20
1031.5362418816
 10
456.1601802554
 20
1026.1529632203
 10
459.7796561836
 20
1020.9312496223
 10
463.6563137902
 20
1015.8872411049
 10
467.7781705487
 20
1011.0365284094
 10
472.1324860362
 20
1006.3941048108
 10
476.7058013129
 20
1001.9743197744
 10
481.4839805234
 20
997.7908346025
 10
486.4522545897
 20
993.8565802079
 10
491.5952668612
 20
990.1837171455
 10
496.8971205819
 20
986.7835980246
 10
502.3414280257
 20
983.6667324186
 10
507.9113611502
 20
980.8427543803
 10
513.5897036115
 20
978.3203926641
 10
519.3589039783
 20
976.1074437455
 10
525.2011299829
 20
974.2107477228
 10
531.0983236396
 20
972.6361671747
 10
537.0322570608
 20
971.3885690394
 10
542.9845887982
 20
970.4718095713
  0
LINE
  5
1D6
330
1F
100
AcDbEntity
  8
0
  6
Continuous
 62
     7
100
AcDbLine
 10
395.5632877545
 20
1167.7074610669
 30
0.0
 11
311.3759965493
 21
1178.3140627797
 31
0.0
  0
LINE
  5
1D7
330
1F
100
AcDbEntity
  8
0
  6
Continuous
 62
     7
100
AcDbLine
 10
311.3759965493
 20
1178.3140627797
 30
0.0
 11
311.3759965493
 21
1112.317429867
 31
0.0
  0
LINE
  5
1D8
330
1F
100
AcDbEntity
  8
0
  6
Continuous
 62
     7
100
AcDbLine
 10
311.3759965493
 20
1112.317429867
 30
0.0
 11
395.5632877545
 21
1101.7108281542
 31
0.0
  0
LINE
  5
1D9
330
1F
100
AcDbEntity
  8
0
  6
Continuous
 62
     7
100
AcDbLine
 10
395.5632877545
 20
1101.7108281542
 30
0.0
 11
395.5632877545
 21
1167.7074610669
 31
0.0
  0
LWPOLYLINE
  5
1DA
330
1F
100
AcDbEntity
  8
0
  6
Continuous
 62
     7
100
AcDbPolyline
 90
       20
 70
   128
 43
0.0
 10
322.1332615366
 20
1180.0229041683
 10
323.1203792977
 20
1180.0645620021
 10
324.0005275326
 20
1180.433751527
 10
324.6783285233
 20
1181.0904653294
 10
325.0803320152
 20
1181.9635382788
 10
325.1629746922
 20
1182.9583593741
 10
324.9173009379
 20
1183.9671243132
 10
324.3699333157
 20
1184.8805177626
 10
323.5801876007
 20
1185.5995593691
 10
322.6336449953
 20
1186.0463298177
 10
321.6328780779
 20
1186.1724145978
 10
320.6863354725
 20
1185.9641504672
 10
319.8965897575
 20
1185.4441060758
 10
319.3492221353
 20
1184.668636303
 10
319.1035483811
 20
1183.7217753312
 10
319.1861910581
 20
1182.7061302387
 10
319.5881945499
 20
1181.7317619307
 10
320.2659955406
 20
1180.9042583322
 10
321.1461437755
 20
1180.3132922982
 10
322.1332615366
 20
1180.0229041683
  0
LWPOLYLINE
  5
1DB
330
1F
100
AcDbEntity
  8
0
  6
Continuous
 62
     7
100
AcDbPolyline
 90
       20
 70
   128
 43
0.0
 10
384.8060227671
 20
1172.1268784487
 10
385.7931405282
 20
1172.1685362826
 10
386.6732887632
 20
1172.5377258075
 10
387.3510897538
 20
1173.1944396098
 10
387.7530932457
 20
1174.0675125592
 10
387.8357359227
 20
1175.0623336545
 10
387.5900621685
 20
1176.0710985937
 10
387.0426945463
 20
1176.984492043
 10
386.2529488313
 20
1177.7035336496
 10
385.3064062258
 20
1178.1503040981
 10
384.3056393084
 20
1178.2763888782
 10
383.359096703
 20
1178.0681247476
 10
382.569350988
 20
1177.5480803563
 10
382.0219833658
 20
1176.7726105834
 10
381.7763096116
 20
1175.8257496116
 10
381.8589522886
 20
1174.8101045191
 10
382.2609557805
 20
1173.8357362111
 10
382.9387567711
 20
1173.0082326127
 10
383.8189050061
 20
1172.4172665787
 10
384.8060227671
 20
1172.1268784487
  0
LWPOLYLINE
  5
1DC
330
1F
100
AcDbEntity
  8
0
  6
Continuous
 62
     7
100
AcDbPolyline
 90
       20
 70
   128
 43
0.0
 10
384.8060227671
 20
1093.8737279951
 10
385.7931405282
 20
1093.9153858289
 10
386.6732887632
 20
1094.2845753538
 10
387.3510897538
 20
1094.9412891562
 10
387.7530932457
 20
1095.8143621056
 10
387.8357359227
 20
1096.8091832009
 10
387.5900621685
 20
1097.81794814
 10
387.0426945463
 20
1098.7313415894
 10
386.2529488313
 20
1099.4503831959
 10
385.3064062258
 20
1099.8971536445
 10
384.3056393084
 20
1100.0232384246
 10
383.359096703
 20
1099.814974294
 10
382.569350988
 20
1099.2949299027
 10
382.0219833658
 20
1098.5194601298
 10
381.7763096116
 20
1097.572599158
 10
381.8589522886
 20
1096.5569540655
 10
382.2609557805
 20
1095.5825857575
 10
382.9387567711
 20
1094.755082159
 10
383.8189050061
 20
1094.164116125
 10
384.8060227671
 20
1093.8737279951
  0
LWPOLYLINE
  5
1DD
330
1F
100
AcDbEntity
  8
0
  6
Continuous
 62
     7
100
AcDbPolyline
 90
       20
 70
   128
 43
0.0
 10
322.1332615366
 20
1101.7697537147
 10
323.1203792977
 20
1101.8114115485
 10
324.0005275326
 20
1102.1806010734
 10
324.6783285233
 20
1102.8373148758
 10
325.0803320152
 20
1103.7103878252
 10
325.1629746922
 20
1104.7052089204
 10
324.9173009379
 20
1105.7139738596
 10
324.3699333157
 20
1106.627367309
 10
323.5801876007
 20
1107.3464089155
 10
322.6336449953
 20
1107.793179364
 10
321.6328780779
 20
1107.9192641442
 10
320.6863354725
 20
1107.7110000135
 10
319.8965897575
 20
1107.1909556222
 10
319.3492221353
 20
1106.4154858494
 10
319.1035483811
 20
1105.4686248775
 10
319.1861910581
 20
1104.452979785
 10
319.5881945499
 20
1103.478611477
 10
320.2659955406
 20
1102.6511078786
 10
321.1461437755
 20
1102.0601418446
 10
322.1332615366
 20
1101.7697537147
  0
LWPOLYLINE
  5
1DE
330
1F
100
AcDbEntity
  8
0
  6
Continuous
 62
     7
100
AcDbPolyline
 90
       48
 70
   128
 43
0.0
 10
588.0255368418
 20
863.6078465211
 10
589.5689858704
 20
863.6825006912
 10
592.9038507524
 20
864.090815469
 10
596.1438156836
 20
864.8316242043
 10
599.2586299846
 20
865.8980101653
 10
602.2192114734
 20
867.2800167938
 10
604.9979179983
 20
868.9647406661
 10
607.5688055253
 20
870.9364519695
 10
609.9078703701
 20
873.1767413667
 10
611.9932733146
 20
875.6646918792
 10
613.8055435133
 20
878.3770741835
 10
615.3277602876
 20
881.2885634968
 10
616.5457111097
 20
884.3719760277
 10
617.4480243009
 20
887.5985227844
 10
618.0262752061
 20
890.9380783691
 10
618.2750648524
 20
894.359462251
 10
618.1920703578
 20
897.8307298908
 10
617.7780666196
 20
901.3194709977
 10
617.0369190792
 20
904.793112136
 10
615.9755476314
 20
908.2192208543
 10
614.6038620155
 20
911.5658084987
 10
612.9346692906
 20
914.801628882
 10
610.9835542592
 20
917.8964700211
 10
608.7687339569
 20
920.8214362182
 10
606.3108875639
 20
923.5492178519
 10
603.6329633299
 20
926.0543463602
 10
600.7599643118
 20
928.313432033
 10
597.7187149275
 20
930.3053823963
 10
594.537610503
 20
932.011599146
 10
591.2463521532
 20
933.4161517962
 10
587.8756694706
 20
934.5059264171
 10
584.4570336111
 20
935.2707480769
 10
581.0223634568
 20
935.7034758416
 10
577.6037275973
 20
935.8000694488
 10
574.2330449147
 20
935.55962703
 10
570.9417865649
 20
934.9843935312
 10
567.7606821404
 20
934.0797397526
 10
564.7194327561
 20
932.8541122029
 10
561.846433738
 20
931.3189542362
 10
559.168509504
 20
929.4885992089
 10
556.7106631111
 20
927.3801366526
 10
554.4958428087
 20
925.0132527142
 10
552.5447277774
 20
922.4100463512
 10
550.8755350524
 20
919.5948230002
 10
549.5038494365
 20
916.5938676429
 10
548.4424779887
 20
913.435199391
 10
547.7013304483
 20
910.148309879
 10
547.589166341
 20
909.4583809203
  0
LWPOLYLINE
  5
1DF
330
1F
100
AcDbEntity
  8
0
  6
Continuous
 62
     7
100
AcDbPolyline
 90
       48
 70
   128
 43
0.0
 10
588.1212598715
 20
759.9014347233
 10
589.5689858704
 20
759.9735061141
 10
592.9038507524
 20
760.3818208919
 10
596.1438156836
 20
761.1226296272
 10
599.2586299846
 20
762.1890155882
 10
602.2192114734
 20
763.5710222167
 10
604.9979179983
 20
765.255746089
 10
607.5688055253
 20
767.2274573924
 10
609.9078703701
 20
769.4677467896
 10
611.9932733146
 20
771.9556973021
 10
613.8055435133
 20
774.6680796064
 10
615.3277602876
 20
777.5795689197
 10
616.5457111097
 20
780.6629814506
 10
617.4480243009
 20
783.8895282073
 10
618.0262752061
 20
787.229083792
 10
618.2750648524
 20
790.6504676739
 10
618.1920703578
 20
794.1217353137
 10
617.7780666196
 20
797.6104764206
 10
617.0369190792
 20
801.0841175589
 10
615.9755476314
 20
804.5102262772
 10
614.6038620155
 20
807.8568139216
 10
612.9346692906
 20
811.0926343049
 10
610.9835542592
 20
814.187475444
 10
608.7687339569
 20
817.112441641
 10
606.3108875639
 20
819.8402232748
 10
603.6329633299
 20
822.345351783
 10
600.7599643118
 20
824.6044374559
 10
597.7187149275
 20
826.5963878191
 10
594.537610503
 20
828.3026045689
 10
591.2463521532
 20
829.7071572191
 10
587.8756694706
 20
830.79693184
 10
584.4570336111
 20
831.5617534998
 10
581.0223634568
 20
831.9944812645
 10
577.6037275973
 20
832.0910748717
 10
574.2330449147
 20
831.8506324528
 10
570.9417865649
 20
831.2753989541
 10
567.7606821404
 20
830.3707451755
 10
564.7194327561
 20
829.1451176258
 10
561.846433738
 20
827.6099596591
 10
559.168509504
 20
825.7796046318
 10
556.7106631111
 20
823.6711420755
 10
554.4958428087
 20
821.304258137
 10
552.5447277774
 20
818.7010517741
 10
550.8755350524
 20
815.885828423
 10
549.5038494365
 20
812.8848730658
 10
548.4424779887
 20
809.7262048139
 10
547.7013304483
 20
806.4393153019
 10
547.586984746
 20
805.7350184509
  0
LWPOLYLINE
  5
1E0
330
1F
100
AcDbEntity
  8
0
  6
Continuous
 62
     7
100
AcDbPolyline
 90
       20
 70
   128
 43
0.0
 10
349.7357413232
 20
1007.7187031655
 10
350.7380455114
 20
1007.761001889
 10
351.6317344884
 20
1008.1358712528
 10
352.3199631866
 20
1008.8026883444
 10
352.7281513476
 20
1009.6891931854
 10
352.8120654504
 20
1010.6993192205
 10
352.5626120999
 20
1011.7236036203
 10
352.0068234374
 20
1012.6510492766
 10
351.2049277883
 20
1013.3811530617
 10
350.243822989
 20
1013.8347969018
 10
349.2276596574
 20
1013.9628214477
 10
348.2665548581
 20
1013.7513532535
 10
347.464659209
 20
1013.2233081793
 10
346.9088705465
 20
1012.4359081022
 10
346.659417196
 20
1011.4744800385
 10
346.7433312988
 20
1010.4432096369
 10
347.1515194598
 20
1009.4538510473
 10
347.839748158
 20
1008.6136166242
 10
348.7334371351
 20
1008.0135588051
 10
349.7357413232
 20
1007.7187031655
  0
LWPOLYLINE
  5
1E1
330
1F
100
AcDbEntity
  8
0
  6
Continuous
 62
     7
100
AcDbPolyline
 90
       20
 70
   128
 43
0.0
 10
288.1007052032
 20
953.3617106211
 10
289.1030093914
 20
953.4040093447
 10
289.9966983684
 20
953.7788787084
 10
290.6849270666
 20
954.4456958001
 10
291.0931152276
 20
955.332200641
 10
291.1770293304
 20
956.3423266762
 10
290.92757598
 20
957.366611076
 10
290.3717873174
 20
958.2940567323
 10
289.5698916684
 20
959.0241605174
 10
288.608786869
 20
959.4778043574
 10
287.5926235375
 20
959.6058289034
 10
286.6315187381
 20
959.3943607092
 10
285.8296230891
 20
958.866315635
 10
285.2738344265
 20
958.0789155579
 10
285.0243810761
 20
957.1174874942
 10
285.1082951789
 20
956.0862170926
 10
285.5164833398
 20
955.0968585029
 10
286.2047120381
 20
954.2566240799
 10
287.0984010151
 20
953.6565662608
 10
288.1007052032
 20
953.3617106211
  0
LWPOLYLINE
  5
1E2
330
1F
100
AcDbEntity
  8
0
  6
Continuous
 62
     7
100
AcDbPolyline
 90
       20
 70
   128
 43
0.0
 10
288.1007052032
 20
865.5075436948
 10
289.1030093914
 20
865.5498424184
 10
289.9966983684
 20
865.9247117821
 10
290.6849270666
 20
866.5915288737
 10
291.0931152276
 20
867.4780337147
 10
291.1770293304
 20
868.4881597499
 10
290.92757598
 20
869.5124441497
 10
290.3717873174
 20
870.4398898059
 10
289.5698916684
 20
871.169993591
 10
288.608786869
 20
871.6236374311
 10
287.5926235375
 20
871.7516619771
 10
286.6315187381
 20
871.5401937829
 10
285.8296230891
 20
871.0121487086
 10
285.2738344265
 20
870.2247486316
 10
285.0243810761
 20
869.2633205678
 10
285.1082951789
 20
868.2320501662
 10
285.5164833398
 20
867.2426915766
 10
286.2047120381
 20
866.4024571535
 10
287.0984010151
 20
865.8023993344
 10
288.1007052032
 20
865.5075436948
  0
LWPOLYLINE
  5
1E3
330
1F
100
AcDbEntity
  8
0
  6
Continuous
 62
     7
100
AcDbPolyline
 90
       20
 70
   128
 43
0.0
 10
349.7357413232
 20
795.6199818609
 10
350.7380455114
 20
795.6622805845
 10
351.6317344884
 20
796.0371499482
 10
352.3199631866
 20
796.7039670399
 10
352.7281513476
 20
797.5904718808
 10
352.8120654504
 20
798.600597916
 10
352.5626120999
 20
799.6248823158
 10
352.0068234374
 20
800.552327972
 10
351.2049277883
 20
801.2824317571
 10
350.243822989
 20
801.7360755972
 10
349.2276596574
 20
801.8641001432
 10
348.2665548581
 20
801.652631949
 10
347.464659209
 20
801.1245868747
 10
346.9088705465
 20
800.3371867977
 10
346.659417196
 20
799.3757587339
 10
346.7433312988
 20
798.3444883323
 10
347.1515194598
 20
797.3551297427
 10
347.839748158
 20
796.5148953196
 10
348.7334371351
 20
795.9148375005
 10
349.7357413232
 20
795.6199818609
  0
LWPOLYLINE
  5
1E4
330
1F
100
AcDbEntity
  8
0
  6
Continuous
 62
     7
100
AcDbPolyline
 90
       20
 70
   128
 43
0.0
 10
436.9008453214
 20
784.6382110006
 10
437.9031495096
 20
784.6805097241
 10
438.7968384866
 20
785.0553790879
 10
439.4850671848
 20
785.7221961795
 10
439.8932553458
 20
786.6087010205
 10
439.9771694486
 20
787.6188270556
 10
439.7277160982
 20
788.6431114554
 10
439.1719274356
 20
789.5705571117
 10
438.3700317865
 20
790.3006608968
 10
437.4089269872
 20
790.7543047369
 10
436.3927636557
 20
790.8823292828
 10
435.4316588563
 20
790.6708610886
 10
434.6297632072
 20
790.1428160144
 10
434.0739745447
 20
789.3554159373
 10
433.8245211942
 20
788.3939878736
 10
433.9084352971
 20
787.362717472
 10
434.316623458
 20
786.3733588824
 10
435.0048521562
 20
785.5331244593
 10
435.8985411333
 20
784.9330666402
 10
436.9008453214
 20
784.6382110006
  0
LWPOLYLINE
  5
1E5
330
1F
100
AcDbEntity
  8
0
  6
Continuous
 62
     7
100
AcDbPolyline
 90
       20
 70
   128
 43
0.0
 10
498.5358814414
 20
926.8493704712
 10
499.5381856296
 20
926.8916691948
 10
500.4318746066
 20
927.2665385586
 10
501.1201033048
 20
927.9333556502
 10
501.5282914658
 20
928.8198604911
 10
501.6122055686
 20
929.8299865263
 10
501.3627522181
 20
930.8542709261
 10
500.8069635556
 20
931.7817165824
 10
500.0050679065
 20
932.5118203675
 10
499.0439631072
 20
932.9654642075
 10
498.0277997756
 20
933.0934887535
 10
497.0666949763
 20
932.8820205593
 10
496.2647993272
 20
932.3539754851
 10
495.7090106647
 20
931.566575408
 10
495.4595573142
 20
930.6051473443
 10
495.543471417
 20
929.5738769427
 10
495.951659578
 20
928.584518353
 10
496.6398882762
 20
927.74428393
 10
497.5335772532
 20
927.1442261109
 10
498.5358814414
 20
926.8493704712
  0
LWPOLYLINE
  5
1E6
330
1F
100
AcDbEntity
  8
0
  6
Continuous
 62
     7
100
AcDbPolyline
 90
       20
 70
   128
 43
0.0
 10
436.9008453214
 20
996.7369323051
 10
437.9031495096
 20
996.7792310287
 10
438.7968384866
 20
997.1541003924
 10
439.4850671848
 20
997.8209174841
 10
439.8932553458
 20
998.707422325
 10
439.9771694486
 20
999.7175483602
 10
439.7277160982
 20
1000.74183276
 10
439.1719274356
 20
1001.6692784163
 10
438.3700317865
 20
1002.3993822014
 10
437.4089269872
 20
1002.8530260414
 10
436.3927636557
 20
1002.9810505874
 10
435.4316588563
 20
1002.7695823932
 10
434.6297632072
 20
1002.241537319
 10
434.0739745447
 20
1001.4541372419
 10
433.8245211942
 20
1000.4927091782
 10
433.9084352971
 20
999.4614387766
 10
434.316623458
 20
998.4720801869
 10
435.0048521562
 20
997.6318457639
 10
435.8985411333
 20
997.0317879448
 10
436.9008453214
 20
996.7369323051
  0
LWPOLYLINE
  5
1E7
330
1F
100
AcDbEntity
  8
0
  6
Continuous
 62
     7
100
AcDbPolyline
 90
       20
 70
   128
 43
0.0
 10
499.4020367991
 20
1186.8524210808
 10
500.4043409872
 20
1186.8947198043
 10
501.2980299643
 20
1187.2695891681
 10
501.9862586625
 20
1187.9364062597
 10
502.3944468235
 20
1188.8229111007
 10
502.4783609263
 20
1189.8330371358
 10
502.2289075758
 20
1190.8573215356
 10
501.6731189133
 20
1191.7847671919
 10
500.8712232642
 20
1192.514870977
 10
499.9101184648
 20
1192.9685148171
 10
498.8939551333
 20
1193.096539363
 10
497.932850334
 20
1192.8850711688
 10
497.1309546849
 20
1192.3570260946
 10
496.5751660223
 20
1191.5696260175
 10
496.3257126719
 20
1190.6081979538
 10
496.4096267747
 20
1189.5769275522
 10
496.8178149357
 20
1188.5875689626
 10
497.5060436339
 20
1187.7473345395
 10
498.3997326109
 20
1187.1472767204
 10
499.4020367991
 20
1186.8524210808
  0
LWPOLYLINE
  5
1E8
330
1F
100
AcDbEntity
  8
0
  6
Continuous
 62
     7
100
AcDbPolyline
 90
       20
 70
   128
 43
0.0
 10
437.7670006791
 20
1132.4954285364
 10
438.7693048673
 20
1132.53772726
 10
439.6629938443
 20
1132.9125966237
 10
440.3512225425
 20
1133.5794137154
 10
440.7594107035
 20
1134.4659185563
 10
440.8433248063
 20
1135.4760445915
 10
440.5938714558
 20
1136.5003289913
 10
440.0380827933
 20
1137.4277746476
 10
439.2361871442
 20
1138.1578784327
 10
438.2750823449
 20
1138.6115222727
 10
437.2589190133
 20
1138.7395468187
 10
436.297814214
 20
1138.5280786245
 10
435.4959185649
 20
1138.0000335502
 10
434.9401299024
 20
1137.2126334732
 10
434.6906765519
 20
1136.2512054095
 10
434.7745906547
 20
1135.2199350079
 10
435.1827788157
 20
1134.2305764182
 10
435.8710075139
 20
1133.3903419952
 10
436.7646964909
 20
1132.7902841761
 10
437.7670006791
 20
1132.4954285364
  0
LWPOLYLINE
  5
1E9
330
1F
100
AcDbEntity
  8
0
  6
Continuous
 62
     7
100
AcDbPolyline
 90
       20
 70
   128
 43
0.0
 10
437.7670006791
 20
1044.6412616101
 10
438.7693048673
 20
1044.6835603337
 10
439.6629938443
 20
1045.0584296974
 10
440.3512225425
 20
1045.725246789
 10
440.7594107035
 20
1046.61175163
 10
440.8433248063
 20
1047.6218776652
 10
440.5938714558
 20
1048.646162065
 10
440.0380827933
 20
1049.5736077212
 10
439.2361871442
 20
1050.3037115063
 10
438.2750823449
 20
1050.7573553464
 10
437.2589190133
 20
1050.8853798923
 10
436.297814214
 20
1050.6739116982
 10
435.4959185649
 20
1050.1458666239
 10
434.9401299024
 20
1049.3584665469
 10
434.6906765519
 20
1048.3970384831
 10
434.7745906547
 20
1047.3657680815
 10
435.1827788157
 20
1046.3764094919
 10
435.8710075139
 20
1045.5361750688
 10
436.7646964909
 20
1044.9361172497
 10
437.7670006791
 20
1044.6412616101
  0
LWPOLYLINE
  5
1EA
330
1F
100
AcDbEntity
  8
0
  6
Continuous
 62
     7
100
AcDbPolyline
 90
       20
 70
   128
 43
0.0
 10
499.4020367991
 20
974.7536997762
 10
500.4043409872
 20
974.7959984998
 10
501.2980299643
 20
975.1708678635
 10
501.9862586625
 20
975.8376849551
 10
502.3944468235
 20
976.7241897961
 10
502.4783609263
 20
977.7343158313
 10
502.2289075758
 20
978.7586002311
 10
501.6731189133
 20
979.6860458873
 10
500.8712232642
 20
980.4161496724
 10
499.9101184648
 20
980.8697935125
 10
498.8939551333
 20
980.9978180585
 10
497.932850334
 20
980.7863498643
 10
497.1309546849
 20
980.25830479
 10
496.5751660223
 20
979.470904713
 10
496.3257126719
 20
978.5094766492
 10
496.4096267747
 20
977.4782062476
 10
496.8178149357
 20
976.488847658
 10
497.5060436339
 20
975.6486132349
 10
498.3997326109
 20
975.0485554158
 10
499.4020367991
 20
974.7536997762
  0
LWPOLYLINE
  5
1EB
330
1F
100
AcDbEntity
  8
0
  6
Continuous
 62
     7
100
AcDbPolyline
 90
       20
 70
   128
 43
0.0
 10
586.5671407973
 20
963.7719289159
 10
587.5694449855
 20
963.8142276394
 10
588.4631339625
 20
964.1890970032
 10
589.1513626607
 20
964.8559140948
 10
589.5595508217
 20
965.7424189358
 10
589.6434649245
 20
966.7525449709
 10
589.394011574
 20
967.7768293707
 10
588.8382229115
 20
968.704275027
 10
588.0363272624
 20
969.4343788121
 10
587.0752224631
 20
969.8880226522
 10
586.0590591315
 20
970.0160471981
 10
585.0979543322
 20
969.8045790039
 10
584.2960586831
 20
969.2765339297
 10
583.7402700206
 20
968.4891338526
 10
583.4908166701
 20
967.5277057889
 10
583.5747307729
 20
966.4964353873
 10
583.9829189339
 20
965.5070767976
 10
584.6711476321
 20
964.6668423746
 10
585.5648366091
 20
964.0667845555
 10
586.5671407973
 20
963.7719289159
  0
LWPOLYLINE
  5
1EC
330
1F
100
AcDbEntity
  8
0
  6
Continuous
 62
     7
100
AcDbPolyline
 90
       20
 70
   128
 43
0.0
 10
648.2021769173
 20
1018.1289214602
 10
649.2044811054
 20
1018.1712201838
 10
650.0981700824
 20
1018.5460895475
 10
650.7863987807
 20
1019.2129066391
 10
651.1945869416
 20
1020.0994114801
 10
651.2785010444
 20
1021.1095375153
 10
651.029047694
 20
1022.1338219151
 10
650.4732590315
 20
1023.0612675713
 10
649.6713633824
 20
1023.7913713564
 10
648.710258583
 20
1024.2450151965
 10
647.6940952515
 20
1024.3730397425
 10
646.7329904521
 20
1024.1615715483
 10
645.9310948031
 20
1023.633526474
 10
645.3753061405
 20
1022.846126397
 10
645.1258527901
 20
1021.8846983332
 10
645.2097668929
 20
1020.8534279316
 10
645.6179550539
 20
1019.864069342
 10
646.3061837521
 20
1019.0238349189
 10
647.1998727291
 20
1018.4237770998
 10
648.2021769173
 20
1018.1289214602
  0
LWPOLYLINE
  5
1ED
330
1F
100
AcDbEntity
  8
0
  6
Continuous
 62
     7
100
AcDbPolyline
 90
       20
 70
   128
 43
0.0
 10
648.2021769173
 20
1105.9830883865
 10
649.2044811054
 20
1106.0253871101
 10
650.0981700824
 20
1106.4002564738
 10
650.7863987807
 20
1107.0670735655
 10
651.1945869416
 20
1107.9535784064
 10
651.2785010444
 20
1108.9637044416
 10
651.029047694
 20
1109.9879888414
 10
650.4732590315
 20
1110.9154344977
 10
649.6713633824
 20
1111.6455382828
 10
648.710258583
 20
1112.0991821228
 10
647.6940952515
 20
1112.2272066688
 10
646.7329904521
 20
1112.0157384746
 10
645.9310948031
 20
1111.4876934004
 10
645.3753061405
 20
1110.7002933233
 10
645.1258527901
 20
1109.7388652596
 10
645.2097668929
 20
1108.707594858
 10
645.6179550539
 20
1107.7182362683
 10
646.3061837521
 20
1106.8780018453
 10
647.1998727291
 20
1106.2779440262
 10
648.2021769173
 20
1105.9830883865
  0
LWPOLYLINE
  5
1EE
330
1F
100
AcDbEntity
  8
0
  6
Continuous
 62
     7
100
AcDbPolyline
 90
       20
 70
   128
 43
0.0
 10
586.5671407973
 20
1175.8706502204
 10
587.5694449855
 20
1175.912948944
 10
588.4631339625
 20
1176.2878183077
 10
589.1513626607
 20
1176.9546353994
 10
589.5595508217
 20
1177.8411402403
 10
589.6434649245
 20
1178.8512662755
 10
589.394011574
 20
1179.8755506753
 10
588.8382229115
 20
1180.8029963316
 10
588.0363272624
 20
1181.5331001167
 10
587.0752224631
 20
1181.9867439567
 10
586.0590591315
 20
1182.1147685027
 10
585.0979543322
 20
1181.9033003085
 10
584.2960586831
 20
1181.3752552342
 10
583.7402700206
 20
1180.5878551572
 10
583.4908166701
 20
1179.6264270935
 10
583.5747307729
 20
1178.5951566919
 10
583.9829189339
 20
1177.6057981022
 10
584.6711476321
 20
1176.7655636792
 10
585.5648366091
 20
1176.1655058601
 10
586.5671407973
 20
1175.8706502204
  0
LINE
  5
1EF
330
1F
100
AcDbEntity
  8
0
  6
Continuous
 62
     7
100
AcDbLine
 10
673.9425973396
 20
731.9411220521
 30
0.0
 11
679.2458981972
 21
736.6181937846
 31
0.0
  0
LINE
  5
1F0
330
1F
100
AcDbEntity
  8
0
  6
Continuous
 62
     7
100
AcDbLine
 10
679.2458981972
 20
736.6181937846
 30
0.0
 11
679.2458981972
 21
1198.5946241736
 31
0.0
  0
LWPOLYLINE
  5
1F1
330
1F
100
AcDbEntity
  8
0
  6
Continuous
 62
     7
100
AcDbPolyline
 90
       15
 70
   128
 43
0.0
 10
548.2878896559
 20
975.1488813038
 10
554.2402213933
 20
974.5657941538
 10
560.1741548144
 20
974.3181816109
 10
566.0713484712
 20
974.4068090313
 10
571.9135744758
 20
974.8314024727
 10
577.6827748426
 20
975.5906495412
 10
583.3611173038
 20
976.6822034475
 10
588.9310504284
 20
978.102690261
 10
594.3753578721
 20
979.8477193385
 10
599.6772115928
 20
981.911896895
 10
604.8202238644
 20
984.2888426761
 10
609.7884979306
 20
986.9712096785
 10
614.5666771412
 20
989.9507068596
 10
619.1399924179
 20
993.2181247642
 10
621.3244359633
 20
994.939632527
  0
LWPOLYLINE
  5
1F2
330
1F
100
AcDbEntity
  8
0
  6
Continuous
 62
     7
100
AcDbPolyline
 90
       43
 70
   128
 43
0.0
 10
469.9480424916
 20
1166.5843288775
 10
466.9898688337
 20
1163.6230927646
 10
463.2403530941
 20
1159.4330365442
 10
459.753714416
 20
1155.0070408791
 10
456.5407298
 20
1150.3587862681
 10
453.6113303973
 20
1145.5026401999
 10
450.9745708135
 20
1140.4536127437
 10
448.6386011215
 20
1135.2273101539
 10
446.6106416697
 20
1129.8398866325
 10
444.8969607645
 20
1124.3079943967
 10
443.5028552954
 20
1118.6487322084
 10
442.4326343626
 20
1112.8795925228
 10
441.6896059575
 20
1107.01840742
 10
441.2760667385
 20
1101.0832934872
 10
441.1932949314
 20
1095.0925958215
 10
441.4415463794
 20
1089.0648313261
 10
442.0200537513
 20
1083.0186314756
 10
442.927028914
 20
1076.9726847272
 10
444.1596684593
 20
1070.9456787558
 10
445.7141623689
 20
1064.9562426916
 10
447.5857057914
 20
1059.0228895381
 10
449.7685138931
 20
1053.1639589499
 10
452.2558397394
 20
1047.3975605458
 10
455.0399951487
 20
1041.7415179326
 10
458.112374456
 20
1036.2133136141
 10
461.4634811131
 20
1030.8300349528
 10
465.0829570413
 20
1025.6083213548
 10
468.9596146479
 20
1020.5643128374
 10
473.0814714064
 20
1015.7136001419
 10
477.4357868938
 20
1011.0711765433
 10
482.0091021705
 20
1006.6513915069
 10
486.7872813811
 20
1002.467906335
 10
491.7555554474
 20
998.5336519404
 10
496.8985677189
 20
994.860788878
 10
502.2004214396
 20
991.4606697572
 10
507.6447288834
 20
988.3438041511
 10
513.2146620079
 20
985.5198261128
 10
518.8930044691
 20
982.9974643967
 10
524.6622048359
 20
980.7845154781
 10
530.5044308406
 20
978.8878194553
 10
536.4016244973
 20
977.3132389072
 10
542.3355579184
 20
976.0656407719
 10
548.2878896559
 20
975.1488813038
  0
ARC
  5
1F3
330
1F
100
AcDbEntity
  8
0
  6
Continuous
 62
     7
100
AcDbCircle
 10
592.5321249665
 20
900.1671334576
 30
0.0
 40
31.92603171608733
100
AcDbArc
 50
262.5974138168
 51
304.0017058063
  0
ARC
  5
1F4
330
1F
100
AcDbEntity
  8
0
  6
Continuous
 62
     7
100
AcDbCircle
 10
584.497836618
 20
909.3325201394
 30
0.0
 40
31.99874144491317
100
AcDbArc
 50
138.8667312379
 51
180.1726375788
  0
LWPOLYLINE
  5
1F5
330
1F
100
AcDbEntity
  8
0
  6
Continuous
 62
     7
100
AcDbPolyline
 90
       15
 70
   128
 43
0.0
 10
398.62159418
 20
796.0151633885
 10
404.5739259174
 20
795.4320762385
 10
410.5078593386
 20
795.1844636956
 10
416.4050529953
 20
795.273091116
 10
422.2472789999
 20
795.6976845574
 10
428.0164793667
 20
796.4569316259
 10
433.694821828
 20
797.5484855322
 10
439.2647549525
 20
798.9689723457
 10
444.7090623963
 20
800.7140014232
 10
450.010916117
 20
802.7781789797
 10
455.1539283885
 20
805.1551247608
 10
460.1222024548
 20
807.8374917632
 10
464.9003816653
 20
810.8169889443
 10
469.473696942
 20
814.0844068489
 10
471.6581404872
 20
815.8059146115
  0
LWPOLYLINE
  5
1F6
330
1F
100
AcDbEntity
  8
0
  6
Continuous
 62
     7
100
AcDbPolyline
 90
       43
 70
   128
 43
0.0
 10
320.2817470151
 20
987.4506109616
 10
317.3235733578
 20
984.4893748493
 10
313.5740576182
 20
980.2993186289
 10
310.0874189402
 20
975.8733229638
 10
306.8744343241
 20
971.2250683528
 10
303.9450349214
 20
966.3689222846
 10
301.3082753377
 20
961.3198948284
 10
298.9723056456
 20
956.0935922386
 10
296.9443461938
 20
950.7061687172
 10
295.2306652886
 20
945.1742764814
 10
293.8365598196
 20
939.5150142931
 10
292.7663388867
 20
933.7458746075
 10
292.0233104816
 20
927.8846895047
 10
291.6097712626
 20
921.9495755719
 10
291.5269994556
 20
915.9588779062
 10
291.7752509035
 20
909.9311134108
 10
292.3537582754
 20
903.8849135603
 10
293.2607334381
 20
897.8389668119
 10
294.4933729834
 20
891.8119608406
 10
296.0478668931
 20
885.8225247763
 10
297.9194103155
 20
879.8891716228
 10
300.1022184172
 20
874.0302410347
 10
302.5895442636
 20
868.2638426305
 10
305.3736996728
 20
862.6078000173
 10
308.4460789801
 20
857.0795956988
 10
311.7971856372
 20
851.6963170375
 10
315.4166615654
 20
846.4746034395
 10
319.293319172
 20
841.4305949221
 10
323.4151759305
 20
836.5798822266
 10
327.769491418
 20
831.937458628
 10
332.3428066947
 20
827.5176735916
 10
337.1209859052
 20
823.3341884197
 10
342.0892599715
 20
819.3999340251
 10
347.2322722431
 20
815.7270709627
 10
352.5341259637
 20
812.3269518419
 10
357.9784334075
 20
809.2100862358
 10
363.548366532
 20
806.3861081975
 10
369.2267089933
 20
803.8637464814
 10
374.9959093601
 20
801.6507975628
 10
380.8381353647
 20
799.75410154
 10
386.7353290214
 20
798.1795209919
 10
392.6692624426
 20
796.9319228566
 10
398.62159418
 20
796.0151633885
  0
LINE
  5
1F7
330
1F
100
AcDbEntity
  8
0
  6
Continuous
 62
     7
100
AcDbLine
 10
316.679297407
 20
1116.9945015995
 30
0.0
 11
311.3759965493
 21
1112.317429867
 31
0.0
  0
LINE
  5
1F8
330
1F
100
AcDbEntity
  8
0
  6
Continuous
 62
     7
100
AcDbLine
 10
316.679297407
 20
1116.9945015995
 30
0.0
 11
395.5632877545
 21
1107.056052991
 31
0.0
  0
LINE
  5
1F9
330
1F
100
AcDbEntity
  8
0
  6
Continuous
 62
     7
100
AcDbLine
 10
316.679297407
 20
1177.6459096754
 30
0.0
 11
316.679297407
 21
1116.9945015995
 31
0.0
  0
ARC
  5
1FA
330
1F
100
AcDbEntity
  8
0
  6
Continuous
 62
     7
100
AcDbCircle
 10
592.5361342804
 20
796.4494932256
 30
0.0
 40
31.91662224421782
100
AcDbArc
 50
262.7572879596
 51
304.0044183039
  0
ARC
  5
1FB
330
1F
100
AcDbEntity
  8
0
  6
Continuous
 62
     7
100
AcDbCircle
 10
584.4979342858
 20
805.6234661871
 30
0.0
 40
31.99885406420631
100
AcDbArc
 50
138.8667662018
 51
180.1745351608
  0
LINE
  5
1FC
330
1F
100
AcDbEntity
  8
0
  6
PHANTOM
 62
     8
370
     0
100
AcDbLine
 10
869.794008748
 20
767.4979361809
 30
0.0
 11
869.794008748
 21
1229.4743665698
 31
0.0
  0
LINE
  5
1FD
330
1F
100
AcDbEntity
  8
0
  6
PHANTOM
 62
     8
370
     0
100
AcDbLine
 10
882.6836861204
 20
1231.4139030901
 30
0.0
 11
882.6836861204
 21
769.4374727011
 31
0.0
  0
LINE
  5
1FE
330
1F
100
AcDbEntity
  8
0
  6
PHANTOM
 62
     8
370
     0
100
AcDbLine
 10
985.2141693689
 20
859.8608595296
 30
0.0
 11
985.2141693689
 21
1321.8372899186
 31
0.0
  0
LINE
  5
1FF
330
1F
100
AcDbEntity
  8
0
  6
PHANTOM
 62
     8
370
     0
100
AcDbLine
 10
179.3066285449
 20
1316.4675994523
 30
0.0
 11
179.3066285449
 21
854.4911690634
 31
0.0
  0
LINE
  5
200
330
1F
100
AcDbEntity
  8
0
  6
PHANTOM
 62
     8
370
     0
100
AcDbLine
 10
751.2687057113
 20
675.2225097724
 30
0.0
 11
751.2687057113
 21
670.5084645644
 31
0.0
  0
LWPOLYLINE
  5
201
330
1F
100
AcDbEntity
  8
0
  6
PHANTOM
 62
     8
370
     0
100
AcDbPolyline
 90
        9
 70
   128
 43
0.0
 10
751.2687057113
 20
670.5084645644
 10
750.3992200194
 20
669.922808375
 10
749.2036736875
 20
669.4049481529
 10
747.7280108906
 20
668.9747849761
 10
746.0289405225
 20
668.6488497741
 10
744.1717569045
 20
668.439668054
 10
742.2278305615
 20
668.3552785521
 10
740.2718654927
 20
668.3989243094
 10
738.3790283389
 20
668.5689280442
  0
LINE
  5
202
330
1F
100
AcDbEntity
  8
0
  6
PHANTOM
 62
     8
370
     0
100
AcDbLine
 10
738.3790283389
 20
668.5689280442
 30
0.0
 11
738.3790283389
 21
673.2829732522
 31
0.0
  0
ARC
  5
203
330
1F
100
AcDbEntity
  8
0
  6
PHANTOM
 62
     8
370
     0
100
AcDbCircle
 10
742.9341707923
 20
670.3662357745
 30
0.0
 40
8.335748397325885
100
AcDbArc
 50
312.158037431
 51
0.9776572489
  0
LWPOLYLINE
  5
204
330
1F
100
AcDbEntity
  8
0
  6
PHANTOM
 62
     8
370
     0
100
AcDbPolyline
 90
        8
 70
   128
 43
0.0
 10
738.3790283389
 20
668.5689280442
 10
738.4469626315
 20
666.7895112635
 10
738.6481548326
 20
665.1983013009
 10
738.9748732387
 20
663.856447463
 10
739.4145622446
 20
662.8155164402
 10
739.9503248485
 20
662.1155106279
 10
740.561571994
 20
661.783330857
 10
740.6645622447
 20
661.7654084493
  0
LINE
  5
205
330
1F
100
AcDbEntity
  8
0
  6
PHANTOM
 62
     8
370
     0
100
AcDbLine
 10
317.4425723131
 20
726.3159818164
 30
0.0
 11
317.4425723131
 21
721.6019366084
 31
0.0
  0
LINE
  5
206
330
1F
100
AcDbEntity
  8
0
  6
PHANTOM
 62
     8
370
     0
100
AcDbLine
 10
317.4425723131
 20
721.6019366084
 30
0.0
 11
738.3790283389
 21
668.5689280442
 31
0.0
  0
LWPOLYLINE
  5
207
330
1F
100
AcDbEntity
  8
0
  6
PHANTOM
 62
     8
370
     0
100
AcDbPolyline
 90
        8
 70
   128
 43
0.0
 10
319.7281062188
 20
714.7984170135
 10
319.6251159681
 20
714.8163394213
 10
319.0138688227
 20
715.1485191922
 10
318.4781062187
 20
715.8485250044
 10
318.0384172128
 20
716.8894560272
 10
317.7116988067
 20
718.2313098651
 10
317.5105066057
 20
719.8225198277
 10
317.4425723131
 20
721.6019366084
  0
LINE
  5
208
330
1F
100
AcDbEntity
  8
0
  6
PHANTOM
 62
     8
370
     0
100
AcDbLine
 10
853.7991889598
 20
760.9318513929
 30
0.0
 11
853.7991889598
 21
765.6458966009
 31
0.0
  0
LINE
  5
209
330
1F
100
AcDbEntity
  8
0
  6
PHANTOM
 62
     8
370
     0
100
AcDbLine
 10
751.2687057113
 20
670.5084645644
 30
0.0
 11
853.7991889598
 21
760.9318513929
 31
0.0
  0
ARC
  5
20A
330
1F
100
AcDbEntity
  8
0
  6
PHANTOM
 62
     8
370
     0
100
AcDbCircle
 10
845.4646540409
 20
760.789622603
 30
0.0
 40
8.335748397325885
100
AcDbArc
 50
312.158037431
 51
0.9776572489
  0
LWPOLYLINE
  5
20B
330
1F
100
AcDbEntity
  8
0
  6
PHANTOM
 62
     8
370
     0
100
AcDbPolyline
 90
        8
 70
   128
 43
0.0
 10
317.4425723131
 20
721.6019366084
 10
315.6856037445
 20
721.8917651722
 10
314.1320230779
 20
722.2902806161
 10
312.841533547
 20
722.782168215
 10
311.8637279409
 20
723.3485250042
 10
311.2361827805
 20
723.9675862101
 10
310.9830142746
 20
724.6155616576
 10
310.9781062182
 20
724.71998443
  0
LWPOLYLINE
  5
20C
330
1F
100
AcDbEntity
  8
0
  6
PHANTOM
 62
     8
370
     0
100
AcDbPolyline
 90
        3
 70
   128
 43
0.0
 10
854.4450454926
 20
762.1103626943
 10
854.3092001641
 20
761.5627971107
 10
853.7991889598
 20
760.9318513929
  0
LWPOLYLINE
  5
20D
330
1F
100
AcDbEntity
  8
0
  6
PHANTOM
 62
     8
370
     0
100
AcDbPolyline
 90
        9
 70
   128
 43
0.0
 10
738.3790283389
 20
1396.6476588455
 10
738.4469626315
 20
1398.5469004554
 10
738.6481548326
 20
1400.4929801045
 10
738.9748732387
 20
1402.4111110432
 10
739.4145622446
 20
1404.2275805753
 10
739.9503248485
 20
1405.8725827954
 10
740.561571994
 20
1407.2829011906
 10
741.224813796
 20
1408.404338016
 10
741.914562244
 20
1409.1937970833
  0
ARC
  5
20E
330
1F
100
AcDbEntity
  8
0
  6
PHANTOM
 62
     8
370
     0
100
AcDbCircle
 10
740.3494493448
 20
1398.3854068322
 30
0.0
 40
10.92112073957722
100
AcDbArc
 50
1.0587090425
 51
81.7605351794
  0
LWPOLYLINE
  5
20F
330
1F
100
AcDbEntity
  8
0
  6
PHANTOM
 62
     8
370
     0
100
AcDbPolyline
 90
        9
 70
   128
 43
0.0
 10
738.3790283389
 20
1396.6476588455
 10
740.2718654927
 20
1396.4776551108
 10
742.2278305615
 20
1396.4340093535
 10
744.1717569045
 20
1396.5183988554
 10
746.0289405225
 20
1396.7275805755
 10
747.7280108906
 20
1397.0535157775
 10
749.2036736875
 20
1397.4836789543
 10
750.3992200194
 20
1398.0015391764
 10
751.2687057113
 20
1398.5871953658
  0
LINE
  5
210
330
1F
100
AcDbEntity
  8
0
  6
PHANTOM
 62
     8
370
     0
100
AcDbLine
 10
738.3790283389
 20
1391.9336136375
 30
0.0
 11
738.3790283389
 21
1396.6476588455
 31
0.0
  0
LINE
  5
211
330
1F
100
AcDbEntity
  8
0
  6
PHANTOM
 62
     8
370
     0
100
AcDbLine
 10
751.2687057113
 20
1398.5871953658
 30
0.0
 11
751.2687057113
 21
1393.8731501577
 31
0.0
  0
LINE
  5
212
330
1F
100
AcDbEntity
  8
0
  6
PHANTOM
 62
     8
370
     0
100
AcDbLine
 10
320.9781062182
 20
1462.2268056475
 30
0.0
 11
741.914562244
 21
1409.1937970833
 31
0.0
  0
LINE
  5
213
330
1F
100
AcDbEntity
  8
0
  6
PHANTOM
 62
     8
370
     0
100
AcDbLine
 10
738.3790283389
 20
1396.6476588455
 30
0.0
 11
317.4425723131
 21
1449.6806674097
 31
0.0
  0
LWPOLYLINE
  5
214
330
1F
100
AcDbEntity
  8
0
  6
PHANTOM
 62
     8
370
     0
100
AcDbPolyline
 90
        9
 70
   128
 43
0.0
 10
320.9781062182
 20
1462.2268056475
 10
320.2883577701
 20
1461.4373465802
 10
319.6251159681
 20
1460.3159097548
 10
319.0138688227
 20
1458.9055913596
 10
318.4781062187
 20
1457.2605891395
 10
318.0384172128
 20
1455.4441196074
 10
317.7116988067
 20
1453.5259886687
 10
317.5105066057
 20
1451.5799090196
 10
317.4425723131
 20
1449.6806674097
  0
LINE
  5
215
330
1F
100
AcDbEntity
  8
0
  6
PHANTOM
 62
     8
370
     0
100
AcDbLine
 10
317.4425723131
 20
1449.6806674097
 30
0.0
 11
317.4425723131
 21
1444.9666222017
 31
0.0
  0
LINE
  5
216
330
1F
100
AcDbEntity
  8
0
  6
PHANTOM
 62
     8
370
     0
100
AcDbLine
 10
853.7991889598
 20
1489.0105821943
 30
0.0
 11
751.2687057113
 21
1398.5871953658
 31
0.0
  0
LINE
  5
217
330
1F
100
AcDbEntity
  8
0
  6
PHANTOM
 62
     8
370
     0
100
AcDbLine
 10
741.914562244
 20
1409.1937970833
 30
0.0
 11
844.4450454926
 21
1499.6171839118
 31
0.0
  0
ARC
  5
218
330
1F
100
AcDbEntity
  8
0
  6
PHANTOM
 62
     8
370
     0
100
AcDbCircle
 10
842.8799325934
 20
1488.8087936606
 30
0.0
 40
10.92112073957775
100
AcDbArc
 50
1.0587090425
 51
81.7605351794
  0
LINE
  5
219
330
1F
100
AcDbEntity
  8
0
  6
PHANTOM
 62
     8
370
     0
100
AcDbLine
 10
853.7991889598
 20
1484.2965369862
 30
0.0
 11
853.7991889598
 21
1489.0105821943
 31
0.0
  0
LINE
  5
21A
330
1F
100
AcDbEntity
  8
0
  6
PHANTOM
 62
     8
370
     0
100
AcDbLine
 10
844.4450454926
 20
1499.6171839118
 30
0.0
 11
423.5085894667
 21
1552.650192476
 31
0.0
  0
LINE
  5
21B
330
1F
100
AcDbEntity
  8
0
  6
PHANTOM
 62
     8
370
     0
100
AcDbLine
 10
423.5085894667
 20
1552.650192476
 30
0.0
 11
320.9781062182
 21
1462.2268056475
 31
0.0
  0
LWPOLYLINE
  5
21C
330
1F
100
AcDbEntity
  8
0
  6
PHANTOM
 62
     8
370
     0
100
AcDbPolyline
 90
        8
 70
   128
 43
0.0
 10
310.9781062182
 20
1452.7987152314
 10
310.9830142746
 20
1452.694292459
 10
311.2361827805
 20
1452.0463170114
 10
311.8637279409
 20
1451.4272558056
 10
312.841533547
 20
1450.8608990163
 10
314.1320230779
 20
1450.3690114175
 10
315.6856037445
 20
1449.9704959736
 10
317.4425723131
 20
1449.6806674097
  0
ARC
  5
21D
330
1F
100
AcDbEntity
  8
0
  6
PHANTOM
 62
     8
370
     0
100
AcDbCircle
 10
319.7951761011
 20
1453.9754192379
 30
0.0
 40
8.335748397240417
100
AcDbArc
 50
81.8415869733
 51
130.6612067915
  0
ARC
  5
21E
330
1F
100
AcDbEntity
  8
0
  6
PHANTOM
 62
     8
370
     0
100
AcDbCircle
 10
422.3256593496
 20
1544.3988060664
 30
0.0
 40
8.335748397240064
100
AcDbArc
 50
81.8415869733
 51
130.6612067915
  0
LWPOLYLINE
  5
21F
330
1F
100
AcDbEntity
  8
0
  6
PHANTOM
 62
     8
370
     0
100
AcDbPolyline
 90
        3
 70
   128
 43
0.0
 10
845.6950454919
 20
1500.1106609123
 10
845.1347939406
 20
1500.0443267517
 10
844.4450454926
 20
1499.6171839118
  0
LWPOLYLINE
  5
220
330
1F
100
AcDbEntity
  8
0
  6
PHANTOM
 62
     8
370
     0
100
AcDbPolyline
 90
        3
 70
   128
 43
0.0
 10
853.7991889598
 20
1489.0105821943
 10
854.3092001641
 20
1489.6415279121
 10
854.4450454926
 20
1490.1890934957
  0
LWPOLYLINE
  5
221
330
1F
100
AcDbEntity
  8
0
  6
PHANTOM
 62
     8
370
     0
100
AcDbPolyline
 90
        3
 70
   128
 43
0.0
 10
423.5085894667
 20
1552.650192476
 10
424.1983379147
 20
1553.0773353159
 10
424.7585894661
 20
1553.1436694765
  0
LINE
  5
222
330
1F
100
AcDbEntity
  8
0
  6
PHANTOM
 62
     8
370
     0
100
AcDbLine
 10
356.0627308796
 20
1130.9722884821
 30
0.0
 11
356.0627308796
 21
1145.1144241063
 31
0.0
  0
LINE
  5
223
330
1F
100
AcDbEntity
  8
0
  6
PHANTOM
 62
     8
370
     0
100
AcDbLine
 10
792.0584605071
 20
1108.0015415287
 30
0.0
 11
792.0584605071
 21
1093.8594059046
 31
0.0
  0
LINE
  5
224
330
1F
100
AcDbEntity
  8
0
  6
PHANTOM
 62
     8
370
     0
100
AcDbLine
 10
595.1414047331
 20
1122.0644102765
 30
0.0
 11
609.172619934
 21
1120.2966433243
 31
0.0
  0
LINE
  5
225
330
1F
100
AcDbEntity
  8
0
  6
PHANTOM
 62
     8
370
     0
100
AcDbLine
 10
595.1414047331
 20
909.9323759142
 30
0.0
 11
609.172619934
 21
908.1646089621
 31
0.0
  0
LINE
  5
226
330
1F
100
AcDbEntity
  8
0
  6
PHANTOM
 62
     8
370
     0
100
AcDbLine
 10
612.8190742587
 20
1274.3619604183
 30
0.0
 11
626.8502894596
 21
1272.5941934662
 31
0.0
  0
LINE
  5
227
330
1F
100
AcDbEntity
  8
0
  6
PHANTOM
 62
     8
370
     0
100
AcDbLine
 10
612.8190742587
 20
1062.229926056
 30
0.0
 11
626.8502894596
 21
1060.4621591039
 31
0.0
  0
INSERT
  5
22D
330
1F
100
AcDbEntity
  8
SLD-0_0
 62
     7
100
AcDbBlockReference
  2
SW_NOTE_7
 10
259.6184759514
 20
1443.958245835
 30
0.0
  0
LEADER
  5
237
330
1F
100
AcDbEntity
  8
SLD-0_0
 62
     7
100
AcDbLeader
  3
SLDDIMSTYLE0
 76
     2
 10
522.8219049344
 20
1350.1713898999
 30
0.0
 10
259.6184759514
 20
1443.958245835
 30
0.0
  0
INSERT
  5
23D
330
1F
100
AcDbEntity
  8
SLD-0_0
 62
     7
100
AcDbBlockReference
  2
SW_NOTE_8
 10
585.1291825035
 20
1618.0856243763
 30
0.0
  0
LEADER
  5
23E
330
1F
100
AcDbEntity
  8
SLD-0_0
 62
     7
100
AcDbLeader
  3
SLDDIMSTYLE0
 76
     2
 10
605.3079865448
 20
1493.8568223826
 30
0.0
 10
585.1291825035
 20
1618.0856243763
 30
0.0
  0
INSERT
  5
244
330
1F
100
AcDbEntity
  8
SLD-0_0
 62
     7
100
AcDbBlockReference
  2
SW_NOTE_9
 10
909.8586825061
 20
1356.8852342728
 30
0.0
  0
LEADER
  5
245
330
1F
100
AcDbEntity
  8
SLD-0_0
 62
     7
100
AcDbLeader
  3
SLDDIMSTYLE0
 76
     2
 10
847.4445486917
 20
1104.0435657396
 30
0.0
 10
909.8586825061
 20
1356.8852342728
 30
0.0
  0
INSERT
  5
24B
330
1F
100
AcDbEntity
  8
SLD-0_0
 62
     7
100
AcDbBlockReference
  2
SW_NOTE_10
 10
1024.3711566439
 20
1036.3296421936
 30
0.0
  0
LEADER
  5
24C
330
1F
100
AcDbEntity
  8
SLD-0_0
 62
     7
100
AcDbLeader
  3
SLDDIMSTYLE0
 76
     2
 10
947.2260990269
 20
1014.9053807735
 30
0.0
 10
1024.3711566439
 20
1036.3296421936
 30
0.0
  0
INSERT
  5
252
330
1F
100
AcDbEntity
  8
SLD-0_0
 62
     7
100
AcDbBlockReference
  2
SW_NOTE_11
 10
838.651131103
 20
1432.2088701819
 30
0.0
  0
LEADER
  5
253
330
1F
100
AcDbEntity
  8
SLD-0_0
 62
     7
100
AcDbLeader
  3
SLDDIMSTYLE0
 76
     2
 10
621.2730345985
 20
1316.9108731215
 30
0.0
 10
838.651131103
 20
1432.2088701819
 30
0.0
  0
INSERT
  5
259
330
1F
100
AcDbEntity
  8
SLD-0_0
 62
     7
100
AcDbBlockReference
  2
SW_NOTE_12
 10
565.7009194847
 20
611.9902297605
 30
0.0
  0
LEADER
  5
25A
330
1F
100
AcDbEntity
  8
SLD-0_0
 62
     7
100
AcDbLeader
  3
SLDDIMSTYLE0
 76
     2
 10
524.1523256055
 20
736.8474605059
 30
0.0
 10
565.7009194847
 20
611.9902297605
 30
0.0
  0
INSERT
  5
260
330
1F
100
AcDbEntity
  8
SLD-0_0
 62
     7
100
AcDbBlockReference
  2
SW_NOTE_13
 10
203.2359656867
 20
735.1416644569
 30
0.0
  0
LEADER
  5
261
330
1F
100
AcDbEntity
  8
SLD-0_0
 62
     7
100
AcDbLeader
  3
SLDDIMSTYLE0
 76
     2
 10
305.9633355391
 20
804.6989147339
 30
0.0
 10
203.2359656867
 20
735.1416644569
 30
0.0
  0
INSERT
  5
267
330
1F
100
AcDbEntity
  8
SLD-0_0
 62
     7
100
AcDbBlockReference
  2
SW_NOTE_14
 10
344.2404804759
 20
1309.5600996142
 30
0.0
  0
LEADER
  5
268
330
1F
100
AcDbEntity
  8
SLD-0_0
 62
     7
100
AcDbLeader
  3
SLDDIMSTYLE0
 76
     2
 10
492.2222294982
 20
1139.9649238603
 30
0.0
 10
344.2404804759
 20
1309.5600996142
 30
0.0
  0
LINE
  5
269
330
1F
100
AcDbEntity
  8
0
  6
Continuous
 62
     7
100
AcDbLine
 10
1189.1514098968
 20
1113.3581835201
 30
0.0
 11
1629.1514098968
 21
1113.3581835201
 31
0.0
  0
LINE
  5
26A
330
1F
100
AcDbEntity
  8
0
  6
Continuous
 62
     7
100
AcDbLine
 10
1189.1514098968
 20
1603.3581835201
 30
0.0
 11
1189.1514098968
 21
1113.3581835201
 31
0.0
  0
LINE
  5
26B
330
1F
100
AcDbEntity
  8
0
  6
Continuous
 62
     7
100
AcDbLine
 10
1629.1514098968
 20
1603.3581835201
 30
0.0
 11
1189.1514098968
 21
1603.3581835201
 31
0.0
  0
LINE
  5
26C
330
1F
100
AcDbEntity
  8
0
  6
Continuous
 62
     7
100
AcDbLine
 10
1629.1514098968
 20
1113.3581835201
 30
0.0
 11
1629.1514098968
 21
1603.3581835201
 31
0.0
  0
CIRCLE
  5
26D
330
1F
100
AcDbEntity
  8
0
  6
Continuous
 62
     7
100
AcDbCircle
 10
1329.1514098968
 20
1253.3581835201
 30
0.0
 40
114.5
  0
CIRCLE
  5
26E
330
1F
100
AcDbEntity
  8
0
  6
Continuous
 62
     7
100
AcDbCircle
 10
1489.1514098968
 20
1463.3581835201
 30
0.0
 40
114.5
  0
LINE
  5
26F
330
1F
100
AcDbEntity
  8
0
  6
Continuous
 62
     7
100
AcDbLine
 10
1331.5514098968
 20
1538.3581835201
 30
0.0
 11
1241.5514098968
 21
1538.3581835201
 31
0.0
  0
LINE
  5
270
330
1F
100
AcDbEntity
  8
0
  6
Continuous
 62
     7
100
AcDbLine
 10
1241.5514098968
 20
1538.3581835201
 30
0.0
 11
1241.5514098968
 21
1468.3581835201
 31
0.0
  0
LINE
  5
271
330
1F
100
AcDbEntity
  8
0
  6
Continuous
 62
     7
100
AcDbLine
 10
1241.5514098968
 20
1468.3581835201
 30
0.0
 11
1331.5514098968
 21
1468.3581835201
 31
0.0
  0
LINE
  5
272
330
1F
100
AcDbEntity
  8
0
  6
Continuous
 62
     7
100
AcDbLine
 10
1331.5514098968
 20
1468.3581835201
 30
0.0
 11
1331.5514098968
 21
1538.3581835201
 31
0.0
  0
CIRCLE
  5
273
330
1F
100
AcDbEntity
  8
0
  6
Continuous
 62
     7
100
AcDbCircle
 10
1253.0514098968
 20
1544.8581835201
 30
0.0
 40
3.25
  0
CIRCLE
  5
274
330
1F
100
AcDbEntity
  8
0
  6
Continuous
 62
     7
100
AcDbCircle
 10
1320.0514098968
 20
1544.8581835201
 30
0.0
 40
3.25
  0
CIRCLE
  5
275
330
1F
100
AcDbEntity
  8
0
  6
Continuous
 62
     7
100
AcDbCircle
 10
1320.0514098968
 20
1461.8581835201
 30
0.0
 40
3.25
  0
CIRCLE
  5
276
330
1F
100
AcDbEntity
  8
0
  6
Continuous
 62
     7
100
AcDbCircle
 10
1253.0514098968
 20
1461.8581835201
 30
0.0
 40
3.25
  0
CIRCLE
  5
277
330
1F
100
AcDbEntity
  8
0
  6
Continuous
 62
     7
100
AcDbCircle
 10
1531.6514098968
 20
1279.1081835201
 30
0.0
 40
38.0
  0
CIRCLE
  5
278
330
1F
100
AcDbEntity
  8
0
  6
Continuous
 62
     7
100
AcDbCircle
 10
1282.5597020064
 20
1365.8405166034
 30
0.0
 40
3.299999999999727
  0
CIRCLE
  5
279
330
1F
100
AcDbEntity
  8
0
  6
Continuous
 62
     7
100
AcDbCircle
 10
1216.6690768136
 20
1299.9498914106
 30
0.0
 40
3.300000000000182
  0
CIRCLE
  5
27A
330
1F
100
AcDbEntity
  8
0
  6
Continuous
 62
     7
100
AcDbCircle
 10
1216.6690768136
 20
1206.7664756297
 30
0.0
 40
3.299999999999955
  0
CIRCLE
  5
27B
330
1F
100
AcDbEntity
  8
0
  6
Continuous
 62
     7
100
AcDbCircle
 10
1282.5597020064
 20
1140.8758504369
 30
0.0
 40
3.299999999999955
  0
CIRCLE
  5
27C
330
1F
100
AcDbEntity
  8
0
  6
Continuous
 62
     7
100
AcDbCircle
 10
1375.7431177873
 20
1140.8758504369
 30
0.0
 40
3.299999999999727
  0
CIRCLE
  5
27D
330
1F
100
AcDbEntity
  8
0
  6
Continuous
 62
     7
100
AcDbCircle
 10
1441.6337429801
 20
1206.7664756297
 30
0.0
 40
3.300000000000182
  0
CIRCLE
  5
27E
330
1F
100
AcDbEntity
  8
0
  6
Continuous
 62
     7
100
AcDbCircle
 10
1441.6337429801
 20
1299.9498914106
 30
0.0
 40
3.300000000000182
  0
CIRCLE
  5
27F
330
1F
100
AcDbEntity
  8
0
  6
Continuous
 62
     7
100
AcDbCircle
 10
1375.7431177873
 20
1365.8405166034
 30
0.0
 40
3.299999999999727
  0
CIRCLE
  5
280
330
1F
100
AcDbEntity
  8
0
  6
Continuous
 62
     7
100
AcDbCircle
 10
1442.5597020064
 20
1575.8405166034
 30
0.0
 40
3.299999999999727
  0
CIRCLE
  5
281
330
1F
100
AcDbEntity
  8
0
  6
Continuous
 62
     7
100
AcDbCircle
 10
1376.6690768136
 20
1509.9498914106
 30
0.0
 40
3.300000000000182
  0
CIRCLE
  5
282
330
1F
100
AcDbEntity
  8
0
  6
Continuous
 62
     7
100
AcDbCircle
 10
1376.6690768136
 20
1416.7664756297
 30
0.0
 40
3.299999999999727
  0
CIRCLE
  5
283
330
1F
100
AcDbEntity
  8
0
  6
Continuous
 62
     7
100
AcDbCircle
 10
1442.5597020064
 20
1350.8758504369
 30
0.0
 40
3.299999999999727
  0
CIRCLE
  5
284
330
1F
100
AcDbEntity
  8
0
  6
Continuous
 62
     7
100
AcDbCircle
 10
1535.7431177873
 20
1350.8758504369
 30
0.0
 40
3.299999999999955
  0
CIRCLE
  5
285
330
1F
100
AcDbEntity
  8
0
  6
Continuous
 62
     7
100
AcDbCircle
 10
1601.6337429801
 20
1416.7664756297
 30
0.0
 40
3.299999999999727
  0
CIRCLE
  5
286
330
1F
100
AcDbEntity
  8
0
  6
Continuous
 62
     7
100
AcDbCircle
 10
1601.6337429801
 20
1509.9498914106
 30
0.0
 40
3.300000000000182
  0
CIRCLE
  5
287
330
1F
100
AcDbEntity
  8
0
  6
Continuous
 62
     7
100
AcDbCircle
 10
1535.7431177873
 20
1575.8405166034
 30
0.0
 40
3.299999999999727
  0
CIRCLE
  5
288
330
1F
100
AcDbEntity
  8
0
  6
Continuous
 62
     7
100
AcDbCircle
 10
1531.6514098968
 20
1169.1081835201
 30
0.0
 40
38.0
  0
DIMENSION
  5
289
330
1F
100
AcDbEntity
  8
SLD-0_0
 62
     7
100
AcDbDimension
  2
_D
 10
1629.1514098968
 20
1060.6383447681
 30
0.0
 11
1410.0957302032
 21
1060.6383447681
 31
0.0
 70
   160
  1
<>
 71
     2
 42
-1.0
  3
SLDDIMSTYLE1
100
AcDbAlignedDimension
 13
1189.1514098968
 23
1113.3581835201
 33
0.0
 14
1629.1514098968
 24
1113.3581835201
 34
0.0
100
AcDbRotatedDimension
  0
DIMENSION
  5
294
330
1F
100
AcDbEntity
  8
SLD-0_0
 62
     7
100
AcDbDimension
  2
_D_1
 10
1629.1514098968
 20
1082.3581835201
 30
0.0
 11
1578.5485459091
 21
1082.3581835201
 31
0.0
 70
   160
  1
<>
 71
     2
 42
-1.0
  3
SLDDIMSTYLE2
100
AcDbAlignedDimension
 13
1531.6514098968
 23
1128.6081835201
 33
0.0
 14
1629.1514098968
 24
1113.3581835201
 34
0.0
100
AcDbRotatedDimension
  0
DIMENSION
  5
29F
330
1F
100
AcDbEntity
  8
SLD-0_0
 62
     7
100
AcDbDimension
  2
_D_2
 10
1667.1514098968
 20
1113.3581835201
 30
0.0
 11
1667.1514098968
 21
1140.7541355564
 31
0.0
 70
   160
  1
<>
 71
     2
 42
-1.0
  3
SLDDIMSTYLE1
100
AcDbAlignedDimension
 13
1572.1514098968
 23
1169.1081835201
 33
0.0
 14
1629.1514098968
 24
1113.3581835201
 34
0.0
 50
90.0
100
AcDbRotatedDimension
  0
DIMENSION
  5
2A9
330
1F
100
AcDbEntity
  8
SLD-0_0
 62
     7
100
AcDbDimension
  2
_D_3
 10
1702.1514098968
 20
1603.3581835201
 30
0.0
 11
1702.1514098968
 21
1361.7028361221
 31
0.0
 70
   160
  1
<>
 71
     2
 42
-1.0
  3
SLDDIMSTYLE1
100
AcDbAlignedDimension
 13
1629.1514098968
 23
1113.3581835201
 33
0.0
 14
1629.1514098968
 24
1603.3581835201
 34
0.0
 50
90.0
100
AcDbRotatedDimension
  0
DIMENSION
  5
2B3
330
1F
100
AcDbEntity
  8
SLD-0_0
 62
     7
100
AcDbDimension
  2
_D_4
 10
1590.0775937249
 20
1517.4336439242
 30
0.0
 11
1531.027797461
 21
1485.7952292917
 31
0.0
 70
   163
  1
<>
 71
     1
 42
-1.0
  3
SLDDIMSTYLE3
100
AcDbDiametricDimension
 15
1388.2252260688
 25
1409.2827231161
 35
0.0
 40
0.0
  0
DIMENSION
  5
2BD
330
1F
100
AcDbEntity
  8
SLD-0_0
 62
     7
100
AcDbDimension
  2
_D_5
 10
1561.8701592926
 20
1192.1478706915
 30
0.0
 11
1583.3125628682
 21
1208.496209132
 31
0.0
 70
   163
  1
<>
 71
     1
 42
-1.0
  3
SLDDIMSTYLE4
100
AcDbDiametricDimension
 15
1501.432660501
 25
1146.0684963488
 35
0.0
 40
0.0
  0
DIMENSION
  5
2C8
330
1F
100
AcDbEntity
  8
SLD-0_0
 62
     7
100
AcDbDimension
  2
_D_6
 10
1497.0714188302
 20
1263.3530504572
 30
0.0
 11
1592.832575723
 21
1306.9831935201
 31
0.0
 70
   163
  1
<>
 71
     1
 42
-1.0
  3
SLDDIMSTYLE5
100
AcDbDiametricDimension
 15
1566.2314009635
 25
1294.863316583
 35
0.0
 40
0.0
  0
DIMENSION
  5
2D1
330
1F
100
AcDbEntity
  8
SLD-0_0
 62
     7
100
AcDbDimension
  2
_D_7
 10
1419.8797096235
 20
1334.5458557907
 30
0.0
 11
1370.8914818998
 21
1290.7090364728
 31
0.0
 70
   163
  1
<>
 71
     1
 42
-1.0
  3
SLDDIMSTYLE6
100
AcDbDiametricDimension
 15
1238.4231101702
 25
1172.1705112496
 35
0.0
 40
0.0
  0
DIMENSION
  5
2DC
330
1F
100
AcDbEntity
  8
SLD-0_0
 62
     7
100
AcDbDimension
  2
_D_8
 10
1219.5843849451
 20
1298.4036124907
 30
0.0
 11
1155.3636706618
 21
1329.1972976725
 31
0.0
 70
   163
  1
<>
 71
     1
 42
-1.0
  3
SLDDIMSTYLE7
100
AcDbDiametricDimension
 15
1213.753768682
 25
1301.4961703305
 35
0.0
 40
0.0
  0
DIMENSION
  5
2EA
330
1F
100
AcDbEntity
  8
SLD-0_0
 62
     7
100
AcDbDimension
  2
_D_9
 10
1144.1514098968
 20
1538.3581835201
 30
0.0
 11
1144.1514098968
 21
1572.4019640106
 31
0.0
 70
   160
  1
<>
 71
     2
 42
-1.0
  3
SLDDIMSTYLE1
100
AcDbAlignedDimension
 13
1189.1514098968
 23
1603.3581835201
 33
0.0
 14
1241.5514098968
 24
1538.3581835201
 34
0.0
 50
90.0
100
AcDbRotatedDimension
  0
DIMENSION
  5
2F4
330
1F
100
AcDbEntity
  8
SLD-0_0
 62
     7
100
AcDbDimension
  2
_D_10
 10
1144.1514098968
 20
1468.3581835201
 30
0.0
 11
1144.1514098968
 21
1502.9168206363
 31
0.0
 70
   160
  1
<>
 71
     2
 42
-1.0
  3
SLDDIMSTYLE1
100
AcDbAlignedDimension
 13
1241.5514098968
 23
1538.3581835201
 33
0.0
 14
1241.5514098968
 24
1468.3581835201
 34
0.0
 50
90.0
100
AcDbRotatedDimension
  0
DIMENSION
  5
2FE
330
1F
100
AcDbEntity
  8
SLD-0_0
 62
     7
100
AcDbDimension
  2
_D_11
 10
1241.5514098968
 20
1415.008795213
 30
0.0
 11
1155.3636706618
 21
1415.008795213
 31
0.0
 70
   160
  1
<>
 71
     2
 42
-1.0
  3
SLDDIMSTYLE2
100
AcDbAlignedDimension
 13
1189.1514098968
 23
1603.3581835201
 33
0.0
 14
1241.5514098968
 24
1468.3581835201
 34
0.0
100
AcDbRotatedDimension
  0
DIMENSION
  5
308
330
1F
100
AcDbEntity
  8
SLD-0_0
 62
     7
100
AcDbDimension
  2
_D_12
 10
1331.5514098968
 20
1415.008795213
 30
0.0
 11
1284.65378027
 21
1415.008795213
 31
0.0
 70
   160
  1
<>
 71
     2
 42
-1.0
  3
SLDDIMSTYLE1
100
AcDbAlignedDimension
 13
1241.5514098968
 23
1468.3581835201
 33
0.0
 14
1331.5514098968
 24
1468.3581835201
 34
0.0
100
AcDbRotatedDimension
  0
DIMENSION
  5
312
330
1F
100
AcDbEntity
  8
SLD-0_0
 62
     7
100
AcDbDimension
  2
_D_13
 10
1354.8718480247
 20
1461.8581835201
 30
0.0
 11
1354.8718480247
 21
1501.1002077677
 31
0.0
 70
   160
  1
<>
 71
     2
 42
-1.0
  3
SLDDIMSTYLE1
100
AcDbAlignedDimension
 13
1325.8014098968
 23
1544.8581835201
 33
0.0
 14
1325.8014098968
 24
1461.8581835201
 34
0.0
 50
90.0
100
AcDbRotatedDimension
  0
DIMENSION
  5
31C
330
1F
100
AcDbEntity
  8
SLD-0_0
 62
     7
100
AcDbDimension
  2
_D_14
 10
1320.0514098968
 20
1433.2365373122
 30
0.0
 11
1284.65378027
 21
1433.2365373122
 31
0.0
 70
   160
  1
<>
 71
     2
 42
-1.0
  3
SLDDIMSTYLE1
100
AcDbAlignedDimension
 13
1253.0514098968
 23
1456.1081835201
 33
0.0
 14
1320.0514098968
 24
1456.1081835201
 34
0.0
100
AcDbRotatedDimension
  0
DIMENSION
  5
326
330
1F
100
AcDbEntity
  8
SLD-0_0
 62
     7
100
AcDbDimension
  2
_D_15
 10
1144.1514098968
 20
1113.3581835201
 30
0.0
 11
1144.1514098968
 21
1187.3191408823
 31
0.0
 70
   160
  1
<>
 71
     2
 42
-1.0
  3
SLDDIMSTYLE1
100
AcDbAlignedDimension
 13
1204.9014098968
 23
1253.3581835201
 33
0.0
 14
1189.1514098968
 24
1113.3581835201
 34
0.0
 50
90.0
100
AcDbRotatedDimension
  0
DIMENSION
  5
330
330
1F
100
AcDbEntity
  8
SLD-0_0
 62
     7
100
AcDbDimension
  2
_D_16
 10
1329.1514098968
 20
1082.3581835201
 30
0.0
 11
1258.5610544916
 21
1082.3581835201
 31
0.0
 70
   160
  1
<>
 71
     2
 42
-1.0
  3
SLDDIMSTYLE1
100
AcDbAlignedDimension
 13
1189.1514098968
 23
1113.3581835201
 33
0.0
 14
1329.1514098968
 24
1129.1081835201
 34
0.0
100
AcDbRotatedDimension
  0
DIMENSION
  5
33A
330
1F
100
AcDbEntity
  8
SLD-0_0
 62
     7
100
AcDbDimension
  2
_D_17
 10
1667.1514098968
 20
1603.3581835201
 30
0.0
 11
1667.1514098968
 21
1534.4730677208
 31
0.0
 70
   160
  1
<>
 71
     2
 42
-1.0
  3
SLDDIMSTYLE1
100
AcDbAlignedDimension
 13
1613.4014098968
 23
1463.3581835201
 33
0.0
 14
1629.1514098968
 24
1603.3581835201
 34
0.0
 50
90.0
100
AcDbRotatedDimension
  0
DIMENSION
  5
344
330
1F
100
AcDbEntity
  8
SLD-0_0
 62
     7
100
AcDbDimension
  2
_D_18
 10
1629.1514098968
 20
1627.3581835201
 30
0.0
 11
1560.6997610747
 21
1627.3581835201
 31
0.0
 70
   160
  1
<>
 71
     2
 42
-1.0
  3
SLDDIMSTYLE1
100
AcDbAlignedDimension
 13
1489.1514098968
 23
1587.6081835201
 33
0.0
 14
1629.1514098968
 24
1603.3581835201
 34
0.0
100
AcDbRotatedDimension
  0
DIMENSION
  5
34E
330
1F
100
AcDbEntity
  8
SLD-0_0
 62
     7
100
AcDbDimension
  2
_D_19
 10
1667.1514098968
 20
1169.1081835201
 30
0.0
 11
1667.1514098968
 21
1223.3366321436
 31
0.0
 70
   160
  1
<>
 71
     2
 42
-1.0
  3
SLDDIMSTYLE1
100
AcDbAlignedDimension
 13
1572.1514098968
 23
1279.1081835201
 33
0.0
 14
1572.1514098968
 24
1169.1081835201
 34
0.0
 50
90.0
100
AcDbRotatedDimension
  0
INSERT
  5
363
330
1F
100
AcDbEntity
  8
SLD-0_0
 62
     7
100
AcDbBlockReference
  2
SW_CENTERMARKSYMBOL_0
 10
1253.0514098968
 20
1544.8581835201
 30
0.0
  0
INSERT
  5
36F
330
1F
100
AcDbEntity
  8
SLD-0_0
 62
     7
100
AcDbBlockReference
  2
SW_CENTERMARKSYMBOL_1
 10
1320.0514098968
 20
1544.8581835201
 30
0.0
  0
INSERT
  5
37B
330
1F
100
AcDbEntity
  8
SLD-0_0
 62
     7
100
AcDbBlockReference
  2
SW_CENTERMARKSYMBOL_2
 10
1320.0514098968
 20
1461.8581835201
 30
0.0
  0
INSERT
  5
387
330
1F
100
AcDbEntity
  8
SLD-0_0
 62
     7
100
AcDbBlockReference
  2
SW_CENTERMARKSYMBOL_3
 10
1253.0514098968
 20
1461.8581835201
 30
0.0
  0
INSERT
  5
393
330
1F
100
AcDbEntity
  8
SLD-0_0
 62
     7
100
AcDbBlockReference
  2
SW_CENTERMARKSYMBOL_4
 10
1531.6514098968
 20
1279.1081835201
 30
0.0
  0
INSERT
  5
39F
330
1F
100
AcDbEntity
  8
SLD-0_0
 62
     7
100
AcDbBlockReference
  2
SW_CENTERMARKSYMBOL_5
 10
1531.6514098968
 20
1169.1081835201
 30
0.0
  0
INSERT
  5
3E3
330
1F
100
AcDbEntity
  8
SLD-0_0
 62
     7
100
AcDbBlockReference
  2
SW_CENTERMARKSYMBOL_6
 10
1282.5597020064
 20
1365.8405166034
 30
0.0
  0
INSERT
  5
427
330
1F
100
AcDbEntity
  8
SLD-0_0
 62
     7
100
AcDbBlockReference
  2
SW_CENTERMARKSYMBOL_7
 10
1376.6690768136
 20
1509.9498914106
 30
0.0
  0
LINE
  5
428
330
1F
100
AcDbEntity
  8
0
  6
Continuous
 62
     7
100
AcDbLine
 10
1174.1514098968
 20
553.5116546027
 30
0.0
 11
1644.1514098968
 21
553.5116546027
 31
0.0
  0
LINE
  5
429
330
1F
100
AcDbEntity
  8
0
  6
Continuous
 62
     7
100
AcDbLine
 10
1174.1514098968
 20
863.5116546027
 30
0.0
 11
1174.1514098968
 21
553.5116546027
 31
0.0
  0
LINE
  5
42A
330
1F
100
AcDbEntity
  8
0
  6
Continuous
 62
     7
100
AcDbLine
 10
1644.1514098968
 20
863.5116546027
 30
0.0
 11
1174.1514098968
 21
863.5116546027
 31
0.0
  0
LINE
  5
42B
330
1F
100
AcDbEntity
  8
0
  6
Continuous
 62
     7
100
AcDbLine
 10
1644.1514098968
 20
553.5116546027
 30
0.0
 11
1644.1514098968
 21
863.5116546027
 31
0.0
  0
DIMENSION
  5
42C
330
1F
100
AcDbEntity
  8
SLD-0_0
 62
     7
100
AcDbDimension
  2
_D_20
 10
1644.1514098968
 20
509.7740215162
 30
0.0
 11
1406.8309356209
 21
509.7740215162
 31
0.0
 70
   160
  1
<>
 71
     2
 42
-1.0
  3
SLDDIMSTYLE1
100
AcDbAlignedDimension
 13
1174.1514098968
 23
553.5116546027
 33
0.0
 14
1644.1514098968
 24
553.5116546027
 34
0.0
100
AcDbRotatedDimension
  0
DIMENSION
  5
436
330
1F
100
AcDbEntity
  8
SLD-0_0
 62
     7
100
AcDbDimension
  2
_D_21
 10
1689.1514098968
 20
863.5116546027
 30
0.0
 11
1689.1514098968
 21
707.6541888092
 31
0.0
 70
   160
  1
<>
 71
     2
 42
-1.0
  3
SLDDIMSTYLE1
100
AcDbAlignedDimension
 13
1644.1514098968
 23
553.5116546027
 33
0.0
 14
1644.1514098968
 24
863.5116546027
 34
0.0
 50
90.0
100
AcDbRotatedDimension
  0
LINE
  5
440
330
1F
100
AcDbEntity
  8
0
  6
Continuous
 62
     7
100
AcDbLine
 10
2170.5595279061
 20
1113.3581835201
 30
0.0
 11
2170.5595279061
 21
1603.3581835201
 31
0.0
  0
LINE
  5
441
330
1F
100
AcDbEntity
  8
0
  6
Continuous
 62
     7
100
AcDbLine
 10
1860.5595279061
 20
1113.3581835201
 30
0.0
 11
2170.5595279061
 21
1113.3581835201
 31
0.0
  0
LINE
  5
442
330
1F
100
AcDbEntity
  8
0
  6
Continuous
 62
     7
100
AcDbLine
 10
1860.5595279061
 20
1603.3581835201
 30
0.0
 11
1860.5595279061
 21
1113.3581835201
 31
0.0
  0
LINE
  5
443
330
1F
100
AcDbEntity
  8
0
  6
Continuous
 62
     7
100
AcDbLine
 10
2170.5595279061
 20
1603.3581835201
 30
0.0
 11
1860.5595279061
 21
1603.3581835201
 31
0.0
  0
DIMENSION
  5
444
330
1F
100
AcDbEntity
  8
SLD-0_0
 62
     7
100
AcDbDimension
  2
_D_22
 10
2215.5595279061
 20
1113.3581835201
 30
0.0
 11
2215.5595279061
 21
1345.0182044876
 31
0.0
 70
   160
  1
<>
 71
     2
 42
-1.0
  3
SLDDIMSTYLE1
100
AcDbAlignedDimension
 13
2170.5595279061
 23
1603.3581835201
 33
0.0
 14
2170.5595279061
 24
1113.3581835201
 34
0.0
 50
90.0
100
AcDbRotatedDimension
  0
DIMENSION
  5
44E
330
1F
100
AcDbEntity
  8
SLD-0_0
 62
     7
100
AcDbDimension
  2
_D_23
 10
2170.5595279061
 20
1086.0973130691
 30
0.0
 11
2017.3990366514
 21
1086.0973130691
 31
0.0
 70
   160
  1
<>
 71
     2
 42
-1.0
  3
SLDDIMSTYLE1
100
AcDbAlignedDimension
 13
1860.5595279061
 23
1113.3581835201
 33
0.0
 14
2170.5595279061
 24
1113.3581835201
 34
0.0
 50
0.0
100
AcDbRotatedDimension
  0
LINE
  5
458
330
1F
100
AcDbEntity
  8
0
  6
Continuous
 62
     7
100
AcDbLine
 10
2332.7234249064
 20
1113.3581835201
 30
0.0
 11
2772.7234249064
 21
1113.3581835201
 31
0.0
  0
LINE
  5
459
330
1F
100
AcDbEntity
  8
0
  6
Continuous
 62
     7
100
AcDbLine
 10
2332.7234249064
 20
1603.3581835201
 30
0.0
 11
2332.7234249064
 21
1113.3581835201
 31
0.0
  0
LINE
  5
45A
330
1F
100
AcDbEntity
  8
0
  6
Continuous
 62
     7
100
AcDbLine
 10
2772.7234249064
 20
1603.3581835201
 30
0.0
 11
2332.7234249064
 21
1603.3581835201
 31
0.0
  0
LINE
  5
45B
330
1F
100
AcDbEntity
  8
0
  6
Continuous
 62
     7
100
AcDbLine
 10
2772.7234249064
 20
1113.3581835201
 30
0.0
 11
2772.7234249064
 21
1603.3581835201
 31
0.0
  0
DIMENSION
  5
45C
330
1F
100
AcDbEntity
  8
SLD-0_0
 62
     7
100
AcDbDimension
  2
_D_24
 10
2332.7234249064
 20
1089.3581835201
 30
0.0
 11
2551.4820300181
 21
1089.3581835201
 31
0.0
 70
   160
  1
<>
 71
     2
 42
-1.0
  3
SLDDIMSTYLE1
100
AcDbAlignedDimension
 13
2772.7234249064
 23
1113.3581835201
 33
0.0
 14
2332.7234249064
 24
1113.3581835201
 34
0.0
100
AcDbRotatedDimension
  0
DIMENSION
  5
466
330
1F
100
AcDbEntity
  8
SLD-0_0
 62
     7
100
AcDbDimension
  2
_D_25
 10
2803.0906455799
 20
1603.3581835201
 30
0.0
 11
2803.0906455799
 21
1352.6629646095
 31
0.0
 70
   160
  1
<>
 71
     2
 42
-1.0
  3
SLDDIMSTYLE1
100
AcDbAlignedDimension
 13
2772.7234249064
 23
1113.3581835201
 33
0.0
 14
2772.7234249064
 24
1603.3581835201
 34
0.0
 50
90.0
100
AcDbRotatedDimension
  0
LINE
  5
470
330
1F
100
AcDbEntity
  8
0
  6
Continuous
 62
     7
100
AcDbLine
 10
2338.0404786961
 20
583.5116546027
 30
0.0
 11
2373.0404786961
 21
583.5116546027
 31
0.0
  0
LINE
  5
471
330
1F
100
AcDbEntity
  8
0
  6
Continuous
 62
     7
100
AcDbLine
 10
2338.0404786961
 20
748.5116546027
 30
0.0
 11
2338.0404786961
 21
583.5116546027
 31
0.0
  0
ARC
  5
472
330
1F
100
AcDbEntity
  8
0
  6
Continuous
 62
     7
100
AcDbCircle
 10
2288.0404786961
 20
748.5116546027
 30
0.0
 40
50.0
100
AcDbArc
 50
0.0
 51
90.0
  0
LINE
  5
473
330
1F
100
AcDbEntity
  8
0
  6
Continuous
 62
     7
100
AcDbLine
 10
2193.0404786961
 20
798.5116546027
 30
0.0
 11
2288.0404786961
 21
798.5116546027
 31
0.0
  0
ARC
  5
474
330
1F
100
AcDbEntity
  8
0
  6
Continuous
 62
     7
100
AcDbCircle
 10
2193.0404786961
 20
748.5116546027
 30
0.0
 40
49.99999999999989
100
AcDbArc
 50
90.0
 51
180.0
  0
LINE
  5
475
330
1F
100
AcDbEntity
  8
0
  6
Continuous
 62
     7
100
AcDbLine
 10
2143.0404786961
 20
583.5116546027
 30
0.0
 11
2143.0404786961
 21
748.5116546027
 31
0.0
  0
LINE
  5
476
330
1F
100
AcDbEntity
  8
0
  6
Continuous
 62
     7
100
AcDbLine
 10
2113.0404786961
 20
583.5116546027
 30
0.0
 11
2143.0404786961
 21
583.5116546027
 31
0.0
  0
LINE
  5
477
330
1F
100
AcDbEntity
  8
0
  6
Continuous
 62
     7
100
AcDbLine
 10
2113.0404786961
 20
748.5116546027
 30
0.0
 11
2113.0404786961
 21
583.5116546027
 31
0.0
  0
ARC
  5
478
330
1F
100
AcDbEntity
  8
0
  6
Continuous
 62
     7
100
AcDbCircle
 10
2063.0404786961
 20
748.5116546027
 30
0.0
 40
49.99999999999989
100
AcDbArc
 50
0.0
 51
90.0
  0
LINE
  5
479
330
1F
100
AcDbEntity
  8
0
  6
Continuous
 62
     7
100
AcDbLine
 10
1968.0404786961
 20
798.5116546027
 30
0.0
 11
2063.0404786961
 21
798.5116546027
 31
0.0
  0
ARC
  5
47A
330
1F
100
AcDbEntity
  8
0
  6
Continuous
 62
     7
100
AcDbCircle
 10
1968.0404786961
 20
748.5116546027
 30
0.0
 40
49.99999999999989
100
AcDbArc
 50
90.0
 51
180.0
  0
LINE
  5
47B
330
1F
100
AcDbEntity
  8
0
  6
Continuous
 62
     7
100
AcDbLine
 10
1918.0404786961
 20
583.5116546027
 30
0.0
 11
1918.0404786961
 21
748.5116546027
 31
0.0
  0
LINE
  5
47C
330
1F
100
AcDbEntity
  8
0
  6
Continuous
 62
     7
100
AcDbLine
 10
1883.0404786961
 20
583.5116546027
 30
0.0
 11
1918.0404786961
 21
583.5116546027
 31
0.0
  0
LINE
  5
47D
330
1F
100
AcDbEntity
  8
0
  6
Continuous
 62
     7
100
AcDbLine
 10
1883.0404786961
 20
833.5116546027
 30
0.0
 11
1883.0404786961
 21
583.5116546027
 31
0.0
  0
LINE
  5
47E
330
1F
100
AcDbEntity
  8
0
  6
Continuous
 62
     7
100
AcDbLine
 10
2373.0404786961
 20
833.5116546027
 30
0.0
 11
1883.0404786961
 21
833.5116546027
 31
0.0
  0
LINE
  5
47F
330
1F
100
AcDbEntity
  8
0
  6
Continuous
 62
     7
100
AcDbLine
 10
2373.0404786961
 20
583.5116546027
 30
0.0
 11
2373.0404786961
 21
833.5116546027
 31
0.0
  0
DIMENSION
  5
480
330
1F
100
AcDbEntity
  8
SLD-0_0
 62
     7
100
AcDbDimension
  2
_D_26
 10
1883.0404786961
 20
857.5116546027
 30
0.0
 11
2128.0404786961
 21
857.5116546027
 31
0.0
 70
   160
  1
<>
 71
     2
 42
-1.0
  3
SLDDIMSTYLE1
100
AcDbAlignedDimension
 13
2373.0404786961
 23
833.5116546027
 33
0.0
 14
1883.0404786961
 24
833.5116546027
 34
0.0
100
AcDbRotatedDimension
  0
DIMENSION
  5
48A
330
1F
100
AcDbEntity
  8
SLD-0_0
 62
     7
100
AcDbDimension
  2
_D_27
 10
2397.0404786961
 20
833.5116546027
 30
0.0
 11
2397.0404786961
 21
709.2048192325
 31
0.0
 70
   160
  1
<>
 71
     2
 42
-1.0
  3
SLDDIMSTYLE1
100
AcDbAlignedDimension
 13
2373.0404786961
 23
583.5116546027
 33
0.0
 14
2373.0404786961
 24
833.5116546027
 34
0.0
 50
90.0
100
AcDbRotatedDimension
  0
DIMENSION
  5
494
330
1F
100
AcDbEntity
  8
SLD-0_0
 62
     7
100
AcDbDimension
  2
_D_28
 10
2143.0404786961
 20
566.5116546027
 30
0.0
 11
2128.0404786961
 21
566.5116546027
 31
0.0
 70
   160
  1
<>
 71
     2
 42
-1.0
  3
SLDDIMSTYLE8
100
AcDbAlignedDimension
 13
2113.0404786961
 23
583.5116546027
 33
0.0
 14
2143.0404786961
 24
583.5116546027
 34
0.0
100
AcDbRotatedDimension
  0
DIMENSION
  5
4A1
330
1F
100
AcDbEntity
  8
SLD-0_0
 62
     7
100
AcDbDimension
  2
_D_29
 10
2373.0404786961
 20
566.5116546027
 30
0.0
 11
2355.5404786961
 21
566.5116546027
 31
0.0
 70
   160
  1
<>
 71
     2
 42
-1.0
  3
SLDDIMSTYLE8
100
AcDbAlignedDimension
 13
2338.0404786961
 23
583.5116546027
 33
0.0
 14
2373.0404786961
 24
583.5116546027
 34
0.0
100
AcDbRotatedDimension
  0
DIMENSION
  5
4AD
330
1F
100
AcDbEntity
  8
SLD-0_0
 62
     7
100
AcDbDimension
  2
_D_30
 10
1918.0404786961
 20
566.5116546027
 30
0.0
 11
1900.5404786961
 21
566.5116546027
 31
0.0
 70
   160
  1
<>
 71
     2
 42
-1.0
  3
SLDDIMSTYLE8
100
AcDbAlignedDimension
 13
1883.0404786961
 23
583.5116546027
 33
0.0
 14
1918.0404786961
 24
583.5116546027
 34
0.0
100
AcDbRotatedDimension
  0
DIMENSION
  5
4B9
330
1F
100
AcDbEntity
  8
SLD-0_0
 62
     7
100
AcDbDimension
  2
_D_31
 10
1873.0404786961
 20
798.5116546027
 30
0.0
 11
1873.0404786961
 21
816.0116546027
 31
0.0
 70
   160
  1
<>
 71
     2
 42
-1.0
  3
SLDDIMSTYLE8
100
AcDbAlignedDimension
 13
1883.0404786961
 23
833.5116546027
 33
0.0
 14
1968.0404786961
 24
798.5116546027
 34
0.0
 50
90.0
100
AcDbRotatedDimension
  0
LINE
  5
4C5
330
1F
100
AcDbEntity
  8
0
  6
Continuous
 62
     7
100
AcDbLine
 10
2714.0973258885
 20
798.5116546027
 30
0.0
 11
2586.5973258885
 21
798.5116546027
 31
0.0
  0
LINE
  5
4C6
330
1F
100
AcDbEntity
  8
0
  6
Continuous
 62
     7
100
AcDbLine
 10
2586.5973258885
 20
798.5116546027
 30
0.0
 11
2586.5973258885
 21
833.5116546027
 31
0.0
  0
LINE
  5
4C7
330
1F
100
AcDbEntity
  8
0
  6
Continuous
 62
     7
100
AcDbLine
 10
2764.0973258885
 20
583.5116546027
 30
0.0
 11
2764.0973258885
 21
748.5116546027
 31
0.0
  0
ARC
  5
4C8
330
1F
100
AcDbEntity
  8
0
  6
Continuous
 62
     7
100
AcDbCircle
 10
2714.0973258885
 20
748.5116546027
 30
0.0
 40
50.0
100
AcDbArc
 50
0.0
 51
90.0
  0
LINE
  5
4C9
330
1F
100
AcDbEntity
  8
0
  6
Continuous
 62
     7
100
AcDbLine
 10
2799.0973258885
 20
583.5116546027
 30
0.0
 11
2764.0973258885
 21
583.5116546027
 31
0.0
  0
LINE
  5
4CA
330
1F
100
AcDbEntity
  8
0
  6
Continuous
 62
     7
100
AcDbLine
 10
2799.0973258885
 20
833.5116546027
 30
0.0
 11
2799.0973258885
 21
583.5116546027
 31
0.0
  0
LINE
  5
4CB
330
1F
100
AcDbEntity
  8
0
  6
Continuous
 62
     7
100
AcDbLine
 10
2586.5973258885
 20
833.5116546027
 30
0.0
 11
2799.0973258885
 21
833.5116546027
 31
0.0
  0
DIMENSION
  5
4CC
330
1F
100
AcDbEntity
  8
SLD-0_0
 62
     7
100
AcDbDimension
  2
_D_32
 10
2799.0973258885
 20
854.522607949
 30
0.0
 11
2688.2108117641
 21
854.522607949
 31
0.0
 70
   160
  1
<>
 71
     2
 42
-1.0
  3
SLDDIMSTYLE2
100
AcDbAlignedDimension
 13
2586.5973258885
 23
833.5116546027
 33
0.0
 14
2799.0973258885
 24
833.5116546027
 34
0.0
 50
0.0
100
AcDbRotatedDimension
  0
DIMENSION
  5
4D6
330
1F
100
AcDbEntity
  8
SLD-0_0
 62
     7
100
AcDbDimension
  2
_D_33
 10
2830.0973258885
 20
583.5116546027
 30
0.0
 11
2830.0973258885
 21
708.5116546027
 31
0.0
 70
   160
  1
<>
 71
     2
 42
-1.0
  3
SLDDIMSTYLE1
100
AcDbAlignedDimension
 13
2799.0973258885
 23
833.5116546027
 33
0.0
 14
2799.0973258885
 24
583.5116546027
 34
0.0
 50
90.0
100
AcDbRotatedDimension
  0
DIMENSION
  5
4E0
330
1F
100
AcDbEntity
  8
SLD-0_0
 62
     7
100
AcDbDimension
  2
_D_34
 10
2576.5973258885
 20
833.5116546027
 30
0.0
 11
2576.5973258885
 21
816.0116546027
 31
0.0
 70
   160
  1
<>
 71
     2
 42
-1.0
  3
SLDDIMSTYLE8
100
AcDbAlignedDimension
 13
2586.5973258885
 23
798.5116546027
 33
0.0
 14
2586.5973258885
 24
833.5116546027
 34
0.0
 50
90.0
100
AcDbRotatedDimension
  0
DIMENSION
  5
4EC
330
1F
100
AcDbEntity
  8
SLD-0_0
 62
     7
100
AcDbDimension
  2
_D_35
 10
2764.0973258885
 20
566.5116546027
 30
0.0
 11
2781.5973258885
 21
566.5116546027
 31
0.0
 70
   160
  1
<>
 71
     2
 42
-1.0
  3
SLDDIMSTYLE8
100
AcDbAlignedDimension
 13
2799.0973258885
 23
583.5116546027
 33
0.0
 14
2764.0973258885
 24
583.5116546027
 34
0.0
 50
0.0
100
AcDbRotatedDimension
  0
DIMENSION
  5
4F8
330
1F
100
AcDbEntity
  8
SLD-0_0
 62
     7
100
AcDbDimension
  2
_D_36
 10
2714.0973258885
 20
748.5116546027
 30
0.0
 11
2727.0482265945
 21
759.9938401541
 31
0.0
 70
   164
  1
<>
 71
     1
 42
-1.0
  3
SLDDIMSTYLE9
100
AcDbRadialDimension
 15
2751.5104036367
 25
781.6818462424
 35
0.0
 40
0.0
  0
CIRCLE
  5
500
330
1F
100
AcDbEntity
  8
0
  6
Continuous
 62
     7
100
AcDbCircle
 10
1351.7220784058
 20
350.4598076425
 30
0.0
 40
35.00000000000045
  0
CIRCLE
  5
501
330
1F
100
AcDbEntity
  8
0
  6
Continuous
 62
     7
100
AcDbCircle
 10
1351.7220784058
 20
350.4598076425
 30
0.0
 40
38.00000000000045
  0
INSERT
  5
50D
330
1F
100
AcDbEntity
  8
SLD-0_0
 62
     7
100
AcDbBlockReference
  2
SW_CENTERMARKSYMBOL_8
 10
1351.7220784058
 20
350.4598076425
 30
0.0
  0
LINE
  5
50E
330
1F
100
AcDbEntity
  8
0
  6
CENTER
 62
     7
370
     0
100
AcDbLine
 10
1351.7220784058
 20
397.5798076425
 30
0.0
 11
1351.7220784058
 21
303.3398076425
 31
0.0
  0
LINE
  5
50F
330
1F
100
AcDbEntity
  8
0
  6
Continuous
 62
     7
370
     0
100
AcDbLine
 10
1346.2220784058
 20
395.5798076425
 30
0.0
 11
1351.7220784058
 21
395.5798076425
 31
0.0
  0
SOLID
  5
510
330
1F
100
AcDbEntity
  8
0
  6
Continuous
 62
     7
370
     0
100
AcDbTrace
 10
1351.7220784058
 20
395.5798076425
 30
0.0
 11
1349.7220784058
 21
397.5798076425
 31
0.0
 12
1349.7220784058
 22
393.5798076425
 32
0.0
 13
1349.7220784058
 23
393.5798076425
 33
0.0
  0
LINE
  5
511
330
1F
100
AcDbEntity
  8
0
  6
Continuous
 62
     7
370
     0
100
AcDbLine
 10
1346.2220784058
 20
305.3398076425
 30
0.0
 11
1351.7220784058
 21
305.3398076425
 31
0.0
  0
SOLID
  5
512
330
1F
100
AcDbEntity
  8
0
  6
Continuous
 62
     7
370
     0
100
AcDbTrace
 10
1351.7220784058
 20
305.3398076425
 30
0.0
 11
1349.7220784058
 21
307.3398076425
 31
0.0
 12
1349.7220784058
 22
303.3398076425
 32
0.0
 13
1349.7220784058
 23
303.3398076425
 33
0.0
  0
MTEXT
  5
513
330
1F
100
AcDbEntity
  8
0
  6
Continuous
 62
     7
100
AcDbMText
 10
1346.2220784058
 20
401.7099568962
 30
0.0
 40
4.0
 41
0.0
 71
     1
 72
     1
  1
A
  7
SLDTEXTSTYLE0
 73
     1
 44
1.0
  0
MTEXT
  5
514
330
1F
100
AcDbEntity
  8
0
  6
Continuous
 62
     7
100
AcDbMText
 10
1346.2220784058
 20
311.4699568962
 30
0.0
 40
4.0
 41
0.0
 71
     1
 72
     1
  1
A
  7
SLDTEXTSTYLE0
 73
     1
 44
1.0
  0
LINE
  5
515
330
1F
100
AcDbEntity
  8
0
  6
Continuous
 62
     7
100
AcDbLine
 10
1521.4741303971
 20
388.4598076425
 30
0.0
 11
1601.4741303971
 21
388.4598076425
 31
0.0
  0
LINE
  5
516
330
1F
100
AcDbEntity
  8
0
  6
Continuous
 62
     7
100
AcDbLine
 10
1601.4741303971
 20
312.4598076425
 30
0.0
 11
1521.4741303971
 21
312.4598076425
 31
0.0
  0
LINE
  5
517
330
1F
100
AcDbEntity
  8
0
  6
Continuous
 62
     7
100
AcDbLine
 10
1601.4741303971
 20
388.4598076425
 30
0.0
 11
1601.4741303971
 21
385.4598076425
 31
0.0
  0
LINE
  5
518
330
1F
100
AcDbEntity
  8
0
  6
Continuous
 62
     7
100
AcDbLine
 10
1601.4741303971
 20
385.4598076425
 30
0.0
 11
1521.4741303971
 21
385.4598076425
 31
0.0
  0
LINE
  5
519
330
1F
100
AcDbEntity
  8
0
  6
Continuous
 62
     7
100
AcDbLine
 10
1521.4741303971
 20
385.4598076425
 30
0.0
 11
1521.4741303971
 21
388.4598076425
 31
0.0
  0
LINE
  5
51A
330
1F
100
AcDbEntity
  8
0
  6
Continuous
 62
     7
100
AcDbLine
 10
1521.4741303971
 20
315.4598076425
 30
0.0
 11
1601.4741303971
 21
315.4598076425
 31
0.0
  0
LINE
  5
51B
330
1F
100
AcDbEntity
  8
0
  6
Continuous
 62
     7
100
AcDbLine
 10
1601.4741303971
 20
315.4598076425
 30
0.0
 11
1601.4741303971
 21
312.4598076425
 31
0.0
  0
LINE
  5
51C
330
1F
100
AcDbEntity
  8
0
  6
Continuous
 62
     7
100
AcDbLine
 10
1521.4741303971
 20
312.4598076425
 30
0.0
 11
1521.4741303971
 21
315.4598076425
 31
0.0
  0
LINE
  5
51D
330
1F
100
AcDbEntity
  8
0
  6
Continuous
 62
     7
100
AcDbLine
 10
1601.4741303971
 20
385.4598076425
 30
0.0
 11
1601.4741303971
 21
315.4598076425
 31
0.0
  0
LINE
  5
51E
330
1F
100
AcDbEntity
  8
0
  6
Continuous
 62
     7
100
AcDbLine
 10
1521.4741303971
 20
385.4598076425
 30
0.0
 11
1521.4741303971
 21
315.4598076425
 31
0.0
  0
HATCH
  5
51F
330
1F
100
AcDbEntity
  8
0
  6
Continuous
 62
     7
370
     0
100
AcDbHatch
 10
0.0
 20
0.0
 30
0.0
210
0.0
220
0.0
230
1.0
  2
ANSI34
 70
     0
 71
     0
 91
        1
 92
        0
 93
        4
 72
     1
 10
1521.474130397088
 20
315.4598076424794
 11
1521.474130397088
 21
312.4598076424794
 72
     1
 10
1521.474130397088
 20
312.4598076424794
 11
1601.474130397088
 21
312.4598076424794
 72
     1
 10
1601.474130397088
 20
312.4598076424794
 11
1601.474130397088
 21
315.4598076424794
 72
     1
 10
1601.474130397088
 20
315.4598076424794
 11
1521.474130397088
 21
315.4598076424794
 97
        0
 75
     0
 76
     1
 52
0.0
 41
1.0
 77
     0
 78
     4
 53
45.0
 43
0.0
 44
0.0
 45
-13.47038418160373
 46
13.47038418160373
 79
     0
 53
45.0
 43
4.49013
 44
0.0
 45
-13.47038418160373
 46
13.47038418160373
 79
     0
 53
45.0
 43
8.98026
 44
0.0
 45
-13.47038418160373
 46
13.47038418160373
 79
     0
 53
45.0
 43
13.4704
 44
0.0
 45
-13.47038418160373
 46
13.47038418160373
 79
     0
 98
        1
 10
0.0
 20
0.0
  0
HATCH
  5
520
330
1F
100
AcDbEntity
  8
0
  6
Continuous
 62
     7
370
     0
100
AcDbHatch
 10
0.0
 20
0.0
 30
0.0
210
0.0
220
0.0
230
1.0
  2
ANSI34
 70
     0
 71
     0
 91
        1
 92
        0
 93
        4
 72
     1
 10
1521.474130397088
 20
388.4598076424793
 11
1521.474130397088
 21
385.4598076424793
 72
     1
 10
1521.474130397088
 20
385.4598076424793
 11
1601.474130397088
 21
385.4598076424793
 72
     1
 10
1601.474130397088
 20
385.4598076424793
 11
1601.474130397088
 21
388.4598076424797
 72
     1
 10
1601.474130397088
 20
388.4598076424797
 11
1521.474130397088
 21
388.4598076424793
 97
        0
 75
     0
 76
     1
 52
0.0
 41
1.0
 77
     0
 78
     4
 53
45.0
 43
0.0
 44
0.0
 45
-13.47038418160373
 46
13.47038418160373
 79
     0
 53
45.0
 43
4.49013
 44
0.0
 45
-13.47038418160373
 46
13.47038418160373
 79
     0
 53
45.0
 43
8.98026
 44
0.0
 45
-13.47038418160373
 46
13.47038418160373
 79
     0
 53
45.0
 43
13.4704
 44
0.0
 45
-13.47038418160373
 46
13.47038418160373
 79
     0
 98
        1
 10
0.0
 20
0.0
  0
DIMENSION
  5
521
330
1F
100
AcDbEntity
  8
SLD-0_0
 62
     7
100
AcDbDimension
  2
_D_37
 10
1601.4741303971
 20
398.4598076425
 30
0.0
 11
1562.9126653736
 21
398.4598076425
 31
0.0
 70
   160
  1
<>
 71
     2
 42
-1.0
  3
SLDDIMSTYLE1
100
AcDbAlignedDimension
 13
1521.4741303971
 23
315.4598076425
 33
0.0
 14
1601.4741303971
 24
315.4598076425
 34
0.0
100
AcDbRotatedDimension
  0
DIMENSION
  5
52B
330
1F
100
AcDbEntity
  8
SLD-0_0
 62
     7
100
AcDbDimension
  2
_D_38
 10
1498.9336891735
 20
312.4598076425
 30
0.0
 11
1498.9336891735
 21
353.1508790939
 31
0.0
 70
   160
  1
%%c<>
 71
     2
 42
-1.0
  3
SLDDIMSTYLE1
100
AcDbAlignedDimension
 13
1521.4741303971
 23
388.4598076425
 33
0.0
 14
1521.4741303971
 24
312.4598076425
 34
0.0
 50
90.0
100
AcDbRotatedDimension
  0
MTEXT
  5
536
330
1F
100
AcDbEntity
  8
SLD-0_0
100
AcDbMText
 10
1557.5000237942
 20
282.468536887
 30
0.0
 40
9.525
 41
0.0
 71
     2
 72
     1
  1
SECTION A A
  7
SLDTEXTSTYLE0
 73
     1
 44
1.0
  0
LINE
  5
537
330
1F
100
AcDbEntity
  8
SLD-0_0
  6
CENTERX2
 62
     7
370
     0
100
AcDbLine
 10
1519.4741303971
 20
350.4598076425
 30
0.0
 11
1603.4741303971
 21
350.4598076425
 31
0.0
  0
ENDSEC
  0
SECTION
  2
OBJECTS
  0
DICTIONARY
  5
C
330
0
100
AcDbDictionary
281
     1
  3
ACAD_GROUP
350
D
  3
ACAD_LAYOUT
350
1A
  3
ACAD_MLINESTYLE
350
17
  3
ACAD_PLOTSETTINGS
350
19
  3
ACAD_PLOTSTYLENAME
350
E
  3
ACAD_SCALELIST
350
47
  0
DICTIONARY
  5
D
102
{ACAD_REACTORS
330
C
102
}
330
C
100
AcDbDictionary
281
     1
  0
DICTIONARY
  5
1A
102
{ACAD_REACTORS
330
C
102
}
330
C
100
AcDbDictionary
281
     1
  3
Layout1
350
1E
  3
Layout2
350
26
  3
Model
350
22
  0
DICTIONARY
  5
17
102
{ACAD_REACTORS
330
C
102
}
330
C
100
AcDbDictionary
281
     1
  3
Standard
350
18
  0
DICTIONARY
  5
19
102
{ACAD_REACTORS
330
C
102
}
330
C
100
AcDbDictionary
281
     1
  0
ACDBDICTIONARYWDFLT
  5
E
102
{ACAD_REACTORS
330
C
102
}
330
C
100
AcDbDictionary
281
     1
  3
Normal
350
F
100
AcDbDictionaryWithDefault
340
F
  0
DICTIONARY
  5
47
102
{ACAD_REACTORS
330
C
102
}
330
C
100
AcDbDictionary
281
     1
  3
A0
350
48
  3
A1
350
49
  3
A2
350
4A
  3
A3
350
4B
  3
A4
350
4C
  3
A5
350
4D
  3
A6
350
4E
  3
A7
350
4F
  3
A8
350
50
  3
A9
350
51
  3
B0
350
52
  3
B1
350
53
  3
B2
350
54
  3
B3
350
55
  3
B4
350
56
  3
B5
350
57
  3
B6
350
58
  3
B7
350
59
  3
B8
350
5A
  3
B9
350
5B
  3
C0
350
5C
  3
C1
350
5D
  3
C2
350
5E
  3
C3
350
5F
  3
C4
350
60
  3
C5
350
61
  3
C6
350
62
  3
C7
350
63
  3
C8
350
64
  3
C9
350
65
  3
D0
350
66
  3
D1
350
67
  3
D2
350
68
  0
LAYOUT
  5
1E
102
{ACAD_REACTORS
330
1A
102
}
330
1A
100
AcDbPlotSettings
  1

  2
none_device
  4

  6

 40
0.0
 41
0.0
 42
0.0
 43
0.0
 44
0.0
 45
0.0
 46
0.0
 47
0.0
 48
0.0
 49
0.0
140
0.0
141
0.0
142
1.0
143
1.0
 70
   688
 72
     1
 73
     0
 74
     5
  7

 75
    16
147
1.0
148
0.0
149
0.0
100
AcDbLayout
  1
Layout1
 70
     1
 71
     1
 10
0.0
 20
0.0
 11
420.0
 21
297.0
 12
0.0
 22
0.0
 32
0.0
 14
1.0000000000E+20
 24
1.0000000000E+20
 34
1.0000000000E+20
 15
-1.0000000000E+20
 25
-1.0000000000E+20
 35
-1.0000000000E+20
146
0.0
 13
0.0
 23
0.0
 33
0.0
 16
1.0
 26
0.0
 36
0.0
 17
0.0
 27
1.0
 37
0.0
 76
     0
330
1B
  0
LAYOUT
  5
26
102
{ACAD_REACTORS
330
1A
102
}
330
1A
100
AcDbPlotSettings
  1

  2
none_device
  4

  6

 40
0.0
 41
0.0
 42
0.0
 43
0.0
 44
0.0
 45
0.0
 46
0.0
 47
0.0
 48
0.0
 49
0.0
140
0.0
141
0.0
142
1.0
143
1.0
 70
   688
 72
     1
 73
     0
 74
     5
  7

 75
    16
147
1.0
148
0.0
149
0.0
100
AcDbLayout
  1
Layout2
 70
     1
 71
     2
 10
0.0
 20
0.0
 11
0.0
 21
0.0
 12
0.0
 22
0.0
 32
0.0
 14
0.0
 24
0.0
 34
0.0
 15
0.0
 25
0.0
 35
0.0
146
0.0
 13
0.0
 23
0.0
 33
0.0
 16
1.0
 26
0.0
 36
0.0
 17
0.0
 27
1.0
 37
0.0
 76
     0
330
23
  0
LAYOUT
  5
22
102
{ACAD_REACTORS
330
1A
102
}
330
1A
100
AcDbPlotSettings
  1

  2
none_device
  4
Letter_(8.50_x_11.00_Inches)
  6

 40
6.35
 41
6.35
 42
6.35000508
 43
6.35000508
 44
215.9
 45
279.4
 46
0.0
 47
0.0
 48
0.0
 49
0.0
140
0.0
141
0.0
142
1.0
143
1.0
 70
  1712
 72
     1
 73
     0
 74
     0
  7

 75
     0
147
1.0
148
0.0
149
0.0
100
AcDbLayout
  1
Model
 70
     1
 71
     0
 10
0.0
 20
0.0
 11
3000.0
 21
2000.0
 12
0.0
 22
0.0
 32
0.0
 14
0.0
 24
0.0
 34
0.0
 15
3000.0
 25
2000.0
 35
0.0
146
0.0
 13
0.0
 23
0.0
 33
0.0
 16
1.0
 26
0.0
 36
0.0
 17
0.0
 27
1.0
 37
0.0
 76
     0
330
1F
331
29
  0
MLINESTYLE
  5
18
102
{ACAD_REACTORS
330
17
102
}
330
17
100
AcDbMlineStyle
  2
Standard
 70
     0
  3

 62
   256
 51
90.0
 52
90.0
 71
     2
 49
0.5
 62
   256
  6
BYLAYER
 49
-0.5
 62
   256
  6
BYLAYER
  0
ACDBPLACEHOLDER
  5
F
102
{ACAD_REACTORS
330
E
102
}
330
E
  0
SCALE
  5
48
102
{ACAD_REACTORS
330
47
102
}
330
47
100
AcDbScale
 70
     0
300
1:1
140
1.0
141
1.0
290
     1
  0
SCALE
  5
49
102
{ACAD_REACTORS
330
47
102
}
330
47
100
AcDbScale
 70
     0
300
1:2
140
1.0
141
2.0
290
     0
  0
SCALE
  5
4A
102
{ACAD_REACTORS
330
47
102
}
330
47
100
AcDbScale
 70
     0
300
1:4
140
1.0
141
4.0
290
     0
  0
SCALE
  5
4B
102
{ACAD_REACTORS
330
47
102
}
330
47
100
AcDbScale
 70
     0
300
1:5
140
1.0
141
5.0
290
     0
  0
SCALE
  5
4C
102
{ACAD_REACTORS
330
47
102
}
330
47
100
AcDbScale
 70
     0
300
1:8
140
1.0
141
8.0
290
     0
  0
SCALE
  5
4D
102
{ACAD_REACTORS
330
47
102
}
330
47
100
AcDbScale
 70
     0
300
1:10
140
1.0
141
10.0
290
     0
  0
SCALE
  5
4E
102
{ACAD_REACTORS
330
47
102
}
330
47
100
AcDbScale
 70
     0
300
1:16
140
1.0
141
16.0
290
     0
  0
SCALE
  5
4F
102
{ACAD_REACTORS
330
47
102
}
330
47
100
AcDbScale
 70
     0
300
1:20
140
1.0
141
20.0
290
     0
  0
SCALE
  5
50
102
{ACAD_REACTORS
330
47
102
}
330
47
100
AcDbScale
 70
     0
300
1:30
140
1.0
141
30.0
290
     0
  0
SCALE
  5
51
102
{ACAD_REACTORS
330
47
102
}
330
47
100
AcDbScale
 70
     0
300
1:40
140
1.0
141
40.0
290
     0
  0
SCALE
  5
52
102
{ACAD_REACTORS
330
47
102
}
330
47
100
AcDbScale
 70
     0
300
1:50
140
1.0
141
50.0
290
     0
  0
SCALE
  5
53
102
{ACAD_REACTORS
330
47
102
}
330
47
100
AcDbScale
 70
     0
300
1:100
140
1.0
141
100.0
290
     0
  0
SCALE
  5
54
102
{ACAD_REACTORS
330
47
102
}
330
47
100
AcDbScale
 70
     0
300
2:1
140
2.0
141
1.0
290
     0
  0
SCALE
  5
55
102
{ACAD_REACTORS
330
47
102
}
330
47
100
AcDbScale
 70
     0
300
4:1
140
4.0
141
1.0
290
     0
  0
SCALE
  5
56
102
{ACAD_REACTORS
330
47
102
}
330
47
100
AcDbScale
 70
     0
300
8:1
140
8.0
141
1.0
290
     0
  0
SCALE
  5
57
102
{ACAD_REACTORS
330
47
102
}
330
47
100
AcDbScale
 70
     0
300
10:1
140
10.0
141
1.0
290
     0
  0
SCALE
  5
58
102
{ACAD_REACTORS
330
47
102
}
330
47
100
AcDbScale
 70
     0
300
100:1
140
100.0
141
1.0
290
     0
  0
SCALE
  5
59
102
{ACAD_REACTORS
330
47
102
}
330
47
100
AcDbScale
 70
     0
300
1/128" = 1'-0"
140
0.0078125
141
12.0
290
     0
  0
SCALE
  5
5A
102
{ACAD_REACTORS
330
47
102
}
330
47
100
AcDbScale
 70
     0
300
1/64" = 1'-0"
140
0.015625
141
12.0
290
     0
  0
SCALE
  5
5B
102
{ACAD_REACTORS
330
47
102
}
330
47
100
AcDbScale
 70
     0
300
1/32" = 1'-0"
140
0.03125
141
12.0
290
     0
  0
SCALE
  5
5C
102
{ACAD_REACTORS
330
47
102
}
330
47
100
AcDbScale
 70
     0
300
1/16" = 1'-0"
140
0.0625
141
12.0
290
     0
  0
SCALE
  5
5D
102
{ACAD_REACTORS
330
47
102
}
330
47
100
AcDbScale
 70
     0
300
3/32" = 1'-0"
140
0.09375
141
12.0
290
     0
  0
SCALE
  5
5E
102
{ACAD_REACTORS
330
47
102
}
330
47
100
AcDbScale
 70
     0
300
1/8" = 1'-0"
140
0.125
141
12.0
290
     0
  0
SCALE
  5
5F
102
{ACAD_REACTORS
330
47
102
}
330
47
100
AcDbScale
 70
     0
300
3/16" = 1'-0"
140
0.1875
141
12.0
290
     0
  0
SCALE
  5
60
102
{ACAD_REACTORS
330
47
102
}
330
47
100
AcDbScale
 70
     0
300
1/4" = 1'-0"
140
0.25
141
12.0
290
     0
  0
SCALE
  5
61
102
{ACAD_REACTORS
330
47
102
}
330
47
100
AcDbScale
 70
     0
300
3/8" = 1'-0"
140
0.375
141
12.0
290
     0
  0
SCALE
  5
62
102
{ACAD_REACTORS
330
47
102
}
330
47
100
AcDbScale
 70
     0
300
1/2" = 1'-0"
140
0.5
141
12.0
290
     0
  0
SCALE
  5
63
102
{ACAD_REACTORS
330
47
102
}
330
47
100
AcDbScale
 70
     0
300
3/4" = 1'-0"
140
0.75
141
12.0
290
     0
  0
SCALE
  5
64
102
{ACAD_REACTORS
330
47
102
}
330
47
100
AcDbScale
 70
     0
300
1" = 1'-0"
140
1.0
141
12.0
290
     0
  0
SCALE
  5
65
102
{ACAD_REACTORS
330
47
102
}
330
47
100
AcDbScale
 70
     0
300
1-1/2" = 1'-0"
140
1.5
141
12.0
290
     0
  0
SCALE
  5
66
102
{ACAD_REACTORS
330
47
102
}
330
47
100
AcDbScale
 70
     0
300
3" = 1'-0"
140
3.0
141
12.0
290
     0
  0
SCALE
  5
67
102
{ACAD_REACTORS
330
47
102
}
330
47
100
AcDbScale
 70
     0
300
6" = 1'-0"
140
6.0
141
12.0
290
     0
  0
SCALE
  5
68
102
{ACAD_REACTORS
330
47
102
}
330
47
100
AcDbScale
 70
     0
300
1'-0" = 1'-0"
140
12.0
141
12.0
290
     0
  0
ENDSEC
  0
EOF
