  0
SECTION
  2
HEADER
  9
$ACADVER
  1
AC1015
  9
$ACADMAINTVER
 70
     6
  9
$DWGCODEPAGE
  3
ANSI_1252
  9
$INSBASE
 10
0.0
 20
0.0
 30
0.0
  9
$EXTMIN
 10
0.0
 20
0.0
 30
0.0
  9
$EXTMAX
 10
3000.0
 20
2000.0
 30
0.0
  9
$LIMMIN
 10
0.0
 20
0.0
  9
$LIMMAX
 10
3000.0
 20
2000.0
  9
$ORTHOMODE
 70
     0
  9
$REGENMODE
 70
     1
  9
$FILLMODE
 70
     1
  9
$QTEXTMODE
 70
     0
  9
$MIRRTEXT
 70
     1
  9
$LTSCALE
 40
1.0
  9
$ATTMODE
 70
     1
  9
$TEXTSIZE
 40
2.5
  9
$TRACEWID
 40
1.0
  9
$TEXTSTYLE
  7
Standard
  9
$CLAYER
  8
0
  9
$CELTYPE
  6
ByLayer
  9
$CECOLOR
 62
   256
  9
$CELTSCALE
 40
1.0
  9
$DISPSILH
 70
     0
  9
$DIMSCALE
 40
1.0
  9
$DIMASZ
 40
9.2459472656
  9
$DIMEXO
 40
1.0
  9
$DIMDLI
 40
3.75
  9
$DIMRND
 40
0.0
  9
$DIMDLE
 40
0.0
  9
$DIMEXE
 40
1.0
  9
$DIMTP
 40
0.0
  9
$DIMTM
 40
0.0
  9
$DIMTXT
 40
12.7
  9
$DIMCEN
 40
2.5
  9
$DIMTSZ
 40
0.0
  9
$DIMTOL
 70
     0
  9
$DIMLIM
 70
     0
  9
$DIMTIH
 70
     1
  9
$DIMTOH
 70
     1
  9
$DIMSE1
 70
     0
  9
$DIMSE2
 70
     0
  9
$DIMTAD
 70
     1
  9
$DIMZIN
 70
     0
  9
$DIMBLK
  1

  9
$DIMASO
 70
     1
  9
$DIMSHO
 70
     1
  9
$DIMPOST
  1

  9
$DIMAPOST
  1

  9
$DIMALT
 70
     0
  9
$DIMALTD
 70
     3
  9
$DIMALTF
 40
0.0393700787
  9
$DIMLFAC
 40
1.0
  9
$DIMTOFL
 70
     1
  9
$DIMTVP
 40
0.0
  9
$DIMTIX
 70
     0
  9
$DIMSOXD
 70
     0
  9
$DIMSAH
 70
     0
  9
$DIMBLK1
  1

  9
$DIMBLK2
  1

  9
$DIMSTYLE
  2
ISO-25
  9
$DIMCLRD
 70
     0
  9
$DIMCLRE
 70
     0
  9
$DIMCLRT
 70
     0
  9
$DIMTFAC
 40
1.0
  9
$DIMGAP
 40
1.524
  9
$DIMJUST
 70
     0
  9
$DIMSD1
 70
     0
  9
$DIMSD2
 70
     0
  9
$DIMTOLJ
 70
     0
  9
$DIMTZIN
 70
     0
  9
$DIMALTZ
 70
     0
  9
$DIMALTTZ
 70
     0
  9
$DIMUPT
 70
     0
  9
$DIMDEC
 70
     2
  9
$DIMTDEC
 70
     2
  9
$DIMALTU
 70
     2
  9
$DIMALTTD
 70
     3
  9
$DIMTXSTY
  7
Standard
  9
$DIMAUNIT
 70
     0
  9
$DIMADEC
 70
     2
  9
$DIMALTRND
 40
0.0
  9
$DIMAZIN
 70
     0
  9
$DIMDSEP
 70
    44
  9
$DIMATFIT
 70
     3
  9
$DIMFRAC
 70
     0
  9
$DIMLDRBLK
  1

  9
$DIMLUNIT
 70
     2
  9
$DIMLWD
 70
    -2
  9
$DIMLWE
 70
    -2
  9
$DIMTMOVE
 70
     0
  9
$LUNITS
 70
     2
  9
$LUPREC
 70
     2
  9
$SKETCHINC
 40
1.0
  9
$FILLETRAD
 40
10.0
  9
$AUNITS
 70
     0
  9
$AUPREC
 70
     2
  9
$MENU
  1
.
  9
$ELEVATION
 40
0.0
  9
$PELEVATION
 40
0.0
  9
$THICKNESS
 40
0.0
  9
$LIMCHECK
 70
     0
  9
$CHAMFERA
 40
0.0
  9
$CHAMFERB
 40
0.0
  9
$CHAMFERC
 40
0.0
  9
$CHAMFERD
 40
0.0
  9
$SKPOLY
 70
     0
  9
$TDCREATE
 40
2458541.430169398
  9
$TDUCREATE
 40
2458541.388502731
  9
$TDUPDATE
 40
2458541.430183183
  9
$TDUUPDATE
 40
2458541.388516516
  9
$TDINDWG
 40
0.0000000116
  9
$TDUSRTIMER
 40
0.0000000116
  9
$USRTIMER
 70
     1
  9
$ANGBASE
 50
0.0
  9
$ANGDIR
 70
     0
  9
$PDMODE
 70
     0
  9
$PDSIZE
 40
-1.0
  9
$PLINEWID
 40
0.0
  9
$SPLFRAME
 70
     0
  9
$SPLINETYPE
 70
     6
  9
$SPLINESEGS
 70
     8
  9
$HANDSEED
  5
2B8
  9
$SURFTAB1
 70
     6
  9
$SURFTAB2
 70
     6
  9
$SURFTYPE
 70
     6
  9
$SURFU
 70
     6
  9
$SURFV
 70
     6
  9
$UCSBASE
  2

  9
$UCSNAME
  2

  9
$UCSORG
 10
0.0
 20
0.0
 30
0.0
  9
$UCSXDIR
 10
1.0
 20
0.0
 30
0.0
  9
$UCSYDIR
 10
0.0
 20
1.0
 30
0.0
  9
$UCSORTHOREF
  2

  9
$UCSORTHOVIEW
 70
     0
  9
$UCSORGTOP
 10
0.0
 20
0.0
 30
0.0
  9
$UCSORGBOTTOM
 10
0.0
 20
0.0
 30
0.0
  9
$UCSORGLEFT
 10
0.0
 20
0.0
 30
0.0
  9
$UCSORGRIGHT
 10
0.0
 20
0.0
 30
0.0
  9
$UCSORGFRONT
 10
0.0
 20
0.0
 30
0.0
  9
$UCSORGBACK
 10
0.0
 20
0.0
 30
0.0
  9
$PUCSBASE
  2

  9
$PUCSNAME
  2

  9
$PUCSORG
 10
0.0
 20
0.0
 30
0.0
  9
$PUCSXDIR
 10
1.0
 20
0.0
 30
0.0
  9
$PUCSYDIR
 10
0.0
 20
1.0
 30
0.0
  9
$PUCSORTHOREF
  2

  9
$PUCSORTHOVIEW
 70
     0
  9
$PUCSORGTOP
 10
0.0
 20
0.0
 30
0.0
  9
$PUCSORGBOTTOM
 10
0.0
 20
0.0
 30
0.0
  9
$PUCSORGLEFT
 10
0.0
 20
0.0
 30
0.0
  9
$PUCSORGRIGHT
 10
0.0
 20
0.0
 30
0.0
  9
$PUCSORGFRONT
 10
0.0
 20
0.0
 30
0.0
  9
$PUCSORGBACK
 10
0.0
 20
0.0
 30
0.0
  9
$USERI1
 70
     0
  9
$USERI2
 70
     0
  9
$USERI3
 70
     0
  9
$USERI4
 70
     0
  9
$USERI5
 70
     0
  9
$USERR1
 40
0.0
  9
$USERR2
 40
0.0
  9
$USERR3
 40
0.0
  9
$USERR4
 40
0.0
  9
$USERR5
 40
0.0
  9
$WORLDVIEW
 70
     1
  9
$SHADEDGE
 70
     3
  9
$SHADEDIF
 70
    70
  9
$TILEMODE
 70
     1
  9
$MAXACTVP
 70
    64
  9
$PINSBASE
 10
0.0
 20
0.0
 30
0.0
  9
$PLIMCHECK
 70
     0
  9
$PEXTMIN
 10
1.0000000000E+20
 20
1.0000000000E+20
 30
1.0000000000E+20
  9
$PEXTMAX
 10
-1.0000000000E+20
 20
-1.0000000000E+20
 30
-1.0000000000E+20
  9
$PLIMMIN
 10
0.0
 20
0.0
  9
$PLIMMAX
 10
420.0
 20
297.0
  9
$UNITMODE
 70
     0
  9
$VISRETAIN
 70
     1
  9
$PLINEGEN
 70
     0
  9
$PSLTSCALE
 70
     1
  9
$TREEDEPTH
 70
  3020
  9
$CMLSTYLE
  2
Standard
  9
$CMLJUST
 70
     0
  9
$CMLSCALE
 40
20.0
  9
$PROXYGRAPHICS
 70
     1
  9
$MEASUREMENT
 70
     1
  9
$CELWEIGHT
370
    -1
  9
$ENDCAPS
280
     0
  9
$JOINSTYLE
280
     0
  9
$LWDISPLAY
290
     1
  9
$INSUNITS
 70
     4
  9
$HYPERLINKBASE
  1

  9
$STYLESHEET
  1

  9
$XEDIT
290
     1
  9
$CEPSNTYPE
380
     0
  9
$PSTYLEMODE
290
     1
  9
$FINGERPRINTGUID
  2
{525E8DE4-8F1B-49A3-A58B-FBBF4FA3B513}
  9
$VERSIONGUID
  2
{FAEB1C32-E019-11D5-929B-00C0DF256EC4}
  9
$EXTNAMES
290
     1
  9
$PSVPSCALE
 40
0.0
  9
$OLESTARTUP
290
     0
  0
ENDSEC
  0
SECTION
  2
CLASSES
  0
CLASS
  1
ACDBDICTIONARYWDFLT
  2
AcDbDictionaryWithDefault
  3
ObjectDBX Classes
 90
        0
280
     0
281
     0
  0
CLASS
  1
VISUALSTYLE
  2
AcDbVisualStyle
  3
ObjectDBX Classes
 90
     4095
280
     0
281
     0
  0
CLASS
  1
MATERIAL
  2
AcDbMaterial
  3
ObjectDBX Classes
 90
     1153
280
     0
281
     0
  0
CLASS
  1
SCALE
  2
AcDbScale
  3
ObjectDBX Classes
 90
     1153
280
     0
281
     0
  0
CLASS
  1
TABLESTYLE
  2
AcDbTableStyle
  3
ObjectDBX Classes
 90
     4095
280
     0
281
     0
  0
CLASS
  1
MLEADERSTYLE
  2
AcDbMLeaderStyle
  3
ACDB_MLEADERSTYLE_CLASS
 90
     4095
280
     0
281
     0
  0
CLASS
  1
SUN
  2
AcDbSun
  3
SCENEOE
 90
     1153
280
     0
281
     0
  0
CLASS
  1
ACDBPLACEHOLDER
  2
AcDbPlaceHolder
  3
ObjectDBX Classes
 90
        0
280
     0
281
     0
  0
CLASS
  1
LAYOUT
  2
AcDbLayout
  3
ObjectDBX Classes
 90
        0
280
     0
281
     0
  0
ENDSEC
  0
SECTION
  2
TABLES
  0
TABLE
  2
VPORT
  5
8
330
0
100
AcDbSymbolTable
 70
     1
  0
VPORT
  5
29
330
8
100
AcDbSymbolTableRecord
100
AcDbViewportTableRecord
  2
*Active
 70
     0
 10
0.0
 20
0.0
 11
1.0
 21
1.0
 12
1500.0
 22
1000.0
 13
0.0
 23
0.0
 14
10.0
 24
10.0
 15
10.0
 25
10.0
 16
0.0
 26
0.0
 36
1.0
 17
0.0
 27
0.0
 37
0.0
 40
2000.0
 41
1.5
 42
50.0
 43
0.0
 44
0.0
 50
0.0
 51
0.0
 71
     0
 72
  2000
 73
     1
 74
     3
 75
     0
 76
     0
 77
     0
 78
     0
281
     0
 65
     1
110
0.0
120
0.0
130
0.0
111
1.0
121
0.0
131
0.0
112
0.0
122
1.0
132
0.0
 79
     0
146
0.0
  0
ENDTAB
  0
TABLE
  2
LTYPE
  5
5
330
0
100
AcDbSymbolTable
 70
     6
  0
LTYPE
  5
14
330
5
100
AcDbSymbolTableRecord
100
AcDbLinetypeTableRecord
  2
ByBlock
 70
     0
  3

 72
    65
 73
     0
 40
0.0
  0
LTYPE
  5
15
330
5
100
AcDbSymbolTableRecord
100
AcDbLinetypeTableRecord
  2
ByLayer
 70
     0
  3

 72
    65
 73
     0
 40
0.0
  0
LTYPE
  5
16
330
5
100
AcDbSymbolTableRecord
100
AcDbLinetypeTableRecord
  2
Continuous
 70
     0
  3
Solid line
 72
    65
 73
     0
 40
0.0
  0
LTYPE
  5
6E
330
5
100
AcDbSymbolTableRecord
100
AcDbLinetypeTableRecord
  2
HIDDEN
 70
     0
  3
Hidden __ __ __ __ __ __ __ __ __ __ __ __ __ __
 72
    65
 73
     2
 40
1.905
 49
1.27
 74
     0
 49
-0.635
 74
     0
  0
LTYPE
  5
6F
330
5
100
AcDbSymbolTableRecord
100
AcDbLinetypeTableRecord
  2
PHANTOM
 70
     0
  3
Phantom ______  __  __  ______  __  __  ______
 72
    65
 73
     6
 40
12.7
 49
6.35
 74
     0
 49
-1.27
 74
     0
 49
1.27
 74
     0
 49
-1.27
 74
     0
 49
1.27
 74
     0
 49
-1.27
 74
     0
  0
LTYPE
  5
70
330
5
100
AcDbSymbolTableRecord
100
AcDbLinetypeTableRecord
  2
CENTER
 70
     0
  3
Center ____ _ ____ _ ____ _ ____ _ ____ _ ____
 72
    65
 73
     4
 40
10.16
 49
6.35
 74
     0
 49
-1.27
 74
     0
 49
1.27
 74
     0
 49
-1.27
 74
     0
  0
LTYPE
  5
71
330
5
100
AcDbSymbolTableRecord
100
AcDbLinetypeTableRecord
  2
CENTERX2
 70
     0
  3
Center (2x) ________  __  ________  __  _____
 72
    65
 73
     4
 40
20.32
 49
12.7
 74
     0
 49
-2.54
 74
     0
 49
2.54
 74
     0
 49
-2.54
 74
     0
  0
LTYPE
  5
72
330
5
100
AcDbSymbolTableRecord
100
AcDbLinetypeTableRecord
  2
DOT2
 70
     0
  3
Dot (.5x) ........................................
 72
    65
 73
     2
 40
0.635
 49
0.0
 74
     0
 49
-0.635
 74
     0
  0
ENDTAB
  0
TABLE
  2
LAYER
  5
2
330
0
100
AcDbSymbolTable
 70
     9
  0
LAYER
  5
10
330
2
100
AcDbSymbolTableRecord
100
AcDbLayerTableRecord
  2
0
 70
     0
 62
     7
  6
Continuous
370
    -3
390
F
  0
LAYER
  5
73
330
2
100
AcDbSymbolTableRecord
100
AcDbLayerTableRecord
  2
SLD-0_0
 70
     0
 62
   179
  6
Continuous
370
    -3
390
F
  0
LAYER
  5
74
330
2
100
AcDbSymbolTableRecord
100
AcDbLayerTableRecord
  2
SLD-0
 70
     0
 62
   179
  6
Continuous
370
    -3
390
F
  0
LAYER
  5
75
330
2
100
AcDbSymbolTableRecord
100
AcDbLayerTableRecord
  2
PREDETERMINADO
 70
     0
 62
   179
  6
Continuous
370
    -3
390
F
  0
LAYER
  5
76
330
2
100
AcDbSymbolTableRecord
100
AcDbLayerTableRecord
  2
CAJETIN
 70
     0
 62
   179
  6
Continuous
370
    -3
390
F
  0
LAYER
  5
77
330
2
100
AcDbSymbolTableRecord
100
AcDbLayerTableRecord
  2
FORMATO
 70
     0
 62
   179
  6
Continuous
370
    -3
390
F
  0
LAYER
  5
78
330
2
100
AcDbSymbolTableRecord
100
AcDbLayerTableRecord
  2
NONPLOT
 70
     0
 62
     1
  6
DOT2
290
     0
370
    -3
390
F
  0
LAYER
  5
79
330
2
100
AcDbSymbolTableRecord
100
AcDbLayerTableRecord
  2
TEXTOS
 70
     0
 62
   142
  6
Continuous
370
    -3
390
F
  0
LAYER
  5
7A
330
2
100
AcDbSymbolTableRecord
100
AcDbLayerTableRecord
  2
TEXTO
 70
     0
 62
   140
  6
Continuous
370
    -3
390
F
  0
ENDTAB
  0
TABLE
  2
STYLE
  5
3
330
0
100
AcDbSymbolTable
 70
     5
  0
STYLE
  5
11
330
3
100
AcDbSymbolTableRecord
100
AcDbTextStyleTableRecord
  2
Standard
 70
     0
 40
0.0
 41
1.0
 50
0.0
 71
     0
 42
2.5
  3
txt
  4

  0
STYLE
  5
DA
330
3
100
AcDbSymbolTableRecord
100
AcDbTextStyleTableRecord
  2
SLDTEXTSTYLE0
 70
     0
 40
0.0
 41
0.574375
 50
0.0
 71
     0
 42
2.5
  3
TXT
  4

  0
STYLE
  5
DC
330
3
100
AcDbSymbolTableRecord
100
AcDbTextStyleTableRecord
  2
SLDTEXTSTYLE1
 70
     0
 40
0.0
 41
0.605
 50
0.0
 71
     0
 42
2.5
  3
TXT
  4

  0
STYLE
  5
F8
330
3
100
AcDbSymbolTableRecord
100
AcDbTextStyleTableRecord
  2
SLDTEXTSTYLE2
 70
     0
 40
0.0
 41
0.5636394322
 50
0.0
 71
     0
 42
2.5
  3
TXT
  4

  0
STYLE
  5
12D
330
3
100
AcDbSymbolTableRecord
100
AcDbTextStyleTableRecord
  2
SLDTEXTSTYLE3
 70
     0
 40
0.0
 41
0.575
 50
0.0
 71
     0
 42
2.5
  3
TXT
  4

  0
ENDTAB
  0
TABLE
  2
VIEW
  5
6
330
0
100
AcDbSymbolTable
 70
     0
  0
ENDTAB
  0
TABLE
  2
UCS
  5
7
330
0
100
AcDbSymbolTable
 70
     0
  0
ENDTAB
  0
TABLE
  2
APPID
  5
9
330
0
100
AcDbSymbolTable
 70
     1
  0
APPID
  5
12
330
9
100
AcDbSymbolTableRecord
100
AcDbRegAppTableRecord
  2
ACAD
 70
     0
  0
ENDTAB
  0
TABLE
  2
DIMSTYLE
  5
A
330
0
100
AcDbSymbolTable
 70
     6
100
AcDbDimStyleTable
  0
DIMSTYLE
105
27
330
A
100
AcDbSymbolTableRecord
100
AcDbDimStyleTableRecord
  2
ISO-25
 70
     0
 41
2.5
 42
0.625
 43
3.75
 44
1.25
 73
     0
 74
     0
 77
     1
 78
     8
140
2.5
141
2.5
143
0.0393700787
147
0.625
171
     3
172
     1
178
     0
271
     2
272
     2
274
     3
278
    44
283
     0
284
     8
340
11
  0
DIMSTYLE
105
1B5
330
A
100
AcDbSymbolTableRecord
100
AcDbDimStyleTableRecord
  2
SLDDIMSTYLE0
 70
     0
 41
2.844906851
 44
0.0
 45
0.000000001
146
2.844906851
147
0.0
173
     1
178
     0
271
     0
272
     0
276
     2
340
11
341
1B6
343
1B6
344
1B6
  0
DIMSTYLE
105
1E2
102
{ACAD_REACTORS
330
1E1
330
1EC
330
218
330
222
330
274
330
27E
330
28C
330
296
330
2A4
330
2AE
102
}
330
A
100
AcDbSymbolTableRecord
100
AcDbDimStyleTableRecord
  2
SLDDIMSTYLE1
 70
     0
 41
9.2459472656
 44
0.0
 45
0.000000001
 73
     0
 74
     0
 77
     1
 78
    12
 79
     3
140
9.2459472656
147
2.3114868164
173
     1
178
     0
271
     2
272
     2
276
     2
284
    12
340
DC
  0
DIMSTYLE
105
1F7
102
{ACAD_REACTORS
330
1F6
102
}
330
A
100
AcDbSymbolTableRecord
100
AcDbDimStyleTableRecord
  2
SLDDIMSTYLE2
 70
     0
 41
9.2459472656
 44
0.0
 45
0.000000001
 73
     0
 74
     0
 77
     1
 78
    12
 79
     3
140
9.2459472656
141
0.0
147
2.3114868164
172
     1
173
     1
178
     0
271
     2
272
     2
276
     2
284
    12
340
DC
  0
DIMSTYLE
105
201
102
{ACAD_REACTORS
330
200
102
}
330
A
100
AcDbSymbolTableRecord
100
AcDbDimStyleTableRecord
  2
SLDDIMSTYLE3
 70
     0
 41
9.2459472656
 44
0.0
 45
0.000000001
 73
     0
 74
     0
 77
     1
 78
     4
 79
     1
140
9.2459472656
141
0.0
147
2.3114868164
172
     1
173
     1
178
     0
271
     2
272
     2
276
     2
284
    12
340
DC
  0
DIMSTYLE
105
20B
102
{ACAD_REACTORS
330
20A
102
}
330
A
100
AcDbSymbolTableRecord
100
AcDbDimStyleTableRecord
  2
SLDDIMSTYLE4
 70
     0
 41
9.2459472656
 44
0.0
 45
0.000000001
 78
     4
 79
     1
140
9.2459472656
141
0.0
147
2.3114868164
172
     1
173
     1
178
     0
271
     2
272
     2
276
     2
284
    12
340
DC
341
20C
343
20C
  0
ENDTAB
  0
TABLE
  2
BLOCK_RECORD
  5
1
330
0
100
AcDbSymbolTable
 70
    27
  0
BLOCK_RECORD
  5
1F
330
1
100
AcDbSymbolTableRecord
100
AcDbBlockTableRecord
  2
*Model_Space
340
22
  0
BLOCK_RECORD
  5
1B
330
1
100
AcDbSymbolTableRecord
100
AcDbBlockTableRecord
  2
*Paper_Space
340
1E
  0
BLOCK_RECORD
  5
23
330
1
100
AcDbSymbolTableRecord
100
AcDbBlockTableRecord
  2
*Paper_Space0
340
26
  0
BLOCK_RECORD
  5
FC
330
1
100
AcDbSymbolTableRecord
100
AcDbBlockTableRecord
  2
SW_NOTE_0
340
0
102
{BLKREFS
331
101
102
}
  0
BLOCK_RECORD
  5
102
330
1
100
AcDbSymbolTableRecord
100
AcDbBlockTableRecord
  2
SW_NOTE_1
340
0
102
{BLKREFS
331
107
102
}
  0
BLOCK_RECORD
  5
108
330
1
100
AcDbSymbolTableRecord
100
AcDbBlockTableRecord
  2
SW_NOTE_2
340
0
102
{BLKREFS
331
10D
102
}
  0
BLOCK_RECORD
  5
10E
330
1
100
AcDbSymbolTableRecord
100
AcDbBlockTableRecord
  2
SW_NOTE_3
340
0
102
{BLKREFS
331
113
102
}
  0
BLOCK_RECORD
  5
114
330
1
100
AcDbSymbolTableRecord
100
AcDbBlockTableRecord
  2
SW_NOTE_4
340
0
102
{BLKREFS
331
119
102
}
  0
BLOCK_RECORD
  5
11A
330
1
100
AcDbSymbolTableRecord
100
AcDbBlockTableRecord
  2
SW_TABLEANNOTATION_0
340
0
102
{BLKREFS
331
139
102
}
  0
BLOCK_RECORD
  5
1AF
330
1
100
AcDbSymbolTableRecord
100
AcDbBlockTableRecord
  2
SW_NOTE_5
340
0
102
{BLKREFS
331
1B4
102
}
  0
BLOCK_RECORD
  5
1B6
330
1
100
AcDbSymbolTableRecord
100
AcDbBlockTableRecord
  2
_DOT
340
0
  0
BLOCK_RECORD
  5
1BF
330
1
100
AcDbSymbolTableRecord
100
AcDbBlockTableRecord
  2
SW_NOTE_6
340
0
102
{BLKREFS
331
1C4
102
}
  0
BLOCK_RECORD
  5
1C6
330
1
100
AcDbSymbolTableRecord
100
AcDbBlockTableRecord
  2
SW_NOTE_7
340
0
102
{BLKREFS
331
1CB
102
}
  0
BLOCK_RECORD
  5
1CD
330
1
100
AcDbSymbolTableRecord
100
AcDbBlockTableRecord
  2
SW_NOTE_8
340
0
102
{BLKREFS
331
1D2
102
}
  0
BLOCK_RECORD
  5
1E3
330
1
100
AcDbSymbolTableRecord
100
AcDbBlockTableRecord
  2
_D
340
0
  0
BLOCK_RECORD
  5
1ED
330
1
100
AcDbSymbolTableRecord
100
AcDbBlockTableRecord
  2
_D_1
340
0
  0
BLOCK_RECORD
  5
1F8
330
1
100
AcDbSymbolTableRecord
100
AcDbBlockTableRecord
  2
_D_2
340
0
  0
BLOCK_RECORD
  5
202
330
1
100
AcDbSymbolTableRecord
100
AcDbBlockTableRecord
  2
_D_3
340
0
  0
BLOCK_RECORD
  5
20C
330
1
100
AcDbSymbolTableRecord
100
AcDbBlockTableRecord
  2
_NONE
340
0
  0
BLOCK_RECORD
  5
20F
330
1
100
AcDbSymbolTableRecord
100
AcDbBlockTableRecord
  2
_D_4
340
0
  0
BLOCK_RECORD
  5
219
330
1
100
AcDbSymbolTableRecord
100
AcDbBlockTableRecord
  2
_D_5
340
0
  0
BLOCK_RECORD
  5
223
330
1
100
AcDbSymbolTableRecord
100
AcDbBlockTableRecord
  2
_D_6
340
0
  0
BLOCK_RECORD
  5
22C
330
1
100
AcDbSymbolTableRecord
100
AcDbBlockTableRecord
  2
SW_CENTERMARKSYMBOL_0
340
0
102
{BLKREFS
331
26F
102
}
  0
BLOCK_RECORD
  5
275
330
1
100
AcDbSymbolTableRecord
100
AcDbBlockTableRecord
  2
_D_7
340
0
  0
BLOCK_RECORD
  5
27F
330
1
100
AcDbSymbolTableRecord
100
AcDbBlockTableRecord
  2
_D_8
340
0
  0
BLOCK_RECORD
  5
28D
330
1
100
AcDbSymbolTableRecord
100
AcDbBlockTableRecord
  2
_D_9
340
0
  0
BLOCK_RECORD
  5
297
330
1
100
AcDbSymbolTableRecord
100
AcDbBlockTableRecord
  2
_D_10
340
0
  0
BLOCK_RECORD
  5
2A5
330
1
100
AcDbSymbolTableRecord
100
AcDbBlockTableRecord
  2
_D_11
340
0
  0
BLOCK_RECORD
  5
2AF
330
1
100
AcDbSymbolTableRecord
100
AcDbBlockTableRecord
  2
_D_12
340
0
  0
ENDTAB
  0
ENDSEC
  0
SECTION
  2
BLOCKS
  0
BLOCK
  5
20
330
1F
100
AcDbEntity
  8
0
100
AcDbBlockBegin
  2
*Model_Space
 70
     0
 10
0.0
 20
0.0
 30
0.0
  3
*Model_Space
  1

  0
ENDBLK
  5
21
330
1F
100
AcDbEntity
  8
0
100
AcDbBlockEnd
  0
BLOCK
  5
1C
330
1B
100
AcDbEntity
 67
     1
  8
0
100
AcDbBlockBegin
  2
*Paper_Space
 70
     0
 10
0.0
 20
0.0
 30
0.0
  3
*Paper_Space
  1

  0
ENDBLK
  5
1D
330
1B
100
AcDbEntity
 67
     1
  8
0
100
AcDbBlockEnd
  0
BLOCK
  5
24
330
23
100
AcDbEntity
  8
0
100
AcDbBlockBegin
  2
*Paper_Space0
 70
     0
 10
0.0
 20
0.0
 30
0.0
  3
*Paper_Space0
  1

  0
ENDBLK
  5
25
330
23
100
AcDbEntity
  8
0
100
AcDbBlockEnd
  0
BLOCK
  5
FD
330
FC
100
AcDbEntity
  8
0
100
AcDbBlockBegin
  2
SW_NOTE_0
 70
     0
 10
0.0
 20
0.0
 30
0.0
  3
SW_NOTE_0
  1

  0
MTEXT
  5
FF
330
FC
100
AcDbEntity
  8
CAJETIN
 62
     0
100
AcDbMText
 10
0.0
 20
12.2400402414
 30
0.0
 40
9.525
 41
0.0
 71
     1
 72
     1
  1
Birch Plywood
  7
SLDTEXTSTYLE1
 73
     1
 44
1.0
  0
MTEXT
  5
100
330
FC
100
AcDbEntity
  8
CAJETIN
 62
     0
100
AcDbMText
 10
0.0
 20
-0.4599596051
 30
0.0
 40
9.525
 41
0.0
 71
     1
 72
     1
  1
15mm
  7
SLDTEXTSTYLE1
 73
     1
 44
1.0
  0
ENDBLK
  5
FE
330
FC
100
AcDbEntity
  8
0
100
AcDbBlockEnd
  0
BLOCK
  5
103
330
102
100
AcDbEntity
  8
0
100
AcDbBlockBegin
  2
SW_NOTE_1
 70
     0
 10
0.0
 20
0.0
 30
0.0
  3
SW_NOTE_1
  1

  0
CIRCLE
  5
105
330
102
100
AcDbEntity
  8
SLD-0_0
 62
     0
100
AcDbCircle
 10
7.0337481432
 20
14.2452570383
 30
0.0
 40
14.95759374542592
  0
MTEXT
  5
106
330
102
100
AcDbEntity
  8
SLD-0_0
 62
     0
100
AcDbMText
 10
0.0
 20
24.4800804829
 30
0.0
 40
19.05
 41
0.0
 71
     1
 72
     1
  1
4
  7
SLDTEXTSTYLE1
 73
     1
 44
1.0
  0
ENDBLK
  5
104
330
102
100
AcDbEntity
  8
0
100
AcDbBlockEnd
  0
BLOCK
  5
109
330
108
100
AcDbEntity
  8
0
100
AcDbBlockBegin
  2
SW_NOTE_2
 70
     0
 10
0.0
 20
0.0
 30
0.0
  3
SW_NOTE_2
  1

  0
CIRCLE
  5
10B
330
108
100
AcDbEntity
  8
SLD-0_0
 62
     0
100
AcDbCircle
 10
6.999142587
 20
14.254541293
 30
0.0
 40
14.93415993426658
  0
MTEXT
  5
10C
330
108
100
AcDbEntity
  8
SLD-0_0
 62
     0
100
AcDbMText
 10
0.0
 20
24.4800804829
 30
0.0
 40
19.05
 41
0.0
 71
     1
 72
     1
  1
3
  7
SLDTEXTSTYLE1
 73
     1
 44
1.0
  0
ENDBLK
  5
10A
330
108
100
AcDbEntity
  8
0
100
AcDbBlockEnd
  0
BLOCK
  5
10F
330
10E
100
AcDbEntity
  8
0
100
AcDbBlockBegin
  2
SW_NOTE_3
 70
     0
 10
0.0
 20
0.0
 30
0.0
  3
SW_NOTE_3
  1

  0
CIRCLE
  5
111
330
10E
100
AcDbEntity
  8
SLD-0_0
 62
     0
100
AcDbCircle
 10
7.0036327542
 20
14.254541293
 30
0.0
 40
14.93415993426658
  0
MTEXT
  5
112
330
10E
100
AcDbEntity
  8
SLD-0_0
 62
     0
100
AcDbMText
 10
0.0
 20
24.4800804829
 30
0.0
 40
19.05
 41
0.0
 71
     1
 72
     1
  1
2
  7
SLDTEXTSTYLE1
 73
     1
 44
1.0
  0
ENDBLK
  5
110
330
10E
100
AcDbEntity
  8
0
100
AcDbBlockEnd
  0
BLOCK
  5
115
330
114
100
AcDbEntity
  8
0
100
AcDbBlockBegin
  2
SW_NOTE_4
 70
     0
 10
0.0
 20
0.0
 30
0.0
  3
SW_NOTE_4
  1

  0
CIRCLE
  5
117
330
114
100
AcDbEntity
  8
SLD-0_0
 62
     0
100
AcDbCircle
 10
7.0298948848
 20
14.2183752912
 30
0.0
 40
14.95759374542591
  0
MTEXT
  5
118
330
114
100
AcDbEntity
  8
SLD-0_0
 62
     0
100
AcDbMText
 10
0.0
 20
24.4800804829
 30
0.0
 40
19.05
 41
0.0
 71
     1
 72
     1
  1
1
  7
SLDTEXTSTYLE1
 73
     1
 44
1.0
  0
ENDBLK
  5
116
330
114
100
AcDbEntity
  8
0
100
AcDbBlockEnd
  0
BLOCK
  5
11B
330
11A
100
AcDbEntity
  8
0
100
AcDbBlockBegin
  2
SW_TABLEANNOTATION_0
 70
     0
 10
0.0
 20
0.0
 30
0.0
  3
SW_TABLEANNOTATION_0
  1

  0
LINE
  5
11D
330
11A
100
AcDbEntity
  8
SLD-0_0
 62
     0
100
AcDbLine
 10
0.0
 20
0.0
 30
0.0
 11
0.0
 21
-203.5606346481
 31
0.0
  0
LINE
  5
11E
330
11A
100
AcDbEntity
  8
SLD-0_0
 62
     0
100
AcDbLine
 10
0.0
 20
-203.5606346481
 30
0.0
 11
786.1555671692
 21
-203.5606346481
 31
0.0
  0
LINE
  5
11F
330
11A
100
AcDbEntity
  8
SLD-0_0
 62
     0
100
AcDbLine
 10
786.1555671692
 20
-203.5606346481
 30
0.0
 11
786.1555671692
 21
0.0
 31
0.0
  0
LINE
  5
120
330
11A
100
AcDbEntity
  8
SLD-0_0
 62
     0
100
AcDbLine
 10
786.1555671692
 20
0.0
 30
0.0
 11
0.0
 21
0.0
 31
0.0
  0
LINE
  5
121
330
11A
100
AcDbEntity
  8
SLD-0_0
 62
     0
100
AcDbLine
 10
232.8888949752
 20
0.0
 30
0.0
 11
232.8888949752
 21
-40.5689857765
 31
0.0
  0
LINE
  5
122
330
11A
100
AcDbEntity
  8
SLD-0_0
 62
     0
100
AcDbLine
 10
606.8889030814
 20
0.0
 30
0.0
 11
606.8889030814
 21
-40.5689857765
 31
0.0
  0
LINE
  5
123
330
11A
100
AcDbEntity
  8
SLD-0_0
 62
     0
100
AcDbLine
 10
232.8888949752
 20
-40.5689857765
 30
0.0
 11
232.8888949752
 21
-203.5606346481
 31
0.0
  0
LINE
  5
124
330
11A
100
AcDbEntity
  8
SLD-0_0
 62
     0
100
AcDbLine
 10
606.8889030814
 20
-40.5689857765
 30
0.0
 11
606.8889030814
 21
-203.5606346481
 31
0.0
  0
LINE
  5
125
330
11A
100
AcDbEntity
  8
SLD-0_0
 62
     0
100
AcDbLine
 10
0.0
 20
-81.3168979944
 30
0.0
 11
786.1555671692
 21
-81.3168979944
 31
0.0
  0
LINE
  5
126
330
11A
100
AcDbEntity
  8
SLD-0_0
 62
     0
100
AcDbLine
 10
0.0
 20
-122.0648102123
 30
0.0
 11
786.1555671692
 21
-122.0648102123
 31
0.0
  0
LINE
  5
127
330
11A
100
AcDbEntity
  8
SLD-0_0
 62
     0
100
AcDbLine
 10
0.0
 20
-162.8127224302
 30
0.0
 11
786.1555671692
 21
-162.8127224302
 31
0.0
  0
LINE
  5
128
330
11A
100
AcDbEntity
  8
SLD-0_0
 62
     0
100
AcDbLine
 10
0.0
 20
-40.5689857765
 30
0.0
 11
786.1555671692
 21
-40.5689857765
 31
0.0
  0
MTEXT
  5
129
330
11A
100
AcDbEntity
  8
SLD-0_0
 62
     0
100
AcDbMText
 10
60.0
 20
-10.8456622742
 30
0.0
 40
19.05
 41
0.0
 71
     1
 72
     1
  1
ITEM NO.
  7
SLDTEXTSTYLE1
 73
     1
 44
1.0
  0
MTEXT
  5
12A
330
11A
100
AcDbEntity
  8
SLD-0_0
 62
     0
100
AcDbMText
 10
292.8888949752
 20
-10.8456622742
 30
0.0
 40
19.05
 41
0.0
 71
     1
 72
     1
  1
PARTS DIMENSIONS
  7
SLDTEXTSTYLE1
 73
     1
 44
1.0
  0
MTEXT
  5
12B
330
11A
100
AcDbEntity
  8
SLD-0_0
 62
     0
100
AcDbMText
 10
666.8889030814
 20
-10.8456622742
 30
0.0
 40
19.05
 41
0.0
 71
     1
 72
     1
  1
QTY.
  7
SLDTEXTSTYLE1
 73
     1
 44
1.0
  0
MTEXT
  5
12C
330
11A
100
AcDbEntity
  8
SLD-0_0
 62
     0
100
AcDbMText
 10
109.3888920173
 20
-51.4145590326
 30
0.0
 40
19.05
 41
0.0
 71
     1
 72
     1
  1
1
  7
SLDTEXTSTYLE1
 73
     1
 44
1.0
  0
MTEXT
  5
12E
330
11A
100
AcDbEntity
  8
SLD-0_0
 62
     0
100
AcDbMText
 10
336.6333398223
 20
-51.4145590326
 30
0.0
 40
19.05
 41
0.0
 71
     1
 72
     1
  1
490 x 390 x 15
  7
SLDTEXTSTYLE3
 73
     1
 44
1.0
  0
MTEXT
  5
12F
330
11A
100
AcDbEntity
  8
SLD-0_0
 62
     0
100
AcDbMText
 10
689.466679655
 20
-51.4145590326
 30
0.0
 40
19.05
 41
0.0
 71
     1
 72
     1
  1
1
  7
SLDTEXTSTYLE1
 73
     1
 44
1.0
  0
MTEXT
  5
130
330
11A
100
AcDbEntity
  8
SLD-0_0
 62
     0
100
AcDbMText
 10
109.3888920173
 20
-92.1624712505
 30
0.0
 40
19.05
 41
0.0
 71
     1
 72
     1
  1
2
  7
SLDTEXTSTYLE1
 73
     1
 44
1.0
  0
MTEXT
  5
131
330
11A
100
AcDbEntity
  8
SLD-0_0
 62
     0
100
AcDbMText
 10
336.6333398223
 20
-92.1624712505
 30
0.0
 40
19.05
 41
0.0
 71
     1
 72
     1
  1
520 x 285 x 15
  7
SLDTEXTSTYLE3
 73
     1
 44
1.0
  0
MTEXT
  5
132
330
11A
100
AcDbEntity
  8
SLD-0_0
 62
     0
100
AcDbMText
 10
689.466679655
 20
-92.1624712505
 30
0.0
 40
19.05
 41
0.0
 71
     1
 72
     1
  1
2
  7
SLDTEXTSTYLE1
 73
     1
 44
1.0
  0
MTEXT
  5
133
330
11A
100
AcDbEntity
  8
SLD-0_0
 62
     0
100
AcDbMText
 10
109.3888920173
 20
-132.9103834684
 30
0.0
 40
19.05
 41
0.0
 71
     1
 72
     1
  1
3
  7
SLDTEXTSTYLE1
 73
     1
 44
1.0
  0
MTEXT
  5
134
330
11A
100
AcDbEntity
  8
SLD-0_0
 62
     0
100
AcDbMText
 10
336.6333398223
 20
-132.9103834684
 30
0.0
 40
19.05
 41
0.0
 71
     1
 72
     1
  1
285 x 390 x 15
  7
SLDTEXTSTYLE3
 73
     1
 44
1.0
  0
MTEXT
  5
135
330
11A
100
AcDbEntity
  8
SLD-0_0
 62
     0
100
AcDbMText
 10
689.466679655
 20
-132.9103834684
 30
0.0
 40
19.05
 41
0.0
 71
     1
 72
     1
  1
2
  7
SLDTEXTSTYLE1
 73
     1
 44
1.0
  0
MTEXT
  5
136
330
11A
100
AcDbEntity
  8
SLD-0_0
 62
     0
100
AcDbMText
 10
109.3888920173
 20
-173.6582956863
 30
0.0
 40
19.05
 41
0.0
 71
     1
 72
     1
  1
4
  7
SLDTEXTSTYLE1
 73
     1
 44
1.0
  0
MTEXT
  5
137
330
11A
100
AcDbEntity
  8
SLD-0_0
 62
     0
100
AcDbMText
 10
336.6333398223
 20
-173.6582956863
 30
0.0
 40
19.05
 41
0.0
 71
     1
 72
     1
  1
490 x 285 x 15
  7
SLDTEXTSTYLE3
 73
     1
 44
1.0
  0
MTEXT
  5
138
330
11A
100
AcDbEntity
  8
SLD-0_0
 62
     0
100
AcDbMText
 10
689.466679655
 20
-173.6582956863
 30
0.0
 40
19.05
 41
0.0
 71
     1
 72
     1
  1
1
  7
SLDTEXTSTYLE1
 73
     1
 44
1.0
  0
ENDBLK
  5
11C
330
11A
100
AcDbEntity
  8
0
100
AcDbBlockEnd
  0
BLOCK
  5
1B0
330
1AF
100
AcDbEntity
  8
0
100
AcDbBlockBegin
  2
SW_NOTE_5
 70
     0
 10
0.0
 20
0.0
 30
0.0
  3
SW_NOTE_5
  1

  0
CIRCLE
  5
1B2
330
1AF
100
AcDbEntity
  8
SLD-0_0
 62
     0
100
AcDbCircle
 10
-12.6605245609
 20
12.8336695255
 30
0.0
 40
18.02753326566505
  0
MTEXT
  5
1B3
330
1AF
100
AcDbEntity
  8
SLD-0_0
 62
     0
100
AcDbMText
 10
-12.6017283629
 20
20.0220417933
 30
0.0
 40
12.7
 41
0.0
 71
     2
 72
     1
  1
3
  7
SLDTEXTSTYLE1
 73
     1
 44
1.0
  0
ENDBLK
  5
1B1
330
1AF
100
AcDbEntity
  8
0
100
AcDbBlockEnd
  0
BLOCK
  5
1B7
330
1B6
100
AcDbEntity
  8
0
100
AcDbBlockBegin
  2
_DOT
 70
     0
 10
0.0
 20
0.0
 30
0.0
  3
_DOT
  1

  0
POLYLINE
  5
1B9
330
1B6
100
AcDbEntity
  8
0
  6
ByBlock
 62
     0
100
AcDb2dPolyline
 66
     1
 10
0.0
 20
0.0
 30
0.0
 70
     1
 40
0.5
 41
0.5
  0
VERTEX
  5
1BB
330
1B9
100
AcDbEntity
  8
0
  6
ByBlock
 62
     0
100
AcDbVertex
100
AcDb2dVertex
 10
-0.25
 20
0.0
 30
0.0
 42
1.0
  0
VERTEX
  5
1BC
330
1B9
100
AcDbEntity
  8
0
  6
ByBlock
 62
     0
100
AcDbVertex
100
AcDb2dVertex
 10
0.25
 20
0.0
 30
0.0
 42
1.0
  0
SEQEND
  5
1BD
330
1B9
100
AcDbEntity
  8
0
  6
ByBlock
 62
     0
  0
LINE
  5
1BA
330
1B6
100
AcDbEntity
  8
0
  6
ByBlock
 62
     0
370
    -2
100
AcDbLine
 10
-0.5
 20
0.0
 30
0.0
 11
-1.0
 21
0.0
 31
0.0
  0
ENDBLK
  5
1B8
330
1B6
100
AcDbEntity
  8
0
100
AcDbBlockEnd
  0
BLOCK
  5
1C0
330
1BF
100
AcDbEntity
  8
0
100
AcDbBlockBegin
  2
SW_NOTE_6
 70
     0
 10
0.0
 20
0.0
 30
0.0
  3
SW_NOTE_6
  1

  0
CIRCLE
  5
1C2
330
1BF
100
AcDbEntity
  8
SLD-0_0
 62
     0
100
AcDbCircle
 10
-15.7953414246
 20
-8.6890243944
 30
0.0
 40
18.0275332656651
  0
MTEXT
  5
1C3
330
1BF
100
AcDbEntity
  8
SLD-0_0
 62
     0
100
AcDbMText
 10
-15.7365452267
 20
-1.5006521265
 30
0.0
 40
12.7
 41
0.0
 71
     2
 72
     1
  1
1
  7
SLDTEXTSTYLE1
 73
     1
 44
1.0
  0
ENDBLK
  5
1C1
330
1BF
100
AcDbEntity
  8
0
100
AcDbBlockEnd
  0
BLOCK
  5
1C7
330
1C6
100
AcDbEntity
  8
0
100
AcDbBlockBegin
  2
SW_NOTE_7
 70
     0
 10
0.0
 20
0.0
 30
0.0
  3
SW_NOTE_7
  1

  0
CIRCLE
  5
1C9
330
1C6
100
AcDbEntity
  8
SLD-0_0
 62
     0
100
AcDbCircle
 10
-9.2927242067
 20
15.4478876376
 30
0.0
 40
18.02753326566507
  0
MTEXT
  5
1CA
330
1C6
100
AcDbEntity
  8
SLD-0_0
 62
     0
100
AcDbMText
 10
-9.2339280088
 20
22.6362599054
 30
0.0
 40
12.7
 41
0.0
 71
     2
 72
     1
  1
2
  7
SLDTEXTSTYLE1
 73
     1
 44
1.0
  0
ENDBLK
  5
1C8
330
1C6
100
AcDbEntity
  8
0
100
AcDbBlockEnd
  0
BLOCK
  5
1CE
330
1CD
100
AcDbEntity
  8
0
100
AcDbBlockBegin
  2
SW_NOTE_8
 70
     0
 10
0.0
 20
0.0
 30
0.0
  3
SW_NOTE_8
  1

  0
CIRCLE
  5
1D0
330
1CD
100
AcDbEntity
  8
SLD-0_0
 62
     0
100
AcDbCircle
 10
13.6023823738
 20
11.8307712936
 30
0.0
 40
18.02753326566507
  0
MTEXT
  5
1D1
330
1CD
100
AcDbEntity
  8
SLD-0_0
 62
     0
100
AcDbMText
 10
13.6611785717
 20
19.0191435615
 30
0.0
 40
12.7
 41
0.0
 71
     2
 72
     1
  1
4
  7
SLDTEXTSTYLE1
 73
     1
 44
1.0
  0
ENDBLK
  5
1CF
330
1CD
100
AcDbEntity
  8
0
100
AcDbBlockEnd
  0
BLOCK
  5
1E4
330
1E3
100
AcDbEntity
  8
0
100
AcDbBlockBegin
  2
_D
 70
     0
 10
0.0
 20
0.0
 30
0.0
  3
_D
  1

  0
SOLID
  5
1E6
330
1E3
100
AcDbEntity
  8
SLD-0_0
 62
     7
100
AcDbTrace
 10
1477.6180993599
 20
1355.4249935003
 30
0.0
 11
1486.8640466256
 21
1354.0025400749
 31
0.0
 12
1486.8640466256
 22
1356.8474469258
 32
0.0
 13
1486.8640466256
 23
1356.8474469258
 33
0.0
  0
SOLID
  5
1E7
330
1E3
100
AcDbEntity
  8
SLD-0_0
 62
     7
100
AcDbTrace
 10
1967.6180993599
 20
1355.4249935003
 30
0.0
 11
1958.3721520943
 21
1356.8474469258
 31
0.0
 12
1958.3721520943
 22
1354.0025400749
 32
0.0
 13
1958.3721520943
 23
1354.0025400749
 33
0.0
  0
LINE
  5
1E8
330
1E3
100
AcDbEntity
  8
SLD-0_0
 62
     7
100
AcDbLine
 10
1477.6180993599
 20
1392.4249935003
 30
0.0
 11
1477.6180993599
 21
1354.4249935003
 31
0.0
  0
LINE
  5
1E9
330
1E3
100
AcDbEntity
  8
SLD-0_0
 62
     7
100
AcDbLine
 10
1967.6180993599
 20
1392.4249935003
 30
0.0
 11
1967.6180993599
 21
1354.4249935003
 31
0.0
  0
LINE
  5
1EA
330
1E3
100
AcDbEntity
  8
SLD-0_0
 62
     7
100
AcDbLine
 10
1477.6180993599
 20
1355.4249935003
 30
0.0
 11
1967.6180993599
 21
1355.4249935003
 31
0.0
  0
MTEXT
  5
1EB
330
1E3
100
AcDbEntity
  8
SLD-0_0
 62
     7
100
AcDbMText
 10
1700.9895143436
 20
1367.7033639545
 30
0.0
 40
9.525
 41
0.0
 71
     1
 72
     1
  1
490
  7
SLDTEXTSTYLE1
 73
     1
 44
1.0
  0
ENDBLK
  5
1E5
330
1E3
100
AcDbEntity
  8
0
100
AcDbBlockEnd
  0
BLOCK
  5
1EE
330
1ED
100
AcDbEntity
  8
0
100
AcDbBlockBegin
  2
_D_1
 70
     0
 10
0.0
 20
0.0
 30
0.0
  3
_D_1
  1

  0
SOLID
  5
1F0
330
1ED
100
AcDbEntity
  8
SLD-0_0
 62
     7
100
AcDbTrace
 10
1432.6180993599
 20
1393.4249935003
 30
0.0
 11
1434.0405527854
 21
1402.670940766
 31
0.0
 12
1431.1956459345
 22
1402.670940766
 32
0.0
 13
1431.1956459345
 23
1402.670940766
 33
0.0
  0
SOLID
  5
1F1
330
1ED
100
AcDbEntity
  8
SLD-0_0
 62
     7
100
AcDbTrace
 10
1432.6180993599
 20
1783.4249935003
 30
0.0
 11
1431.1956459345
 21
1774.1790462347
 31
0.0
 12
1434.0405527854
 22
1774.1790462347
 32
0.0
 13
1434.0405527854
 23
1774.1790462347
 33
0.0
  0
LINE
  5
1F2
330
1ED
100
AcDbEntity
  8
SLD-0_0
 62
     7
100
AcDbLine
 10
1476.6180993599
 20
1393.4249935003
 30
0.0
 11
1431.6180993599
 21
1393.4249935003
 31
0.0
  0
LINE
  5
1F3
330
1ED
100
AcDbEntity
  8
SLD-0_0
 62
     7
100
AcDbLine
 10
1476.6180993599
 20
1783.4249935003
 30
0.0
 11
1431.6180993599
 21
1783.4249935003
 31
0.0
  0
LINE
  5
1F4
330
1ED
100
AcDbEntity
  8
SLD-0_0
 62
     7
100
AcDbLine
 10
1432.6180993599
 20
1393.4249935003
 30
0.0
 11
1432.6180993599
 21
1783.4249935003
 31
0.0
  0
MTEXT
  5
1F5
330
1ED
100
AcDbEntity
  8
SLD-0_0
 62
     7
100
AcDbMText
 10
1420.3397289058
 20
1590.4141146802
 30
0.0
 40
9.525
 41
0.0
 71
     1
 72
     1
  1
390
  7
SLDTEXTSTYLE1
 11
6.123233995736766E-17
 21
1.0
 31
0.0
 73
     1
 44
1.0
  0
ENDBLK
  5
1EF
330
1ED
100
AcDbEntity
  8
0
100
AcDbBlockEnd
  0
BLOCK
  5
1F9
330
1F8
100
AcDbEntity
  8
0
100
AcDbBlockBegin
  2
_D_2
 70
     0
 10
0.0
 20
0.0
 30
0.0
  3
_D_2
  1

  0
SOLID
  5
1FB
330
1F8
100
AcDbEntity
  8
SLD-0_0
 62
     7
100
AcDbTrace
 10
1612.4468192996
 20
1502.8531578892
 30
0.0
 11
1620.6214414954
 21
1507.4013956295
 31
0.0
 12
1618.8763239228
 22
1509.6481843709
 32
0.0
 13
1618.8763239228
 23
1509.6481843709
 33
0.0
  0
SOLID
  5
1FC
330
1F8
100
AcDbEntity
  8
SLD-0_0
 62
     7
100
AcDbTrace
 10
1832.7893794203
 20
1673.9968291115
 30
0.0
 11
1824.6147572245
 21
1669.4485913712
 31
0.0
 12
1826.3598747971
 22
1667.2018026298
 32
0.0
 13
1826.3598747971
 23
1667.2018026298
 33
0.0
  0
LINE
  5
1FD
330
1F8
100
AcDbEntity
  8
SLD-0_0
 62
     7
100
AcDbLine
 10
1832.7893794203
 20
1673.9968291115
 30
0.0
 11
1612.4468192996
 21
1502.8531578892
 31
0.0
  0
MTEXT
  5
1FE
330
1F8
100
AcDbEntity
  8
SLD-0_0
 62
     7
100
AcDbMText
 10
1768.1865307339
 20
1639.3258816639
 30
0.0
 40
9.525
 41
0.0
 71
     1
 72
     1
  1
%%c
  7
SLDTEXTSTYLE1
 11
0.7897582800024594
 21
0.6134181764241723
 31
0.0
 73
     1
 44
1.0
  0
MTEXT
  5
1FF
330
1F8
100
AcDbEntity
  8
SLD-0_0
 62
     7
100
AcDbMText
 10
1778.8398490319
 20
1647.6004882729
 30
0.0
 40
9.525
 41
0.0
 71
     1
 72
     1
  1
279
  7
SLDTEXTSTYLE1
 11
0.7897582800024594
 21
0.6134181764241723
 31
0.0
 73
     1
 44
1.0
  0
ENDBLK
  5
1FA
330
1F8
100
AcDbEntity
  8
0
100
AcDbBlockEnd
  0
BLOCK
  5
203
330
202
100
AcDbEntity
  8
0
100
AcDbBlockBegin
  2
_D_3
 70
     0
 10
0.0
 20
0.0
 30
0.0
  3
_D_3
  1

  0
SOLID
  5
205
330
202
100
AcDbEntity
  8
SLD-0_0
 62
     7
100
AcDbTrace
 10
1847.3236306986
 20
1510.1236975114
 30
0.0
 11
1840.2496692739
 21
1516.2449706101
 31
0.0
 12
1838.7368686396
 22
1513.8356285356
 32
0.0
 13
1838.7368686396
 23
1513.8356285356
 33
0.0
  0
SOLID
  5
206
330
202
100
AcDbEntity
  8
SLD-0_0
 62
     7
100
AcDbTrace
 10
1597.9125680213
 20
1666.7262894892
 30
0.0
 11
1604.986529446
 21
1660.6050163906
 31
0.0
 12
1606.4993300803
 22
1663.014358465
 32
0.0
 13
1606.4993300803
 23
1663.014358465
 33
0.0
  0
LINE
  5
207
330
202
100
AcDbEntity
  8
SLD-0_0
 62
     7
100
AcDbLine
 10
1597.9125680213
 20
1666.7262894892
 30
0.0
 11
1847.3236306986
 21
1510.1236975114
 31
0.0
  0
MTEXT
  5
208
330
202
100
AcDbEntity
  8
SLD-0_0
 62
     7
100
AcDbMText
 10
1639.4112831895
 20
1655.126103108
 30
0.0
 40
9.525
 41
0.0
 71
     1
 72
     1
  1
%%c
  7
SLDTEXTSTYLE1
 11
0.8468966474612184
 21
-0.531757527938203
 31
0.0
 73
     1
 44
1.0
  0
MTEXT
  5
209
330
202
100
AcDbEntity
  8
SLD-0_0
 62
     7
100
AcDbMText
 10
1650.8353603778
 20
1647.9530447864
 30
0.0
 40
9.525
 41
0.0
 71
     1
 72
     1
  1
294.50
  7
SLDTEXTSTYLE1
 11
0.8468966474612184
 21
-0.531757527938203
 31
0.0
 73
     1
 44
1.0
  0
ENDBLK
  5
204
330
202
100
AcDbEntity
  8
0
100
AcDbBlockEnd
  0
BLOCK
  5
20D
330
20C
100
AcDbEntity
  8
0
100
AcDbBlockBegin
  2
_NONE
 70
     0
 10
0.0
 20
0.0
 30
0.0
  3
_NONE
  1

  0
ENDBLK
  5
20E
330
20C
100
AcDbEntity
  8
0
100
AcDbBlockEnd
  0
BLOCK
  5
210
330
20F
100
AcDbEntity
  8
0
100
AcDbBlockBegin
  2
_D_4
 70
     0
 10
0.0
 20
0.0
 30
0.0
  3
_D_4
  1

  0
SOLID
  5
212
330
20F
100
AcDbEntity
  8
SLD-0_0
 62
     7
100
AcDbTrace
 10
1583.9950193638
 20
1646.8304175842
 30
0.0
 11
1577.6471986424
 21
1653.7018138525
 31
0.0
 12
1575.8753486992
 22
1651.4760459469
 32
0.0
 13
1575.8753486992
 23
1651.4760459469
 33
0.0
  0
LINE
  5
213
330
20F
100
AcDbEntity
  8
SLD-0_0
 62
     7
100
AcDbLine
 10
1583.9950193638
 20
1646.8304175842
 30
0.0
 11
1552.9833832662
 21
1671.5176122922
 31
0.0
  0
LINE
  5
214
330
20F
100
AcDbEntity
  8
SLD-0_0
 62
     7
100
AcDbLine
 10
1589.1586570315
 20
1642.719840248
 30
0.0
 11
1583.9950193638
 21
1646.8304175842
 31
0.0
  0
LINE
  5
215
330
20F
100
AcDbEntity
  8
SLD-0_0
 62
     7
100
AcDbLine
 10
1552.9833832662
 20
1671.5176122922
 30
0.0
 11
1513.2121010165
 21
1671.5176122922
 31
0.0
  0
MTEXT
  5
216
330
20F
100
AcDbEntity
  8
SLD-0_0
 62
     7
100
AcDbMText
 10
1513.2121010165
 20
1683.7959827464
 30
0.0
 40
9.525
 41
0.0
 71
     1
 72
     1
  1
%%c
  7
SLDTEXTSTYLE1
 73
     1
 44
1.0
  0
MTEXT
  5
217
330
20F
100
AcDbEntity
  8
SLD-0_0
 62
     7
100
AcDbMText
 10
1526.7014414485
 20
1683.7959827464
 30
0.0
 40
9.525
 41
0.0
 71
     1
 72
     1
  1
6.60
  7
SLDTEXTSTYLE1
 73
     1
 44
1.0
  0
ENDBLK
  5
211
330
20F
100
AcDbEntity
  8
0
100
AcDbBlockEnd
  0
BLOCK
  5
21A
330
219
100
AcDbEntity
  8
0
100
AcDbBlockBegin
  2
_D_5
 70
     0
 10
0.0
 20
0.0
 30
0.0
  3
_D_5
  1

  0
SOLID
  5
21C
330
219
100
AcDbEntity
  8
SLD-0_0
 62
     7
100
AcDbTrace
 10
1453.6180993599
 20
1393.4249935003
 30
0.0
 11
1455.0405527854
 21
1402.670940766
 31
0.0
 12
1452.1956459345
 22
1402.670940766
 32
0.0
 13
1452.1956459345
 23
1402.670940766
 33
0.0
  0
SOLID
  5
21D
330
219
100
AcDbEntity
  8
SLD-0_0
 62
     7
100
AcDbTrace
 10
1453.6180993599
 20
1588.4249935003
 30
0.0
 11
1452.1956459345
 21
1579.1790462347
 31
0.0
 12
1455.0405527854
 22
1579.1790462347
 32
0.0
 13
1455.0405527854
 23
1579.1790462347
 33
0.0
  0
LINE
  5
21E
330
219
100
AcDbEntity
  8
SLD-0_0
 62
     7
100
AcDbLine
 10
1476.6180993599
 20
1393.4249935003
 30
0.0
 11
1452.6180993599
 21
1393.4249935003
 31
0.0
  0
LINE
  5
21F
330
219
100
AcDbEntity
  8
SLD-0_0
 62
     7
100
AcDbLine
 10
1571.8680993599
 20
1588.4249935003
 30
0.0
 11
1452.6180993599
 21
1588.4249935003
 31
0.0
  0
LINE
  5
220
330
219
100
AcDbEntity
  8
SLD-0_0
 62
     7
100
AcDbLine
 10
1453.6180993599
 20
1393.4249935003
 30
0.0
 11
1453.6180993599
 21
1588.4249935003
 31
0.0
  0
MTEXT
  5
221
330
219
100
AcDbEntity
  8
SLD-0_0
 62
     7
100
AcDbMText
 10
1441.3397289058
 20
1477.9478091139
 30
0.0
 40
9.525
 41
0.0
 71
     1
 72
     1
  1
195
  7
SLDTEXTSTYLE1
 11
-1.608122649676637E-16
 21
1.0
 31
0.0
 73
     1
 44
1.0
  0
ENDBLK
  5
21B
330
219
100
AcDbEntity
  8
0
100
AcDbBlockEnd
  0
BLOCK
  5
224
330
223
100
AcDbEntity
  8
0
100
AcDbBlockBegin
  2
_D_6
 70
     0
 10
0.0
 20
0.0
 30
0.0
  3
_D_6
  1

  0
SOLID
  5
226
330
223
100
AcDbEntity
  8
SLD-0_0
 62
     7
100
AcDbTrace
 10
1722.6180993599
 20
1814.4249935003
 30
0.0
 11
1713.3721520943
 21
1815.8474469258
 31
0.0
 12
1713.3721520943
 22
1813.0025400749
 32
0.0
 13
1713.3721520943
 23
1813.0025400749
 33
0.0
  0
SOLID
  5
227
330
223
100
AcDbEntity
  8
SLD-0_0
 62
     7
100
AcDbTrace
 10
1477.6180993599
 20
1814.4249935003
 30
0.0
 11
1486.8640466256
 21
1813.0025400749
 31
0.0
 12
1486.8640466256
 22
1815.8474469258
 32
0.0
 13
1486.8640466256
 23
1815.8474469258
 33
0.0
  0
LINE
  5
228
330
223
100
AcDbEntity
  8
SLD-0_0
 62
     7
100
AcDbLine
 10
1722.6180993599
 20
1739.1749935003
 30
0.0
 11
1722.6180993599
 21
1815.4249935003
 31
0.0
  0
LINE
  5
229
330
223
100
AcDbEntity
  8
SLD-0_0
 62
     7
100
AcDbLine
 10
1477.6180993599
 20
1784.4249935003
 30
0.0
 11
1477.6180993599
 21
1815.4249935003
 31
0.0
  0
LINE
  5
22A
330
223
100
AcDbEntity
  8
SLD-0_0
 62
     7
100
AcDbLine
 10
1722.6180993599
 20
1814.4249935003
 30
0.0
 11
1477.6180993599
 21
1814.4249935003
 31
0.0
  0
MTEXT
  5
22B
330
223
100
AcDbEntity
  8
SLD-0_0
 62
     7
100
AcDbMText
 10
1587.7393776523
 20
1826.7033639545
 30
0.0
 40
9.525
 41
0.0
 71
     1
 72
     1
  1
245
  7
SLDTEXTSTYLE1
 73
     1
 44
1.0
  0
ENDBLK
  5
225
330
223
100
AcDbEntity
  8
0
100
AcDbBlockEnd
  0
BLOCK
  5
22D
330
22C
100
AcDbEntity
  8
0
100
AcDbBlockBegin
  2
SW_CENTERMARKSYMBOL_0
 70
     0
 10
0.0
 20
0.0
 30
0.0
  3
SW_CENTERMARKSYMBOL_0
  1

  0
ARC
  5
22F
330
22C
100
AcDbEntity
  8
SLD-0_0
 62
     0
100
AcDbCircle
 10
136.0412611623
 20
-56.3501354158
 30
0.0
 40
147.2500000000001
100
AcDbArc
 50
157.5
 51
158.472763659
  0
ARC
  5
230
330
22C
100
AcDbEntity
  8
SLD-0_0
 62
     0
100
AcDbCircle
 10
136.0412611623
 20
-56.3501354158
 30
0.0
 40
147.2500000000001
100
AcDbArc
 50
156.527236341
 51
157.5
  0
ARC
  5
231
330
22C
100
AcDbEntity
  8
SLD-0_0
 62
     0
100
AcDbCircle
 10
136.0412611623
 20
-56.3501354158
 30
0.0
 40
147.2500000000001
100
AcDbArc
 50
112.5
 51
113.472763659
  0
ARC
  5
232
330
22C
100
AcDbEntity
  8
SLD-0_0
 62
     0
100
AcDbCircle
 10
136.0412611623
 20
-56.3501354158
 30
0.0
 40
147.2500000000001
100
AcDbArc
 50
111.527236341
 51
112.5
  0
ARC
  5
233
330
22C
100
AcDbEntity
  8
SLD-0_0
 62
     0
100
AcDbCircle
 10
136.0412611623
 20
-56.3501354158
 30
0.0
 40
147.2500000000001
100
AcDbArc
 50
202.5
 51
203.472763659
  0
ARC
  5
234
330
22C
100
AcDbEntity
  8
SLD-0_0
 62
     0
100
AcDbCircle
 10
136.0412611623
 20
-56.3501354158
 30
0.0
 40
147.2500000000001
100
AcDbArc
 50
201.527236341
 51
202.5
  0
ARC
  5
235
330
22C
100
AcDbEntity
  8
SLD-0_0
 62
     0
100
AcDbCircle
 10
136.0412611623
 20
-56.3501354158
 30
0.0
 40
147.2500000000001
100
AcDbArc
 50
247.5
 51
248.472763659
  0
ARC
  5
236
330
22C
100
AcDbEntity
  8
SLD-0_0
 62
     0
100
AcDbCircle
 10
136.0412611623
 20
-56.3501354158
 30
0.0
 40
147.2500000000001
100
AcDbArc
 50
246.527236341
 51
247.5
  0
ARC
  5
237
330
22C
100
AcDbEntity
  8
SLD-0_0
 62
     0
100
AcDbCircle
 10
136.0412611623
 20
-56.3501354158
 30
0.0
 40
147.2500000000001
100
AcDbArc
 50
292.5
 51
293.472763659
  0
ARC
  5
238
330
22C
100
AcDbEntity
  8
SLD-0_0
 62
     0
100
AcDbCircle
 10
136.0412611623
 20
-56.3501354158
 30
0.0
 40
147.2500000000001
100
AcDbArc
 50
291.527236341
 51
292.5
  0
ARC
  5
239
330
22C
100
AcDbEntity
  8
SLD-0_0
 62
     0
100
AcDbCircle
 10
136.0412611623
 20
-56.3501354158
 30
0.0
 40
147.2500000000001
100
AcDbArc
 50
337.5
 51
338.472763659
  0
ARC
  5
23A
330
22C
100
AcDbEntity
  8
SLD-0_0
 62
     0
100
AcDbCircle
 10
136.0412611623
 20
-56.3501354158
 30
0.0
 40
147.2500000000001
100
AcDbArc
 50
336.527236341
 51
337.5
  0
ARC
  5
23B
330
22C
100
AcDbEntity
  8
SLD-0_0
 62
     0
100
AcDbCircle
 10
136.0412611623
 20
-56.3501354158
 30
0.0
 40
147.2500000000001
100
AcDbArc
 50
22.5
 51
23.472763659
  0
ARC
  5
23C
330
22C
100
AcDbEntity
  8
SLD-0_0
 62
     0
100
AcDbCircle
 10
136.0412611623
 20
-56.3501354158
 30
0.0
 40
147.2500000000001
100
AcDbArc
 50
21.527236341
 51
22.5
  0
ARC
  5
23D
330
22C
100
AcDbEntity
  8
SLD-0_0
 62
     0
100
AcDbCircle
 10
136.0412611623
 20
-56.3501354158
 30
0.0
 40
147.2500000000001
100
AcDbArc
 50
67.5
 51
68.472763659
  0
ARC
  5
23E
330
22C
100
AcDbEntity
  8
SLD-0_0
 62
     0
100
AcDbCircle
 10
136.0412611623
 20
-56.3501354158
 30
0.0
 40
147.2500000000001
100
AcDbArc
 50
66.527236341
 51
67.5
  0
ARC
  5
23F
330
22C
100
AcDbEntity
  8
SLD-0_0
 62
     0
100
AcDbCircle
 10
136.0412611623
 20
-56.3501354158
 30
0.0
 40
147.2500000000001
100
AcDbArc
 50
24.4455273179
 51
65.5544726821
  0
ARC
  5
240
330
22C
100
AcDbEntity
  8
SLD-0_0
 62
     0
100
AcDbCircle
 10
136.0412611623
 20
-56.3501354158
 30
0.0
 40
147.2499999999999
100
AcDbArc
 50
69.4455273179
 51
110.5544726821
  0
ARC
  5
241
330
22C
100
AcDbEntity
  8
SLD-0_0
 62
     0
100
AcDbCircle
 10
136.0412611623
 20
-56.3501354158
 30
0.0
 40
147.2500000000002
100
AcDbArc
 50
114.4455273179
 51
155.5544726821
  0
ARC
  5
242
330
22C
100
AcDbEntity
  8
SLD-0_0
 62
     0
100
AcDbCircle
 10
136.0412611623
 20
-56.3501354158
 30
0.0
 40
147.2500000000001
100
AcDbArc
 50
159.4455273179
 51
200.5544726821
  0
ARC
  5
243
330
22C
100
AcDbEntity
  8
SLD-0_0
 62
     0
100
AcDbCircle
 10
136.0412611623
 20
-56.3501354158
 30
0.0
 40
147.2500000000001
100
AcDbArc
 50
204.4455273179
 51
245.5544726821
  0
ARC
  5
244
330
22C
100
AcDbEntity
  8
SLD-0_0
 62
     0
100
AcDbCircle
 10
136.0412611623
 20
-56.3501354158
 30
0.0
 40
147.2500000000001
100
AcDbArc
 50
249.4455273179
 51
290.5544726821
  0
ARC
  5
245
330
22C
100
AcDbEntity
  8
SLD-0_0
 62
     0
100
AcDbCircle
 10
136.0412611623
 20
-56.3501354158
 30
0.0
 40
147.2500000000001
100
AcDbArc
 50
294.4455273179
 51
335.5544726821
  0
ARC
  5
246
330
22C
100
AcDbEntity
  8
SLD-0_0
 62
     0
100
AcDbCircle
 10
136.0412611623
 20
-56.3501354158
 30
0.0
 40
147.25
100
AcDbArc
 50
339.4455273179
 51
20.5544726821
  0
LINE
  5
247
330
22C
100
AcDbEntity
  8
SLD-0_0
 62
     0
100
AcDbLine
 10
0.0
 20
0.0
 30
0.0
 11
-2.3096988313
 21
0.9567085809
 31
0.0
  0
LINE
  5
248
330
22C
100
AcDbEntity
  8
SLD-0_0
 62
     0
100
AcDbLine
 10
0.0
 20
0.0
 30
0.0
 11
2.3096988313
 21
-0.9567085809
 31
0.0
  0
LINE
  5
249
330
22C
100
AcDbEntity
  8
SLD-0_0
 62
     0
100
AcDbLine
 10
-4.6193976626
 20
1.9134171618
 30
0.0
 11
-5.3585012886
 21
2.2195639077
 31
0.0
  0
LINE
  5
24A
330
22C
100
AcDbEntity
  8
SLD-0_0
 62
     0
100
AcDbLine
 10
4.6193976626
 20
-1.9134171618
 30
0.0
 11
5.3585012886
 21
-2.2195639077
 31
0.0
  0
LINE
  5
24B
330
22C
100
AcDbEntity
  8
SLD-0_0
 62
     0
100
AcDbLine
 10
136.0412611623
 20
-56.3501354158
 30
0.0
 11
136.0412611623
 21
-53.8501354158
 31
0.0
  0
LINE
  5
24C
330
22C
100
AcDbEntity
  8
SLD-0_0
 62
     0
100
AcDbLine
 10
136.0412611623
 20
-56.3501354158
 30
0.0
 11
133.5412611623
 21
-56.3501354158
 31
0.0
  0
LINE
  5
24D
330
22C
100
AcDbEntity
  8
SLD-0_0
 62
     0
100
AcDbLine
 10
136.0412611623
 20
-56.3501354158
 30
0.0
 11
136.0412611623
 21
-58.8501354158
 31
0.0
  0
LINE
  5
24E
330
22C
100
AcDbEntity
  8
SLD-0_0
 62
     0
100
AcDbLine
 10
136.0412611623
 20
-56.3501354158
 30
0.0
 11
138.5412611623
 21
-56.3501354158
 31
0.0
  0
LINE
  5
24F
330
22C
100
AcDbEntity
  8
SLD-0_0
 62
     0
100
AcDbLine
 10
136.0412611623
 20
-51.3501354158
 30
0.0
 11
136.0412611623
 21
93.3998645842
 31
0.0
  0
LINE
  5
250
330
22C
100
AcDbEntity
  8
SLD-0_0
 62
     0
100
AcDbLine
 10
131.0412611623
 20
-56.3501354158
 30
0.0
 11
-13.7087388377
 21
-56.3501354158
 31
0.0
  0
LINE
  5
251
330
22C
100
AcDbEntity
  8
SLD-0_0
 62
     0
100
AcDbLine
 10
136.0412611623
 20
-61.3501354158
 30
0.0
 11
136.0412611623
 21
-206.1001354158
 31
0.0
  0
LINE
  5
252
330
22C
100
AcDbEntity
  8
SLD-0_0
 62
     0
100
AcDbLine
 10
141.0412611623
 20
-56.3501354158
 30
0.0
 11
285.7912611623
 21
-56.3501354158
 31
0.0
  0
LINE
  5
253
330
22C
100
AcDbEntity
  8
SLD-0_0
 62
     0
100
AcDbLine
 10
79.6911257465
 20
79.6911257465
 30
0.0
 11
78.7344171656
 21
82.0008245778
 31
0.0
  0
LINE
  5
254
330
22C
100
AcDbEntity
  8
SLD-0_0
 62
     0
100
AcDbLine
 10
79.6911257465
 20
79.6911257465
 30
0.0
 11
80.6478343274
 21
77.3814269152
 31
0.0
  0
LINE
  5
255
330
22C
100
AcDbEntity
  8
SLD-0_0
 62
     0
100
AcDbLine
 10
77.7777085847
 20
84.3105234091
 30
0.0
 11
77.4715618388
 21
85.0496270351
 31
0.0
  0
LINE
  5
256
330
22C
100
AcDbEntity
  8
SLD-0_0
 62
     0
100
AcDbLine
 10
81.6045429084
 20
75.071728084
 30
0.0
 11
81.9106896542
 21
74.332624458
 31
0.0
  0
LINE
  5
257
330
22C
100
AcDbEntity
  8
SLD-0_0
 62
     0
100
AcDbLine
 10
0.0
 20
-112.7002708315
 30
0.0
 11
-2.3096988313
 21
-113.6569794124
 31
0.0
  0
LINE
  5
258
330
22C
100
AcDbEntity
  8
SLD-0_0
 62
     0
100
AcDbLine
 10
0.0
 20
-112.7002708315
 30
0.0
 11
2.3096988313
 21
-111.7435622506
 31
0.0
  0
LINE
  5
259
330
22C
100
AcDbEntity
  8
SLD-0_0
 62
     0
100
AcDbLine
 10
-4.6193976626
 20
-114.6136879933
 30
0.0
 11
-5.3585012886
 21
-114.9198347392
 31
0.0
  0
LINE
  5
25A
330
22C
100
AcDbEntity
  8
SLD-0_0
 62
     0
100
AcDbLine
 10
4.6193976626
 20
-110.7868536697
 30
0.0
 11
5.3585012886
 21
-110.4807069238
 31
0.0
  0
LINE
  5
25B
330
22C
100
AcDbEntity
  8
SLD-0_0
 62
     0
100
AcDbLine
 10
79.6911257465
 20
-192.391396578
 30
0.0
 11
78.7344171656
 21
-194.7010954093
 31
0.0
  0
LINE
  5
25C
330
22C
100
AcDbEntity
  8
SLD-0_0
 62
     0
100
AcDbLine
 10
79.6911257465
 20
-192.391396578
 30
0.0
 11
80.6478343274
 21
-190.0816977468
 31
0.0
  0
LINE
  5
25D
330
22C
100
AcDbEntity
  8
SLD-0_0
 62
     0
100
AcDbLine
 10
77.7777085847
 20
-197.0107942406
 30
0.0
 11
77.4715618388
 21
-197.7498978666
 31
0.0
  0
LINE
  5
25E
330
22C
100
AcDbEntity
  8
SLD-0_0
 62
     0
100
AcDbLine
 10
81.6045429084
 20
-187.7719989155
 30
0.0
 11
81.9106896542
 21
-187.0328952895
 31
0.0
  0
LINE
  5
25F
330
22C
100
AcDbEntity
  8
SLD-0_0
 62
     0
100
AcDbLine
 10
192.391396578
 20
-192.391396578
 30
0.0
 11
193.348105159
 21
-194.7010954093
 31
0.0
  0
LINE
  5
260
330
22C
100
AcDbEntity
  8
SLD-0_0
 62
     0
100
AcDbLine
 10
192.391396578
 20
-192.391396578
 30
0.0
 11
191.4346879971
 21
-190.0816977468
 31
0.0
  0
LINE
  5
261
330
22C
100
AcDbEntity
  8
SLD-0_0
 62
     0
100
AcDbLine
 10
194.3048137399
 20
-197.0107942406
 30
0.0
 11
194.6109604858
 21
-197.7498978666
 31
0.0
  0
LINE
  5
262
330
22C
100
AcDbEntity
  8
SLD-0_0
 62
     0
100
AcDbLine
 10
190.4779794162
 20
-187.7719989155
 30
0.0
 11
190.1718326703
 21
-187.0328952895
 31
0.0
  0
LINE
  5
263
330
22C
100
AcDbEntity
  8
SLD-0_0
 62
     0
100
AcDbLine
 10
272.0825223246
 20
-112.7002708315
 30
0.0
 11
274.3922211559
 21
-113.6569794124
 31
0.0
  0
LINE
  5
264
330
22C
100
AcDbEntity
  8
SLD-0_0
 62
     0
100
AcDbLine
 10
272.0825223246
 20
-112.7002708315
 30
0.0
 11
269.7728234933
 21
-111.7435622506
 31
0.0
  0
LINE
  5
265
330
22C
100
AcDbEntity
  8
SLD-0_0
 62
     0
100
AcDbLine
 10
276.7019199871
 20
-114.6136879933
 30
0.0
 11
277.4410236131
 21
-114.9198347392
 31
0.0
  0
LINE
  5
266
330
22C
100
AcDbEntity
  8
SLD-0_0
 62
     0
100
AcDbLine
 10
267.463124662
 20
-110.7868536697
 30
0.0
 11
266.724021036
 21
-110.4807069238
 31
0.0
  0
LINE
  5
267
330
22C
100
AcDbEntity
  8
SLD-0_0
 62
     0
100
AcDbLine
 10
272.0825223246
 20
0.0
 30
0.0
 11
274.3922211559
 21
0.9567085809
 31
0.0
  0
LINE
  5
268
330
22C
100
AcDbEntity
  8
SLD-0_0
 62
     0
100
AcDbLine
 10
272.0825223246
 20
0.0
 30
0.0
 11
269.7728234933
 21
-0.9567085809
 31
0.0
  0
LINE
  5
269
330
22C
100
AcDbEntity
  8
SLD-0_0
 62
     0
100
AcDbLine
 10
276.7019199871
 20
1.9134171618
 30
0.0
 11
277.4410236131
 21
2.2195639077
 31
0.0
  0
LINE
  5
26A
330
22C
100
AcDbEntity
  8
SLD-0_0
 62
     0
100
AcDbLine
 10
267.463124662
 20
-1.9134171618
 30
0.0
 11
266.724021036
 21
-2.2195639077
 31
0.0
  0
LINE
  5
26B
330
22C
100
AcDbEntity
  8
SLD-0_0
 62
     0
100
AcDbLine
 10
192.391396578
 20
79.6911257465
 30
0.0
 11
193.348105159
 21
82.0008245778
 31
0.0
  0
LINE
  5
26C
330
22C
100
AcDbEntity
  8
SLD-0_0
 62
     0
100
AcDbLine
 10
192.391396578
 20
79.6911257465
 30
0.0
 11
191.4346879971
 21
77.3814269152
 31
0.0
  0
LINE
  5
26D
330
22C
100
AcDbEntity
  8
SLD-0_0
 62
     0
100
AcDbLine
 10
194.3048137399
 20
84.3105234091
 30
0.0
 11
194.6109604858
 21
85.0496270351
 31
0.0
  0
LINE
  5
26E
330
22C
100
AcDbEntity
  8
SLD-0_0
 62
     0
100
AcDbLine
 10
190.4779794162
 20
75.071728084
 30
0.0
 11
190.1718326703
 21
74.332624458
 31
0.0
  0
ENDBLK
  5
22E
330
22C
100
AcDbEntity
  8
0
100
AcDbBlockEnd
  0
BLOCK
  5
276
330
275
100
AcDbEntity
  8
0
100
AcDbBlockBegin
  2
_D_7
 70
     0
 10
0.0
 20
0.0
 30
0.0
  3
_D_7
  1

  0
SOLID
  5
278
330
275
100
AcDbEntity
  8
SLD-0_0
 62
     7
100
AcDbTrace
 10
1462.6180993599
 20
881.4984614637
 30
0.0
 11
1471.8640466256
 21
880.0760080382
 31
0.0
 12
1471.8640466256
 22
882.9209148892
 32
0.0
 13
1471.8640466256
 23
882.9209148892
 33
0.0
  0
SOLID
  5
279
330
275
100
AcDbEntity
  8
SLD-0_0
 62
     7
100
AcDbTrace
 10
1982.6180993599
 20
881.4984614637
 30
0.0
 11
1973.3721520943
 21
882.9209148892
 31
0.0
 12
1973.3721520943
 22
880.0760080382
 32
0.0
 13
1973.3721520943
 23
880.0760080382
 33
0.0
  0
LINE
  5
27A
330
275
100
AcDbEntity
  8
SLD-0_0
 62
     7
100
AcDbLine
 10
1462.6180993599
 20
904.4984614637
 30
0.0
 11
1462.6180993599
 21
880.4984614637
 31
0.0
  0
LINE
  5
27B
330
275
100
AcDbEntity
  8
SLD-0_0
 62
     7
100
AcDbLine
 10
1982.6180993599
 20
904.4984614637
 30
0.0
 11
1982.6180993599
 21
880.4984614637
 31
0.0
  0
LINE
  5
27C
330
275
100
AcDbEntity
  8
SLD-0_0
 62
     7
100
AcDbLine
 10
1462.6180993599
 20
881.4984614637
 30
0.0
 11
1982.6180993599
 21
881.4984614637
 31
0.0
  0
MTEXT
  5
27D
330
275
100
AcDbEntity
  8
SLD-0_0
 62
     7
100
AcDbMText
 10
1714.0925660246
 20
893.7768319178
 30
0.0
 40
9.525
 41
0.0
 71
     1
 72
     1
  1
520
  7
SLDTEXTSTYLE1
 73
     1
 44
1.0
  0
ENDBLK
  5
277
330
275
100
AcDbEntity
  8
0
100
AcDbBlockEnd
  0
BLOCK
  5
280
330
27F
100
AcDbEntity
  8
0
100
AcDbBlockBegin
  2
_D_8
 70
     0
 10
0.0
 20
0.0
 30
0.0
  3
_D_8
  1

  0
SOLID
  5
282
330
27F
100
AcDbEntity
  8
SLD-0_0
 62
     7
100
AcDbTrace
 10
2013.6180993599
 20
905.4984614637
 30
0.0
 11
2015.0405527854
 21
914.7444087293
 31
0.0
 12
2012.1956459345
 22
914.7444087293
 32
0.0
 13
2012.1956459345
 23
914.7444087293
 33
0.0
  0
SOLID
  5
283
330
27F
100
AcDbEntity
  8
SLD-0_0
 62
     7
100
AcDbTrace
 10
2013.6180993599
 20
1190.4984614637
 30
0.0
 11
2012.1956459345
 21
1181.2525141981
 31
0.0
 12
2015.0405527854
 22
1181.2525141981
 32
0.0
 13
2015.0405527854
 23
1181.2525141981
 33
0.0
  0
LINE
  5
284
330
27F
100
AcDbEntity
  8
SLD-0_0
 62
     7
100
AcDbLine
 10
1983.6180993599
 20
905.4984614637
 30
0.0
 11
2014.6180993599
 21
905.4984614637
 31
0.0
  0
LINE
  5
285
330
27F
100
AcDbEntity
  8
SLD-0_0
 62
     7
100
AcDbLine
 10
1983.6180993599
 20
1190.4984614637
 30
0.0
 11
2014.6180993599
 21
1190.4984614637
 31
0.0
  0
LINE
  5
286
330
27F
100
AcDbEntity
  8
SLD-0_0
 62
     7
100
AcDbLine
 10
2013.6180993599
 20
905.4984614637
 30
0.0
 11
2013.6180993599
 21
1190.4984614637
 31
0.0
  0
MTEXT
  5
287
330
27F
100
AcDbEntity
  8
SLD-0_0
 62
     7
100
AcDbMText
 10
2001.3397289058
 20
1039.4729281284
 30
0.0
 40
9.525
 41
0.0
 71
     1
 72
     1
  1
285
  7
SLDTEXTSTYLE1
 11
-3.828568698926949E-16
 21
1.0
 31
0.0
 73
     1
 44
1.0
  0
ENDBLK
  5
281
330
27F
100
AcDbEntity
  8
0
100
AcDbBlockEnd
  0
BLOCK
  5
28E
330
28D
100
AcDbEntity
  8
0
100
AcDbBlockBegin
  2
_D_9
 70
     0
 10
0.0
 20
0.0
 30
0.0
  3
_D_9
  1

  0
SOLID
  5
290
330
28D
100
AcDbEntity
  8
SLD-0_0
 62
     7
100
AcDbTrace
 10
2671.9383753311
 20
905.4984614637
 30
0.0
 11
2673.3608287565
 21
914.7444087293
 31
0.0
 12
2670.5159219056
 22
914.7444087293
 32
0.0
 13
2670.5159219056
 23
914.7444087293
 33
0.0
  0
SOLID
  5
291
330
28D
100
AcDbEntity
  8
SLD-0_0
 62
     7
100
AcDbTrace
 10
2671.9383753311
 20
1190.4984614637
 30
0.0
 11
2670.5159219056
 21
1181.2525141981
 31
0.0
 12
2673.3608287565
 22
1181.2525141981
 32
0.0
 13
2673.3608287565
 23
1181.2525141981
 33
0.0
  0
LINE
  5
292
330
28D
100
AcDbEntity
  8
SLD-0_0
 62
     7
100
AcDbLine
 10
2641.9383753311
 20
905.4984614637
 30
0.0
 11
2672.9383753311
 21
905.4984614637
 31
0.0
  0
LINE
  5
293
330
28D
100
AcDbEntity
  8
SLD-0_0
 62
     7
100
AcDbLine
 10
2641.9383753311
 20
1190.4984614637
 30
0.0
 11
2672.9383753311
 21
1190.4984614637
 31
0.0
  0
LINE
  5
294
330
28D
100
AcDbEntity
  8
SLD-0_0
 62
     7
100
AcDbLine
 10
2671.9383753311
 20
905.4984614637
 30
0.0
 11
2671.9383753311
 21
1190.4984614637
 31
0.0
  0
MTEXT
  5
295
330
28D
100
AcDbEntity
  8
SLD-0_0
 62
     7
100
AcDbMText
 10
2659.6600048769
 20
1038.4440279605
 30
0.0
 40
9.525
 41
0.0
 71
     1
 72
     1
  1
285
  7
SLDTEXTSTYLE1
 11
-3.713525943768165E-15
 21
1.0
 31
0.0
 73
     1
 44
1.0
  0
ENDBLK
  5
28F
330
28D
100
AcDbEntity
  8
0
100
AcDbBlockEnd
  0
BLOCK
  5
298
330
297
100
AcDbEntity
  8
0
100
AcDbBlockBegin
  2
_D_10
 70
     0
 10
0.0
 20
0.0
 30
0.0
  3
_D_10
  1

  0
SOLID
  5
29A
330
297
100
AcDbEntity
  8
SLD-0_0
 62
     7
100
AcDbTrace
 10
2250.9383753311
 20
874.4984614637
 30
0.0
 11
2260.1843225967
 21
873.0760080382
 31
0.0
 12
2260.1843225967
 22
875.9209148892
 32
0.0
 13
2260.1843225967
 23
875.9209148892
 33
0.0
  0
SOLID
  5
29B
330
297
100
AcDbEntity
  8
SLD-0_0
 62
     7
100
AcDbTrace
 10
2640.9383753311
 20
874.4984614637
 30
0.0
 11
2631.6924280654
 21
875.9209148892
 31
0.0
 12
2631.6924280654
 22
873.0760080382
 32
0.0
 13
2631.6924280654
 23
873.0760080382
 33
0.0
  0
LINE
  5
29C
330
297
100
AcDbEntity
  8
SLD-0_0
 62
     7
100
AcDbLine
 10
2250.9383753311
 20
904.4984614637
 30
0.0
 11
2250.9383753311
 21
873.4984614637
 31
0.0
  0
LINE
  5
29D
330
297
100
AcDbEntity
  8
SLD-0_0
 62
     7
100
AcDbLine
 10
2640.9383753311
 20
904.4984614637
 30
0.0
 11
2640.9383753311
 21
873.4984614637
 31
0.0
  0
LINE
  5
29E
330
297
100
AcDbEntity
  8
SLD-0_0
 62
     7
100
AcDbLine
 10
2250.9383753311
 20
874.4984614637
 30
0.0
 11
2640.9383753311
 21
874.4984614637
 31
0.0
  0
MTEXT
  5
29F
330
297
100
AcDbEntity
  8
SLD-0_0
 62
     7
100
AcDbMText
 10
2431.2394409884
 20
886.7768319178
 30
0.0
 40
9.525
 41
0.0
 71
     1
 72
     1
  1
390
  7
SLDTEXTSTYLE1
 73
     1
 44
1.0
  0
ENDBLK
  5
299
330
297
100
AcDbEntity
  8
0
100
AcDbBlockEnd
  0
BLOCK
  5
2A6
330
2A5
100
AcDbEntity
  8
0
100
AcDbBlockBegin
  2
_D_11
 70
     0
 10
0.0
 20
0.0
 30
0.0
  3
_D_11
  1

  0
SOLID
  5
2A8
330
2A5
100
AcDbEntity
  8
SLD-0_0
 62
     7
100
AcDbTrace
 10
1477.6180993599
 20
304.1549952997
 30
0.0
 11
1486.8640466256
 21
302.7325418742
 31
0.0
 12
1486.8640466256
 22
305.5774487252
 32
0.0
 13
1486.8640466256
 23
305.5774487252
 33
0.0
  0
SOLID
  5
2A9
330
2A5
100
AcDbEntity
  8
SLD-0_0
 62
     7
100
AcDbTrace
 10
1967.6180993599
 20
304.1549952997
 30
0.0
 11
1958.3721520943
 21
305.5774487252
 31
0.0
 12
1958.3721520943
 22
302.7325418742
 32
0.0
 13
1958.3721520943
 23
302.7325418742
 33
0.0
  0
LINE
  5
2AA
330
2A5
100
AcDbEntity
  8
SLD-0_0
 62
     7
100
AcDbLine
 10
1477.6180993599
 20
327.1549952997
 30
0.0
 11
1477.6180993599
 21
303.1549952997
 31
0.0
  0
LINE
  5
2AB
330
2A5
100
AcDbEntity
  8
SLD-0_0
 62
     7
100
AcDbLine
 10
1967.6180993599
 20
327.1549952997
 30
0.0
 11
1967.6180993599
 21
303.1549952997
 31
0.0
  0
LINE
  5
2AC
330
2A5
100
AcDbEntity
  8
SLD-0_0
 62
     7
100
AcDbLine
 10
1477.6180993599
 20
304.1549952997
 30
0.0
 11
1967.6180993599
 21
304.1549952997
 31
0.0
  0
MTEXT
  5
2AD
330
2A5
100
AcDbEntity
  8
SLD-0_0
 62
     7
100
AcDbMText
 10
1712.0347656889
 20
316.4333657539
 30
0.0
 40
9.525
 41
0.0
 71
     1
 72
     1
  1
490
  7
SLDTEXTSTYLE1
 73
     1
 44
1.0
  0
ENDBLK
  5
2A7
330
2A5
100
AcDbEntity
  8
0
100
AcDbBlockEnd
  0
BLOCK
  5
2B0
330
2AF
100
AcDbEntity
  8
0
100
AcDbBlockBegin
  2
_D_12
 70
     0
 10
0.0
 20
0.0
 30
0.0
  3
_D_12
  1

  0
SOLID
  5
2B2
330
2AF
100
AcDbEntity
  8
SLD-0_0
 62
     7
100
AcDbTrace
 10
2005.6180993599
 20
328.1549952997
 30
0.0
 11
2007.0405527854
 21
337.4009425653
 31
0.0
 12
2004.1956459345
 22
337.4009425653
 32
0.0
 13
2004.1956459345
 23
337.4009425653
 33
0.0
  0
SOLID
  5
2B3
330
2AF
100
AcDbEntity
  8
SLD-0_0
 62
     7
100
AcDbTrace
 10
2005.6180993599
 20
718.1549952997
 30
0.0
 11
2004.1956459345
 21
708.9090480341
 31
0.0
 12
2007.0405527854
 22
708.9090480341
 32
0.0
 13
2007.0405527854
 23
708.9090480341
 33
0.0
  0
LINE
  5
2B4
330
2AF
100
AcDbEntity
  8
SLD-0_0
 62
     7
100
AcDbLine
 10
1968.6180993599
 20
328.1549952997
 30
0.0
 11
2006.6180993599
 21
328.1549952997
 31
0.0
  0
LINE
  5
2B5
330
2AF
100
AcDbEntity
  8
SLD-0_0
 62
     7
100
AcDbLine
 10
1968.6180993599
 20
718.1549952997
 30
0.0
 11
2006.6180993599
 21
718.1549952997
 31
0.0
  0
LINE
  5
2B6
330
2AF
100
AcDbEntity
  8
SLD-0_0
 62
     7
100
AcDbLine
 10
2005.6180993599
 20
328.1549952997
 30
0.0
 11
2005.6180993599
 21
718.1549952997
 31
0.0
  0
MTEXT
  5
2B7
330
2AF
100
AcDbEntity
  8
SLD-0_0
 62
     7
100
AcDbMText
 10
1993.3397289058
 20
519.7739628039
 30
0.0
 40
9.525
 41
0.0
 71
     1
 72
     1
  1
390
  7
SLDTEXTSTYLE1
 11
6.123233995736766E-17
 21
1.0
 31
0.0
 73
     1
 44
1.0
  0
ENDBLK
  5
2B1
330
2AF
100
AcDbEntity
  8
0
100
AcDbBlockEnd
  0
ENDSEC
  0
SECTION
  2
ENTITIES
  0
LINE
  5
7B
330
1F
100
AcDbEntity
  8
PREDETERMINADO
100
AcDbLine
 10
2940.0196825367
 20
72.3510114017
 30
0.0
 11
2931.2533687515
 21
72.3510114017
 31
0.0
  0
LINE
  5
7C
330
1F
100
AcDbEntity
  8
PREDETERMINADO
100
AcDbLine
 10
2925.5362075871
 20
43.9557776189
 30
0.0
 11
2930.8722246738
 21
43.9557776189
 31
0.0
  0
LINE
  5
7D
330
1F
100
AcDbEntity
  8
PREDETERMINADO
100
AcDbLine
 10
2960.9826068059
 20
72.3510114017
 30
0.0
 11
2952.9785811759
 21
72.3510114017
 31
0.0
  0
LINE
  5
7E
330
1F
100
AcDbEntity
  8
PREDETERMINADO
100
AcDbLine
 10
2947.9272792727
 20
46.4332141234
 30
0.0
 11
2955.8588133532
 21
46.4332141234
 31
0.0
  0
LINE
  5
7F
330
1F
100
AcDbEntity
  8
PREDETERMINADO
100
AcDbLine
 10
2690.9531949887
 20
153.504175071
 30
0.0
 11
2690.9531949887
 21
112.1211325827
 31
0.0
  0
LINE
  5
80
330
1F
100
AcDbEntity
  8
PREDETERMINADO
100
AcDbLine
 10
2690.9531949887
 20
112.1211325827
 30
0.0
 11
2203.9772963821
 21
112.1211325827
 31
0.0
  0
LINE
  5
81
330
1F
100
AcDbEntity
  8
PREDETERMINADO
100
AcDbLine
 10
2203.9772963821
 20
112.1211325827
 30
0.0
 11
2203.9772963821
 21
107.8821325827
 31
0.0
  0
LINE
  5
82
330
1F
100
AcDbEntity
  8
PREDETERMINADO
100
AcDbLine
 10
2203.9772963821
 20
107.8821325827
 30
0.0
 11
2695.1921949887
 21
107.8821325827
 31
0.0
  0
LINE
  5
83
330
1F
100
AcDbEntity
  8
PREDETERMINADO
100
AcDbLine
 10
2695.1921949887
 20
107.8821325827
 30
0.0
 11
2695.1921949887
 21
153.504175071
 31
0.0
  0
LINE
  5
84
330
1F
100
AcDbEntity
  8
PREDETERMINADO
100
AcDbLine
 10
2695.1921949887
 20
153.504175071
 30
0.0
 11
2690.9531949887
 21
153.504175071
 31
0.0
  0
LINE
  5
85
330
1F
100
AcDbEntity
  8
PREDETERMINADO
100
AcDbLine
 10
2947.9272792727
 20
46.4332141234
 30
0.0
 11
2955.8588133532
 21
46.4332141234
 31
0.0
  0
LINE
  5
86
330
1F
100
AcDbEntity
  8
PREDETERMINADO
100
AcDbLine
 10
2960.9826068059
 20
72.3510114017
 30
0.0
 11
2952.9785811759
 21
72.3510114017
 31
0.0
  0
LINE
  5
87
330
1F
100
AcDbEntity
  8
PREDETERMINADO
100
AcDbLine
 10
2940.0196825367
 20
72.3510114017
 30
0.0
 11
2931.2533687515
 21
72.3510114017
 31
0.0
  0
LINE
  5
88
330
1F
100
AcDbEntity
  8
PREDETERMINADO
100
AcDbLine
 10
2925.5362075871
 20
43.9557776189
 30
0.0
 11
2930.8722246738
 21
43.9557776189
 31
0.0
  0
LINE
  5
89
330
1F
100
AcDbEntity
  8
PREDETERMINADO
  6
Continuous
 62
   179
370
    15
100
AcDbLine
 10
2203.9772963821
 20
243.3925757256
 30
0.0
 11
2203.9772963821
 21
157.743175071
 31
0.0
  0
LINE
  5
8A
330
1F
100
AcDbEntity
  8
SLD-0_0
100
AcDbLine
 10
2392.7238017669
 20
107.8821325827
 30
0.0
 11
2392.7238017669
 21
31.4425757256
 31
0.0
  0
LINE
  5
8B
330
1F
100
AcDbEntity
  8
FORMATO
  6
Continuous
 62
   179
100
AcDbLine
 10
2398.4621949887
 20
157.743175071
 30
0.0
 11
2398.4621949887
 21
243.3925757256
 31
0.0
  0
LINE
  5
8C
330
1F
100
AcDbEntity
  8
FORMATO
  6
Continuous
 62
   179
100
AcDbLine
 10
2317.9693608388
 20
157.743175071
 30
0.0
 11
2398.4621949887
 21
157.743175071
 31
0.0
  0
LINE
  5
8D
330
1F
100
AcDbEntity
  8
FORMATO
  6
Continuous
 62
   179
100
AcDbLine
 10
2317.9693608388
 20
157.743175071
 30
0.0
 11
2317.9693608388
 21
243.3925757256
 31
0.0
  0
LINE
  5
8E
330
1F
100
AcDbEntity
  8
FORMATO
  6
Continuous
 62
   179
100
AcDbLine
 10
2203.9772963821
 20
178.938175071
 30
0.0
 11
2483.2421949887
 21
178.938175071
 31
0.0
  0
LINE
  5
8F
330
1F
100
AcDbEntity
  8
FORMATO
  6
Continuous
 62
   179
100
AcDbLine
 10
2203.9772963821
 20
200.133175071
 30
0.0
 11
2483.2421949887
 21
200.133175071
 31
0.0
  0
LINE
  5
90
330
1F
100
AcDbEntity
  8
FORMATO
  6
Continuous
 62
   179
100
AcDbLine
 10
2483.2421949887
 20
157.743175071
 30
0.0
 11
2483.2421949887
 21
243.3925757256
 31
0.0
  0
LINE
  5
91
330
1F
100
AcDbEntity
  8
FORMATO
  6
Continuous
 62
   179
100
AcDbLine
 10
2970.7271949887
 20
221.328175071
 30
0.0
 11
2203.9772963821
 21
221.328175071
 31
0.0
  0
LINE
  5
92
330
1F
100
AcDbEntity
  8
FORMATO
  6
Continuous
 62
   179
100
AcDbLine
 10
2790.1815927866
 20
243.3925757256
 30
0.0
 11
2790.1815927866
 21
195.69170002
 31
0.0
  0
LINE
  5
93
330
1F
100
AcDbEntity
  8
FORMATO
  6
Continuous
 62
   179
100
AcDbLine
 10
2737.5821949887
 20
243.3925757256
 30
0.0
 11
2737.5821949887
 21
195.69170002
 31
0.0
  0
LINE
  5
94
330
1F
100
AcDbEntity
  8
FORMATO
  6
Continuous
 62
   179
100
AcDbLine
 10
2695.1921949887
 20
195.69170002
 30
0.0
 11
2970.7271949887
 21
195.69170002
 31
0.0
  0
LINE
  5
95
330
1F
100
AcDbEntity
  8
FORMATO
  6
Continuous
 62
   179
100
AcDbLine
 10
2859.5484597558
 20
153.504175071
 30
0.0
 11
2859.5484597558
 21
243.3925757256
 31
0.0
  0
LINE
  5
96
330
1F
100
AcDbEntity
  8
PREDETERMINADO
370
    15
100
AcDbLine
 10
2203.9772963821
 20
112.1211325827
 30
0.0
 11
2203.9772963821
 21
31.4425757256
 31
0.0
  0
LINE
  5
97
330
1F
100
AcDbEntity
  8
FORMATO
  6
Continuous
 62
   179
100
AcDbLine
 10
2822.3621949887
 20
98.1672308129
 30
0.0
 11
2970.7271949887
 21
98.1672308129
 31
0.0
  0
LINE
  5
98
330
1F
100
AcDbEntity
  8
FORMATO
  6
Continuous
 62
   179
100
AcDbLine
 10
2822.3621949887
 20
31.4425757256
 30
0.0
 11
2822.3621949887
 21
153.504175071
 31
0.0
  0
LINE
  5
99
330
1F
100
AcDbEntity
  8
FORMATO
  6
Continuous
 62
   179
370
    15
100
AcDbLine
 10
2199.7382963821
 20
157.743175071
 30
0.0
 11
2690.9531949887
 21
157.743175071
 31
0.0
  0
LINE
  5
9A
330
1F
100
AcDbEntity
  8
FORMATO
  6
Continuous
 62
   179
370
    15
100
AcDbLine
 10
2695.1921949887
 20
107.8821325827
 30
0.0
 11
2695.1921949887
 21
153.504175071
 31
0.0
  0
LINE
  5
9B
330
1F
100
AcDbEntity
  8
FORMATO
  6
Continuous
 62
   179
100
AcDbLine
 10
2553.8709655859
 20
107.8821325827
 30
0.0
 11
2553.8709655859
 21
31.4425757256
 31
0.0
  0
LINE
  5
9C
330
1F
100
AcDbEntity
  8
SLD-0
  6
Continuous
 62
   179
100
AcDbLine
 10
2952.9785811759
 20
72.3510114017
 30
0.0
 11
2960.9826068059
 21
72.3510114017
 31
0.0
  0
LINE
  5
9D
330
1F
100
AcDbEntity
  8
SLD-0
  6
Continuous
 62
   179
100
AcDbLine
 10
2947.6425640892
 20
46.4332141234
 30
0.0
 11
2955.8588133532
 21
46.4332141234
 31
0.0
  0
LINE
  5
9E
330
1F
100
AcDbEntity
  8
SLD-0
  6
Continuous
 62
   179
100
AcDbLine
 10
2931.2533687515
 20
72.3510114017
 30
0.0
 11
2940.0196825367
 21
72.3510114017
 31
0.0
  0
LINE
  5
9F
330
1F
100
AcDbEntity
  8
FORMATO
  6
Continuous
 62
   179
100
AcDbLine
 10
2486.920699385
 20
201.4999229841
 30
0.0
 11
2493.6120830306
 21
201.4999229841
 31
0.0
  0
LINE
  5
A0
330
1F
100
AcDbEntity
  8
FORMATO
  6
Continuous
 62
   179
100
AcDbLine
 10
2486.920699385
 20
184.5439229841
 30
0.0
 11
2493.6120830306
 21
184.5439229841
 31
0.0
  0
LINE
  5
A1
330
1F
100
AcDbEntity
  8
FORMATO
  6
Continuous
 62
   179
100
AcDbLine
 10
2486.920699385
 20
167.5879229841
 30
0.0
 11
2493.6120830306
 21
167.5879229841
 31
0.0
  0
LINE
  5
A2
330
1F
100
AcDbEntity
  8
FORMATO
  6
Continuous
 62
   179
100
AcDbLine
 10
2697.8545244405
 20
113.2202977958
 30
0.0
 11
2704.5459080861
 21
113.2202977958
 31
0.0
  0
LINE
  5
A3
330
1F
100
AcDbEntity
  8
FORMATO
  6
Continuous
 62
   179
100
AcDbLine
 10
2697.8545244405
 20
91.5575813893
 30
0.0
 11
2704.5459080861
 21
91.5575813893
 31
0.0
  0
LINE
  5
A4
330
1F
100
AcDbEntity
  8
FORMATO
  6
Continuous
 62
   179
100
AcDbLine
 10
2697.8545244405
 20
69.8948649828
 30
0.0
 11
2704.5459080861
 21
69.8948649828
 31
0.0
  0
LINE
  5
A5
330
1F
100
AcDbEntity
  8
FORMATO
  6
Continuous
 62
   179
100
AcDbLine
 10
2697.8545244405
 20
48.2321485762
 30
0.0
 11
2704.5459080861
 21
48.2321485762
 31
0.0
  0
LINE
  5
A6
330
1F
100
AcDbEntity
  8
PREDETERMINADO
100
AcDbLine
 10
2695.1921949887
 20
153.504175071
 30
0.0
 11
2971.0812543485
 21
153.504175071
 31
0.0
  0
LINE
  5
A7
330
1F
100
AcDbEntity
  8
FORMATO
  6
Continuous
 62
   179
370
    15
100
AcDbLine
 10
2203.9772963821
 20
243.3925757256
 30
0.0
 11
2970.7271949887
 21
243.3925757256
 31
0.0
  0
LINE
  5
A8
330
1F
100
AcDbEntity
  8
FORMATO
  6
Continuous
 62
   179
370
    15
100
AcDbLine
 10
2695.1921949887
 20
107.8821325827
 30
0.0
 11
2203.9772963821
 21
107.8821325827
 31
0.0
  0
LINE
  5
A9
330
1F
100
AcDbEntity
  8
PREDETERMINADO
  6
Continuous
 62
   179
100
AcDbLine
 10
2240.0499016412
 20
239.5441146497
 30
0.0
 11
2240.0499016412
 21
223.208154865
 31
0.0
  0
LINE
  5
AA
330
1F
100
AcDbEntity
  8
PREDETERMINADO
  6
Continuous
 62
   179
100
AcDbLine
 10
2223.654118628
 20
235.7963344734
 30
0.0
 11
2223.654118628
 21
226.9559350414
 31
0.0
  0
LINE
  5
AB
330
1F
100
AcDbEntity
  8
PREDETERMINADO
  6
CENTER
 62
   179
100
AcDbLine
 10
2260.147958238
 20
240.5904359241
 30
0.0
 11
2260.147958238
 21
221.9778707626
 31
0.0
  0
LINE
  5
AC
330
1F
100
AcDbEntity
  8
PREDETERMINADO
  6
Continuous
 62
   179
100
AcDbLine
 10
2240.0499016412
 20
239.5441146497
 30
0.0
 11
2223.654118628
 21
235.7963344734
 31
0.0
  0
LINE
  5
AD
330
1F
100
AcDbEntity
  8
PREDETERMINADO
  6
Continuous
 62
   179
100
AcDbLine
 10
2223.654118628
 20
226.9559350414
 30
0.0
 11
2240.0499016412
 21
223.208154865
 31
0.0
  0
LINE
  5
AE
330
1F
100
AcDbEntity
  8
PREDETERMINADO
  6
CENTER
 62
   179
100
AcDbLine
 10
2269.9764976233
 20
231.3761347574
 30
0.0
 11
2221.9631925887
 21
231.3761347574
 31
0.0
  0
LINE
  5
AF
330
1F
100
AcDbEntity
  8
PREDETERMINADO
370
    15
100
AcDbLine
 10
2203.9772963821
 20
31.4425757256
 30
0.0
 11
2970.7271949887
 21
31.4425757256
 31
0.0
  0
LINE
  5
B0
330
1F
100
AcDbEntity
  8
PREDETERMINADO
370
    15
100
AcDbLine
 10
2970.7271949887
 20
31.4425757256
 30
0.0
 11
2970.7271949887
 21
243.3925757256
 31
0.0
  0
LINE
  5
B1
330
1F
100
AcDbEntity
  8
PREDETERMINADO
370
    15
100
AcDbLine
 10
2690.9531949887
 20
153.504175071
 30
0.0
 11
2695.1921949887
 21
153.504175071
 31
0.0
  0
LINE
  5
B2
330
1F
100
AcDbEntity
  8
PREDETERMINADO
100
AcDbLine
 10
2695.1921949887
 20
153.504175071
 30
0.0
 11
2695.1921949887
 21
243.3925757256
 31
0.0
  0
LINE
  5
B3
330
1F
100
AcDbEntity
  8
PREDETERMINADO
100
AcDbLine
 10
2695.1921949887
 20
107.8821325827
 30
0.0
 11
2695.1921949887
 21
31.4425757256
 31
0.0
  0
LINE
  5
B4
330
1F
100
AcDbEntity
  8
PREDETERMINADO
370
    15
100
AcDbLine
 10
2199.7382963821
 20
157.743175071
 30
0.0
 11
2199.7382963821
 21
112.1211325827
 31
0.0
  0
LINE
  5
B5
330
1F
100
AcDbEntity
  8
PREDETERMINADO
370
    15
100
AcDbLine
 10
2199.7382963821
 20
112.1211325827
 30
0.0
 11
2690.9531949887
 21
112.1211325827
 31
0.0
  0
LINE
  5
B6
330
1F
100
AcDbEntity
  8
PREDETERMINADO
370
    15
100
AcDbLine
 10
2690.9531949887
 20
112.1211325827
 30
0.0
 11
2690.9531949887
 21
157.743175071
 31
0.0
  0
LINE
  5
B7
330
1F
100
AcDbEntity
  8
SLD-0
  6
Continuous
 62
   179
100
AcDbLine
 10
2925.5362075871
 20
43.9557776189
 30
0.0
 11
2930.8722246738
 21
43.9557776189
 31
0.0
  0
LINE
  5
B8
330
1F
100
AcDbEntity
  8
TEXTOS
100
AcDbLine
 10
20.2752616314
 20
271.0131637688
 30
0.0
 11
414.1539079938
 21
271.0131637688
 31
0.0
  0
LINE
  5
B9
330
1F
100
AcDbEntity
  8
TEXTOS
100
AcDbLine
 10
20.2752616314
 20
261.0131637688
 30
0.0
 11
414.1539079938
 21
261.0131637688
 31
0.0
  0
LINE
  5
BA
330
1F
100
AcDbEntity
  8
TEXTOS
100
AcDbLine
 10
20.2752616314
 20
15.5413915315
 30
0.0
 11
414.1539079938
 21
15.5413915315
 31
0.0
  0
LINE
  5
BB
330
1F
100
AcDbEntity
  8
TEXTOS
100
AcDbLine
 10
35.2752616314
 20
271.0131637688
 30
0.0
 11
35.2752616314
 21
261.0131637688
 31
0.0
  0
LINE
  5
BC
330
1F
100
AcDbEntity
  8
TEXTOS
100
AcDbLine
 10
399.1539079938
 20
5.5413915315
 30
0.0
 11
399.1539079938
 21
15.5413915315
 31
0.0
  0
LINE
  5
BD
330
1F
100
AcDbEntity
  8
TEXTOS
370
    15
100
AcDbLine
 10
414.1539079938
 20
5.5413915315
 30
0.0
 11
312.1539079938
 21
5.5413915315
 31
0.0
  0
LINE
  5
BE
330
1F
100
AcDbEntity
  8
TEXTOS
  6
Continuous
 62
   179
370
    15
100
AcDbLine
 10
414.1539079938
 20
5.5413915315
 30
0.0
 11
414.1539079938
 21
291.0131637688
 31
0.0
  0
LINE
  5
BF
330
1F
100
AcDbEntity
  8
TEXTOS
  6
Continuous
 62
   179
370
    15
100
AcDbLine
 10
414.1539079938
 20
291.0131637688
 30
0.0
 11
20.2752616314
 21
291.0131637688
 31
0.0
  0
LINE
  5
C0
330
1F
100
AcDbEntity
  8
TEXTOS
  6
Continuous
 62
     7
370
    15
100
AcDbLine
 10
20.2752616314
 20
291.0131637688
 30
0.0
 11
20.2752616314
 21
5.5413915315
 31
0.0
  0
LINE
  5
C1
330
1F
100
AcDbEntity
  8
TEXTOS
  6
Continuous
 62
     7
100
AcDbLine
 10
-0.0123065099
 20
140.7183915315
 30
0.0
 11
20.2752616314
 21
140.7183915315
 31
0.0
  0
LINE
  5
C2
330
1F
100
AcDbEntity
  8
TEXTOS
  6
Continuous
 62
   179
100
AcDbLine
 10
244.5621101288
 20
5.5413915315
 30
0.0
 11
244.5621101288
 21
2.7153915315
 31
0.0
  0
LINE
  5
C3
330
1F
100
AcDbEntity
  8
TEXTOS
  6
Continuous
 62
   179
370
    15
100
AcDbLine
 10
20.2752616314
 20
5.5413915315
 30
0.0
 11
414.1539079938
 21
5.5413915315
 31
0.0
  0
LINE
  5
C4
330
1F
100
AcDbEntity
  8
TEXTOS
370
    15
100
AcDbLine
 10
414.1539079938
 20
5.5413915315
 30
0.0
 11
414.1539079938
 21
43.0413915315
 31
0.0
  0
LINE
  5
C5
330
1F
100
AcDbEntity
  8
TEXTOS
370
    15
100
AcDbLine
 10
414.1539079938
 20
43.0413915315
 30
0.0
 11
312.1539079938
 21
43.0413915315
 31
0.0
  0
LINE
  5
C6
330
1F
100
AcDbEntity
  8
TEXTOS
370
    15
100
AcDbLine
 10
312.1539079938
 20
5.5413915315
 30
0.0
 11
312.1539079938
 21
43.0413915315
 31
0.0
  0
LINE
  5
C7
330
1F
100
AcDbEntity
  8
TEXTOS
100
AcDbLine
 10
399.1539079938
 20
261.0131637688
 30
0.0
 11
399.1539079938
 21
271.0131637688
 31
0.0
  0
LINE
  5
C8
330
1F
100
AcDbEntity
  8
TEXTOS
100
AcDbLine
 10
35.2752616314
 20
15.5413915315
 30
0.0
 11
35.2752616314
 21
5.5413915315
 31
0.0
  0
ARC
  5
C9
330
1F
100
AcDbEntity
  8
PREDETERMINADO
100
AcDbCircle
 10
2857.8799576089
 20
72.3510114017
 30
0.0
 40
73.37341114253053
100
AcDbArc
 50
337.2322750577
 51
0.0
  0
ARC
  5
CA
330
1F
100
AcDbEntity
  8
PREDETERMINADO
100
AcDbCircle
 10
2891.3741845048
 20
72.3510114017
 30
0.0
 40
48.64549803190766
100
AcDbArc
 50
324.2875534854
 51
0.0
  0
ARC
  5
CB
330
1F
100
AcDbEntity
  8
PREDETERMINADO
100
AcDbCircle
 10
2883.961931603
 20
72.3510114017
 30
0.0
 40
69.01664957284493
100
AcDbArc
 50
337.9429486592
 51
0.0
  0
ARC
  5
CC
330
1F
100
AcDbEntity
  8
PREDETERMINADO
100
AcDbCircle
 10
2892.8704276618
 20
72.3510114017
 30
0.0
 40
68.11217914413874
100
AcDbArc
 50
337.634330245
 51
0.0
  0
ARC
  5
CD
330
1F
100
AcDbEntity
  8
PREDETERMINADO
100
AcDbCircle
 10
2892.8704276618
 20
72.3510114017
 30
0.0
 40
68.11217914413874
100
AcDbArc
 50
337.634330245
 51
0.0
  0
ARC
  5
CE
330
1F
100
AcDbEntity
  8
PREDETERMINADO
100
AcDbCircle
 10
2883.961931603
 20
72.3510114017
 30
0.0
 40
69.01664957284493
100
AcDbArc
 50
337.9429486592
 51
0.0
  0
ARC
  5
CF
330
1F
100
AcDbEntity
  8
PREDETERMINADO
100
AcDbCircle
 10
2891.3741845048
 20
72.3510114017
 30
0.0
 40
48.64549803190766
100
AcDbArc
 50
324.2875534854
 51
0.0
  0
ARC
  5
D0
330
1F
100
AcDbEntity
  8
PREDETERMINADO
100
AcDbCircle
 10
2857.8799576089
 20
72.3510114017
 30
0.0
 40
73.37341114253053
100
AcDbArc
 50
337.2322750577
 51
0.0
  0
CIRCLE
  5
D1
330
1F
100
AcDbEntity
  8
PREDETERMINADO
  6
Continuous
 62
   179
100
AcDbCircle
 10
2260.147958238
 20
231.3761347574
 30
0.0
 40
8.16797989235628
  0
CIRCLE
  5
D2
330
1F
100
AcDbEntity
  8
PREDETERMINADO
  6
Continuous
 62
   179
100
AcDbCircle
 10
2260.1367338755
 20
231.3761347574
 30
0.0
 40
4.420199715998793
  0
ARC
  5
D3
330
1F
100
AcDbEntity
  8
SLD-0
  6
Continuous
 62
   179
100
AcDbCircle
 10
2883.961931603
 20
72.3510114017
 30
0.0
 40
69.01664957284493
100
AcDbArc
 50
337.9429486592
 51
0.0
  0
ARC
  5
D4
330
1F
100
AcDbEntity
  8
SLD-0
  6
Continuous
 62
   179
100
AcDbCircle
 10
2892.8704276618
 20
72.3510114017
 30
0.0
 40
68.11217914413874
100
AcDbArc
 50
337.634330245
 51
0.0
  0
ARC
  5
D5
330
1F
100
AcDbEntity
  8
SLD-0
  6
Continuous
 62
   179
100
AcDbCircle
 10
2891.3741845048
 20
72.3510114017
 30
0.0
 40
48.64549803190766
100
AcDbArc
 50
324.2875534854
 51
0.0
  0
ARC
  5
D6
330
1F
100
AcDbEntity
  8
SLD-0
  6
Continuous
 62
   179
100
AcDbCircle
 10
2857.8799576089
 20
72.3510114017
 30
0.0
 40
73.37341114253053
100
AcDbArc
 50
337.2322750577
 51
0.0
  0
HATCH
  5
D7
330
1F
100
AcDbEntity
  8
0
  6
Continuous
 62
   179
100
AcDbHatch
 10
0.0
 20
0.0
 30
0.0
210
0.0
220
0.0
230
1.0
  2
ANSI31
 70
     0
 71
     0
 91
        1
 92
        0
 93
        4
 72
     1
 10
2925.536207587097
 20
43.95577761887248
 11
2930.872224673804
 21
43.95577761887248
 72
     2
 10
2891.374184504824
 20
72.3510114017084
 40
48.64549803190743
 50
324.2875534853725
 51
360.0000000000008
 73
     1
 72
     1
 10
2940.019682536732
 20
72.3510114017084
 11
2931.253368751454
 21
72.3510114017084
 72
     2
 10
2857.879957608925
 20
72.3510114017084
 40
73.37341114252966
 50
0.0
 51
22.76772494225683
 73
     0
 97
        0
 75
     0
 76
     1
 52
90.0
 41
0.03125
 77
     0
 78
     1
 53
135.0000000000002
 43
0.0
 44
0.0
 45
-0.0701582509458525
 46
-0.070158250945853
 79
     0
 98
        1
 10
0.0
 20
0.0
  0
HATCH
  5
D8
330
1F
100
AcDbEntity
  8
0
  6
Continuous
 62
   179
100
AcDbHatch
 10
0.0
 20
0.0
 30
0.0
210
0.0
220
0.0
230
1.0
  2
ANSI31
 70
     0
 71
     0
 91
        1
 92
        0
 93
        4
 72
     1
 10
2947.927279272705
 20
46.43321412341616
 11
2955.858813353165
 21
46.43321412341616
 72
     2
 10
2892.870427661797
 20
72.3510114017084
 40
68.11217914413834
 50
337.6343302449529
 51
360.0000000000008
 73
     1
 72
     1
 10
2960.982606805936
 20
72.3510114017084
 11
2952.978581175877
 21
72.3510114017084
 72
     2
 10
2883.961931603032
 20
72.3510114017084
 40
69.01664957284461
 50
0.0
 51
22.05705134075574
 73
     0
 97
        0
 75
     0
 76
     1
 52
90.0
 41
0.03125
 77
     0
 78
     1
 53
135.0000000000002
 43
0.0
 44
0.0
 45
-0.0701582509458525
 46
-0.070158250945853
 79
     0
 98
        1
 10
0.0
 20
0.0
  0
HATCH
  5
D9
330
1F
100
AcDbEntity
  8
0
  6
Continuous
 62
   179
100
AcDbHatch
 10
0.0
 20
0.0
 30
0.0
210
0.0
220
0.0
230
1.0
  2
ANSI31
 70
     0
 71
     0
 91
        1
 92
        0
 93
        6
 72
     1
 10
2695.19219498866
 20
107.8821325827141
 11
2695.19219498866
 21
153.5041750710496
 72
     1
 10
2695.19219498866
 20
153.5041750710496
 11
2690.953194988658
 21
153.5041750710496
 72
     1
 10
2690.953194988658
 20
153.5041750710496
 11
2690.953194988658
 21
112.1211325827137
 72
     1
 10
2690.953194988658
 20
112.1211325827137
 11
2203.977296382092
 21
112.1211325827137
 72
     1
 10
2203.977296382092
 20
112.1211325827137
 11
2203.977296382092
 21
107.8821325827141
 72
     1
 10
2203.977296382092
 20
107.8821325827141
 11
2695.19219498866
 21
107.8821325827141
 97
        0
 75
     0
 76
     1
 52
0.0
 41
0.0625
 77
     0
 78
     1
 53
45.0
 43
0.0
 44
0.0
 45
-0.1403165018917055
 46
0.1403165018917055
 79
     0
 98
        1
 10
0.0
 20
0.0
  0
MTEXT
  5
DB
330
1F
100
AcDbEntity
  8
CAJETIN
100
AcDbMText
 10
2456.5365131866
 20
141.7663223238
 30
0.0
 40
12.7
 41
0.0
 71
     2
 72
     1
  1
G-112GA    -   MI-SERIES
  7
SLDTEXTSTYLE0
 73
     1
 44
1.0
  0
MTEXT
  5
DD
330
1F
100
AcDbEntity
  8
CAJETIN
100
AcDbMText
 10
2703.9522201973
 20
214.1681158001
 30
0.0
 40
9.525
 41
0.0
 71
     1
 72
     1
  1
mm
  7
SLDTEXTSTYLE1
 73
     1
 44
1.0
  0
MTEXT
  5
DE
330
1F
100
AcDbEntity
  8
CAJETIN
100
AcDbMText
 10
2410.4652697643
 20
174.6457193588
 30
0.0
 40
9.525
 41
0.0
 71
     1
 72
     1
  1
26/02/2019
  7
SLDTEXTSTYLE1
 73
     1
 44
1.0
  0
MTEXT
  5
DF
330
1F
100
AcDbEntity
  8
CAJETIN
100
AcDbMText
 10
2410.4652697643
 20
195.9219334535
 30
0.0
 40
9.525
 41
0.0
 71
     1
 72
     1
  1
26/02/2019
  7
SLDTEXTSTYLE1
 73
     1
 44
1.0
  0
MTEXT
  5
E0
330
1F
100
AcDbEntity
  8
CAJETIN
100
AcDbMText
 10
2331.4940038675
 20
174.6457193588
 30
0.0
 40
9.525
 41
0.0
 71
     1
 72
     1
  1
J. Serrano
  7
SLDTEXTSTYLE1
 73
     1
 44
1.0
  0
MTEXT
  5
E1
330
1F
100
AcDbEntity
  8
CAJETIN
100
AcDbMText
 10
2331.4940038675
 20
195.9219334535
 30
0.0
 40
9.525
 41
0.0
 71
     1
 72
     1
  1
R. Climent
  7
SLDTEXTSTYLE1
 73
     1
 44
1.0
  0
MTEXT
  5
E2
330
1F
100
AcDbEntity
  8
CAJETIN
100
AcDbMText
 10
2410.4652697643
 20
216.7733626674
 30
0.0
 40
9.525
 41
0.0
 71
     1
 72
     1
  1
26/02/2019
  7
SLDTEXTSTYLE1
 73
     1
 44
1.0
  0
MTEXT
  5
E3
330
1F
100
AcDbEntity
  8
CAJETIN
100
AcDbMText
 10
2721.7949564189
 20
148.4169300171
 30
0.0
 40
9.525
 41
0.0
 71
     1
 72
     1
  1
MATERIAL
  7
SLDTEXTSTYLE1
 73
     1
 44
1.0
  0
MTEXT
  5
E4
330
1F
100
AcDbEntity
  8
CAJETIN
100
AcDbMText
 10
2439.6271497009
 20
103.0646482624
 30
0.0
 40
9.525
 41
0.0
 71
     1
 72
     1
  1
SIGNED
  7
SLDTEXTSTYLE1
 73
     1
 44
1.0
  0
MTEXT
  5
E5
330
1F
100
AcDbEntity
  8
CAJETIN
100
AcDbMText
 10
2707.3525917461
 20
190.7020875463
 30
0.0
 40
9.525
 41
0.0
 71
     1
 72
     1
  1
DRAWING NUMBER
  7
SLDTEXTSTYLE1
 73
     1
 44
1.0
  0
MTEXT
  5
E6
330
1F
100
AcDbEntity
  8
CAJETIN
100
AcDbMText
 10
2892.569784091
 20
239.834255866
 30
0.0
 40
9.525
 41
0.0
 71
     1
 72
     1
  1
SCALE
  7
SLDTEXTSTYLE1
 73
     1
 44
1.0
  0
MTEXT
  5
E7
330
1F
100
AcDbEntity
  8
CAJETIN
100
AcDbMText
 10
2805.2864265236
 20
238.8780064427
 30
0.0
 40
9.525
 41
0.0
 71
     1
 72
     1
  1
DATE
  7
SLDTEXTSTYLE1
 73
     1
 44
1.0
  0
MTEXT
  5
E8
330
1F
100
AcDbEntity
  8
CAJETIN
100
AcDbMText
 10
2741.9836294858
 20
238.8780064427
 30
0.0
 40
9.525
 41
0.0
 71
     1
 72
     1
  1
LEVEL
  7
SLDTEXTSTYLE1
 73
     1
 44
1.0
  0
MTEXT
  5
E9
330
1F
100
AcDbEntity
  8
CAJETIN
100
AcDbMText
 10
2698.3915954349
 20
238.8780064427
 30
0.0
 40
9.525
 41
0.0
 71
     1
 72
     1
  1
UNIT
  7
SLDTEXTSTYLE1
 73
     1
 44
1.0
  0
MTEXT
  5
EA
330
1F
100
AcDbEntity
  8
CAJETIN
100
AcDbMText
 10
2554.1683088021
 20
239.834255866
 30
0.0
 40
9.525
 41
0.0
 71
     1
 72
     1
  1
NOTES
  7
SLDTEXTSTYLE1
 73
     1
 44
1.0
  0
MTEXT
  5
EB
330
1F
100
AcDbEntity
  8
CAJETIN
100
AcDbMText
 10
2564.9618387179
 20
103.0646482624
 30
0.0
 40
9.525
 41
0.0
 71
     1
 72
     1
  1
PART NUMBER
  7
SLDTEXTSTYLE1
 73
     1
 44
1.0
  0
MTEXT
  5
EC
330
1F
100
AcDbEntity
  8
CAJETIN
100
AcDbMText
 10
2209.079242215
 20
102.6106028292
 30
0.0
 40
9.525
 41
0.0
 71
     1
 72
     1
  1
MODEL CODE:
  7
SLDTEXTSTYLE1
 73
     1
 44
1.0
  0
MTEXT
  5
ED
330
1F
100
AcDbEntity
  8
CAJETIN
100
AcDbMText
 10
2203.5934773245
 20
152.8820514579
 30
0.0
 40
9.525
 41
0.0
 71
     1
 72
     1
  1
TITLE:
  7
SLDTEXTSTYLE1
 73
     1
 44
1.0
  0
MTEXT
  5
EE
330
1F
100
AcDbEntity
  8
CAJETIN
100
AcDbMText
 10
2209.079242215
 20
196.9938413502
 30
0.0
 40
9.525
 41
0.0
 71
     1
 72
     1
  1
DRAWN BY
  7
SLDTEXTSTYLE1
 73
     1
 44
1.0
  0
MTEXT
  5
EF
330
1F
100
AcDbEntity
  8
CAJETIN
100
AcDbMText
 10
2209.079242215
 20
175.7500466015
 30
0.0
 40
9.525
 41
0.0
 71
     1
 72
     1
  1
REVISED BY
  7
SLDTEXTSTYLE1
 73
     1
 44
1.0
  0
MTEXT
  5
F0
330
1F
100
AcDbEntity
  8
CAJETIN
100
AcDbMText
 10
2209.079242215
 20
216.9985653393
 30
0.0
 40
9.525
 41
0.0
 71
     1
 72
     1
  1
DESIGNED BY
  7
SLDTEXTSTYLE1
 73
     1
 44
1.0
  0
MTEXT
  5
F1
330
1F
100
AcDbEntity
  8
CAJETIN
100
AcDbMText
 10
2428.3086633963
 20
239.834255866
 30
0.0
 40
9.525
 41
0.0
 71
     1
 72
     1
  1
DATE
  7
SLDTEXTSTYLE1
 73
     1
 44
1.0
  0
MTEXT
  5
F2
330
1F
100
AcDbEntity
  8
CAJETIN
100
AcDbMText
 10
2268.8897492467
 20
238.9639300158
 30
0.0
 40
9.525
 41
0.0
 71
     1
 72
     1
  1
CAD
  7
SLDTEXTSTYLE1
 73
     1
 44
1.0
  0
MTEXT
  5
F3
330
1F
100
AcDbEntity
  8
CAJETIN
100
AcDbMText
 10
2887.0150989547
 20
190.7020875463
 30
0.0
 40
9.525
 41
0.0
 71
     1
 72
     1
  1
WEIGHT
  7
SLDTEXTSTYLE1
 73
     1
 44
1.0
  0
MTEXT
  5
F4
330
1F
100
AcDbEntity
  8
CAJETIN
100
AcDbMText
 10
2343.0981316497
 20
239.834255866
 30
0.0
 40
9.525
 41
0.0
 71
     1
 72
     1
  1
NAME
  7
SLDTEXTSTYLE1
 73
     1
 44
1.0
  0
MTEXT
  5
F5
330
1F
100
AcDbEntity
  8
CAJETIN
100
AcDbMText
 10
2915.105371656
 20
215.0841775366
 30
0.0
 40
9.525
 41
0.0
 71
     2
 72
     1
  1
1:1
  7
SLDTEXTSTYLE1
 73
     1
 44
1.0
  0
MTEXT
  5
F6
330
1F
100
AcDbEntity
  8
CAJETIN
100
AcDbMText
 10
2742.2847561043
 20
172.5168349215
 30
0.0
 40
9.525
 41
0.0
 71
     1
 72
     1
  1
G-112GA
  7
SLDTEXTSTYLE1
 73
     1
 44
1.0
  0
MTEXT
  5
F7
330
1F
100
AcDbEntity
  8
CAJETIN
100
AcDbMText
 10
2759.1225326484
 20
214.1681158001
 30
0.0
 40
9.525
 41
0.0
 71
     1
 72
     1
  1
01
  7
SLDTEXTSTYLE1
 73
     1
 44
1.0
  0
MTEXT
  5
F9
330
1F
100
AcDbEntity
  8
PREDETERMINADO
100
AcDbMText
 10
2836.0269441467
 20
75.7697344601
 30
0.0
 40
19.05
 41
0.0
 71
     1
 72
     1
  1
beyma
  7
SLDTEXTSTYLE2
 73
     1
 44
1.0
  0
MTEXT
  5
FA
330
1F
100
AcDbEntity
  8
CAJETIN
100
AcDbMText
 10
2330.1190050391
 20
216.7733626674
 30
0.0
 40
9.525
 41
0.0
 71
     1
 72
     1
  1
R&D Dep.
  7
SLDTEXTSTYLE1
 73
     1
 44
1.0
  0
MTEXT
  5
FB
330
1F
100
AcDbEntity
  8
CAJETIN
100
AcDbMText
 10
2925.6182105162
 20
172.5168349215
 30
0.0
 40
9.525
 41
0.0
 71
     1
 72
     1
  1
g.
  7
SLDTEXTSTYLE1
 73
     1
 44
1.0
  0
INSERT
  5
101
330
1F
100
AcDbEntity
  8
CAJETIN
100
AcDbBlockReference
  2
SW_NOTE_0
 10
2714.859558636
 20
116.3446023913
 30
0.0
  0
INSERT
  5
107
330
1F
100
AcDbEntity
  8
SLD-0_0
100
AcDbBlockReference
  2
SW_NOTE_1
 10
1403.165256832
 20
748.0919568921
 30
0.0
  0
INSERT
  5
10D
330
1F
100
AcDbEntity
  8
SLD-0_0
100
AcDbBlockReference
  2
SW_NOTE_2
 10
2215.5879220896
 20
1254.3513293537
 30
0.0
  0
INSERT
  5
113
330
1F
100
AcDbEntity
  8
SLD-0_0
100
AcDbBlockReference
  2
SW_NOTE_3
 10
1407.5237304299
 20
1254.3513293537
 30
0.0
  0
INSERT
  5
119
330
1F
100
AcDbEntity
  8
SLD-0_0
100
AcDbBlockReference
  2
SW_NOTE_4
 10
1408.7412493938
 20
1834.4869978431
 30
0.0
  0
INSERT
  5
139
330
1F
100
AcDbEntity
  8
SLD-0_0
100
AcDbBlockReference
  2
SW_TABLEANNOTATION_0
 10
283.0036958454
 20
397.8010388746
 30
0.0
  0
LINE
  5
13A
330
1F
100
AcDbEntity
  8
0
  6
Continuous
 62
     7
100
AcDbLine
 10
238.633792635
 20
1098.8153632565
 30
0.0
 11
238.633792635
 21
731.1198370286
 31
0.0
  0
LINE
  5
13B
330
1F
100
AcDbEntity
  8
0
  6
Continuous
 62
     7
100
AcDbLine
 10
1081.9297699457
 20
721.8265991323
 30
0.0
 11
1081.9297699457
 21
1089.5221253603
 31
0.0
  0
ARC
  5
13C
330
1F
100
AcDbEntity
  8
0
  6
Continuous
 62
     7
100
AcDbCircle
 10
838.7055445538
 20
652.0637389405
 30
0.0
 40
10.0
100
AcDbArc
 50
262.8192442221
 51
311.40962211
  0
LINE
  5
13D
330
1F
100
AcDbEntity
  8
0
  6
Continuous
 62
     7
100
AcDbLine
 10
431.8555763572
 20
693.2429642425
 30
0.0
 11
590.7315945362
 21
673.2264674242
 31
0.0
  0
LINE
  5
13E
330
1F
100
AcDbEntity
  8
0
  6
Continuous
 62
     7
100
AcDbLine
 10
740.4701003941
 20
654.3611889484
 30
0.0
 11
837.4555445544
 21
642.1421715239
 31
0.0
  0
LINE
  5
13F
330
1F
100
AcDbEntity
  8
0
  6
Continuous
 62
     7
100
AcDbLine
 10
845.3199228316
 20
644.5637389406
 30
0.0
 11
939.0115713173
 21
727.1920062149
 31
0.0
  0
LINE
  5
140
330
1F
100
AcDbEntity
  8
0
  6
Continuous
 62
     7
100
AcDbLine
 10
942.3971930395
 20
734.6920062148
 30
0.0
 11
942.3971930395
 21
739.4060514229
 31
0.0
  0
ARC
  5
141
330
1F
100
AcDbEntity
  8
0
  6
Continuous
 62
     7
100
AcDbCircle
 10
932.3971930395
 20
734.6920062148
 30
0.0
 40
10.00000000000009
100
AcDbArc
 50
311.40962211
 51
0.0
  0
ARC
  5
142
330
1F
100
AcDbEntity
  8
0
  6
Continuous
 62
     7
100
AcDbCircle
 10
370.9983711917
 20
1088.1129206559
 30
0.0
 40
10.0
100
AcDbArc
 50
131.40962211
 51
180.0
  0
LINE
  5
143
330
1F
100
AcDbEntity
  8
0
  6
Continuous
 62
     7
100
AcDbLine
 10
360.9983711917
 20
1088.1129206559
 30
0.0
 11
360.9983711917
 21
1083.3988754478
 31
0.0
  0
LINE
  5
144
330
1F
100
AcDbEntity
  8
0
  6
Continuous
 62
     7
100
AcDbLine
 10
458.0756413997
 20
1178.2411879301
 30
0.0
 11
364.383992914
 21
1095.6129206558
 31
0.0
  0
ARC
  5
145
330
1F
100
AcDbEntity
  8
0
  6
Continuous
 62
     7
100
AcDbCircle
 10
932.3971930395
 20
1111.8156228589
 30
0.0
 40
10.0
100
AcDbArc
 50
0.0
 51
82.8192442221
  0
LINE
  5
146
330
1F
100
AcDbEntity
  8
0
  6
Continuous
 62
     7
100
AcDbLine
 10
942.3971930395
 20
1107.1015776508
 30
0.0
 11
942.3971930395
 21
1111.8156228589
 31
0.0
  0
LINE
  5
147
330
1F
100
AcDbEntity
  8
0
  6
Continuous
 62
     7
100
AcDbLine
 10
933.6471930389
 20
1121.7371902754
 30
0.0
 11
465.9400196768
 21
1180.6627553468
 31
0.0
  0
ARC
  5
148
330
1F
100
AcDbEntity
  8
0
  6
Continuous
 62
     7
100
AcDbCircle
 10
464.6900196775
 20
1170.7411879302
 30
0.0
 40
10.00000000000007
100
AcDbArc
 50
82.8192442221
 51
131.40962211
  0
LINE
  5
149
330
1F
100
AcDbEntity
  8
0
  6
Continuous
 62
     7
100
AcDbLine
 10
350.5380467595
 20
1183.9724227018
 30
0.0
 11
249.7753304635
 21
1095.1080597841
 31
0.0
  0
LINE
  5
14A
330
1F
100
AcDbEntity
  8
0
  6
Continuous
 62
     7
100
AcDbLine
 10
249.7753304635
 20
1095.1080597841
 30
0.0
 11
245.0982587299
 21
1095.6973154349
 31
0.0
  0
LWPOLYLINE
  5
14B
330
1F
100
AcDbEntity
  8
0
  6
Continuous
 62
     7
100
AcDbPolyline
 90
        9
 70
   128
 43
0.0
 10
239.2796491677
 20
1099.993874558
 10
238.7696379635
 20
1099.3629288402
 10
238.6387006914
 20
1098.7109404841
 10
238.8918691973
 20
1098.0629650366
 10
239.5194143577
 20
1097.4439038307
 10
240.4972199638
 20
1096.8775470414
 10
241.7877094947
 20
1096.3856594426
 10
243.3412901613
 20
1095.9871439987
 10
245.0982587299
 20
1095.6973154349
  0
LINE
  5
14C
330
1F
100
AcDbEntity
  8
0
  6
Continuous
 62
     7
100
AcDbLine
 10
332.9712976535
 20
1182.6221418323
 30
0.0
 11
239.2796491677
 21
1099.993874558
 31
0.0
  0
LWPOLYLINE
  5
14D
330
1F
100
AcDbEntity
  8
0
  6
Continuous
 62
     7
100
AcDbPolyline
 90
        9
 70
   128
 43
0.0
 10
345.8609750258
 20
1184.5616783525
 10
343.968137872
 20
1184.7316820872
 10
342.0121728033
 20
1184.7753278446
 10
340.0682464603
 20
1184.6909383426
 10
338.2110628423
 20
1184.4817566225
 10
336.5119924741
 20
1184.1558214206
 10
335.0363296772
 20
1183.7256582437
 10
333.8407833453
 20
1183.2077980217
 10
332.9712976535
 20
1182.6221418323
  0
LINE
  5
14E
330
1F
100
AcDbEntity
  8
0
  6
Continuous
 62
     7
100
AcDbLine
 10
350.5380467595
 20
1183.9724227018
 30
0.0
 11
345.8609750258
 21
1184.5616783525
 31
0.0
  0
LINE
  5
14F
330
1F
100
AcDbEntity
  8
0
  6
Continuous
 62
     7
100
AcDbLine
 10
249.7753304635
 20
1095.1080597841
 30
0.0
 11
249.7753304635
 21
727.4125335562
 31
0.0
  0
LINE
  5
150
330
1F
100
AcDbEntity
  8
0
  6
Continuous
 62
     7
100
AcDbLine
 10
249.7753304635
 20
727.4125335562
 30
0.0
 11
245.0982587299
 21
728.0017892069
 31
0.0
  0
LINE
  5
151
330
1F
100
AcDbEntity
  8
0
  6
Continuous
 62
     7
100
AcDbLine
 10
350.5380467595
 20
991.6786582187
 30
0.0
 11
350.5380467595
 21
1183.9724227018
 31
0.0
  0
LINE
  5
152
330
1F
100
AcDbEntity
  8
0
  6
Continuous
 62
     7
100
AcDbLine
 10
249.7753304635
 20
727.4125335562
 30
0.0
 11
276.8137696416
 21
751.258195525
 31
0.0
  0
LWPOLYLINE
  5
153
330
1F
100
AcDbEntity
  8
0
  6
Continuous
 62
     7
100
AcDbPolyline
 90
        8
 70
   128
 43
0.0
 10
245.0982587299
 20
728.0017892069
 10
243.3412901613
 20
728.2916177708
 10
241.7877094947
 20
728.6901332147
 10
240.4972199638
 20
729.1820208135
 10
239.5194143577
 20
729.7483776028
 10
238.8918691973
 20
730.3674388086
 10
238.6387006914
 20
731.0154142561
 10
238.633792635
 20
731.1198370286
  0
LINE
  5
154
330
1F
100
AcDbEntity
  8
0
  6
Continuous
 62
     7
100
AcDbLine
 10
1070.7882321172
 20
1093.2294288327
 30
0.0
 11
970.0255158213
 21
1004.365065915
 31
0.0
  0
LINE
  5
155
330
1F
100
AcDbEntity
  8
0
  6
Continuous
 62
     7
100
AcDbLine
 10
1075.4653038508
 20
1092.6401731819
 30
0.0
 11
1070.7882321172
 21
1093.2294288327
 31
0.0
  0
LWPOLYLINE
  5
156
330
1F
100
AcDbEntity
  8
0
  6
Continuous
 62
     7
100
AcDbPolyline
 90
        9
 70
   128
 43
0.0
 10
1081.283913413
 20
1088.3436140588
 10
1081.7939246172
 20
1088.9745597766
 10
1081.9248618893
 20
1089.6265481327
 10
1081.6716933834
 20
1090.2745235802
 10
1081.044148223
 20
1090.8935847861
 10
1080.0663426169
 20
1091.4599415753
 10
1078.775853086
 20
1091.9518291742
 10
1077.2222724194
 20
1092.3503446181
 10
1075.4653038508
 20
1092.6401731819
  0
LINE
  5
157
330
1F
100
AcDbEntity
  8
0
  6
Continuous
 62
     7
100
AcDbLine
 10
1081.283913413
 20
1088.3436140588
 30
0.0
 11
987.5922649272
 21
1005.7153467845
 31
0.0
  0
LWPOLYLINE
  5
158
330
1F
100
AcDbEntity
  8
0
  6
Continuous
 62
     7
100
AcDbPolyline
 90
        9
 70
   128
 43
0.0
 10
974.7025875549
 20
1003.7758102643
 10
976.5954247087
 20
1003.6058065296
 10
978.5513897774
 20
1003.5621607722
 10
980.4953161204
 20
1003.6465502742
 10
982.3524997385
 20
1003.8557319943
 10
984.0515701066
 20
1004.1816671962
 10
985.5272329035
 20
1004.6118303731
 10
986.7227792354
 20
1005.1296905951
 10
987.5922649272
 20
1005.7153467845
  0
LINE
  5
159
330
1F
100
AcDbEntity
  8
0
  6
Continuous
 62
     7
100
AcDbLine
 10
974.7025875549
 20
1003.7758102643
 30
0.0
 11
970.0255158213
 21
1004.365065915
 31
0.0
  0
LWPOLYLINE
  5
15A
330
1F
100
AcDbEntity
  8
0
  6
Continuous
 62
     7
100
AcDbPolyline
 90
        9
 70
   128
 43
0.0
 10
987.5922649272
 20
638.0198205566
 10
986.7227792354
 20
637.4341643672
 10
985.5272329035
 20
636.9163041451
 10
984.0515701066
 20
636.4861409683
 10
982.3524997385
 20
636.1602057663
 10
980.4953161204
 20
635.9510240462
 10
978.5513897774
 20
635.8666345443
 10
976.5954247087
 20
635.9102803016
 10
974.7025875549
 20
636.0802840364
  0
LINE
  5
15B
330
1F
100
AcDbEntity
  8
0
  6
Continuous
 62
     7
100
AcDbLine
 10
970.0255158213
 20
1004.365065915
 30
0.0
 11
970.0255158213
 21
636.6695396871
 31
0.0
  0
LINE
  5
15C
330
1F
100
AcDbEntity
  8
0
  6
Continuous
 62
     7
100
AcDbLine
 10
974.7025875549
 20
636.0802840364
 30
0.0
 11
970.0255158213
 21
636.6695396871
 31
0.0
  0
LINE
  5
15D
330
1F
100
AcDbEntity
  8
0
  6
Continuous
 62
     7
100
AcDbLine
 10
987.5922649272
 20
638.0198205566
 30
0.0
 11
1081.283913413
 21
720.6480878309
 31
0.0
  0
LWPOLYLINE
  5
15E
330
1F
100
AcDbEntity
  8
0
  6
Continuous
 62
     7
100
AcDbPolyline
 90
        3
 70
   128
 43
0.0
 10
1081.9297699457
 20
721.8265991323
 10
1081.7939246172
 20
721.2790335487
 10
1081.283913413
 20
720.6480878309
  0
LWPOLYLINE
  5
15F
330
1F
100
AcDbEntity
  8
0
  6
Continuous
 62
     7
100
AcDbPolyline
 90
        9
 70
   128
 43
0.0
 10
835.1700106487
 20
653.6597363269
 10
837.0628478025
 20
653.4897325922
 10
839.0188128712
 20
653.4460868348
 10
840.9627392142
 20
653.5304763368
 10
842.8199228323
 20
653.7396580568
 10
844.5189932004
 20
654.0655932588
 10
845.9946559973
 20
654.4957564357
 10
847.1902023292
 20
655.0136166577
 10
848.059688021
 20
655.5992728471
  0
LINE
  5
160
330
1F
100
AcDbEntity
  8
0
  6
Continuous
 62
     7
100
AcDbLine
 10
419.1355276318
 20
706.075154343
 30
0.0
 11
603.1749123476
 21
682.8883713356
 31
0.0
  0
LINE
  5
161
330
1F
100
AcDbEntity
  8
0
  6
Continuous
 62
     7
100
AcDbLine
 10
740.4701003941
 20
665.5908035454
 30
0.0
 11
835.1700106487
 21
653.6597363269
 31
0.0
  0
LINE
  5
162
330
1F
100
AcDbEntity
  8
0
  6
Continuous
 62
     7
100
AcDbLine
 10
455.3358762102
 20
799.5101277956
 30
0.0
 11
393.7740756571
 21
745.2177229527
 31
0.0
  0
LWPOLYLINE
  5
163
330
1F
100
AcDbEntity
  8
0
  6
Continuous
 62
     7
100
AcDbPolyline
 90
        9
 70
   128
 43
0.0
 10
468.2255535826
 20
801.4496643159
 10
466.3327164288
 20
801.6196680506
 10
464.37675136
 20
801.6633138079
 10
462.432825017
 20
801.578924306
 10
460.575641399
 20
801.3697425859
 10
458.8765710308
 20
801.0438073839
 10
457.400908234
 20
800.6136442071
 10
456.2053619021
 20
800.095783985
 10
455.3358762102
 20
799.5101277956
  0
LINE
  5
164
330
1F
100
AcDbEntity
  8
0
  6
Continuous
 62
     7
100
AcDbLine
 10
935.9327269447
 20
742.5240992445
 30
0.0
 11
740.4701003941
 21
767.1500754446
 31
0.0
  0
LINE
  5
165
330
1F
100
AcDbEntity
  8
0
  6
Continuous
 62
     7
100
AcDbLine
 10
635.7612084254
 20
780.3421558288
 30
0.0
 11
468.2255535826
 21
801.4496643159
 31
0.0
  0
LWPOLYLINE
  5
166
330
1F
100
AcDbEntity
  8
0
  6
Continuous
 62
     7
100
AcDbPolyline
 90
        9
 70
   128
 43
0.0
 10
941.7513365068
 20
738.2275401214
 10
942.261347711
 20
738.8584858392
 10
942.3922849831
 20
739.5104741953
 10
942.1391164772
 20
740.1584496428
 10
941.5115713168
 20
740.7775108487
 10
940.5337657107
 20
741.3438676379
 10
939.2432761798
 20
741.8357552368
 10
937.6896955132
 20
742.2342706807
 10
935.9327269447
 20
742.5240992445
  0
LINE
  5
167
330
1F
100
AcDbEntity
  8
0
  6
Continuous
 62
     7
100
AcDbLine
 10
848.059688021
 20
655.5992728471
 30
0.0
 11
941.7513365068
 21
738.2275401214
 31
0.0
  0
LWPOLYLINE
  5
168
330
1F
100
AcDbEntity
  8
0
  6
Continuous
 62
     7
100
AcDbPolyline
 90
        9
 70
   128
 43
0.0
 10
848.059688021
 20
1023.2947990751
 10
847.1902023292
 20
1022.7091428857
 10
845.9946559973
 20
1022.1912826636
 10
844.5189932004
 20
1021.7611194868
 10
842.8199228323
 20
1021.4351842848
 10
840.9627392142
 20
1021.2260025647
 10
839.0188128712
 20
1021.1416130627
 10
837.0628478025
 20
1021.1852588201
 10
835.1700106487
 20
1021.3552625548
  0
LINE
  5
169
330
1F
100
AcDbEntity
  8
0
  6
Continuous
 62
     7
100
AcDbLine
 10
367.4628372866
 20
1080.2808276262
 30
0.0
 11
835.1700106487
 21
1021.3552625548
 31
0.0
  0
LINE
  5
16A
330
1F
100
AcDbEntity
  8
0
  6
Continuous
 62
     7
100
AcDbLine
 10
848.059688021
 20
1023.2947990751
 30
0.0
 11
941.7513365068
 21
1105.9230663494
 31
0.0
  0
LWPOLYLINE
  5
16B
330
1F
100
AcDbEntity
  8
0
  6
Continuous
 62
     7
100
AcDbPolyline
 90
        8
 70
   128
 43
0.0
 10
367.4628372866
 20
1080.2808276262
 10
365.705868718
 20
1080.57065619
 10
364.1522880514
 20
1080.9691716339
 10
362.8617985206
 20
1081.4610592328
 10
361.8839929144
 20
1082.027416022
 10
361.2564477541
 20
1082.6464772279
 10
361.0032792481
 20
1083.2944526754
 10
360.9983711917
 20
1083.3988754478
  0
LWPOLYLINE
  5
16C
330
1F
100
AcDbEntity
  8
0
  6
Continuous
 62
     7
100
AcDbPolyline
 90
        3
 70
   128
 43
0.0
 10
942.3971930395
 20
1107.1015776508
 10
942.261347711
 20
1106.5540120672
 10
941.7513365068
 20
1105.9230663494
  0
LINE
  5
16D
330
1F
100
AcDbEntity
  8
0
  6
Continuous
 62
     7
100
AcDbLine
 10
986.4822777981
 20
1159.5141841628
 30
0.0
 11
528.1292479032
 21
1217.2612379327
 31
0.0
  0
LINE
  5
16E
330
1F
100
AcDbEntity
  8
0
  6
Continuous
 62
     7
100
AcDbLine
 10
986.4822777981
 20
1018.878565774
 30
0.0
 11
986.4822777981
 21
1159.5141841628
 31
0.0
  0
LINE
  5
16F
330
1F
100
AcDbEntity
  8
0
  6
Continuous
 62
     7
100
AcDbLine
 10
528.1292479032
 20
849.5657117048
 30
0.0
 11
616.8017220181
 21
838.3940300606
 31
0.0
  0
LINE
  5
170
330
1F
100
AcDbEntity
  8
0
  6
Continuous
 62
     7
100
AcDbLine
 10
740.4701003941
 20
822.8132789148
 30
0.0
 11
970.0255158213
 21
793.8920150565
 31
0.0
  0
LINE
  5
171
330
1F
100
AcDbEntity
  8
0
  6
Continuous
 62
     7
100
AcDbLine
 10
528.1292479032
 20
1217.2612379327
 30
0.0
 11
528.1292479032
 21
1172.8276490595
 31
0.0
  0
LINE
  5
172
330
1F
100
AcDbEntity
  8
0
  6
Continuous
 62
     7
100
AcDbLine
 10
528.1292479032
 20
1060.0387625633
 30
0.0
 11
528.1292479032
 21
969.3042699794
 31
0.0
  0
LINE
  5
173
330
1F
100
AcDbEntity
  8
0
  6
Continuous
 62
     7
100
AcDbLine
 10
528.1292479032
 20
909.7264293088
 30
0.0
 11
528.1292479032
 21
849.5657117048
 31
0.0
  0
LINE
  5
174
330
1F
100
AcDbEntity
  8
0
  6
Continuous
 62
     7
100
AcDbLine
 10
986.4822777981
 20
1159.5141841628
 30
0.0
 11
991.7855786558
 21
1164.1912558953
 31
0.0
  0
LINE
  5
175
330
1F
100
AcDbEntity
  8
0
  6
Continuous
 62
     7
100
AcDbLine
 10
528.1292479032
 20
1217.2612379327
 30
0.0
 11
533.4325487609
 21
1221.9383096652
 31
0.0
  0
LINE
  5
176
330
1F
100
AcDbEntity
  8
0
  6
Continuous
 62
     7
100
AcDbLine
 10
991.7855786558
 20
1164.1912558953
 30
0.0
 11
533.4325487609
 21
1221.9383096652
 31
0.0
  0
LINE
  5
177
330
1F
100
AcDbEntity
  8
0
  6
Continuous
 62
     7
100
AcDbLine
 10
991.7855786558
 20
1023.5556375065
 30
0.0
 11
991.7855786558
 21
1164.1912558953
 31
0.0
  0
LINE
  5
178
330
1F
100
AcDbEntity
  8
0
  6
Continuous
 62
     7
100
AcDbLine
 10
735.1667995364
 20
937.8747654569
 30
0.0
 11
740.4701003941
 21
942.5518371894
 31
0.0
  0
LINE
  5
179
330
1F
100
AcDbEntity
  8
0
  6
Continuous
 62
     7
100
AcDbLine
 10
735.1667995364
 20
937.8747654569
 30
0.0
 11
276.8137696416
 21
995.6218192268
 31
0.0
  0
LINE
  5
17A
330
1F
100
AcDbEntity
  8
0
  6
Continuous
 62
     7
100
AcDbLine
 10
276.8137696416
 20
995.6218192268
 30
0.0
 11
282.1170704993
 21
1000.2988909593
 31
0.0
  0
LINE
  5
17B
330
1F
100
AcDbEntity
  8
0
  6
Continuous
 62
     7
100
AcDbLine
 10
740.4701003941
 20
942.5518371894
 30
0.0
 11
282.1170704993
 21
1000.2988909593
 31
0.0
  0
LWPOLYLINE
  5
17C
330
1F
100
AcDbEntity
  8
0
  6
Continuous
 62
     7
100
AcDbPolyline
 90
       20
 70
   128
 43
0.0
 10
558.7010096968
 20
901.409263304
 10
559.7033138849
 20
901.4515620276
 10
560.597002862
 20
901.8264313913
 10
561.2852315602
 20
902.493248483
 10
561.6934197211
 20
903.3797533239
 10
561.777333824
 20
904.3898793591
 10
561.5278804735
 20
905.4141637589
 10
560.972091811
 20
906.3416094151
 10
560.1701961619
 20
907.0717132002
 10
559.2090913625
 20
907.5253570403
 10
558.192928031
 20
907.6533815863
 10
557.2318232316
 20
907.4419133921
 10
556.4299275826
 20
906.9138683178
 10
555.87413892
 20
906.1264682408
 10
555.6246855696
 20
905.165040177
 10
555.7085996724
 20
904.1337697754
 10
556.1167878334
 20
903.1444111858
 10
556.8050165316
 20
902.3041767627
 10
557.6987055086
 20
901.7041189436
 10
558.7010096968
 20
901.409263304
  0
LWPOLYLINE
  5
17D
330
1F
100
AcDbEntity
  8
0
  6
Continuous
 62
     7
100
AcDbPolyline
 90
       20
 70
   128
 43
0.0
 10
378.7353371514
 20
742.6944585987
 10
379.7376413395
 20
742.7367573222
 10
380.6313303166
 20
743.111626686
 10
381.3195590148
 20
743.7784437776
 10
381.7277471757
 20
744.6649486186
 10
381.8116612786
 20
745.6750746538
 10
381.5622079281
 20
746.6993590535
 10
381.0064192656
 20
747.6268047098
 10
380.2045236165
 20
748.3569084949
 10
379.2434188171
 20
748.810552335
 10
378.2272554856
 20
748.9385768809
 10
377.2661506863
 20
748.7271086867
 10
376.4642550372
 20
748.1990636125
 10
375.9084663746
 20
747.4116635354
 10
375.6590130242
 20
746.4502354717
 10
375.742927127
 20
745.4189650701
 10
376.151115288
 20
744.4296064805
 10
376.8393439862
 20
743.5893720574
 10
377.7330329632
 20
742.9893142383
 10
378.7353371514
 20
742.6944585987
  0
LINE
  5
17E
330
1F
100
AcDbEntity
  8
0
  6
Continuous
 62
     7
100
AcDbLine
 10
735.1667995364
 20
570.179239229
 30
0.0
 11
735.1667995364
 21
937.8747654569
 31
0.0
  0
LINE
  5
17F
330
1F
100
AcDbEntity
  8
0
  6
Continuous
 62
     7
100
AcDbLine
 10
276.8137696416
 20
627.9262929989
 30
0.0
 11
735.1667995364
 21
570.179239229
 31
0.0
  0
LINE
  5
180
330
1F
100
AcDbEntity
  8
0
  6
Continuous
 62
     7
100
AcDbLine
 10
276.8137696416
 20
995.6218192268
 30
0.0
 11
276.8137696416
 21
627.9262929989
 31
0.0
  0
LWPOLYLINE
  5
181
330
1F
100
AcDbEntity
  8
0
  6
Continuous
 62
     7
100
AcDbPolyline
 90
      126
 70
   128
 43
0.0
 10
505.990284589
 20
651.3786679233
 10
512.5466808103
 20
650.7187574609
 10
519.0865150058
 20
650.3927496258
 10
525.5932669866
 20
650.4014679421
 10
532.0505001325
 20
650.7448903864
 10
538.4419029123
 20
651.4221494441
 10
544.7513300878
 20
652.4315342997
 10
550.9628434984
 20
653.7704951598
 10
557.0607523221
 20
655.4356496928
 10
563.029652712
 20
657.4227915739
 10
568.8544667077
 20
659.7269011103
 10
574.5204803235
 20
662.3421579213
 10
580.0133807173
 20
665.2619556412
 10
585.3192923459
 20
668.4789186077
 10
590.4248120162
 20
671.984920493
 10
595.3170427423
 20
675.7711048321
 10
599.9836263247
 20
679.8279073947
 10
604.4127745685
 20
684.1450803456
 10
608.5932990607
 20
688.7117181311
 10
612.5146394336
 20
693.516285028
 10
616.1668900412
 20
698.5466442831
 10
619.5408249814
 20
703.7900887725
 10
622.6279214017
 20
709.2333731004
 10
625.4203810287
 20
714.862747058
 10
627.911149867
 20
720.6639903583
 10
630.0939360184
 20
726.6224485571
 10
631.9632255755
 20
732.723070072
 10
633.5142965508
 20
738.9504442035
 10
634.7432308043
 20
745.2888400641
 10
635.6469239414
 20
751.7222463157
 10
636.223093155
 20
758.234411616
 10
636.4702829914
 20
764.80888567
 10
636.3878690278
 20
771.4290607858
 10
635.9760594489
 20
778.0782138264
 10
635.2358945216
 20
784.7395484543
 10
634.1692439666
 20
791.39623756
 10
632.7788022358
 20
798.0314657691
 10
631.0680817057
 20
804.6284719194
 10
629.0414038049
 20
811.1705914007
 10
626.7038880975
 20
817.6412982514
 10
624.0614393512
 20
824.0242469045
 10
621.1207326209
 20
830.3033134777
 10
617.8891963868
 20
836.4626365039
 10
614.3749937901
 20
842.4866569986
 10
610.5870020115
 20
848.3601577632
 10
606.5347898469
 20
854.0683018249
 10
602.228593536
 20
859.5966699166
 10
597.6792909043
 20
864.9312969007
 10
592.8983738852
 20
870.0587070462
 10
587.8979194899
 20
874.9659480704
 10
582.6905593003
 20
879.6406238563
 10
577.2894475602
 20
884.0709257674
 10
571.7082279464
 20
888.2456624764
 10
565.9609991042
 20
892.1542882362
 10
560.0622790324
 20
895.7869295188
 10
554.0269684098
 20
899.1344099571
 10
547.8703129549
 20
902.1882735249
 10
541.6078649137
 20
904.9408058979
 10
535.2554437733
 20
907.3850539405
 10
528.8290963011
 20
909.5148432698
 10
522.3450560083
 20
911.3247938533
 10
515.8197021434
 20
912.8103335986
 10
509.2695183168
 20
913.9677099035
 10
502.7110508612
 20
914.793999135
 10
496.1608670346
 20
915.2871140147
 10
489.6355131698
 20
915.4458088916
 10
483.151472877
 20
915.2696828888
 10
476.7251254047
 20
914.7591809159
 10
470.3727042644
 20
913.915592545
 10
464.1102562231
 20
912.7410487536
 10
457.9536007682
 20
911.2385165413
 10
451.9182901457
 20
909.4117914349
 10
446.0195700738
 20
907.2654879005
 10
440.2723412316
 20
904.805027687
 10
434.6911216179
 20
902.0366261307
 10
429.2900098777
 20
898.967276454
 10
424.0826496881
 20
895.6047321006
 10
419.0821952928
 20
891.9574871493
 10
414.3012782737
 20
888.0347548576
 10
409.7519756421
 20
883.8464443875
 10
405.4457793312
 20
879.4031357748
 10
401.3935671666
 20
874.7160532027
 10
397.6055753879
 20
869.7970366486
 10
394.0913727912
 20
864.6585119751
 10
390.8598365572
 20
859.3134595417
 10
387.9191298268
 20
853.7753814145
 10
385.2766810805
 20
848.0582672596
 10
382.9391653732
 20
842.1765590036
 10
380.9124874723
 20
836.1451143519
 10
379.2017669423
 20
829.9791692571
 10
377.8113252115
 20
823.6942994318
 10
376.7446746565
 20
817.3063810026
 10
376.0045097291
 20
810.8315504058
 10
375.5927001503
 20
804.2861636254
 10
375.5102861866
 20
797.6867548765
 10
375.7574760231
 20
791.0499948383
 10
376.3336452366
 20
784.3926485427
 10
377.2373383737
 20
777.7315330243
 10
378.4662726272
 20
771.0834748388
 10
380.0173436025
 20
764.4652675584
 10
381.8866331596
 20
757.8936293488
 10
384.069419311
 20
751.3851607387
 10
386.5601881493
 20
744.9563026845
 10
389.3526477763
 20
738.6232950396
 10
392.4397441966
 20
732.4021355311
 10
395.8136791368
 20
726.3085393477
 10
399.4659297444
 20
720.3578994422
 10
403.3872701173
 20
714.5652476475
 10
407.5677946095
 20
708.9452167048
 10
411.9969428533
 20
703.5120032999
 10
416.6635264358
 20
698.2793322015
 10
421.5557571619
 20
693.2604215909
 10
426.6612768321
 20
688.4679496718
 10
431.9671884608
 20
683.9140226443
 10
437.4600888545
 20
679.6101441233
 10
443.1261024703
 20
675.5671860795
 10
448.950916466
 20
671.7953613756
 10
454.9198168559
 20
668.3041979684
 10
461.0177256796
 20
665.1025148395
 10
467.2292390902
 20
662.1983997184
 10
473.5386662657
 20
659.5991886519
 10
479.9300690455
 20
657.3114474728
 10
486.3873021915
 20
655.3409552138
 10
492.8940541723
 20
653.6926895094
 10
499.4338883677
 20
652.3708140218
 10
505.990284589
 20
651.3786679233
  0
LWPOLYLINE
  5
182
330
1F
100
AcDbEntity
  8
0
  6
Continuous
 62
     7
100
AcDbPolyline
 90
       20
 70
   128
 43
0.0
 10
453.2795594813
 20
914.6911175889
 10
454.2818636694
 20
914.7334163124
 10
455.1755526465
 20
915.1082856762
 10
455.8637813447
 20
915.7751027678
 10
456.2719695056
 20
916.6616076088
 10
456.3558836085
 20
917.671733644
 10
456.106430258
 20
918.6960180437
 10
455.5506415955
 20
919.6234637
 10
454.7487459464
 20
920.3535674851
 10
453.787641147
 20
920.8072113252
 10
452.7714778155
 20
920.9352358711
 10
451.8103730162
 20
920.7237676769
 10
451.0084773671
 20
920.1957226027
 10
450.4526887045
 20
919.4083225257
 10
450.2032353541
 20
918.4468944619
 10
450.2871494569
 20
917.4156240603
 10
450.6953376179
 20
916.4262654707
 10
451.3835663161
 20
915.5860310476
 10
452.2772552931
 20
914.9859732285
 10
453.2795594813
 20
914.6911175889
  0
LWPOLYLINE
  5
183
330
1F
100
AcDbEntity
  8
0
  6
Continuous
 62
     7
100
AcDbPolyline
 90
       20
 70
   128
 43
0.0
 10
378.7353371514
 20
848.9492929305
 10
379.7376413395
 20
848.9915916541
 10
380.6313303166
 20
849.3664610178
 10
381.3195590148
 20
850.0332781095
 10
381.7277471757
 20
850.9197829504
 10
381.8116612786
 20
851.9299089856
 10
381.5622079281
 20
852.9541933854
 10
381.0064192656
 20
853.8816390417
 10
380.2045236165
 20
854.6117428268
 10
379.2434188171
 20
855.0653866668
 10
378.2272554856
 20
855.1934112128
 10
377.2661506863
 20
854.9819430186
 10
376.4642550372
 20
854.4538979444
 10
375.9084663746
 20
853.6664978673
 10
375.6590130242
 20
852.7050698036
 10
375.742927127
 20
851.673799402
 10
376.151115288
 20
850.6844408123
 10
376.8393439862
 20
849.8442063893
 10
377.7330329632
 20
849.2441485702
 10
378.7353371514
 20
848.9492929305
  0
LWPOLYLINE
  5
184
330
1F
100
AcDbEntity
  8
0
  6
Continuous
 62
     7
100
AcDbPolyline
 90
       20
 70
   128
 43
0.0
 10
453.2795594813
 20
658.1692554772
 10
454.2818636694
 20
658.2115542008
 10
455.1755526465
 20
658.5864235645
 10
455.8637813447
 20
659.2532406561
 10
456.2719695056
 20
660.1397454971
 10
456.3558836085
 20
661.1498715323
 10
456.106430258
 20
662.1741559321
 10
455.5506415955
 20
663.1016015883
 10
454.7487459464
 20
663.8317053734
 10
453.787641147
 20
664.2853492135
 10
452.7714778155
 20
664.4133737595
 10
451.8103730162
 20
664.2019055653
 10
451.0084773671
 20
663.673860491
 10
450.4526887045
 20
662.886460414
 10
450.2032353541
 20
661.9250323502
 10
450.2871494569
 20
660.8937619486
 10
450.6953376179
 20
659.904403359
 10
451.3835663161
 20
659.0641689359
 10
452.2772552931
 20
658.4641111168
 10
453.2795594813
 20
658.1692554772
  0
LWPOLYLINE
  5
185
330
1F
100
AcDbEntity
  8
0
  6
Continuous
 62
     7
100
AcDbPolyline
 90
       20
 70
   128
 43
0.0
 10
558.7010096968
 20
644.8874011923
 10
559.7033138849
 20
644.9296999159
 10
560.597002862
 20
645.3045692796
 10
561.2852315602
 20
645.9713863713
 10
561.6934197211
 20
646.8578912122
 10
561.777333824
 20
647.8680172474
 10
561.5278804735
 20
648.8923016472
 10
560.972091811
 20
649.8197473034
 10
560.1701961619
 20
650.5498510885
 10
559.2090913625
 20
651.0034949286
 10
558.192928031
 20
651.1315194746
 10
557.2318232316
 20
650.9200512804
 10
556.4299275826
 20
650.3920062061
 10
555.87413892
 20
649.6046061291
 10
555.6246855696
 20
648.6431780654
 10
555.7085996724
 20
647.6119076638
 10
556.1167878334
 20
646.6225490741
 10
556.8050165316
 20
645.782314651
 10
557.6987055086
 20
645.1822568319
 10
558.7010096968
 20
644.8874011923
  0
LWPOLYLINE
  5
186
330
1F
100
AcDbEntity
  8
0
  6
Continuous
 62
     7
100
AcDbPolyline
 90
       20
 70
   128
 43
0.0
 10
633.2452320267
 20
710.6292258506
 10
634.2475362148
 20
710.6715245742
 10
635.1412251919
 20
711.046393938
 10
635.8294538901
 20
711.7132110296
 10
636.237642051
 20
712.5997158705
 10
636.3215561539
 20
713.6098419057
 10
636.0721028034
 20
714.6341263055
 10
635.5163141409
 20
715.5615719618
 10
634.7144184918
 20
716.2916757469
 10
633.7533136924
 20
716.7453195869
 10
632.7371503609
 20
716.8733441329
 10
631.7760455615
 20
716.6618759387
 10
630.9741499125
 20
716.1338308645
 10
630.4183612499
 20
715.3464307874
 10
630.1689078995
 20
714.3850027237
 10
630.2528220023
 20
713.3537323221
 10
630.6610101633
 20
712.3643737324
 10
631.3492388615
 20
711.5241393094
 10
632.2429278385
 20
710.9240814903
 10
633.2452320267
 20
710.6292258506
  0
LWPOLYLINE
  5
187
330
1F
100
AcDbEntity
  8
0
  6
Continuous
 62
     7
100
AcDbPolyline
 90
       20
 70
   128
 43
0.0
 10
633.2452320267
 20
816.8840601825
 10
634.2475362148
 20
816.9263589061
 10
635.1412251919
 20
817.3012282698
 10
635.8294538901
 20
817.9680453615
 10
636.237642051
 20
818.8545502024
 10
636.3215561539
 20
819.8646762376
 10
636.0721028034
 20
820.8889606374
 10
635.5163141409
 20
821.8164062937
 10
634.7144184918
 20
822.5465100787
 10
633.7533136924
 20
823.0001539188
 10
632.7371503609
 20
823.1281784648
 10
631.7760455615
 20
822.9167102706
 10
630.9741499125
 20
822.3886651963
 10
630.4183612499
 20
821.6012651193
 10
630.1689078995
 20
820.6398370556
 10
630.2528220023
 20
819.608566654
 10
630.6610101633
 20
818.6192080643
 10
631.3492388615
 20
817.7789736413
 10
632.2429278385
 20
817.1789158221
 10
633.2452320267
 20
816.8840601825
  0
LINE
  5
188
330
1F
100
AcDbEntity
  8
0
  6
Continuous
 62
     7
100
AcDbLine
 10
735.1667995364
 20
570.179239229
 30
0.0
 11
740.4701003941
 21
574.8563109615
 31
0.0
  0
LINE
  5
189
330
1F
100
AcDbEntity
  8
0
  6
Continuous
 62
     7
100
AcDbLine
 10
740.4701003941
 20
574.8563109615
 30
0.0
 11
740.4701003941
 21
942.5518371894
 31
0.0
  0
LWPOLYLINE
  5
18A
330
1F
100
AcDbEntity
  8
0
  6
Continuous
 62
     7
100
AcDbPolyline
 90
       63
 70
   128
 43
0.0
 10
600.8744028653
 20
680.6572767838
 10
598.2016747429
 20
678.520643039
 10
593.2012203476
 20
674.8733980878
 10
587.993860158
 20
671.5108537343
 10
582.5927484178
 20
668.4415040576
 10
577.0115288041
 20
665.6731025013
 10
571.2642999619
 20
663.2126422879
 10
565.3655798901
 20
661.0663387534
 10
559.3302692675
 20
659.239613647
 10
553.1736138126
 20
657.7370814347
 10
546.9111657713
 20
656.5625376434
 10
540.558744631
 20
655.7189492725
 10
534.1323971587
 20
655.2084472995
 10
527.6483568659
 20
655.0323212967
 10
521.1230030011
 20
655.1910161737
 10
514.5728191745
 20
655.6841310534
 10
508.0143517189
 20
656.5104202848
 10
501.4641678923
 20
657.6677965897
 10
494.9388140275
 20
659.1533363351
 10
488.4547737347
 20
660.9632869185
 10
482.0284262624
 20
663.0930762479
 10
475.6760051221
 20
665.5373242904
 10
469.4135570808
 20
668.2898566634
 10
463.2569016259
 20
671.3437202313
 10
457.2215910033
 20
674.6912006695
 10
451.3228709315
 20
678.3238419521
 10
445.5756420893
 20
682.2324677119
 10
439.9944224756
 20
686.4072044209
 10
434.5933107354
 20
690.837506332
 10
429.3859505458
 20
695.5121821179
 10
424.3854961505
 20
700.4194231421
 10
419.6045791314
 20
705.5468332877
 10
415.0552764998
 20
710.8814602717
 10
410.7490801888
 20
716.4098283634
 10
406.6968680242
 20
722.1179724252
 10
402.9088762456
 20
727.9914731897
 10
399.3946736489
 20
734.0154936844
 10
396.1631374148
 20
740.1748167106
 10
393.2224306845
 20
746.4538832838
 10
390.5799819382
 20
752.8368319369
 10
388.2424662309
 20
759.3075387877
 10
386.21578833
 20
765.8496582689
 10
384.5050677999
 20
772.4466644192
 10
383.1146260692
 20
779.0818926283
 10
382.0479755141
 20
785.738581734
 10
381.3078105868
 20
792.3999163619
 10
380.8960010079
 20
799.0490694026
 10
380.8135870443
 20
805.6692445183
 10
381.0607768808
 20
812.2437185724
 10
381.6369460943
 20
818.7558838726
 10
382.5406392314
 20
825.1892901243
 10
383.7695734849
 20
831.5276859849
 10
385.3206444602
 20
837.7550601164
 10
387.1899340173
 20
843.8556816312
 10
389.3727201687
 20
849.8141398301
 10
391.863489007
 20
855.6153831303
 10
394.655948634
 20
861.244757088
 10
397.7430450543
 20
866.6880414158
 10
401.1169799945
 20
871.9314859052
 10
404.7692306021
 20
876.9618451604
 10
408.690570975
 20
881.7664120572
 10
412.8710954672
 20
886.3330498427
 10
416.4094671704
 20
889.8208534046
  0
LINE
  5
18B
330
1F
100
AcDbEntity
  8
0
  6
PHANTOM
 62
     8
370
     0
100
AcDbLine
 10
245.0982587299
 20
1095.6973154349
 30
0.0
 11
245.0982587299
 21
728.0017892069
 31
0.0
  0
LINE
  5
18C
330
1F
100
AcDbEntity
  8
0
  6
PHANTOM
 62
     8
370
     0
100
AcDbLine
 10
987.5922649272
 20
1005.7153467845
 30
0.0
 11
987.5922649272
 21
638.0198205566
 31
0.0
  0
LINE
  5
18D
330
1F
100
AcDbEntity
  8
0
  6
PHANTOM
 62
     8
370
     0
100
AcDbLine
 10
974.7025875549
 20
636.0802840364
 30
0.0
 11
974.7025875549
 21
1003.7758102643
 31
0.0
  0
LINE
  5
18E
330
1F
100
AcDbEntity
  8
0
  6
PHANTOM
 62
     8
370
     0
100
AcDbLine
 10
1081.283913413
 20
720.6480878309
 30
0.0
 11
1081.283913413
 21
1088.3436140588
 31
0.0
  0
LINE
  5
18F
330
1F
100
AcDbEntity
  8
0
  6
PHANTOM
 62
     8
370
     0
100
AcDbLine
 10
848.059688021
 20
655.5992728471
 30
0.0
 11
848.059688021
 21
650.8852276391
 31
0.0
  0
LWPOLYLINE
  5
190
330
1F
100
AcDbEntity
  8
0
  6
PHANTOM
 62
     8
370
     0
100
AcDbPolyline
 90
        9
 70
   128
 43
0.0
 10
848.059688021
 20
650.8852276391
 10
847.1902023292
 20
650.2995714497
 10
845.9946559973
 20
649.7817112276
 10
844.5189932004
 20
649.3515480508
 10
842.8199228323
 20
649.0256128488
 10
840.9627392142
 20
648.8164311287
 10
839.0188128712
 20
648.7320416268
 10
837.0628478025
 20
648.7756873841
 10
835.1700106487
 20
648.9456911188
  0
LINE
  5
191
330
1F
100
AcDbEntity
  8
0
  6
PHANTOM
 62
     8
370
     0
100
AcDbLine
 10
835.1700106487
 20
648.9456911188
 30
0.0
 11
835.1700106487
 21
653.6597363269
 31
0.0
  0
LWPOLYLINE
  5
192
330
1F
100
AcDbEntity
  8
0
  6
PHANTOM
 62
     8
370
     0
100
AcDbPolyline
 90
        8
 70
   128
 43
0.0
 10
837.4555445544
 20
642.1421715239
 10
837.3525543037
 20
642.1600939317
 10
836.7413071583
 20
642.4922737026
 10
836.2055445544
 20
643.1922795149
 10
835.7658555484
 20
644.2332105377
 10
835.4391371424
 20
645.5750643756
 10
835.2379449413
 20
647.1662743381
 10
835.1700106487
 20
648.9456911188
  0
ARC
  5
193
330
1F
100
AcDbEntity
  8
0
  6
PHANTOM
 62
     8
370
     0
100
AcDbCircle
 10
839.7251531021
 20
650.7429988492
 30
0.0
 40
8.335748397325649
100
AcDbArc
 50
312.158037431
 51
0.9776572489
  0
LINE
  5
194
330
1F
100
AcDbEntity
  8
0
  6
PHANTOM
 62
     8
370
     0
100
AcDbLine
 10
424.0750715468
 20
700.7387850977
 30
0.0
 11
598.5120993466
 21
678.7617853468
 31
0.0
  0
LINE
  5
195
330
1F
100
AcDbEntity
  8
0
  6
PHANTOM
 62
     8
370
     0
100
AcDbLine
 10
740.4701003941
 20
660.8767583373
 30
0.0
 11
835.1700106487
 21
648.9456911188
 31
0.0
  0
LINE
  5
196
330
1F
100
AcDbEntity
  8
0
  6
PHANTOM
 62
     8
370
     0
100
AcDbLine
 10
941.7513365068
 20
733.5134949134
 30
0.0
 11
941.7513365068
 21
738.2275401214
 31
0.0
  0
LINE
  5
197
330
1F
100
AcDbEntity
  8
0
  6
PHANTOM
 62
     8
370
     0
100
AcDbLine
 10
848.059688021
 20
650.8852276391
 30
0.0
 11
941.7513365068
 21
733.5134949134
 31
0.0
  0
ARC
  5
198
330
1F
100
AcDbEntity
  8
0
  6
PHANTOM
 62
     8
370
     0
100
AcDbCircle
 10
933.4168015878
 20
733.3712661235
 30
0.0
 40
8.335748397325982
100
AcDbArc
 50
312.158037431
 51
0.9776572489
  0
LWPOLYLINE
  5
199
330
1F
100
AcDbEntity
  8
0
  6
PHANTOM
 62
     8
370
     0
100
AcDbPolyline
 90
        3
 70
   128
 43
0.0
 10
942.3971930395
 20
734.6920062148
 10
942.261347711
 20
734.1444406312
 10
941.7513365068
 20
733.5134949134
  0
ARC
  5
19A
330
1F
100
AcDbEntity
  8
0
  6
PHANTOM
 62
     8
370
     0
100
AcDbCircle
 10
837.1404316546
 20
1027.8070557495
 30
0.0
 40
10.92112073957676
100
AcDbArc
 50
1.0587090425
 51
81.7605351794
  0
LWPOLYLINE
  5
19B
330
1F
100
AcDbEntity
  8
0
  6
PHANTOM
 62
     8
370
     0
100
AcDbPolyline
 90
        9
 70
   128
 43
0.0
 10
835.1700106487
 20
1026.0693077629
 10
837.0628478025
 20
1025.8993040282
 10
839.0188128712
 20
1025.8556582708
 10
840.9627392142
 20
1025.9400477728
 10
842.8199228323
 20
1026.1492294928
 10
844.5189932004
 20
1026.4751646948
 10
845.9946559973
 20
1026.9053278716
 10
847.1902023292
 20
1027.4231880937
 10
848.059688021
 20
1028.0088442831
  0
LWPOLYLINE
  5
19C
330
1F
100
AcDbEntity
  8
0
  6
PHANTOM
 62
     8
370
     0
100
AcDbPolyline
 90
        9
 70
   128
 43
0.0
 10
838.7055445538
 20
1038.6154460006
 10
838.0157961058
 20
1037.8259869334
 10
837.3525543037
 20
1036.704550108
 10
836.7413071583
 20
1035.2942317127
 10
836.2055445544
 20
1033.6492294926
 10
835.7658555484
 20
1031.8327599605
 10
835.4391371424
 20
1029.9146290218
 10
835.2379449413
 20
1027.9685493727
 10
835.1700106487
 20
1026.0693077629
  0
LINE
  5
19D
330
1F
100
AcDbEntity
  8
0
  6
PHANTOM
 62
     8
370
     0
100
AcDbLine
 10
835.1700106487
 20
1021.3552625548
 30
0.0
 11
835.1700106487
 21
1026.0693077629
 31
0.0
  0
LINE
  5
19E
330
1F
100
AcDbEntity
  8
0
  6
PHANTOM
 62
     8
370
     0
100
AcDbLine
 10
848.059688021
 20
1028.0088442831
 30
0.0
 11
848.059688021
 21
1023.2947990751
 31
0.0
  0
LINE
  5
19F
330
1F
100
AcDbEntity
  8
0
  6
PHANTOM
 62
     8
370
     0
100
AcDbLine
 10
370.9983711917
 20
1097.541011072
 30
0.0
 11
838.7055445538
 21
1038.6154460006
 31
0.0
  0
LINE
  5
1A0
330
1F
100
AcDbEntity
  8
0
  6
PHANTOM
 62
     8
370
     0
100
AcDbLine
 10
835.1700106487
 20
1026.0693077629
 30
0.0
 11
367.4628372866
 21
1084.9948728342
 31
0.0
  0
LWPOLYLINE
  5
1A1
330
1F
100
AcDbEntity
  8
0
  6
PHANTOM
 62
     8
370
     0
100
AcDbPolyline
 90
        9
 70
   128
 43
0.0
 10
367.4628372866
 20
1084.9948728342
 10
367.5307715792
 20
1086.8941144441
 10
367.7319637803
 20
1088.8401940931
 10
368.0586821864
 20
1090.7583250319
 10
368.4983711923
 20
1092.574794564
 10
369.0341337962
 20
1094.2197967841
 10
369.6453809417
 20
1095.6301151793
 10
370.3086227437
 20
1096.7515520047
 10
370.9983711917
 20
1097.541011072
  0
LINE
  5
1A2
330
1F
100
AcDbEntity
  8
0
  6
PHANTOM
 62
     8
370
     0
100
AcDbLine
 10
367.4628372866
 20
1084.9948728342
 30
0.0
 11
367.4628372866
 21
1080.2808276262
 31
0.0
  0
LINE
  5
1A3
330
1F
100
AcDbEntity
  8
0
  6
PHANTOM
 62
     8
370
     0
100
AcDbLine
 10
838.7055445538
 20
1038.6154460006
 30
0.0
 11
932.3971930395
 21
1121.243713275
 31
0.0
  0
ARC
  5
1A4
330
1F
100
AcDbEntity
  8
0
  6
PHANTOM
 62
     8
370
     0
100
AcDbCircle
 10
930.8320801403
 20
1110.4353230238
 30
0.0
 40
10.92112073957711
100
AcDbArc
 50
1.0587090425
 51
81.7605351794
  0
LINE
  5
1A5
330
1F
100
AcDbEntity
  8
0
  6
PHANTOM
 62
     8
370
     0
100
AcDbLine
 10
941.7513365068
 20
1110.6371115574
 30
0.0
 11
848.059688021
 21
1028.0088442831
 31
0.0
  0
LINE
  5
1A6
330
1F
100
AcDbEntity
  8
0
  6
PHANTOM
 62
     8
370
     0
100
AcDbLine
 10
941.7513365068
 20
1105.9230663494
 30
0.0
 11
941.7513365068
 21
1110.6371115574
 31
0.0
  0
LINE
  5
1A7
330
1F
100
AcDbEntity
  8
0
  6
PHANTOM
 62
     8
370
     0
100
AcDbLine
 10
464.6900196775
 20
1180.1692783463
 30
0.0
 11
370.9983711917
 21
1097.541011072
 31
0.0
  0
LINE
  5
1A8
330
1F
100
AcDbEntity
  8
0
  6
PHANTOM
 62
     8
370
     0
100
AcDbLine
 10
932.3971930395
 20
1121.243713275
 30
0.0
 11
464.6900196775
 21
1180.1692783463
 31
0.0
  0
ARC
  5
1A9
330
1F
100
AcDbEntity
  8
0
  6
PHANTOM
 62
     8
370
     0
100
AcDbCircle
 10
369.8154410746
 20
1089.2896246624
 30
0.0
 40
8.33574839724029
100
AcDbArc
 50
81.8415869733
 51
130.6612067915
  0
LWPOLYLINE
  5
1AA
330
1F
100
AcDbEntity
  8
0
  6
PHANTOM
 62
     8
370
     0
100
AcDbPolyline
 90
        8
 70
   128
 43
0.0
 10
360.9983711917
 20
1088.1129206559
 10
361.0032792481
 20
1088.0084978834
 10
361.2564477541
 20
1087.3605224359
 10
361.8839929144
 20
1086.7414612301
 10
362.8617985206
 20
1086.1751044408
 10
364.1522880514
 20
1085.683216842
 10
365.705868718
 20
1085.2847013981
 10
367.4628372866
 20
1084.9948728342
  0
ARC
  5
1AB
330
1F
100
AcDbEntity
  8
0
  6
PHANTOM
 62
     8
370
     0
100
AcDbCircle
 10
463.5070895604
 20
1171.9178919367
 30
0.0
 40
8.335748397238337
100
AcDbArc
 50
81.8415869733
 51
130.6612067915
  0
LWPOLYLINE
  5
1AC
330
1F
100
AcDbEntity
  8
0
  6
PHANTOM
 62
     8
370
     0
100
AcDbPolyline
 90
        3
 70
   128
 43
0.0
 10
932.3971930395
 20
1121.243713275
 10
933.0869414876
 20
1121.6708561149
 10
933.6471930389
 20
1121.7371902754
  0
LWPOLYLINE
  5
1AD
330
1F
100
AcDbEntity
  8
0
  6
PHANTOM
 62
     8
370
     0
100
AcDbPolyline
 90
        3
 70
   128
 43
0.0
 10
941.7513365068
 20
1110.6371115574
 10
942.261347711
 20
1111.2680572752
 10
942.3971930395
 20
1111.8156228589
  0
LWPOLYLINE
  5
1AE
330
1F
100
AcDbEntity
  8
0
  6
PHANTOM
 62
     8
370
     0
100
AcDbPolyline
 90
        3
 70
   128
 43
0.0
 10
465.9400196768
 20
1180.6627553468
 10
465.3797681255
 20
1180.5964211862
 10
464.6900196775
 20
1180.1692783463
  0
INSERT
  5
1B4
330
1F
100
AcDbEntity
  8
SLD-0_0
 62
     7
100
AcDbBlockReference
  2
SW_NOTE_5
 10
187.3371414763
 20
1151.2054747531
 30
0.0
  0
LEADER
  5
1BE
330
1F
100
AcDbEntity
  8
SLD-0_0
 62
     7
100
AcDbLeader
  3
SLDDIMSTYLE0
 76
     2
 10
284.6392943092
 20
1052.5726205163
 30
0.0
 10
187.3371414763
 20
1151.2054747531
 30
0.0
  0
INSERT
  5
1C4
330
1F
100
AcDbEntity
  8
SLD-0_0
 62
     7
100
AcDbBlockReference
  2
SW_NOTE_6
 10
227.1883762504
 20
604.5689646929
 30
0.0
  0
LEADER
  5
1C5
330
1F
100
AcDbEntity
  8
SLD-0_0
 62
     7
100
AcDbLeader
  3
SLDDIMSTYLE0
 76
     2
 10
335.9104132158
 20
664.3770059376
 30
0.0
 10
227.1883762504
 20
604.5689646929
 30
0.0
  0
INSERT
  5
1CB
330
1F
100
AcDbEntity
  8
SLD-0_0
 62
     7
100
AcDbBlockReference
  2
SW_NOTE_7
 10
437.2031719679
 20
1259.4370277853
 30
0.0
  0
LEADER
  5
1CC
330
1F
100
AcDbEntity
  8
SLD-0_0
 62
     7
100
AcDbLeader
  3
SLDDIMSTYLE0
 76
     2
 10
507.5117091481
 20
1142.5586659442
 30
0.0
 10
437.2031719679
 20
1259.4370277853
 30
0.0
  0
INSERT
  5
1D2
330
1F
100
AcDbEntity
  8
SLD-0_0
 62
     7
100
AcDbBlockReference
  2
SW_NOTE_8
 10
854.8055778252
 20
1263.0541441293
 30
0.0
  0
LEADER
  5
1D3
330
1F
100
AcDbEntity
  8
SLD-0_0
 62
     7
100
AcDbLeader
  3
SLDDIMSTYLE0
 76
     2
 10
752.3574606613
 20
1173.9491469074
 30
0.0
 10
854.8055778252
 20
1263.0541441293
 30
0.0
  0
CIRCLE
  5
1D4
330
1F
100
AcDbEntity
  8
0
  6
Continuous
 62
     7
100
AcDbCircle
 10
1778.9682347757
 20
1724.4662546626
 30
0.0
 40
3.299999999999955
  0
CIRCLE
  5
1D5
330
1F
100
AcDbEntity
  8
0
  6
Continuous
 62
     7
100
AcDbCircle
 10
1586.5768381977
 20
1532.0748580846
 30
0.0
 40
3.299999999999955
  0
LINE
  5
1D6
330
1F
100
AcDbEntity
  8
0
  6
Continuous
 62
     7
100
AcDbLine
 10
1967.6180993599
 20
1783.4249935003
 30
0.0
 11
1477.6180993599
 21
1783.4249935003
 31
0.0
  0
LINE
  5
1D7
330
1F
100
AcDbEntity
  8
0
  6
Continuous
 62
     7
100
AcDbLine
 10
1967.6180993599
 20
1393.4249935003
 30
0.0
 11
1967.6180993599
 21
1783.4249935003
 31
0.0
  0
LINE
  5
1D8
330
1F
100
AcDbEntity
  8
0
  6
Continuous
 62
     7
100
AcDbLine
 10
1477.6180993599
 20
1393.4249935003
 30
0.0
 11
1967.6180993599
 21
1393.4249935003
 31
0.0
  0
LINE
  5
1D9
330
1F
100
AcDbEntity
  8
0
  6
Continuous
 62
     7
100
AcDbLine
 10
1477.6180993599
 20
1783.4249935003
 30
0.0
 11
1477.6180993599
 21
1393.4249935003
 31
0.0
  0
CIRCLE
  5
1DA
330
1F
100
AcDbEntity
  8
0
  6
Continuous
 62
     7
100
AcDbCircle
 10
1722.6180993599
 20
1588.4249935003
 30
0.0
 40
139.5
  0
CIRCLE
  5
1DB
330
1F
100
AcDbEntity
  8
0
  6
Continuous
 62
     7
100
AcDbCircle
 10
1666.2679639442
 20
1724.4662546626
 30
0.0
 40
3.299999999999955
  0
CIRCLE
  5
1DC
330
1F
100
AcDbEntity
  8
0
  6
Continuous
 62
     7
100
AcDbCircle
 10
1586.5768381977
 20
1644.7751289161
 30
0.0
 40
3.299999999999955
  0
CIRCLE
  5
1DD
330
1F
100
AcDbEntity
  8
0
  6
Continuous
 62
     7
100
AcDbCircle
 10
1666.2679639442
 20
1452.3837323381
 30
0.0
 40
3.299999999999727
  0
CIRCLE
  5
1DE
330
1F
100
AcDbEntity
  8
0
  6
Continuous
 62
     7
100
AcDbCircle
 10
1778.9682347757
 20
1452.3837323381
 30
0.0
 40
3.299999999999727
  0
CIRCLE
  5
1DF
330
1F
100
AcDbEntity
  8
0
  6
Continuous
 62
     7
100
AcDbCircle
 10
1858.6593605222
 20
1532.0748580846
 30
0.0
 40
3.299999999999955
  0
CIRCLE
  5
1E0
330
1F
100
AcDbEntity
  8
0
  6
Continuous
 62
     7
100
AcDbCircle
 10
1858.6593605222
 20
1644.7751289161
 30
0.0
 40
3.299999999999955
  0
DIMENSION
  5
1E1
330
1F
100
AcDbEntity
  8
SLD-0_0
 62
     7
100
AcDbDimension
  2
_D
 10
1967.6180993599
 20
1355.4249935003
 30
0.0
 11
1711.5728480147
 21
1355.4249935003
 31
0.0
 70
   160
  1
<>
 71
     2
 42
-1.0
  3
SLDDIMSTYLE1
100
AcDbAlignedDimension
 13
1477.6180993599
 23
1393.4249935003
 33
0.0
 14
1967.6180993599
 24
1393.4249935003
 34
0.0
100
AcDbRotatedDimension
  0
DIMENSION
  5
1EC
330
1F
100
AcDbEntity
  8
SLD-0_0
 62
     7
100
AcDbDimension
  2
_D_1
 10
1432.6180993599
 20
1783.4249935003
 30
0.0
 11
1432.6180993599
 21
1600.9974483513
 31
0.0
 70
   160
  1
<>
 71
     2
 42
-1.0
  3
SLDDIMSTYLE1
100
AcDbAlignedDimension
 13
1477.6180993599
 23
1393.4249935003
 33
0.0
 14
1477.6180993599
 24
1783.4249935003
 34
0.0
 50
90.0
100
AcDbRotatedDimension
  0
DIMENSION
  5
1F6
330
1F
100
AcDbEntity
  8
SLD-0_0
 62
     7
100
AcDbDimension
  2
_D_2
 10
1832.7893794203
 20
1673.9968291115
 30
0.0
 11
1789.6580152316
 21
1640.4959951553
 31
0.0
 70
   163
  1
<>
 71
     1
 42
-1.0
  3
SLDDIMSTYLE2
100
AcDbDiametricDimension
 15
1612.4468192996
 25
1502.8531578892
 35
0.0
 40
0.0
  0
DIMENSION
  5
200
330
1F
100
AcDbEntity
  8
SLD-0_0
 62
     7
100
AcDbDimension
  2
_D_3
 10
1597.9125680213
 20
1666.7262894892
 30
0.0
 11
1654.7341055192
 21
1631.0486579653
 31
0.0
 70
   163
  1
<>
 71
     1
 42
-1.0
  3
SLDDIMSTYLE3
100
AcDbDiametricDimension
 15
1847.3236306986
 25
1510.1236975114
 35
0.0
 40
0.0
  0
DIMENSION
  5
20A
330
1F
100
AcDbEntity
  8
SLD-0_0
 62
     7
100
AcDbDimension
  2
_D_4
 10
1589.1586570315
 20
1642.719840248
 30
0.0
 11
1532.3039921414
 21
1679.2169873331
 31
0.0
 70
   163
  1
<>
 71
     1
 42
-1.0
  3
SLDDIMSTYLE4
100
AcDbDiametricDimension
 15
1583.9950193638
 25
1646.8304175842
 35
0.0
 40
0.0
  0
DIMENSION
  5
218
330
1F
100
AcDbEntity
  8
SLD-0_0
 62
     7
100
AcDbDimension
  2
_D_5
 10
1453.6180993599
 20
1588.4249935003
 30
0.0
 11
1453.6180993599
 21
1488.5311427849
 31
0.0
 70
   160
  1
<>
 71
     2
 42
-1.0
  3
SLDDIMSTYLE1
100
AcDbAlignedDimension
 13
1477.6180993599
 23
1393.4249935003
 33
0.0
 14
1572.8680993599
 24
1588.4249935003
 34
0.0
 50
90.0
100
AcDbRotatedDimension
  0
DIMENSION
  5
222
330
1F
100
AcDbEntity
  8
SLD-0_0
 62
     7
100
AcDbDimension
  2
_D_6
 10
1477.6180993599
 20
1814.4249935003
 30
0.0
 11
1598.3227113234
 21
1814.4249935003
 31
0.0
 70
   160
  1
<>
 71
     2
 42
-1.0
  3
SLDDIMSTYLE1
100
AcDbAlignedDimension
 13
1722.6180993599
 23
1738.1749935003
 33
0.0
 14
1477.6180993599
 24
1783.4249935003
 34
0.0
100
AcDbRotatedDimension
  0
INSERT
  5
26F
330
1F
100
AcDbEntity
  8
SLD-0_0
 62
     7
100
AcDbBlockReference
  2
SW_CENTERMARKSYMBOL_0
 10
1586.5768381977
 20
1644.7751289161
 30
0.0
  0
LINE
  5
270
330
1F
100
AcDbEntity
  8
0
  6
Continuous
 62
     7
100
AcDbLine
 10
1982.6180993599
 20
1190.4984614637
 30
0.0
 11
1462.6180993599
 21
1190.4984614637
 31
0.0
  0
LINE
  5
271
330
1F
100
AcDbEntity
  8
0
  6
Continuous
 62
     7
100
AcDbLine
 10
1982.6180993599
 20
905.4984614637
 30
0.0
 11
1982.6180993599
 21
1190.4984614637
 31
0.0
  0
LINE
  5
272
330
1F
100
AcDbEntity
  8
0
  6
Continuous
 62
     7
100
AcDbLine
 10
1462.6180993599
 20
905.4984614637
 30
0.0
 11
1982.6180993599
 21
905.4984614637
 31
0.0
  0
LINE
  5
273
330
1F
100
AcDbEntity
  8
0
  6
Continuous
 62
     7
100
AcDbLine
 10
1462.6180993599
 20
1190.4984614637
 30
0.0
 11
1462.6180993599
 21
905.4984614637
 31
0.0
  0
DIMENSION
  5
274
330
1F
100
AcDbEntity
  8
SLD-0_0
 62
     7
100
AcDbDimension
  2
_D_7
 10
1982.6180993599
 20
881.4984614637
 30
0.0
 11
1724.6758996957
 21
881.4984614637
 31
0.0
 70
   160
  1
<>
 71
     2
 42
-1.0
  3
SLDDIMSTYLE1
100
AcDbAlignedDimension
 13
1462.6180993599
 23
905.4984614637
 33
0.0
 14
1982.6180993599
 24
905.4984614637
 34
0.0
100
AcDbRotatedDimension
  0
DIMENSION
  5
27E
330
1F
100
AcDbEntity
  8
SLD-0_0
 62
     7
100
AcDbDimension
  2
_D_8
 10
2013.6180993599
 20
1190.4984614637
 30
0.0
 11
2013.6180993599
 21
1050.0562617995
 31
0.0
 70
   160
  1
<>
 71
     2
 42
-1.0
  3
SLDDIMSTYLE1
100
AcDbAlignedDimension
 13
1982.6180993599
 23
905.4984614637
 33
0.0
 14
1982.6180993599
 24
1190.4984614637
 34
0.0
 50
90.0
100
AcDbRotatedDimension
  0
LINE
  5
288
330
1F
100
AcDbEntity
  8
0
  6
Continuous
 62
     7
100
AcDbLine
 10
2250.9383753311
 20
1190.4984614637
 30
0.0
 11
2250.9383753311
 21
905.4984614637
 31
0.0
  0
LINE
  5
289
330
1F
100
AcDbEntity
  8
0
  6
Continuous
 62
     7
100
AcDbLine
 10
2640.9383753311
 20
1190.4984614637
 30
0.0
 11
2250.9383753311
 21
1190.4984614637
 31
0.0
  0
LINE
  5
28A
330
1F
100
AcDbEntity
  8
0
  6
Continuous
 62
     7
100
AcDbLine
 10
2640.9383753311
 20
905.4984614637
 30
0.0
 11
2640.9383753311
 21
1190.4984614637
 31
0.0
  0
LINE
  5
28B
330
1F
100
AcDbEntity
  8
0
  6
Continuous
 62
     7
100
AcDbLine
 10
2250.9383753311
 20
905.4984614637
 30
0.0
 11
2640.9383753311
 21
905.4984614637
 31
0.0
  0
DIMENSION
  5
28C
330
1F
100
AcDbEntity
  8
SLD-0_0
 62
     7
100
AcDbDimension
  2
_D_9
 10
2671.9383753311
 20
1190.4984614637
 30
0.0
 11
2671.9383753311
 21
1049.0273616316
 31
0.0
 70
   160
  1
<>
 71
     2
 42
-1.0
  3
SLDDIMSTYLE1
100
AcDbAlignedDimension
 13
2640.9383753311
 23
905.4984614637
 33
0.0
 14
2640.9383753311
 24
1190.4984614637
 34
0.0
 50
90.0
100
AcDbRotatedDimension
  0
DIMENSION
  5
296
330
1F
100
AcDbEntity
  8
SLD-0_0
 62
     7
100
AcDbDimension
  2
_D_10
 10
2640.9383753311
 20
874.4984614637
 30
0.0
 11
2441.8227746595
 21
874.4984614637
 31
0.0
 70
   160
  1
<>
 71
     2
 42
-1.0
  3
SLDDIMSTYLE1
100
AcDbAlignedDimension
 13
2250.9383753311
 23
905.4984614637
 33
0.0
 14
2640.9383753311
 24
905.4984614637
 34
0.0
 50
0.0
100
AcDbRotatedDimension
  0
LINE
  5
2A0
330
1F
100
AcDbEntity
  8
0
  6
Continuous
 62
     7
100
AcDbLine
 10
1967.6180993599
 20
718.1549952997
 30
0.0
 11
1477.6180993599
 21
718.1549952997
 31
0.0
  0
LINE
  5
2A1
330
1F
100
AcDbEntity
  8
0
  6
Continuous
 62
     7
100
AcDbLine
 10
1967.6180993599
 20
328.1549952997
 30
0.0
 11
1967.6180993599
 21
718.1549952997
 31
0.0
  0
LINE
  5
2A2
330
1F
100
AcDbEntity
  8
0
  6
Continuous
 62
     7
100
AcDbLine
 10
1477.6180993599
 20
328.1549952997
 30
0.0
 11
1967.6180993599
 21
328.1549952997
 31
0.0
  0
LINE
  5
2A3
330
1F
100
AcDbEntity
  8
0
  6
Continuous
 62
     7
100
AcDbLine
 10
1477.6180993599
 20
718.1549952997
 30
0.0
 11
1477.6180993599
 21
328.1549952997
 31
0.0
  0
DIMENSION
  5
2A4
330
1F
100
AcDbEntity
  8
SLD-0_0
 62
     7
100
AcDbDimension
  2
_D_11
 10
1967.6180993599
 20
304.1549952997
 30
0.0
 11
1722.6180993599
 21
304.1549952997
 31
0.0
 70
   160
  1
<>
 71
     2
 42
-1.0
  3
SLDDIMSTYLE1
100
AcDbAlignedDimension
 13
1477.6180993599
 23
328.1549952997
 33
0.0
 14
1967.6180993599
 24
328.1549952997
 34
0.0
100
AcDbRotatedDimension
  0
DIMENSION
  5
2AE
330
1F
100
AcDbEntity
  8
SLD-0_0
 62
     7
100
AcDbDimension
  2
_D_12
 10
2005.6180993599
 20
718.1549952997
 30
0.0
 11
2005.6180993599
 21
530.357296475
 31
0.0
 70
   160
  1
<>
 71
     2
 42
-1.0
  3
SLDDIMSTYLE1
100
AcDbAlignedDimension
 13
1967.6180993599
 23
328.1549952997
 33
0.0
 14
1967.6180993599
 24
718.1549952997
 34
0.0
 50
90.0
100
AcDbRotatedDimension
  0
ENDSEC
  0
SECTION
  2
OBJECTS
  0
DICTIONARY
  5
C
330
0
100
AcDbDictionary
281
     1
  3
ACAD_GROUP
350
D
  3
ACAD_LAYOUT
350
1A
  3
ACAD_MLINESTYLE
350
17
  3
ACAD_PLOTSETTINGS
350
19
  3
ACAD_PLOTSTYLENAME
350
E
  3
ACAD_SCALELIST
350
47
  0
DICTIONARY
  5
D
102
{ACAD_REACTORS
330
C
102
}
330
C
100
AcDbDictionary
281
     1
  0
DICTIONARY
  5
1A
102
{ACAD_REACTORS
330
C
102
}
330
C
100
AcDbDictionary
281
     1
  3
Layout1
350
1E
  3
Layout2
350
26
  3
Model
350
22
  0
DICTIONARY
  5
17
102
{ACAD_REACTORS
330
C
102
}
330
C
100
AcDbDictionary
281
     1
  3
Standard
350
18
  0
DICTIONARY
  5
19
102
{ACAD_REACTORS
330
C
102
}
330
C
100
AcDbDictionary
281
     1
  0
ACDBDICTIONARYWDFLT
  5
E
102
{ACAD_REACTORS
330
C
102
}
330
C
100
AcDbDictionary
281
     1
  3
Normal
350
F
100
AcDbDictionaryWithDefault
340
F
  0
DICTIONARY
  5
47
102
{ACAD_REACTORS
330
C
102
}
330
C
100
AcDbDictionary
281
     1
  3
A0
350
48
  3
A1
350
49
  3
A2
350
4A
  3
A3
350
4B
  3
A4
350
4C
  3
A5
350
4D
  3
A6
350
4E
  3
A7
350
4F
  3
A8
350
50
  3
A9
350
51
  3
B0
350
52
  3
B1
350
53
  3
B2
350
54
  3
B3
350
55
  3
B4
350
56
  3
B5
350
57
  3
B6
350
58
  3
B7
350
59
  3
B8
350
5A
  3
B9
350
5B
  3
C0
350
5C
  3
C1
350
5D
  3
C2
350
5E
  3
C3
350
5F
  3
C4
350
60
  3
C5
350
61
  3
C6
350
62
  3
C7
350
63
  3
C8
350
64
  3
C9
350
65
  3
D0
350
66
  3
D1
350
67
  3
D2
350
68
  0
LAYOUT
  5
1E
102
{ACAD_REACTORS
330
1A
102
}
330
1A
100
AcDbPlotSettings
  1

  2
none_device
  4

  6

 40
0.0
 41
0.0
 42
0.0
 43
0.0
 44
0.0
 45
0.0
 46
0.0
 47
0.0
 48
0.0
 49
0.0
140
0.0
141
0.0
142
1.0
143
1.0
 70
   688
 72
     1
 73
     0
 74
     5
  7

 75
    16
147
1.0
148
0.0
149
0.0
100
AcDbLayout
  1
Layout1
 70
     1
 71
     1
 10
0.0
 20
0.0
 11
420.0
 21
297.0
 12
0.0
 22
0.0
 32
0.0
 14
1.0000000000E+20
 24
1.0000000000E+20
 34
1.0000000000E+20
 15
-1.0000000000E+20
 25
-1.0000000000E+20
 35
-1.0000000000E+20
146
0.0
 13
0.0
 23
0.0
 33
0.0
 16
1.0
 26
0.0
 36
0.0
 17
0.0
 27
1.0
 37
0.0
 76
     0
330
1B
  0
LAYOUT
  5
26
102
{ACAD_REACTORS
330
1A
102
}
330
1A
100
AcDbPlotSettings
  1

  2
none_device
  4

  6

 40
0.0
 41
0.0
 42
0.0
 43
0.0
 44
0.0
 45
0.0
 46
0.0
 47
0.0
 48
0.0
 49
0.0
140
0.0
141
0.0
142
1.0
143
1.0
 70
   688
 72
     1
 73
     0
 74
     5
  7

 75
    16
147
1.0
148
0.0
149
0.0
100
AcDbLayout
  1
Layout2
 70
     1
 71
     2
 10
0.0
 20
0.0
 11
0.0
 21
0.0
 12
0.0
 22
0.0
 32
0.0
 14
0.0
 24
0.0
 34
0.0
 15
0.0
 25
0.0
 35
0.0
146
0.0
 13
0.0
 23
0.0
 33
0.0
 16
1.0
 26
0.0
 36
0.0
 17
0.0
 27
1.0
 37
0.0
 76
     0
330
23
  0
LAYOUT
  5
22
102
{ACAD_REACTORS
330
1A
102
}
330
1A
100
AcDbPlotSettings
  1

  2
none_device
  4
Letter_(8.50_x_11.00_Inches)
  6

 40
6.35
 41
6.35
 42
6.35000508
 43
6.35000508
 44
215.9
 45
279.4
 46
0.0
 47
0.0
 48
0.0
 49
0.0
140
0.0
141
0.0
142
1.0
143
1.0
 70
  1712
 72
     1
 73
     0
 74
     0
  7

 75
     0
147
1.0
148
0.0
149
0.0
100
AcDbLayout
  1
Model
 70
     1
 71
     0
 10
0.0
 20
0.0
 11
3000.0
 21
2000.0
 12
0.0
 22
0.0
 32
0.0
 14
0.0
 24
0.0
 34
0.0
 15
3000.0
 25
2000.0
 35
0.0
146
0.0
 13
0.0
 23
0.0
 33
0.0
 16
1.0
 26
0.0
 36
0.0
 17
0.0
 27
1.0
 37
0.0
 76
     0
330
1F
331
29
  0
MLINESTYLE
  5
18
102
{ACAD_REACTORS
330
17
102
}
330
17
100
AcDbMlineStyle
  2
Standard
 70
     0
  3

 62
   256
 51
90.0
 52
90.0
 71
     2
 49
0.5
 62
   256
  6
BYLAYER
 49
-0.5
 62
   256
  6
BYLAYER
  0
ACDBPLACEHOLDER
  5
F
102
{ACAD_REACTORS
330
E
102
}
330
E
  0
SCALE
  5
48
102
{ACAD_REACTORS
330
47
102
}
330
47
100
AcDbScale
 70
     0
300
1:1
140
1.0
141
1.0
290
     1
  0
SCALE
  5
49
102
{ACAD_REACTORS
330
47
102
}
330
47
100
AcDbScale
 70
     0
300
1:2
140
1.0
141
2.0
290
     0
  0
SCALE
  5
4A
102
{ACAD_REACTORS
330
47
102
}
330
47
100
AcDbScale
 70
     0
300
1:4
140
1.0
141
4.0
290
     0
  0
SCALE
  5
4B
102
{ACAD_REACTORS
330
47
102
}
330
47
100
AcDbScale
 70
     0
300
1:5
140
1.0
141
5.0
290
     0
  0
SCALE
  5
4C
102
{ACAD_REACTORS
330
47
102
}
330
47
100
AcDbScale
 70
     0
300
1:8
140
1.0
141
8.0
290
     0
  0
SCALE
  5
4D
102
{ACAD_REACTORS
330
47
102
}
330
47
100
AcDbScale
 70
     0
300
1:10
140
1.0
141
10.0
290
     0
  0
SCALE
  5
4E
102
{ACAD_REACTORS
330
47
102
}
330
47
100
AcDbScale
 70
     0
300
1:16
140
1.0
141
16.0
290
     0
  0
SCALE
  5
4F
102
{ACAD_REACTORS
330
47
102
}
330
47
100
AcDbScale
 70
     0
300
1:20
140
1.0
141
20.0
290
     0
  0
SCALE
  5
50
102
{ACAD_REACTORS
330
47
102
}
330
47
100
AcDbScale
 70
     0
300
1:30
140
1.0
141
30.0
290
     0
  0
SCALE
  5
51
102
{ACAD_REACTORS
330
47
102
}
330
47
100
AcDbScale
 70
     0
300
1:40
140
1.0
141
40.0
290
     0
  0
SCALE
  5
52
102
{ACAD_REACTORS
330
47
102
}
330
47
100
AcDbScale
 70
     0
300
1:50
140
1.0
141
50.0
290
     0
  0
SCALE
  5
53
102
{ACAD_REACTORS
330
47
102
}
330
47
100
AcDbScale
 70
     0
300
1:100
140
1.0
141
100.0
290
     0
  0
SCALE
  5
54
102
{ACAD_REACTORS
330
47
102
}
330
47
100
AcDbScale
 70
     0
300
2:1
140
2.0
141
1.0
290
     0
  0
SCALE
  5
55
102
{ACAD_REACTORS
330
47
102
}
330
47
100
AcDbScale
 70
     0
300
4:1
140
4.0
141
1.0
290
     0
  0
SCALE
  5
56
102
{ACAD_REACTORS
330
47
102
}
330
47
100
AcDbScale
 70
     0
300
8:1
140
8.0
141
1.0
290
     0
  0
SCALE
  5
57
102
{ACAD_REACTORS
330
47
102
}
330
47
100
AcDbScale
 70
     0
300
10:1
140
10.0
141
1.0
290
     0
  0
SCALE
  5
58
102
{ACAD_REACTORS
330
47
102
}
330
47
100
AcDbScale
 70
     0
300
100:1
140
100.0
141
1.0
290
     0
  0
SCALE
  5
59
102
{ACAD_REACTORS
330
47
102
}
330
47
100
AcDbScale
 70
     0
300
1/128" = 1'-0"
140
0.0078125
141
12.0
290
     0
  0
SCALE
  5
5A
102
{ACAD_REACTORS
330
47
102
}
330
47
100
AcDbScale
 70
     0
300
1/64" = 1'-0"
140
0.015625
141
12.0
290
     0
  0
SCALE
  5
5B
102
{ACAD_REACTORS
330
47
102
}
330
47
100
AcDbScale
 70
     0
300
1/32" = 1'-0"
140
0.03125
141
12.0
290
     0
  0
SCALE
  5
5C
102
{ACAD_REACTORS
330
47
102
}
330
47
100
AcDbScale
 70
     0
300
1/16" = 1'-0"
140
0.0625
141
12.0
290
     0
  0
SCALE
  5
5D
102
{ACAD_REACTORS
330
47
102
}
330
47
100
AcDbScale
 70
     0
300
3/32" = 1'-0"
140
0.09375
141
12.0
290
     0
  0
SCALE
  5
5E
102
{ACAD_REACTORS
330
47
102
}
330
47
100
AcDbScale
 70
     0
300
1/8" = 1'-0"
140
0.125
141
12.0
290
     0
  0
SCALE
  5
5F
102
{ACAD_REACTORS
330
47
102
}
330
47
100
AcDbScale
 70
     0
300
3/16" = 1'-0"
140
0.1875
141
12.0
290
     0
  0
SCALE
  5
60
102
{ACAD_REACTORS
330
47
102
}
330
47
100
AcDbScale
 70
     0
300
1/4" = 1'-0"
140
0.25
141
12.0
290
     0
  0
SCALE
  5
61
102
{ACAD_REACTORS
330
47
102
}
330
47
100
AcDbScale
 70
     0
300
3/8" = 1'-0"
140
0.375
141
12.0
290
     0
  0
SCALE
  5
62
102
{ACAD_REACTORS
330
47
102
}
330
47
100
AcDbScale
 70
     0
300
1/2" = 1'-0"
140
0.5
141
12.0
290
     0
  0
SCALE
  5
63
102
{ACAD_REACTORS
330
47
102
}
330
47
100
AcDbScale
 70
     0
300
3/4" = 1'-0"
140
0.75
141
12.0
290
     0
  0
SCALE
  5
64
102
{ACAD_REACTORS
330
47
102
}
330
47
100
AcDbScale
 70
     0
300
1" = 1'-0"
140
1.0
141
12.0
290
     0
  0
SCALE
  5
65
102
{ACAD_REACTORS
330
47
102
}
330
47
100
AcDbScale
 70
     0
300
1-1/2" = 1'-0"
140
1.5
141
12.0
290
     0
  0
SCALE
  5
66
102
{ACAD_REACTORS
330
47
102
}
330
47
100
AcDbScale
 70
     0
300
3" = 1'-0"
140
3.0
141
12.0
290
     0
  0
SCALE
  5
67
102
{ACAD_REACTORS
330
47
102
}
330
47
100
AcDbScale
 70
     0
300
6" = 1'-0"
140
6.0
141
12.0
290
     0
  0
SCALE
  5
68
102
{ACAD_REACTORS
330
47
102
}
330
47
100
AcDbScale
 70
     0
300
1'-0" = 1'-0"
140
12.0
141
12.0
290
     0
  0
ENDSEC
  0
EOF
