  0
SECTION
  2
HEADER
  9
$ACADVER
  1
AC1015
  9
$ACADMAINTVER
 70
     6
  9
$DWGCODEPAGE
  3
ANSI_1252
  9
$INSBASE
 10
0.0
 20
0.0
 30
0.0
  9
$EXTMIN
 10
0.0
 20
0.0
 30
0.0
  9
$EXTMAX
 10
2378.0
 20
1682.0
 30
0.0
  9
$LIMMIN
 10
0.0
 20
0.0
  9
$LIMMAX
 10
2378.0
 20
1682.0
  9
$ORTHOMODE
 70
     0
  9
$REGENMODE
 70
     1
  9
$FILLMODE
 70
     1
  9
$QTEXTMODE
 70
     0
  9
$MIRRTEXT
 70
     1
  9
$LTSCALE
 40
1.0
  9
$ATTMODE
 70
     1
  9
$TEXTSIZE
 40
2.5
  9
$TRACEWID
 40
1.0
  9
$TEXTSTYLE
  7
Standard
  9
$CLAYER
  8
0
  9
$CELTYPE
  6
ByLayer
  9
$CECOLOR
 62
   256
  9
$CELTSCALE
 40
1.0
  9
$DISPSILH
 70
     0
  9
$DIMSCALE
 40
1.0
  9
$DIMASZ
 40
3.302
  9
$DIMEXO
 40
1.0
  9
$DIMDLI
 40
3.75
  9
$DIMRND
 40
0.0
  9
$DIMDLE
 40
0.0
  9
$DIMEXE
 40
1.0
  9
$DIMTP
 40
0.0
  9
$DIMTM
 40
0.0
  9
$DIMTXT
 40
3.5
  9
$DIMCEN
 40
2.5
  9
$DIMTSZ
 40
0.0
  9
$DIMTOL
 70
     0
  9
$DIMLIM
 70
     0
  9
$DIMTIH
 70
     1
  9
$DIMTOH
 70
     1
  9
$DIMSE1
 70
     0
  9
$DIMSE2
 70
     0
  9
$DIMTAD
 70
     1
  9
$DIMZIN
 70
     0
  9
$DIMBLK
  1

  9
$DIMASO
 70
     1
  9
$DIMSHO
 70
     1
  9
$DIMPOST
  1

  9
$DIMAPOST
  1

  9
$DIMALT
 70
     0
  9
$DIMALTD
 70
     3
  9
$DIMALTF
 40
0.0393700787
  9
$DIMLFAC
 40
1.0
  9
$DIMTOFL
 70
     1
  9
$DIMTVP
 40
0.0
  9
$DIMTIX
 70
     0
  9
$DIMSOXD
 70
     0
  9
$DIMSAH
 70
     0
  9
$DIMBLK1
  1

  9
$DIMBLK2
  1

  9
$DIMSTYLE
  2
ISO-25
  9
$DIMCLRD
 70
     0
  9
$DIMCLRE
 70
     0
  9
$DIMCLRT
 70
     0
  9
$DIMTFAC
 40
1.0
  9
$DIMGAP
 40
1.524
  9
$DIMJUST
 70
     0
  9
$DIMSD1
 70
     0
  9
$DIMSD2
 70
     0
  9
$DIMTOLJ
 70
     0
  9
$DIMTZIN
 70
     0
  9
$DIMALTZ
 70
     0
  9
$DIMALTTZ
 70
     0
  9
$DIMUPT
 70
     0
  9
$DIMDEC
 70
     2
  9
$DIMTDEC
 70
     2
  9
$DIMALTU
 70
     2
  9
$DIMALTTD
 70
     3
  9
$DIMTXSTY
  7
Standard
  9
$DIMAUNIT
 70
     0
  9
$DIMADEC
 70
     2
  9
$DIMALTRND
 40
0.0
  9
$DIMAZIN
 70
     0
  9
$DIMDSEP
 70
    44
  9
$DIMATFIT
 70
     3
  9
$DIMFRAC
 70
     0
  9
$DIMLDRBLK
  1

  9
$DIMLUNIT
 70
     2
  9
$DIMLWD
 70
    -2
  9
$DIMLWE
 70
    -2
  9
$DIMTMOVE
 70
     0
  9
$LUNITS
 70
     2
  9
$LUPREC
 70
     2
  9
$SKETCHINC
 40
1.0
  9
$FILLETRAD
 40
10.0
  9
$AUNITS
 70
     0
  9
$AUPREC
 70
     2
  9
$MENU
  1
.
  9
$ELEVATION
 40
0.0
  9
$PELEVATION
 40
0.0
  9
$THICKNESS
 40
0.0
  9
$LIMCHECK
 70
     0
  9
$CHAMFERA
 40
0.0
  9
$CHAMFERB
 40
0.0
  9
$CHAMFERC
 40
0.0
  9
$CHAMFERD
 40
0.0
  9
$SKPOLY
 70
     0
  9
$TDCREATE
 40
2459254.368438322
  9
$TDUCREATE
 40
2459254.326771655
  9
$TDUPDATE
 40
2459254.368469132
  9
$TDUUPDATE
 40
2459254.326802465
  9
$TDINDWG
 40
0.0000000116
  9
$TDUSRTIMER
 40
0.0000000116
  9
$USRTIMER
 70
     1
  9
$ANGBASE
 50
0.0
  9
$ANGDIR
 70
     0
  9
$PDMODE
 70
     0
  9
$PDSIZE
 40
-1.0
  9
$PLINEWID
 40
0.0
  9
$SPLFRAME
 70
     0
  9
$SPLINETYPE
 70
     6
  9
$SPLINESEGS
 70
     8
  9
$HANDSEED
  5
40F
  9
$SURFTAB1
 70
     6
  9
$SURFTAB2
 70
     6
  9
$SURFTYPE
 70
     6
  9
$SURFU
 70
     6
  9
$SURFV
 70
     6
  9
$UCSBASE
  2

  9
$UCSNAME
  2

  9
$UCSORG
 10
0.0
 20
0.0
 30
0.0
  9
$UCSXDIR
 10
1.0
 20
0.0
 30
0.0
  9
$UCSYDIR
 10
0.0
 20
1.0
 30
0.0
  9
$UCSORTHOREF
  2

  9
$UCSORTHOVIEW
 70
     0
  9
$UCSORGTOP
 10
0.0
 20
0.0
 30
0.0
  9
$UCSORGBOTTOM
 10
0.0
 20
0.0
 30
0.0
  9
$UCSORGLEFT
 10
0.0
 20
0.0
 30
0.0
  9
$UCSORGRIGHT
 10
0.0
 20
0.0
 30
0.0
  9
$UCSORGFRONT
 10
0.0
 20
0.0
 30
0.0
  9
$UCSORGBACK
 10
0.0
 20
0.0
 30
0.0
  9
$PUCSBASE
  2

  9
$PUCSNAME
  2

  9
$PUCSORG
 10
0.0
 20
0.0
 30
0.0
  9
$PUCSXDIR
 10
1.0
 20
0.0
 30
0.0
  9
$PUCSYDIR
 10
0.0
 20
1.0
 30
0.0
  9
$PUCSORTHOREF
  2

  9
$PUCSORTHOVIEW
 70
     0
  9
$PUCSORGTOP
 10
0.0
 20
0.0
 30
0.0
  9
$PUCSORGBOTTOM
 10
0.0
 20
0.0
 30
0.0
  9
$PUCSORGLEFT
 10
0.0
 20
0.0
 30
0.0
  9
$PUCSORGRIGHT
 10
0.0
 20
0.0
 30
0.0
  9
$PUCSORGFRONT
 10
0.0
 20
0.0
 30
0.0
  9
$PUCSORGBACK
 10
0.0
 20
0.0
 30
0.0
  9
$USERI1
 70
     0
  9
$USERI2
 70
     0
  9
$USERI3
 70
     0
  9
$USERI4
 70
     0
  9
$USERI5
 70
     0
  9
$USERR1
 40
0.0
  9
$USERR2
 40
0.0
  9
$USERR3
 40
0.0
  9
$USERR4
 40
0.0
  9
$USERR5
 40
0.0
  9
$WORLDVIEW
 70
     1
  9
$SHADEDGE
 70
     3
  9
$SHADEDIF
 70
    70
  9
$TILEMODE
 70
     1
  9
$MAXACTVP
 70
    64
  9
$PINSBASE
 10
0.0
 20
0.0
 30
0.0
  9
$PLIMCHECK
 70
     0
  9
$PEXTMIN
 10
1.0000000000E+20
 20
1.0000000000E+20
 30
1.0000000000E+20
  9
$PEXTMAX
 10
-1.0000000000E+20
 20
-1.0000000000E+20
 30
-1.0000000000E+20
  9
$PLIMMIN
 10
0.0
 20
0.0
  9
$PLIMMAX
 10
420.0
 20
297.0
  9
$UNITMODE
 70
     0
  9
$VISRETAIN
 70
     1
  9
$PLINEGEN
 70
     0
  9
$PSLTSCALE
 70
     1
  9
$TREEDEPTH
 70
  3020
  9
$CMLSTYLE
  2
Standard
  9
$CMLJUST
 70
     0
  9
$CMLSCALE
 40
20.0
  9
$PROXYGRAPHICS
 70
     1
  9
$MEASUREMENT
 70
     1
  9
$CELWEIGHT
370
    -1
  9
$ENDCAPS
280
     0
  9
$JOINSTYLE
280
     0
  9
$LWDISPLAY
290
     1
  9
$INSUNITS
 70
     4
  9
$HYPERLINKBASE
  1

  9
$STYLESHEET
  1

  9
$XEDIT
290
     1
  9
$CEPSNTYPE
380
     0
  9
$PSTYLEMODE
290
     1
  9
$FINGERPRINTGUID
  2
{E4A22ACD-9A51-4974-80AC-4F75A1154DF7}
  9
$VERSIONGUID
  2
{FAEB1C32-E019-11D5-929B-00C0DF256EC4}
  9
$EXTNAMES
290
     1
  9
$PSVPSCALE
 40
0.0
  9
$OLESTARTUP
290
     0
  0
ENDSEC
  0
SECTION
  2
CLASSES
  0
CLASS
  1
ACDBDICTIONARYWDFLT
  2
AcDbDictionaryWithDefault
  3
ObjectDBX Classes
 90
        0
280
     0
281
     0
  0
CLASS
  1
VISUALSTYLE
  2
AcDbVisualStyle
  3
ObjectDBX Classes
 90
     4095
280
     0
281
     0
  0
CLASS
  1
MATERIAL
  2
AcDbMaterial
  3
ObjectDBX Classes
 90
     1153
280
     0
281
     0
  0
CLASS
  1
SCALE
  2
AcDbScale
  3
ObjectDBX Classes
 90
     1153
280
     0
281
     0
  0
CLASS
  1
TABLESTYLE
  2
AcDbTableStyle
  3
ObjectDBX Classes
 90
     4095
280
     0
281
     0
  0
CLASS
  1
MLEADERSTYLE
  2
AcDbMLeaderStyle
  3
ACDB_MLEADERSTYLE_CLASS
 90
     4095
280
     0
281
     0
  0
CLASS
  1
SUN
  2
AcDbSun
  3
SCENEOE
 90
     1153
280
     0
281
     0
  0
CLASS
  1
ACDBPLACEHOLDER
  2
AcDbPlaceHolder
  3
ObjectDBX Classes
 90
        0
280
     0
281
     0
  0
CLASS
  1
LAYOUT
  2
AcDbLayout
  3
ObjectDBX Classes
 90
        0
280
     0
281
     0
  0
ENDSEC
  0
SECTION
  2
TABLES
  0
TABLE
  2
VPORT
  5
8
330
0
100
AcDbSymbolTable
 70
     1
  0
VPORT
  5
29
330
8
100
AcDbSymbolTableRecord
100
AcDbViewportTableRecord
  2
*Active
 70
     0
 10
0.0
 20
0.0
 11
1.0
 21
1.0
 12
1189.0
 22
841.0
 13
0.0
 23
0.0
 14
10.0
 24
10.0
 15
10.0
 25
10.0
 16
0.0
 26
0.0
 36
1.0
 17
0.0
 27
0.0
 37
0.0
 40
1682.0
 41
1.4137931034
 42
50.0
 43
0.0
 44
0.0
 50
0.0
 51
0.0
 71
     0
 72
  2000
 73
     1
 74
     3
 75
     0
 76
     0
 77
     0
 78
     0
281
     0
 65
     1
110
0.0
120
0.0
130
0.0
111
1.0
121
0.0
131
0.0
112
0.0
122
1.0
132
0.0
 79
     0
146
0.0
  0
ENDTAB
  0
TABLE
  2
LTYPE
  5
5
330
0
100
AcDbSymbolTable
 70
     6
  0
LTYPE
  5
14
330
5
100
AcDbSymbolTableRecord
100
AcDbLinetypeTableRecord
  2
ByBlock
 70
     0
  3

 72
    65
 73
     0
 40
0.0
  0
LTYPE
  5
15
330
5
100
AcDbSymbolTableRecord
100
AcDbLinetypeTableRecord
  2
ByLayer
 70
     0
  3

 72
    65
 73
     0
 40
0.0
  0
LTYPE
  5
16
330
5
100
AcDbSymbolTableRecord
100
AcDbLinetypeTableRecord
  2
Continuous
 70
     0
  3
Solid line
 72
    65
 73
     0
 40
0.0
  0
LTYPE
  5
6E
330
5
100
AcDbSymbolTableRecord
100
AcDbLinetypeTableRecord
  2
HIDDEN
 70
     0
  3
Hidden __ __ __ __ __ __ __ __ __ __ __ __ __ __
 72
    65
 73
     2
 40
1.905
 49
1.27
 74
     0
 49
-0.635
 74
     0
  0
LTYPE
  5
6F
330
5
100
AcDbSymbolTableRecord
100
AcDbLinetypeTableRecord
  2
PHANTOM
 70
     0
  3
Phantom ______  __  __  ______  __  __  ______
 72
    65
 73
     6
 40
12.7
 49
6.35
 74
     0
 49
-1.27
 74
     0
 49
1.27
 74
     0
 49
-1.27
 74
     0
 49
1.27
 74
     0
 49
-1.27
 74
     0
  0
LTYPE
  5
70
330
5
100
AcDbSymbolTableRecord
100
AcDbLinetypeTableRecord
  2
CENTER
 70
     0
  3
Center ____ _ ____ _ ____ _ ____ _ ____ _ ____
 72
    65
 73
     4
 40
10.16
 49
6.35
 74
     0
 49
-1.27
 74
     0
 49
1.27
 74
     0
 49
-1.27
 74
     0
  0
LTYPE
  5
71
330
5
100
AcDbSymbolTableRecord
100
AcDbLinetypeTableRecord
  2
CENTERX2
 70
     0
  3
Center (2x) ________  __  ________  __  _____
 72
    65
 73
     4
 40
20.32
 49
12.7
 74
     0
 49
-2.54
 74
     0
 49
2.54
 74
     0
 49
-2.54
 74
     0
  0
LTYPE
  5
72
330
5
100
AcDbSymbolTableRecord
100
AcDbLinetypeTableRecord
  2
DOT2
 70
     0
  3
Dot (.5x) ........................................
 72
    65
 73
     2
 40
0.635
 49
0.0
 74
     0
 49
-0.635
 74
     0
  0
ENDTAB
  0
TABLE
  2
LAYER
  5
2
330
0
100
AcDbSymbolTable
 70
     9
  0
LAYER
  5
10
330
2
100
AcDbSymbolTableRecord
100
AcDbLayerTableRecord
  2
0
 70
     0
 62
     7
  6
Continuous
370
    -3
390
F
  0
LAYER
  5
73
330
2
100
AcDbSymbolTableRecord
100
AcDbLayerTableRecord
  2
SLD-0_0
 70
     0
 62
   179
  6
Continuous
370
    -3
390
F
  0
LAYER
  5
74
330
2
100
AcDbSymbolTableRecord
100
AcDbLayerTableRecord
  2
SLD-0
 70
     0
 62
   179
  6
Continuous
370
    -3
390
F
  0
LAYER
  5
75
330
2
100
AcDbSymbolTableRecord
100
AcDbLayerTableRecord
  2
PREDETERMINADO
 70
     0
 62
   179
  6
Continuous
370
    -3
390
F
  0
LAYER
  5
76
330
2
100
AcDbSymbolTableRecord
100
AcDbLayerTableRecord
  2
CAJETIN
 70
     0
 62
   179
  6
Continuous
370
    -3
390
F
  0
LAYER
  5
77
330
2
100
AcDbSymbolTableRecord
100
AcDbLayerTableRecord
  2
FORMATO
 70
     0
 62
   179
  6
Continuous
370
    -3
390
F
  0
LAYER
  5
78
330
2
100
AcDbSymbolTableRecord
100
AcDbLayerTableRecord
  2
NONPLOT
 70
     0
 62
    -1
  6
DOT2
290
     0
370
    -3
390
F
  0
LAYER
  5
79
330
2
100
AcDbSymbolTableRecord
100
AcDbLayerTableRecord
  2
TEXTOS
 70
     0
 62
   142
  6
Continuous
370
    -3
390
F
  0
LAYER
  5
7A
330
2
100
AcDbSymbolTableRecord
100
AcDbLayerTableRecord
  2
FORMAT
 70
     0
 62
     7
  6
Continuous
370
    -3
390
F
  0
ENDTAB
  0
TABLE
  2
STYLE
  5
3
330
0
100
AcDbSymbolTable
 70
     4
  0
STYLE
  5
11
330
3
100
AcDbSymbolTableRecord
100
AcDbTextStyleTableRecord
  2
Standard
 70
     0
 40
0.0
 41
1.0
 50
0.0
 71
     0
 42
2.5
  3
txt
  4

  0
STYLE
  5
DF
330
3
100
AcDbSymbolTableRecord
100
AcDbTextStyleTableRecord
  2
SLDTEXTSTYLE0
 70
     0
 40
0.0
 41
0.605
 50
0.0
 71
     0
 42
2.5
  3
TXT
  4

  0
STYLE
  5
115
330
3
100
AcDbSymbolTableRecord
100
AcDbTextStyleTableRecord
  2
SLDTEXTSTYLE1
 70
     0
 40
0.0
 41
0.5636394322
 50
0.0
 71
     0
 42
2.5
  3
TXT
  4

  0
STYLE
  5
147
330
3
100
AcDbSymbolTableRecord
100
AcDbTextStyleTableRecord
  2
SLDTEXTSTYLE2
 70
     0
 40
0.0
 41
0.575
 50
0.0
 71
     0
 42
2.5
  3
TXT
  4

  0
ENDTAB
  0
TABLE
  2
VIEW
  5
6
330
0
100
AcDbSymbolTable
 70
     0
  0
ENDTAB
  0
TABLE
  2
UCS
  5
7
330
0
100
AcDbSymbolTable
 70
     0
  0
ENDTAB
  0
TABLE
  2
APPID
  5
9
330
0
100
AcDbSymbolTable
 70
     1
  0
APPID
  5
12
330
9
100
AcDbSymbolTableRecord
100
AcDbRegAppTableRecord
  2
ACAD
 70
     0
  0
ENDTAB
  0
TABLE
  2
DIMSTYLE
  5
A
330
0
100
AcDbSymbolTable
 70
     8
100
AcDbDimStyleTable
  0
DIMSTYLE
105
27
330
A
100
AcDbSymbolTableRecord
100
AcDbDimStyleTableRecord
  2
ISO-25
 70
     0
 41
2.5
 42
0.625
 43
3.75
 44
1.25
 73
     0
 74
     0
 77
     1
 78
     8
140
2.5
141
2.5
143
0.0393700787
147
0.625
171
     3
172
     1
178
     0
271
     2
272
     2
274
     3
278
    44
283
     0
284
     8
340
11
  0
DIMSTYLE
105
20D
330
A
100
AcDbSymbolTableRecord
100
AcDbDimStyleTableRecord
  2
SLDDIMSTYLE0
 70
     0
 41
1.016
 44
0.0
 45
0.000000001
146
1.016
147
0.0
173
     1
178
     0
271
     0
272
     0
276
     2
340
11
341
20E
343
20E
344
20E
  0
DIMSTYLE
105
254
102
{ACAD_REACTORS
330
253
330
25E
330
26C
330
276
330
284
330
28E
330
2A8
330
2B2
330
2C7
330
2D1
330
35D
330
367
330
371
330
399
330
3A3
330
3AD
330
3C2
330
3FA
102
}
330
A
100
AcDbSymbolTableRecord
100
AcDbDimStyleTableRecord
  2
SLDDIMSTYLE1
 70
     0
 41
3.302
 44
0.0
 45
0.000000001
 73
     0
 74
     0
 77
     1
 78
    12
 79
     3
140
12.3279296875
147
3.0819824219
173
     1
178
     0
271
     2
272
     2
276
     2
284
    12
340
DF
  0
DIMSTYLE
105
2BD
102
{ACAD_REACTORS
330
2BC
330
2F4
330
2FE
330
387
102
}
330
A
100
AcDbSymbolTableRecord
100
AcDbDimStyleTableRecord
  2
SLDDIMSTYLE2
 70
     0
 41
3.302
 44
0.0
 45
0.000000001
 73
     0
 74
     0
 77
     1
 78
     4
 79
     1
140
12.3279296875
147
3.0819824219
173
     1
178
     0
271
     2
272
     2
276
     2
284
    12
340
DF
  0
DIMSTYLE
105
2DC
102
{ACAD_REACTORS
330
2DB
330
308
102
}
330
A
100
AcDbSymbolTableRecord
100
AcDbDimStyleTableRecord
  2
SLDDIMSTYLE3
 70
     0
 41
3.302
 44
0.0
 45
0.000000001
 73
     0
 74
     0
 77
     1
 78
    12
 79
     3
140
12.3279296875
141
0.0
147
3.0819824219
172
     1
173
     1
178
     0
271
     2
272
     2
276
     2
284
    12
340
DF
  0
DIMSTYLE
105
2E7
102
{ACAD_REACTORS
330
2E6
102
}
330
A
100
AcDbSymbolTableRecord
100
AcDbDimStyleTableRecord
  2
SLDDIMSTYLE4
 70
     0
 41
3.302
 44
0.0
 45
0.000000001
 78
     4
 79
     1
140
12.3279296875
141
0.0
147
3.0819824219
172
     1
173
     1
178
     0
271
     2
272
     2
276
     2
284
    12
340
DF
341
2E8
343
2E8
  0
DIMSTYLE
105
37B
102
{ACAD_REACTORS
330
37A
330
3B6
330
3E4
102
}
330
A
100
AcDbSymbolTableRecord
100
AcDbDimStyleTableRecord
  2
SLDDIMSTYLE5
 70
     0
 41
3.302
 44
0.0
 45
0.000000001
 73
     0
 74
     0
 77
     1
 78
    12
 79
     3
140
12.3279296875
147
3.0819824219
172
     1
173
     1
178
     0
271
     2
272
     2
276
     2
284
    12
289
     0
340
DF
  0
DIMSTYLE
105
405
102
{ACAD_REACTORS
330
404
102
}
330
A
100
AcDbSymbolTableRecord
100
AcDbDimStyleTableRecord
  2
SLDDIMSTYLE6
 70
     0
 41
3.302
 44
0.0
 45
0.000000001
 73
     0
 74
     0
 77
     1
 78
    12
 79
     3
140
12.3279296875
147
3.0819824219
173
     1
178
     0
271
     1
272
     1
276
     2
284
    12
340
DF
  0
ENDTAB
  0
TABLE
  2
BLOCK_RECORD
  5
1
330
0
100
AcDbSymbolTable
 70
    54
  0
BLOCK_RECORD
  5
1F
330
1
100
AcDbSymbolTableRecord
100
AcDbBlockTableRecord
  2
*Model_Space
340
22
  0
BLOCK_RECORD
  5
1B
330
1
100
AcDbSymbolTableRecord
100
AcDbBlockTableRecord
  2
*Paper_Space
340
1E
  0
BLOCK_RECORD
  5
23
330
1
100
AcDbSymbolTableRecord
100
AcDbBlockTableRecord
  2
*Paper_Space0
340
26
  0
BLOCK_RECORD
  5
DB
330
1
100
AcDbSymbolTableRecord
100
AcDbBlockTableRecord
  2
SW_NOTE_0
340
0
102
{BLKREFS
331
E1
102
}
  0
BLOCK_RECORD
  5
E2
330
1
100
AcDbSymbolTableRecord
100
AcDbBlockTableRecord
  2
SW_NOTE_1
340
0
102
{BLKREFS
331
E7
102
}
  0
BLOCK_RECORD
  5
E8
330
1
100
AcDbSymbolTableRecord
100
AcDbBlockTableRecord
  2
SW_NOTE_2
340
0
102
{BLKREFS
331
ED
102
}
  0
BLOCK_RECORD
  5
EE
330
1
100
AcDbSymbolTableRecord
100
AcDbBlockTableRecord
  2
SW_NOTE_3
340
0
102
{BLKREFS
331
F3
102
}
  0
BLOCK_RECORD
  5
F4
330
1
100
AcDbSymbolTableRecord
100
AcDbBlockTableRecord
  2
SW_NOTE_4
340
0
102
{BLKREFS
331
F9
102
}
  0
BLOCK_RECORD
  5
119
330
1
100
AcDbSymbolTableRecord
100
AcDbBlockTableRecord
  2
SW_NOTE_5
340
0
102
{BLKREFS
331
11E
102
}
  0
BLOCK_RECORD
  5
11F
330
1
100
AcDbSymbolTableRecord
100
AcDbBlockTableRecord
  2
SW_NOTE_6
340
0
102
{BLKREFS
331
124
102
}
  0
BLOCK_RECORD
  5
125
330
1
100
AcDbSymbolTableRecord
100
AcDbBlockTableRecord
  2
SW_NOTE_7
340
0
102
{BLKREFS
331
12A
102
}
  0
BLOCK_RECORD
  5
12B
330
1
100
AcDbSymbolTableRecord
100
AcDbBlockTableRecord
  2
SW_NOTE_8
340
0
102
{BLKREFS
331
130
102
}
  0
BLOCK_RECORD
  5
131
330
1
100
AcDbSymbolTableRecord
100
AcDbBlockTableRecord
  2
SW_TABLEANNOTATION_0
340
0
102
{BLKREFS
331
15C
102
}
  0
BLOCK_RECORD
  5
207
330
1
100
AcDbSymbolTableRecord
100
AcDbBlockTableRecord
  2
SW_NOTE_9
340
0
102
{BLKREFS
331
20C
102
}
  0
BLOCK_RECORD
  5
20E
330
1
100
AcDbSymbolTableRecord
100
AcDbBlockTableRecord
  2
_DOT
340
0
  0
BLOCK_RECORD
  5
217
330
1
100
AcDbSymbolTableRecord
100
AcDbBlockTableRecord
  2
SW_NOTE_10
340
0
102
{BLKREFS
331
21C
102
}
  0
BLOCK_RECORD
  5
21E
330
1
100
AcDbSymbolTableRecord
100
AcDbBlockTableRecord
  2
SW_NOTE_11
340
0
102
{BLKREFS
331
223
102
}
  0
BLOCK_RECORD
  5
225
330
1
100
AcDbSymbolTableRecord
100
AcDbBlockTableRecord
  2
SW_NOTE_12
340
0
102
{BLKREFS
331
22A
102
}
  0
BLOCK_RECORD
  5
22C
330
1
100
AcDbSymbolTableRecord
100
AcDbBlockTableRecord
  2
SW_NOTE_13
340
0
102
{BLKREFS
331
231
102
}
  0
BLOCK_RECORD
  5
233
330
1
100
AcDbSymbolTableRecord
100
AcDbBlockTableRecord
  2
SW_NOTE_14
340
0
102
{BLKREFS
331
238
102
}
  0
BLOCK_RECORD
  5
23A
330
1
100
AcDbSymbolTableRecord
100
AcDbBlockTableRecord
  2
SW_NOTE_15
340
0
102
{BLKREFS
331
23F
102
}
  0
BLOCK_RECORD
  5
241
330
1
100
AcDbSymbolTableRecord
100
AcDbBlockTableRecord
  2
SW_NOTE_16
340
0
102
{BLKREFS
331
246
102
}
  0
BLOCK_RECORD
  5
248
330
1
100
AcDbSymbolTableRecord
100
AcDbBlockTableRecord
  2
SW_NOTE_17
340
0
102
{BLKREFS
331
24D
102
}
  0
BLOCK_RECORD
  5
255
330
1
100
AcDbSymbolTableRecord
100
AcDbBlockTableRecord
  2
_D
340
0
  0
BLOCK_RECORD
  5
25F
330
1
100
AcDbSymbolTableRecord
100
AcDbBlockTableRecord
  2
_D_1
340
0
  0
BLOCK_RECORD
  5
26D
330
1
100
AcDbSymbolTableRecord
100
AcDbBlockTableRecord
  2
_D_2
340
0
  0
BLOCK_RECORD
  5
277
330
1
100
AcDbSymbolTableRecord
100
AcDbBlockTableRecord
  2
_D_3
340
0
  0
BLOCK_RECORD
  5
285
330
1
100
AcDbSymbolTableRecord
100
AcDbBlockTableRecord
  2
_D_4
340
0
  0
BLOCK_RECORD
  5
28F
330
1
100
AcDbSymbolTableRecord
100
AcDbBlockTableRecord
  2
_D_5
340
0
  0
BLOCK_RECORD
  5
2A9
330
1
100
AcDbSymbolTableRecord
100
AcDbBlockTableRecord
  2
_D_6
340
0
  0
BLOCK_RECORD
  5
2B3
330
1
100
AcDbSymbolTableRecord
100
AcDbBlockTableRecord
  2
_D_7
340
0
  0
BLOCK_RECORD
  5
2BE
330
1
100
AcDbSymbolTableRecord
100
AcDbBlockTableRecord
  2
_D_8
340
0
  0
BLOCK_RECORD
  5
2C8
330
1
100
AcDbSymbolTableRecord
100
AcDbBlockTableRecord
  2
_D_9
340
0
  0
BLOCK_RECORD
  5
2D2
330
1
100
AcDbSymbolTableRecord
100
AcDbBlockTableRecord
  2
_D_10
340
0
  0
BLOCK_RECORD
  5
2DD
330
1
100
AcDbSymbolTableRecord
100
AcDbBlockTableRecord
  2
_D_11
340
0
  0
BLOCK_RECORD
  5
2E8
330
1
100
AcDbSymbolTableRecord
100
AcDbBlockTableRecord
  2
_NONE
340
0
  0
BLOCK_RECORD
  5
2EB
330
1
100
AcDbSymbolTableRecord
100
AcDbBlockTableRecord
  2
_D_12
340
0
  0
BLOCK_RECORD
  5
2F5
330
1
100
AcDbSymbolTableRecord
100
AcDbBlockTableRecord
  2
_D_13
340
0
  0
BLOCK_RECORD
  5
2FF
330
1
100
AcDbSymbolTableRecord
100
AcDbBlockTableRecord
  2
_D_14
340
0
  0
BLOCK_RECORD
  5
309
330
1
100
AcDbSymbolTableRecord
100
AcDbBlockTableRecord
  2
_D_15
340
0
  0
BLOCK_RECORD
  5
311
330
1
100
AcDbSymbolTableRecord
100
AcDbBlockTableRecord
  2
SW_CENTERMARKSYMBOL_0
340
0
102
{BLKREFS
331
354
102
}
  0
BLOCK_RECORD
  5
35E
330
1
100
AcDbSymbolTableRecord
100
AcDbBlockTableRecord
  2
_D_16
340
0
  0
BLOCK_RECORD
  5
368
330
1
100
AcDbSymbolTableRecord
100
AcDbBlockTableRecord
  2
_D_17
340
0
  0
BLOCK_RECORD
  5
372
330
1
100
AcDbSymbolTableRecord
100
AcDbBlockTableRecord
  2
_D_18
340
0
  0
BLOCK_RECORD
  5
37C
330
1
100
AcDbSymbolTableRecord
100
AcDbBlockTableRecord
  2
_D_19
340
0
  0
BLOCK_RECORD
  5
388
330
1
100
AcDbSymbolTableRecord
100
AcDbBlockTableRecord
  2
_D_20
340
0
  0
BLOCK_RECORD
  5
39A
330
1
100
AcDbSymbolTableRecord
100
AcDbBlockTableRecord
  2
_D_21
340
0
  0
BLOCK_RECORD
  5
3A4
330
1
100
AcDbSymbolTableRecord
100
AcDbBlockTableRecord
  2
_D_22
340
0
  0
BLOCK_RECORD
  5
3AE
330
1
100
AcDbSymbolTableRecord
100
AcDbBlockTableRecord
  2
_D_23
340
0
  0
BLOCK_RECORD
  5
3B7
330
1
100
AcDbSymbolTableRecord
100
AcDbBlockTableRecord
  2
_D_24
340
0
  0
BLOCK_RECORD
  5
3C3
330
1
100
AcDbSymbolTableRecord
100
AcDbBlockTableRecord
  2
_D_25
340
0
  0
BLOCK_RECORD
  5
3D0
330
1
100
AcDbSymbolTableRecord
100
AcDbBlockTableRecord
  2
SW_ANGULAR_DIMENSION_0
340
0
102
{BLKREFS
331
3D9
102
}
  0
BLOCK_RECORD
  5
3DA
330
1
100
AcDbSymbolTableRecord
100
AcDbBlockTableRecord
  2
SW_ANGULAR_DIMENSION_1
340
0
102
{BLKREFS
331
3E3
102
}
  0
BLOCK_RECORD
  5
3E5
330
1
100
AcDbSymbolTableRecord
100
AcDbBlockTableRecord
  2
_D_26
340
0
  0
BLOCK_RECORD
  5
3FB
330
1
100
AcDbSymbolTableRecord
100
AcDbBlockTableRecord
  2
_D_27
340
0
  0
BLOCK_RECORD
  5
406
330
1
100
AcDbSymbolTableRecord
100
AcDbBlockTableRecord
  2
_D_28
340
0
  0
ENDTAB
  0
ENDSEC
  0
SECTION
  2
BLOCKS
  0
BLOCK
  5
20
330
1F
100
AcDbEntity
  8
0
100
AcDbBlockBegin
  2
*Model_Space
 70
     0
 10
0.0
 20
0.0
 30
0.0
  3
*Model_Space
  1

  0
ENDBLK
  5
21
330
1F
100
AcDbEntity
  8
0
100
AcDbBlockEnd
  0
BLOCK
  5
1C
330
1B
100
AcDbEntity
 67
     1
  8
0
100
AcDbBlockBegin
  2
*Paper_Space
 70
     0
 10
0.0
 20
0.0
 30
0.0
  3
*Paper_Space
  1

  0
ENDBLK
  5
1D
330
1B
100
AcDbEntity
 67
     1
  8
0
100
AcDbBlockEnd
  0
BLOCK
  5
24
330
23
100
AcDbEntity
  8
0
100
AcDbBlockBegin
  2
*Paper_Space0
 70
     0
 10
0.0
 20
0.0
 30
0.0
  3
*Paper_Space0
  1

  0
ENDBLK
  5
25
330
23
100
AcDbEntity
  8
0
100
AcDbBlockEnd
  0
BLOCK
  5
DC
330
DB
100
AcDbEntity
  8
0
100
AcDbBlockBegin
  2
SW_NOTE_0
 70
     0
 10
0.0
 20
0.0
 30
0.0
  3
SW_NOTE_0
  1

  0
CIRCLE
  5
DE
330
DB
100
AcDbEntity
  8
SLD-0_0
 62
     0
100
AcDbCircle
 10
4.6457872972
 20
9.6429265854
 30
0.0
 40
10.14935229367254
  0
MTEXT
  5
E0
330
DB
100
AcDbEntity
  8
SLD-0_0
 62
     0
100
AcDbMText
 10
0.0
 20
16.3200536553
 30
0.0
 40
12.7
 41
0.0
 71
     1
 72
     1
  1
4
  7
SLDTEXTSTYLE0
 73
     1
 44
1.0
  0
ENDBLK
  5
DD
330
DB
100
AcDbEntity
  8
0
100
AcDbBlockEnd
  0
BLOCK
  5
E3
330
E2
100
AcDbEntity
  8
0
100
AcDbBlockBegin
  2
SW_NOTE_1
 70
     0
 10
0.0
 20
0.0
 30
0.0
  3
SW_NOTE_1
  1

  0
CIRCLE
  5
E5
330
E2
100
AcDbEntity
  8
SLD-0_0
 62
     0
100
AcDbCircle
 10
4.6556349325
 20
9.6429229549
 30
0.0
 40
10.10394225800677
  0
MTEXT
  5
E6
330
E2
100
AcDbEntity
  8
SLD-0_0
 62
     0
100
AcDbMText
 10
0.0
 20
16.3200536553
 30
0.0
 40
12.7
 41
0.0
 71
     1
 72
     1
  1
3
  7
SLDTEXTSTYLE0
 73
     1
 44
1.0
  0
ENDBLK
  5
E4
330
E2
100
AcDbEntity
  8
0
100
AcDbBlockEnd
  0
BLOCK
  5
E9
330
E8
100
AcDbEntity
  8
0
100
AcDbBlockBegin
  2
SW_NOTE_2
 70
     0
 10
0.0
 20
0.0
 30
0.0
  3
SW_NOTE_2
  1

  0
CIRCLE
  5
EB
330
E8
100
AcDbEntity
  8
SLD-0_0
 62
     0
100
AcDbCircle
 10
4.6253556181
 20
9.608009523
 30
0.0
 40
10.14935229367254
  0
MTEXT
  5
EC
330
E8
100
AcDbEntity
  8
SLD-0_0
 62
     0
100
AcDbMText
 10
0.0
 20
16.3200536553
 30
0.0
 40
12.7
 41
0.0
 71
     1
 72
     1
  1
2
  7
SLDTEXTSTYLE0
 73
     1
 44
1.0
  0
ENDBLK
  5
EA
330
E8
100
AcDbEntity
  8
0
100
AcDbBlockEnd
  0
BLOCK
  5
EF
330
EE
100
AcDbEntity
  8
0
100
AcDbBlockBegin
  2
SW_NOTE_3
 70
     0
 10
0.0
 20
0.0
 30
0.0
  3
SW_NOTE_3
  1

  0
CIRCLE
  5
F1
330
EE
100
AcDbEntity
  8
SLD-0_0
 62
     0
100
AcDbCircle
 10
4.649907391
 20
9.6040953238
 30
0.0
 40
10.12556669663628
  0
MTEXT
  5
F2
330
EE
100
AcDbEntity
  8
SLD-0_0
 62
     0
100
AcDbMText
 10
0.0
 20
16.3200536553
 30
0.0
 40
12.7
 41
0.0
 71
     1
 72
     1
  1
1
  7
SLDTEXTSTYLE0
 73
     1
 44
1.0
  0
ENDBLK
  5
F0
330
EE
100
AcDbEntity
  8
0
100
AcDbBlockEnd
  0
BLOCK
  5
F5
330
F4
100
AcDbEntity
  8
0
100
AcDbBlockBegin
  2
SW_NOTE_4
 70
     0
 10
0.0
 20
0.0
 30
0.0
  3
SW_NOTE_4
  1

  0
MTEXT
  5
F7
330
F4
100
AcDbEntity
  8
CAJETIN
 62
     0
100
AcDbMText
 10
40.18359375
 20
12.2400402414
 30
0.0
 40
9.525
 41
0.0
 71
     2
 72
     1
  1
S-15LEX1000
  7
SLDTEXTSTYLE0
 73
     1
 44
1.0
  0
MTEXT
  5
F8
330
F4
100
AcDbEntity
  8
CAJETIN
 62
     0
100
AcDbMText
 10
42.5593521595
 20
-0.4599596051
 30
0.0
 40
9.525
 41
0.0
 71
     2
 72
     1
  1
DIRECT RADIATION SUBWOOFER
  7
SLDTEXTSTYLE0
 73
     1
 44
1.0
  0
ENDBLK
  5
F6
330
F4
100
AcDbEntity
  8
0
100
AcDbBlockEnd
  0
BLOCK
  5
11A
330
119
100
AcDbEntity
  8
0
100
AcDbBlockBegin
  2
SW_NOTE_5
 70
     0
 10
0.0
 20
0.0
 30
0.0
  3
SW_NOTE_5
  1

  0
MTEXT
  5
11C
330
119
100
AcDbEntity
  8
CAJETIN
 62
     0
100
AcDbMText
 10
0.0
 20
12.2400402414
 30
0.0
 40
9.525
 41
0.0
 71
     1
 72
     1
  1
Birch Plywood
  7
SLDTEXTSTYLE0
 73
     1
 44
1.0
  0
MTEXT
  5
11D
330
119
100
AcDbEntity
  8
CAJETIN
 62
     0
100
AcDbMText
 10
0.0
 20
-0.4599596051
 30
0.0
 40
9.525
 41
0.0
 71
     1
 72
     1
  1
18mm
  7
SLDTEXTSTYLE0
 73
     1
 44
1.0
  0
ENDBLK
  5
11B
330
119
100
AcDbEntity
  8
0
100
AcDbBlockEnd
  0
BLOCK
  5
120
330
11F
100
AcDbEntity
  8
0
100
AcDbBlockBegin
  2
SW_NOTE_6
 70
     0
 10
0.0
 20
0.0
 30
0.0
  3
SW_NOTE_6
  1

  0
CIRCLE
  5
122
330
11F
100
AcDbEntity
  8
SLD-0_0
 62
     0
100
AcDbCircle
 10
4.6651196631
 20
9.6365701887
 30
0.0
 40
10.08004950881134
  0
MTEXT
  5
123
330
11F
100
AcDbEntity
  8
SLD-0_0
 62
     0
100
AcDbMText
 10
0.0
 20
16.3200536553
 30
0.0
 40
12.7
 41
0.0
 71
     1
 72
     1
  1
5
  7
SLDTEXTSTYLE0
 73
     1
 44
1.0
  0
ENDBLK
  5
121
330
11F
100
AcDbEntity
  8
0
100
AcDbBlockEnd
  0
BLOCK
  5
126
330
125
100
AcDbEntity
  8
0
100
AcDbBlockBegin
  2
SW_NOTE_7
 70
     0
 10
0.0
 20
0.0
 30
0.0
  3
SW_NOTE_7
  1

  0
CIRCLE
  5
128
330
125
100
AcDbEntity
  8
SLD-0_0
 62
     0
100
AcDbCircle
 10
4.6265919453
 20
9.6052101237
 30
0.0
 40
10.14935229367269
  0
MTEXT
  5
129
330
125
100
AcDbEntity
  8
SLD-0_0
 62
     0
100
AcDbMText
 10
0.0
 20
16.3200536553
 30
0.0
 40
12.7
 41
0.0
 71
     1
 72
     1
  1
7
  7
SLDTEXTSTYLE0
 73
     1
 44
1.0
  0
ENDBLK
  5
127
330
125
100
AcDbEntity
  8
0
100
AcDbBlockEnd
  0
BLOCK
  5
12C
330
12B
100
AcDbEntity
  8
0
100
AcDbBlockBegin
  2
SW_NOTE_8
 70
     0
 10
0.0
 20
0.0
 30
0.0
  3
SW_NOTE_8
  1

  0
CIRCLE
  5
12E
330
12B
100
AcDbEntity
  8
SLD-0_0
 62
     0
100
AcDbCircle
 10
4.6651196631
 20
9.6131862484
 30
0.0
 40
10.08004950881143
  0
MTEXT
  5
12F
330
12B
100
AcDbEntity
  8
SLD-0_0
 62
     0
100
AcDbMText
 10
0.0
 20
16.3200536553
 30
0.0
 40
12.7
 41
0.0
 71
     1
 72
     1
  1
6
  7
SLDTEXTSTYLE0
 73
     1
 44
1.0
  0
ENDBLK
  5
12D
330
12B
100
AcDbEntity
  8
0
100
AcDbBlockEnd
  0
BLOCK
  5
132
330
131
100
AcDbEntity
  8
0
100
AcDbBlockBegin
  2
SW_TABLEANNOTATION_0
 70
     0
 10
0.0
 20
0.0
 30
0.0
  3
SW_TABLEANNOTATION_0
  1

  0
LINE
  5
134
330
131
100
AcDbEntity
  8
SLD-0_0
 62
     0
100
AcDbLine
 10
0.0
 20
0.0
 30
0.0
 11
0.0
 21
-165.8397928766
 31
0.0
  0
LINE
  5
135
330
131
100
AcDbEntity
  8
SLD-0_0
 62
     0
100
AcDbLine
 10
0.0
 20
-165.8397928766
 30
0.0
 11
366.7260026621
 21
-165.8397928766
 31
0.0
  0
LINE
  5
136
330
131
100
AcDbEntity
  8
SLD-0_0
 62
     0
100
AcDbLine
 10
366.7260026621
 20
-165.8397928766
 30
0.0
 11
366.7260026621
 21
0.0
 31
0.0
  0
LINE
  5
137
330
131
100
AcDbEntity
  8
SLD-0_0
 62
     0
100
AcDbLine
 10
366.7260026621
 20
0.0
 30
0.0
 11
0.0
 21
0.0
 31
0.0
  0
LINE
  5
138
330
131
100
AcDbEntity
  8
SLD-0_0
 62
     0
100
AcDbLine
 10
98.8543949129
 20
0.0
 30
0.0
 11
98.8543949129
 21
-15.669493293
 31
0.0
  0
LINE
  5
139
330
131
100
AcDbEntity
  8
SLD-0_0
 62
     0
100
AcDbLine
 10
287.7169767662
 20
0.0
 30
0.0
 11
287.7169767662
 21
-15.669493293
 31
0.0
  0
LINE
  5
13A
330
131
100
AcDbEntity
  8
SLD-0_0
 62
     0
100
AcDbLine
 10
98.8543949129
 20
-15.669493293
 30
0.0
 11
98.8543949129
 21
-165.8397928766
 31
0.0
  0
LINE
  5
13B
330
131
100
AcDbEntity
  8
SLD-0_0
 62
     0
100
AcDbLine
 10
287.7169767662
 20
-15.669493293
 30
0.0
 11
287.7169767662
 21
-165.8397928766
 31
0.0
  0
LINE
  5
13C
330
131
100
AcDbEntity
  8
SLD-0_0
 62
     0
100
AcDbLine
 10
0.0
 20
-37.1223932335
 30
0.0
 11
366.7260026621
 21
-37.1223932335
 31
0.0
  0
LINE
  5
13D
330
131
100
AcDbEntity
  8
SLD-0_0
 62
     0
100
AcDbLine
 10
0.0
 20
-58.575293174
 30
0.0
 11
366.7260026621
 21
-58.575293174
 31
0.0
  0
LINE
  5
13E
330
131
100
AcDbEntity
  8
SLD-0_0
 62
     0
100
AcDbLine
 10
0.0
 20
-80.0281931145
 30
0.0
 11
366.7260026621
 21
-80.0281931145
 31
0.0
  0
LINE
  5
13F
330
131
100
AcDbEntity
  8
SLD-0_0
 62
     0
100
AcDbLine
 10
0.0
 20
-101.4810930551
 30
0.0
 11
366.7260026621
 21
-101.4810930551
 31
0.0
  0
LINE
  5
140
330
131
100
AcDbEntity
  8
SLD-0_0
 62
     0
100
AcDbLine
 10
0.0
 20
-122.9339929956
 30
0.0
 11
366.7260026621
 21
-122.9339929956
 31
0.0
  0
LINE
  5
141
330
131
100
AcDbEntity
  8
SLD-0_0
 62
     0
100
AcDbLine
 10
0.0
 20
-144.3868929361
 30
0.0
 11
366.7260026621
 21
-144.3868929361
 31
0.0
  0
LINE
  5
142
330
131
100
AcDbEntity
  8
SLD-0_0
 62
     0
100
AcDbLine
 10
0.0
 20
-15.669493293
 30
0.0
 11
366.7260026621
 21
-15.669493293
 31
0.0
  0
MTEXT
  5
143
330
131
100
AcDbEntity
  8
SLD-0_0
 62
     0
100
AcDbMText
 10
11.7975707651
 20
-1.5621728336
 30
0.0
 40
12.7
 41
0.0
 71
     1
 72
     1
  1
ITEM NO.
  7
SLDTEXTSTYLE0
 73
     1
 44
1.0
  0
MTEXT
  5
144
330
131
100
AcDbEntity
  8
SLD-0_0
 62
     0
100
AcDbMText
 10
135.4301356398
 20
-1.5621728336
 30
0.0
 40
12.7
 41
0.0
 71
     1
 72
     1
  1
DESCRIPTION
  7
SLDTEXTSTYLE0
 73
     1
 44
1.0
  0
MTEXT
  5
145
330
131
100
AcDbEntity
  8
SLD-0_0
 62
     0
100
AcDbMText
 10
307.4659343973
 20
-1.5621728336
 30
0.0
 40
12.7
 41
0.0
 71
     1
 72
     1
  1
QTY.
  7
SLDTEXTSTYLE0
 73
     1
 44
1.0
  0
MTEXT
  5
146
330
131
100
AcDbEntity
  8
SLD-0_0
 62
     0
100
AcDbMText
 10
44.7234936544
 20
-20.1233694503
 30
0.0
 40
12.7
 41
0.0
 71
     1
 72
     1
  1
1
  7
SLDTEXTSTYLE0
 73
     1
 44
1.0
  0
MTEXT
  5
148
330
131
100
AcDbEntity
  8
SLD-0_0
 62
     0
100
AcDbMText
 10
137.7819821857
 20
-20.1233694503
 30
0.0
 40
12.7
 41
0.0
 71
     1
 72
     1
  1
604 x 487 x 18
  7
SLDTEXTSTYLE2
 73
     1
 44
1.0
  0
MTEXT
  5
149
330
131
100
AcDbEntity
  8
SLD-0_0
 62
     0
100
AcDbMText
 10
322.5177859121
 20
-20.1233694503
 30
0.0
 40
12.7
 41
0.0
 71
     1
 72
     1
  1
2
  7
SLDTEXTSTYLE0
 73
     1
 44
1.0
  0
MTEXT
  5
14A
330
131
100
AcDbEntity
  8
SLD-0_0
 62
     0
100
AcDbMText
 10
44.7234936544
 20
-41.5762693909
 30
0.0
 40
12.7
 41
0.0
 71
     1
 72
     1
  1
2
  7
SLDTEXTSTYLE0
 73
     1
 44
1.0
  0
MTEXT
  5
14B
330
131
100
AcDbEntity
  8
SLD-0_0
 62
     0
100
AcDbMText
 10
137.7819821857
 20
-41.5762693909
 30
0.0
 40
12.7
 41
0.0
 71
     1
 72
     1
  1
451 x 440 x 18
  7
SLDTEXTSTYLE2
 73
     1
 44
1.0
  0
MTEXT
  5
14C
330
131
100
AcDbEntity
  8
SLD-0_0
 62
     0
100
AcDbMText
 10
322.5177859121
 20
-41.5762693909
 30
0.0
 40
12.7
 41
0.0
 71
     1
 72
     1
  1
2
  7
SLDTEXTSTYLE0
 73
     1
 44
1.0
  0
MTEXT
  5
14D
330
131
100
AcDbEntity
  8
SLD-0_0
 62
     0
100
AcDbMText
 10
44.7234936544
 20
-63.0291693314
 30
0.0
 40
12.7
 41
0.0
 71
     1
 72
     1
  1
3
  7
SLDTEXTSTYLE0
 73
     1
 44
1.0
  0
MTEXT
  5
14E
330
131
100
AcDbEntity
  8
SLD-0_0
 62
     0
100
AcDbMText
 10
137.7819821857
 20
-63.0291693314
 30
0.0
 40
12.7
 41
0.0
 71
     1
 72
     1
  1
604 x 440 x 18
  7
SLDTEXTSTYLE2
 73
     1
 44
1.0
  0
MTEXT
  5
14F
330
131
100
AcDbEntity
  8
SLD-0_0
 62
     0
100
AcDbMText
 10
322.5177859121
 20
-63.0291693314
 30
0.0
 40
12.7
 41
0.0
 71
     1
 72
     1
  1
1
  7
SLDTEXTSTYLE0
 73
     1
 44
1.0
  0
MTEXT
  5
150
330
131
100
AcDbEntity
  8
SLD-0_0
 62
     0
100
AcDbMText
 10
44.7234936544
 20
-84.4820692719
 30
0.0
 40
12.7
 41
0.0
 71
     1
 72
     1
  1
4
  7
SLDTEXTSTYLE0
 73
     1
 44
1.0
  0
MTEXT
  5
151
330
131
100
AcDbEntity
  8
SLD-0_0
 62
     0
100
AcDbMText
 10
137.7819821857
 20
-84.4820692719
 30
0.0
 40
12.7
 41
0.0
 71
     1
 72
     1
  1
451 x 440 x 18
  7
SLDTEXTSTYLE2
 73
     1
 44
1.0
  0
MTEXT
  5
152
330
131
100
AcDbEntity
  8
SLD-0_0
 62
     0
100
AcDbMText
 10
322.5177859121
 20
-84.4820692719
 30
0.0
 40
12.7
 41
0.0
 71
     1
 72
     1
  1
1
  7
SLDTEXTSTYLE0
 73
     1
 44
1.0
  0
MTEXT
  5
153
330
131
100
AcDbEntity
  8
SLD-0_0
 62
     0
100
AcDbMText
 10
44.7234936544
 20
-105.9349692124
 30
0.0
 40
12.7
 41
0.0
 71
     1
 72
     1
  1
5
  7
SLDTEXTSTYLE0
 73
     1
 44
1.0
  0
MTEXT
  5
154
330
131
100
AcDbEntity
  8
SLD-0_0
 62
     0
100
AcDbMText
 10
137.7819821857
 20
-105.9349692124
 30
0.0
 40
12.7
 41
0.0
 71
     1
 72
     1
  1
440 x 130 x 18
  7
SLDTEXTSTYLE2
 73
     1
 44
1.0
  0
MTEXT
  5
155
330
131
100
AcDbEntity
  8
SLD-0_0
 62
     0
100
AcDbMText
 10
322.5177859121
 20
-105.9349692124
 30
0.0
 40
12.7
 41
0.0
 71
     1
 72
     1
  1
1
  7
SLDTEXTSTYLE0
 73
     1
 44
1.0
  0
MTEXT
  5
156
330
131
100
AcDbEntity
  8
SLD-0_0
 62
     0
100
AcDbMText
 10
44.7234936544
 20
-127.387869153
 30
0.0
 40
12.7
 41
0.0
 71
     1
 72
     1
  1
6
  7
SLDTEXTSTYLE0
 73
     1
 44
1.0
  0
MTEXT
  5
157
330
131
100
AcDbEntity
  8
SLD-0_0
 62
     0
100
AcDbMText
 10
137.7819821857
 20
-127.387869153
 30
0.0
 40
12.7
 41
0.0
 71
     1
 72
     1
  1
451 x 131 x 18
  7
SLDTEXTSTYLE2
 73
     1
 44
1.0
  0
MTEXT
  5
158
330
131
100
AcDbEntity
  8
SLD-0_0
 62
     0
100
AcDbMText
 10
322.5177859121
 20
-127.387869153
 30
0.0
 40
12.7
 41
0.0
 71
     1
 72
     1
  1
1
  7
SLDTEXTSTYLE0
 73
     1
 44
1.0
  0
MTEXT
  5
159
330
131
100
AcDbEntity
  8
SLD-0_0
 62
     0
100
AcDbMText
 10
44.7234936544
 20
-148.8407690935
 30
0.0
 40
12.7
 41
0.0
 71
     1
 72
     1
  1
7
  7
SLDTEXTSTYLE0
 73
     1
 44
1.0
  0
MTEXT
  5
15A
330
131
100
AcDbEntity
  8
SLD-0_0
 62
     0
100
AcDbMText
 10
130.726431372
 20
-148.8407690935
 30
0.0
 40
12.7
 41
0.0
 71
     1
 72
     1
  1
215.7 x 105 x 18
  7
SLDTEXTSTYLE0
 73
     1
 44
1.0
  0
MTEXT
  5
15B
330
131
100
AcDbEntity
  8
SLD-0_0
 62
     0
100
AcDbMText
 10
322.5177859121
 20
-148.8407690935
 30
0.0
 40
12.7
 41
0.0
 71
     1
 72
     1
  1
2
  7
SLDTEXTSTYLE0
 73
     1
 44
1.0
  0
ENDBLK
  5
133
330
131
100
AcDbEntity
  8
0
100
AcDbBlockEnd
  0
BLOCK
  5
208
330
207
100
AcDbEntity
  8
0
100
AcDbBlockBegin
  2
SW_NOTE_9
 70
     0
 10
0.0
 20
0.0
 30
0.0
  3
SW_NOTE_9
  1

  0
CIRCLE
  5
20A
330
207
100
AcDbEntity
  8
SLD-0_0
 62
     0
100
AcDbCircle
 10
-12.4986896396
 20
12.9579384924
 30
0.0
 40
18.00348334851923
  0
MTEXT
  5
20B
330
207
100
AcDbEntity
  8
SLD-0_0
 62
     0
100
AcDbMText
 10
-12.4398934417
 20
20.0490019348
 30
0.0
 40
12.7
 41
0.0
 71
     2
 72
     1
  1
1
  7
SLDTEXTSTYLE0
 73
     1
 44
1.0
  0
ENDBLK
  5
209
330
207
100
AcDbEntity
  8
0
100
AcDbBlockEnd
  0
BLOCK
  5
20F
330
20E
100
AcDbEntity
  8
0
100
AcDbBlockBegin
  2
_DOT
 70
     0
 10
0.0
 20
0.0
 30
0.0
  3
_DOT
  1

  0
POLYLINE
  5
211
330
20E
100
AcDbEntity
  8
0
  6
ByBlock
 62
     0
100
AcDb2dPolyline
 66
     1
 10
0.0
 20
0.0
 30
0.0
 70
     1
 40
0.5
 41
0.5
  0
VERTEX
  5
213
330
211
100
AcDbEntity
  8
0
  6
ByBlock
 62
     0
100
AcDbVertex
100
AcDb2dVertex
 10
-0.25
 20
0.0
 30
0.0
 42
1.0
  0
VERTEX
  5
214
330
211
100
AcDbEntity
  8
0
  6
ByBlock
 62
     0
100
AcDbVertex
100
AcDb2dVertex
 10
0.25
 20
0.0
 30
0.0
 42
1.0
  0
SEQEND
  5
215
330
211
100
AcDbEntity
  8
0
  6
ByBlock
 62
     0
  0
LINE
  5
212
330
20E
100
AcDbEntity
  8
0
  6
ByBlock
 62
     0
370
    -2
100
AcDbLine
 10
-0.5
 20
0.0
 30
0.0
 11
-1.0
 21
0.0
 31
0.0
  0
ENDBLK
  5
210
330
20E
100
AcDbEntity
  8
0
100
AcDbBlockEnd
  0
BLOCK
  5
218
330
217
100
AcDbEntity
  8
0
100
AcDbBlockBegin
  2
SW_NOTE_10
 70
     0
 10
0.0
 20
0.0
 30
0.0
  3
SW_NOTE_10
  1

  0
CIRCLE
  5
21A
330
217
100
AcDbEntity
  8
SLD-0_0
 62
     0
100
AcDbCircle
 10
-13.6138495583
 20
11.7808536569
 30
0.0
 40
18.00348334851921
  0
MTEXT
  5
21B
330
217
100
AcDbEntity
  8
SLD-0_0
 62
     0
100
AcDbMText
 10
-13.5550533603
 20
18.8719170993
 30
0.0
 40
12.7
 41
0.0
 71
     2
 72
     1
  1
5
  7
SLDTEXTSTYLE0
 73
     1
 44
1.0
  0
ENDBLK
  5
219
330
217
100
AcDbEntity
  8
0
100
AcDbBlockEnd
  0
BLOCK
  5
21F
330
21E
100
AcDbEntity
  8
0
100
AcDbBlockBegin
  2
SW_NOTE_11
 70
     0
 10
0.0
 20
0.0
 30
0.0
  3
SW_NOTE_11
  1

  0
CIRCLE
  5
221
330
21E
100
AcDbEntity
  8
SLD-0_0
 62
     0
100
AcDbCircle
 10
11.5325754071
 20
13.8248008
 30
0.0
 40
18.00348334851918
  0
MTEXT
  5
222
330
21E
100
AcDbEntity
  8
SLD-0_0
 62
     0
100
AcDbMText
 10
11.591371605
 20
20.9158642424
 30
0.0
 40
12.7
 41
0.0
 71
     2
 72
     1
  1
3
  7
SLDTEXTSTYLE0
 73
     1
 44
1.0
  0
ENDBLK
  5
220
330
21E
100
AcDbEntity
  8
0
100
AcDbBlockEnd
  0
BLOCK
  5
226
330
225
100
AcDbEntity
  8
0
100
AcDbBlockBegin
  2
SW_NOTE_12
 70
     0
 10
0.0
 20
0.0
 30
0.0
  3
SW_NOTE_12
  1

  0
CIRCLE
  5
228
330
225
100
AcDbEntity
  8
SLD-0_0
 62
     0
100
AcDbCircle
 10
-1.059755201
 20
-17.9722656222
 30
0.0
 40
18.00348334851921
  0
MTEXT
  5
229
330
225
100
AcDbEntity
  8
SLD-0_0
 62
     0
100
AcDbMText
 10
-1.0009590031
 20
-10.8812021798
 30
0.0
 40
12.7
 41
0.0
 71
     2
 72
     1
  1
6
  7
SLDTEXTSTYLE0
 73
     1
 44
1.0
  0
ENDBLK
  5
227
330
225
100
AcDbEntity
  8
0
100
AcDbBlockEnd
  0
BLOCK
  5
22D
330
22C
100
AcDbEntity
  8
0
100
AcDbBlockBegin
  2
SW_NOTE_13
 70
     0
 10
0.0
 20
0.0
 30
0.0
  3
SW_NOTE_13
  1

  0
CIRCLE
  5
22F
330
22C
100
AcDbEntity
  8
SLD-0_0
 62
     0
100
AcDbCircle
 10
17.0705533726
 20
5.720281482
 30
0.0
 40
18.00348334851921
  0
MTEXT
  5
230
330
22C
100
AcDbEntity
  8
SLD-0_0
 62
     0
100
AcDbMText
 10
17.1293495705
 20
12.8113449244
 30
0.0
 40
12.7
 41
0.0
 71
     2
 72
     1
  1
2
  7
SLDTEXTSTYLE0
 73
     1
 44
1.0
  0
ENDBLK
  5
22E
330
22C
100
AcDbEntity
  8
0
100
AcDbBlockEnd
  0
BLOCK
  5
234
330
233
100
AcDbEntity
  8
0
100
AcDbBlockBegin
  2
SW_NOTE_14
 70
     0
 10
0.0
 20
0.0
 30
0.0
  3
SW_NOTE_14
  1

  0
CIRCLE
  5
236
330
233
100
AcDbEntity
  8
SLD-0_0
 62
     0
100
AcDbCircle
 10
-15.0917628741
 20
-9.8165220946
 30
0.0
 40
18.00348334851921
  0
MTEXT
  5
237
330
233
100
AcDbEntity
  8
SLD-0_0
 62
     0
100
AcDbMText
 10
-15.0329666761
 20
-2.7254586522
 30
0.0
 40
12.7
 41
0.0
 71
     2
 72
     1
  1
4
  7
SLDTEXTSTYLE0
 73
     1
 44
1.0
  0
ENDBLK
  5
235
330
233
100
AcDbEntity
  8
0
100
AcDbBlockEnd
  0
BLOCK
  5
23B
330
23A
100
AcDbEntity
  8
0
100
AcDbBlockBegin
  2
SW_NOTE_15
 70
     0
 10
0.0
 20
0.0
 30
0.0
  3
SW_NOTE_15
  1

  0
CIRCLE
  5
23D
330
23A
100
AcDbEntity
  8
SLD-0_0
 62
     0
100
AcDbCircle
 10
-17.494187912
 20
-4.2519174473
 30
0.0
 40
18.00348334851924
  0
MTEXT
  5
23E
330
23A
100
AcDbEntity
  8
SLD-0_0
 62
     0
100
AcDbMText
 10
-17.4353917141
 20
2.839145995
 30
0.0
 40
12.7
 41
0.0
 71
     2
 72
     1
  1
1
  7
SLDTEXTSTYLE0
 73
     1
 44
1.0
  0
ENDBLK
  5
23C
330
23A
100
AcDbEntity
  8
0
100
AcDbBlockEnd
  0
BLOCK
  5
242
330
241
100
AcDbEntity
  8
0
100
AcDbBlockBegin
  2
SW_NOTE_16
 70
     0
 10
0.0
 20
0.0
 30
0.0
  3
SW_NOTE_16
  1

  0
CIRCLE
  5
244
330
241
100
AcDbEntity
  8
SLD-0_0
 62
     0
100
AcDbCircle
 10
-10.7644032927
 20
14.4309748262
 30
0.0
 40
18.00348334851918
  0
MTEXT
  5
245
330
241
100
AcDbEntity
  8
SLD-0_0
 62
     0
100
AcDbMText
 10
-10.7056070947
 20
21.5220382686
 30
0.0
 40
12.7
 41
0.0
 71
     2
 72
     1
  1
2
  7
SLDTEXTSTYLE0
 73
     1
 44
1.0
  0
ENDBLK
  5
243
330
241
100
AcDbEntity
  8
0
100
AcDbBlockEnd
  0
BLOCK
  5
249
330
248
100
AcDbEntity
  8
0
100
AcDbBlockBegin
  2
SW_NOTE_17
 70
     0
 10
0.0
 20
0.0
 30
0.0
  3
SW_NOTE_17
  1

  0
CIRCLE
  5
24B
330
248
100
AcDbEntity
  8
SLD-0_0
 62
     0
100
AcDbCircle
 10
-16.3806346227
 20
-7.4699546209
 30
0.0
 40
18.00348334851921
  0
MTEXT
  5
24C
330
248
100
AcDbEntity
  8
SLD-0_0
 62
     0
100
AcDbMText
 10
-16.3218384248
 20
-0.3788911785
 30
0.0
 40
12.7
 41
0.0
 71
     2
 72
     1
  1
7
  7
SLDTEXTSTYLE0
 73
     1
 44
1.0
  0
ENDBLK
  5
24A
330
248
100
AcDbEntity
  8
0
100
AcDbBlockEnd
  0
BLOCK
  5
256
330
255
100
AcDbEntity
  8
0
100
AcDbBlockBegin
  2
_D
 70
     0
 10
0.0
 20
0.0
 30
0.0
  3
_D
  1

  0
SOLID
  5
258
330
255
100
AcDbEntity
  8
SLD-0_0
 62
     7
100
AcDbTrace
 10
118.166795437
 20
1008.5106181236
 30
0.0
 11
121.468795437
 21
1008.0026181236
 31
0.0
 12
121.468795437
 22
1009.0186181236
 32
0.0
 13
121.468795437
 23
1009.0186181236
 33
0.0
  0
SOLID
  5
259
330
255
100
AcDbEntity
  8
SLD-0_0
 62
     7
100
AcDbTrace
 10
722.166795437
 20
1008.5106181236
 30
0.0
 11
718.864795437
 21
1009.0186181236
 31
0.0
 12
718.864795437
 22
1008.0026181236
 32
0.0
 13
718.864795437
 23
1008.0026181236
 33
0.0
  0
LINE
  5
25A
330
255
100
AcDbEntity
  8
SLD-0_0
 62
     7
100
AcDbLine
 10
118.166795437
 20
1059.5106181236
 30
0.0
 11
118.166795437
 21
1007.5106181236
 31
0.0
  0
LINE
  5
25B
330
255
100
AcDbEntity
  8
SLD-0_0
 62
     7
100
AcDbLine
 10
722.166795437
 20
1059.5106181236
 30
0.0
 11
722.166795437
 21
1007.5106181236
 31
0.0
  0
LINE
  5
25C
330
255
100
AcDbEntity
  8
SLD-0_0
 62
     7
100
AcDbLine
 10
118.166795437
 20
1008.5106181236
 30
0.0
 11
722.166795437
 21
1008.5106181236
 31
0.0
  0
MTEXT
  5
25D
330
255
100
AcDbEntity
  8
SLD-0_0
 62
     7
100
AcDbMText
 10
380.0390425785
 20
1024.8817784187
 30
0.0
 40
12.7
 41
0.0
 71
     1
 72
     1
  1
604
  7
SLDTEXTSTYLE0
 73
     1
 44
1.0
  0
ENDBLK
  5
257
330
255
100
AcDbEntity
  8
0
100
AcDbBlockEnd
  0
BLOCK
  5
260
330
25F
100
AcDbEntity
  8
0
100
AcDbBlockBegin
  2
_D_1
 70
     0
 10
0.0
 20
0.0
 30
0.0
  3
_D_1
  1

  0
SOLID
  5
262
330
25F
100
AcDbEntity
  8
SLD-0_0
 62
     7
100
AcDbTrace
 10
767.166795437
 20
1060.5106181236
 30
0.0
 11
767.674795437
 21
1063.8126181236
 31
0.0
 12
766.658795437
 22
1063.8126181236
 32
0.0
 13
766.658795437
 23
1063.8126181236
 33
0.0
  0
SOLID
  5
263
330
25F
100
AcDbEntity
  8
SLD-0_0
 62
     7
100
AcDbTrace
 10
767.166795437
 20
1547.5106181236
 30
0.0
 11
766.658795437
 21
1544.2086181236
 31
0.0
 12
767.674795437
 22
1544.2086181236
 32
0.0
 13
767.674795437
 23
1544.2086181236
 33
0.0
  0
LINE
  5
264
330
25F
100
AcDbEntity
  8
SLD-0_0
 62
     7
100
AcDbLine
 10
723.166795437
 20
1060.5106181236
 30
0.0
 11
768.166795437
 21
1060.5106181236
 31
0.0
  0
LINE
  5
265
330
25F
100
AcDbEntity
  8
SLD-0_0
 62
     7
100
AcDbLine
 10
723.166795437
 20
1547.5106181236
 30
0.0
 11
768.166795437
 21
1547.5106181236
 31
0.0
  0
LINE
  5
266
330
25F
100
AcDbEntity
  8
SLD-0_0
 62
     7
100
AcDbLine
 10
767.166795437
 20
1060.5106181236
 30
0.0
 11
767.166795437
 21
1547.5106181236
 31
0.0
  0
MTEXT
  5
267
330
25F
100
AcDbEntity
  8
SLD-0_0
 62
     7
100
AcDbMText
 10
750.7956351419
 20
1277.2913826614
 30
0.0
 40
12.7
 41
0.0
 71
     1
 72
     1
  1
487
  7
SLDTEXTSTYLE0
 11
-1.608122649676637E-16
 21
1.0
 31
0.0
 73
     1
 44
1.0
  0
ENDBLK
  5
261
330
25F
100
AcDbEntity
  8
0
100
AcDbBlockEnd
  0
BLOCK
  5
26E
330
26D
100
AcDbEntity
  8
0
100
AcDbBlockBegin
  2
_D_2
 70
     0
 10
0.0
 20
0.0
 30
0.0
  3
_D_2
  1

  0
SOLID
  5
270
330
26D
100
AcDbEntity
  8
SLD-0_0
 62
     7
100
AcDbTrace
 10
2211.8992710213
 20
1058.1237855746
 30
0.0
 11
2208.5972710213
 21
1058.6317855746
 31
0.0
 12
2208.5972710213
 22
1057.6157855746
 32
0.0
 13
2208.5972710213
 23
1057.6157855746
 33
0.0
  0
SOLID
  5
271
330
26D
100
AcDbEntity
  8
SLD-0_0
 62
     7
100
AcDbTrace
 10
1607.8992710213
 20
1058.1237855746
 30
0.0
 11
1611.2012710213
 21
1057.6157855746
 31
0.0
 12
1611.2012710213
 22
1058.6317855746
 32
0.0
 13
1611.2012710213
 23
1058.6317855746
 33
0.0
  0
LINE
  5
272
330
26D
100
AcDbEntity
  8
SLD-0_0
 62
     7
100
AcDbLine
 10
2211.8992710213
 20
1081.1237855746
 30
0.0
 11
2211.8992710213
 21
1057.1237855746
 31
0.0
  0
LINE
  5
273
330
26D
100
AcDbEntity
  8
SLD-0_0
 62
     7
100
AcDbLine
 10
1607.8992710213
 20
1081.1237855746
 30
0.0
 11
1607.8992710213
 21
1057.1237855746
 31
0.0
  0
LINE
  5
274
330
26D
100
AcDbEntity
  8
SLD-0_0
 62
     7
100
AcDbLine
 10
2211.8992710213
 20
1058.1237855746
 30
0.0
 11
1607.8992710213
 21
1058.1237855746
 31
0.0
  0
MTEXT
  5
275
330
26D
100
AcDbEntity
  8
SLD-0_0
 62
     7
100
AcDbMText
 10
1931.1797633303
 20
1074.4949458697
 30
0.0
 40
12.7
 41
0.0
 71
     1
 72
     1
  1
604
  7
SLDTEXTSTYLE0
 73
     1
 44
1.0
  0
ENDBLK
  5
26F
330
26D
100
AcDbEntity
  8
0
100
AcDbBlockEnd
  0
BLOCK
  5
278
330
277
100
AcDbEntity
  8
0
100
AcDbBlockBegin
  2
_D_3
 70
     0
 10
0.0
 20
0.0
 30
0.0
  3
_D_3
  1

  0
SOLID
  5
27A
330
277
100
AcDbEntity
  8
SLD-0_0
 62
     7
100
AcDbTrace
 10
2235.8992710213
 20
1522.1237855746
 30
0.0
 11
2235.3912710213
 21
1518.8217855746
 31
0.0
 12
2236.4072710213
 22
1518.8217855746
 32
0.0
 13
2236.4072710213
 23
1518.8217855746
 33
0.0
  0
SOLID
  5
27B
330
277
100
AcDbEntity
  8
SLD-0_0
 62
     7
100
AcDbTrace
 10
2235.8992710213
 20
1082.1237855746
 30
0.0
 11
2236.4072710213
 21
1085.4257855746
 31
0.0
 12
2235.3912710213
 22
1085.4257855746
 32
0.0
 13
2235.3912710213
 23
1085.4257855746
 33
0.0
  0
LINE
  5
27C
330
277
100
AcDbEntity
  8
SLD-0_0
 62
     7
100
AcDbLine
 10
2212.8992710213
 20
1522.1237855746
 30
0.0
 11
2236.8992710213
 21
1522.1237855746
 31
0.0
  0
LINE
  5
27D
330
277
100
AcDbEntity
  8
SLD-0_0
 62
     7
100
AcDbLine
 10
2212.8992710213
 20
1082.1237855746
 30
0.0
 11
2236.8992710213
 21
1082.1237855746
 31
0.0
  0
LINE
  5
27E
330
277
100
AcDbEntity
  8
SLD-0_0
 62
     7
100
AcDbLine
 10
2235.8992710213
 20
1522.1237855746
 30
0.0
 11
2235.8992710213
 21
1082.1237855746
 31
0.0
  0
MTEXT
  5
27F
330
277
100
AcDbEntity
  8
SLD-0_0
 62
     7
100
AcDbMText
 10
2219.5281107262
 20
1282.6216625584
 30
0.0
 40
12.7
 41
0.0
 71
     1
 72
     1
  1
440
  7
SLDTEXTSTYLE0
 11
6.123233995736766E-17
 21
1.0
 31
0.0
 73
     1
 44
1.0
  0
ENDBLK
  5
279
330
277
100
AcDbEntity
  8
0
100
AcDbBlockEnd
  0
BLOCK
  5
286
330
285
100
AcDbEntity
  8
0
100
AcDbBlockBegin
  2
_D_4
 70
     0
 10
0.0
 20
0.0
 30
0.0
  3
_D_4
  1

  0
SOLID
  5
288
330
285
100
AcDbEntity
  8
SLD-0_0
 62
     7
100
AcDbTrace
 10
1429.9666451057
 20
1060.0106181236
 30
0.0
 11
1426.6646451057
 21
1060.5186181236
 31
0.0
 12
1426.6646451057
 22
1059.5026181236
 32
0.0
 13
1426.6646451057
 23
1059.5026181236
 33
0.0
  0
SOLID
  5
289
330
285
100
AcDbEntity
  8
SLD-0_0
 62
     7
100
AcDbTrace
 10
978.9666451057
 20
1060.0106181236
 30
0.0
 11
982.2686451057
 21
1059.5026181236
 31
0.0
 12
982.2686451057
 22
1060.5186181236
 32
0.0
 13
982.2686451057
 23
1060.5186181236
 33
0.0
  0
LINE
  5
28A
330
285
100
AcDbEntity
  8
SLD-0_0
 62
     7
100
AcDbLine
 10
1429.9666451057
 20
1083.0106181236
 30
0.0
 11
1429.9666451057
 21
1059.0106181236
 31
0.0
  0
LINE
  5
28B
330
285
100
AcDbEntity
  8
SLD-0_0
 62
     7
100
AcDbLine
 10
978.9666451057
 20
1083.0106181236
 30
0.0
 11
978.9666451057
 21
1059.0106181236
 31
0.0
  0
LINE
  5
28C
330
285
100
AcDbEntity
  8
SLD-0_0
 62
     7
100
AcDbLine
 10
1429.9666451057
 20
1060.0106181236
 30
0.0
 11
978.9666451057
 21
1060.0106181236
 31
0.0
  0
MTEXT
  5
28D
330
285
100
AcDbEntity
  8
SLD-0_0
 62
     7
100
AcDbMText
 10
1182.2224945222
 20
1076.3817784187
 30
0.0
 40
12.7
 41
0.0
 71
     1
 72
     1
  1
451
  7
SLDTEXTSTYLE0
 73
     1
 44
1.0
  0
ENDBLK
  5
287
330
285
100
AcDbEntity
  8
0
100
AcDbBlockEnd
  0
BLOCK
  5
290
330
28F
100
AcDbEntity
  8
0
100
AcDbBlockBegin
  2
_D_5
 70
     0
 10
0.0
 20
0.0
 30
0.0
  3
_D_5
  1

  0
SOLID
  5
292
330
28F
100
AcDbEntity
  8
SLD-0_0
 62
     7
100
AcDbTrace
 10
1453.9666451057
 20
1524.0106181236
 30
0.0
 11
1453.4586451057
 21
1520.7086181236
 31
0.0
 12
1454.4746451057
 22
1520.7086181236
 32
0.0
 13
1454.4746451057
 23
1520.7086181236
 33
0.0
  0
SOLID
  5
293
330
28F
100
AcDbEntity
  8
SLD-0_0
 62
     7
100
AcDbTrace
 10
1453.9666451057
 20
1084.0106181236
 30
0.0
 11
1454.4746451057
 21
1087.3126181236
 31
0.0
 12
1453.4586451057
 22
1087.3126181236
 32
0.0
 13
1453.4586451057
 23
1087.3126181236
 33
0.0
  0
LINE
  5
294
330
28F
100
AcDbEntity
  8
SLD-0_0
 62
     7
100
AcDbLine
 10
1430.9666451057
 20
1524.0106181236
 30
0.0
 11
1454.9666451057
 21
1524.0106181236
 31
0.0
  0
LINE
  5
295
330
28F
100
AcDbEntity
  8
SLD-0_0
 62
     7
100
AcDbLine
 10
1430.9666451057
 20
1084.0106181236
 30
0.0
 11
1454.9666451057
 21
1084.0106181236
 31
0.0
  0
LINE
  5
296
330
28F
100
AcDbEntity
  8
SLD-0_0
 62
     7
100
AcDbLine
 10
1453.9666451057
 20
1524.0106181236
 30
0.0
 11
1453.9666451057
 21
1084.0106181236
 31
0.0
  0
MTEXT
  5
297
330
28F
100
AcDbEntity
  8
SLD-0_0
 62
     7
100
AcDbMText
 10
1437.5954848105
 20
1282.6216625584
 30
0.0
 40
12.7
 41
0.0
 71
     1
 72
     1
  1
440
  7
SLDTEXTSTYLE0
 11
-7.044195017643634E-15
 21
1.0
 31
0.0
 73
     1
 44
1.0
  0
ENDBLK
  5
291
330
28F
100
AcDbEntity
  8
0
100
AcDbBlockEnd
  0
BLOCK
  5
2AA
330
2A9
100
AcDbEntity
  8
0
100
AcDbBlockBegin
  2
_D_6
 70
     0
 10
0.0
 20
0.0
 30
0.0
  3
_D_6
  1

  0
SOLID
  5
2AC
330
2A9
100
AcDbEntity
  8
SLD-0_0
 62
     7
100
AcDbTrace
 10
1422.3808200609
 20
853.0650381397
 30
0.0
 11
1419.0788200609
 21
853.5730381397
 31
0.0
 12
1419.0788200609
 22
852.5570381397
 32
0.0
 13
1419.0788200609
 23
852.5570381397
 33
0.0
  0
SOLID
  5
2AD
330
2A9
100
AcDbEntity
  8
SLD-0_0
 62
     7
100
AcDbTrace
 10
971.3808200609
 20
853.0650381397
 30
0.0
 11
974.6828200609
 21
852.5570381397
 31
0.0
 12
974.6828200609
 22
853.5730381397
 32
0.0
 13
974.6828200609
 23
853.5730381397
 33
0.0
  0
LINE
  5
2AE
330
2A9
100
AcDbEntity
  8
SLD-0_0
 62
     7
100
AcDbLine
 10
1422.3808200609
 20
823.0650381397
 30
0.0
 11
1422.3808200609
 21
854.0650381397
 31
0.0
  0
LINE
  5
2AF
330
2A9
100
AcDbEntity
  8
SLD-0_0
 62
     7
100
AcDbLine
 10
971.3808200609
 20
823.0650381397
 30
0.0
 11
971.3808200609
 21
854.0650381397
 31
0.0
  0
LINE
  5
2B0
330
2A9
100
AcDbEntity
  8
SLD-0_0
 62
     7
100
AcDbLine
 10
1422.3808200609
 20
853.0650381397
 30
0.0
 11
971.3808200609
 21
853.0650381397
 31
0.0
  0
MTEXT
  5
2B1
330
2A9
100
AcDbEntity
  8
SLD-0_0
 62
     7
100
AcDbMText
 10
1188.7681411448
 20
869.4361984348
 30
0.0
 40
12.7
 41
0.0
 71
     1
 72
     1
  1
451
  7
SLDTEXTSTYLE0
 73
     1
 44
1.0
  0
ENDBLK
  5
2AB
330
2A9
100
AcDbEntity
  8
0
100
AcDbBlockEnd
  0
BLOCK
  5
2B4
330
2B3
100
AcDbEntity
  8
0
100
AcDbBlockBegin
  2
_D_7
 70
     0
 10
0.0
 20
0.0
 30
0.0
  3
_D_7
  1

  0
SOLID
  5
2B6
330
2B3
100
AcDbEntity
  8
SLD-0_0
 62
     7
100
AcDbTrace
 10
1123.8808200609
 20
358.0650381397
 30
0.0
 11
1127.1828200609
 21
357.5570381397
 31
0.0
 12
1127.1828200609
 22
358.5730381397
 32
0.0
 13
1127.1828200609
 23
358.5730381397
 33
0.0
  0
SOLID
  5
2B7
330
2B3
100
AcDbEntity
  8
SLD-0_0
 62
     7
100
AcDbTrace
 10
1269.8808200609
 20
358.0650381397
 30
0.0
 11
1266.5788200609
 21
358.5730381397
 31
0.0
 12
1266.5788200609
 22
357.5570381397
 32
0.0
 13
1266.5788200609
 23
357.5570381397
 33
0.0
  0
LINE
  5
2B8
330
2B3
100
AcDbEntity
  8
SLD-0_0
 62
     7
100
AcDbLine
 10
1123.8808200609
 20
381.0650381397
 30
0.0
 11
1123.8808200609
 21
357.0650381397
 31
0.0
  0
LINE
  5
2B9
330
2B3
100
AcDbEntity
  8
SLD-0_0
 62
     7
100
AcDbLine
 10
1269.8808200609
 20
381.0650381397
 30
0.0
 11
1269.8808200609
 21
357.0650381397
 31
0.0
  0
LINE
  5
2BA
330
2B3
100
AcDbEntity
  8
SLD-0_0
 62
     7
100
AcDbLine
 10
1123.8808200609
 20
358.0650381397
 30
0.0
 11
1269.8808200609
 21
358.0650381397
 31
0.0
  0
MTEXT
  5
2BB
330
2B3
100
AcDbEntity
  8
SLD-0_0
 62
     7
100
AcDbMText
 10
1184.2628272801
 20
374.4361984348
 30
0.0
 40
12.7
 41
0.0
 71
     1
 72
     1
  1
146
  7
SLDTEXTSTYLE0
 73
     1
 44
1.0
  0
ENDBLK
  5
2B5
330
2B3
100
AcDbEntity
  8
0
100
AcDbBlockEnd
  0
BLOCK
  5
2BF
330
2BE
100
AcDbEntity
  8
0
100
AcDbBlockBegin
  2
_D_8
 70
     0
 10
0.0
 20
0.0
 30
0.0
  3
_D_8
  1

  0
SOLID
  5
2C1
330
2BE
100
AcDbEntity
  8
SLD-0_0
 62
     7
100
AcDbTrace
 10
1481.3808200609
 20
534.5650381397
 30
0.0
 11
1481.8888200609
 21
537.8670381397
 31
0.0
 12
1480.8728200609
 22
537.8670381397
 32
0.0
 13
1480.8728200609
 23
537.8670381397
 33
0.0
  0
SOLID
  5
2C2
330
2BE
100
AcDbEntity
  8
SLD-0_0
 62
     7
100
AcDbTrace
 10
1481.3808200609
 20
822.0650381397
 30
0.0
 11
1480.8728200609
 21
818.7630381397
 31
0.0
 12
1481.8888200609
 22
818.7630381397
 32
0.0
 13
1481.8888200609
 23
818.7630381397
 33
0.0
  0
LINE
  5
2C3
330
2BE
100
AcDbEntity
  8
SLD-0_0
 62
     7
100
AcDbLine
 10
1423.3808200609
 20
534.5650381397
 30
0.0
 11
1482.3808200609
 21
534.5650381397
 31
0.0
  0
LINE
  5
2C4
330
2BE
100
AcDbEntity
  8
SLD-0_0
 62
     7
100
AcDbLine
 10
1423.3808200609
 20
822.0650381397
 30
0.0
 11
1482.3808200609
 21
822.0650381397
 31
0.0
  0
LINE
  5
2C5
330
2BE
100
AcDbEntity
  8
SLD-0_0
 62
     7
100
AcDbLine
 10
1481.3808200609
 20
534.5650381397
 30
0.0
 11
1481.3808200609
 21
822.0650381397
 31
0.0
  0
MTEXT
  5
2C6
330
2BE
100
AcDbEntity
  8
SLD-0_0
 62
     7
100
AcDbMText
 10
1465.0096597658
 20
657.0334955391
 30
0.0
 40
12.7
 41
0.0
 71
     1
 72
     1
  1
287.50
  7
SLDTEXTSTYLE0
 11
-1.608122649676637E-16
 21
1.0
 31
0.0
 73
     1
 44
1.0
  0
ENDBLK
  5
2C0
330
2BE
100
AcDbEntity
  8
0
100
AcDbBlockEnd
  0
BLOCK
  5
2C9
330
2C8
100
AcDbEntity
  8
0
100
AcDbBlockBegin
  2
_D_9
 70
     0
 10
0.0
 20
0.0
 30
0.0
  3
_D_9
  1

  0
SOLID
  5
2CB
330
2C8
100
AcDbEntity
  8
SLD-0_0
 62
     7
100
AcDbTrace
 10
1523.3808200609
 20
822.0650381397
 30
0.0
 11
1522.8728200609
 21
818.7630381397
 31
0.0
 12
1523.8888200609
 22
818.7630381397
 32
0.0
 13
1523.8888200609
 23
818.7630381397
 33
0.0
  0
SOLID
  5
2CC
330
2C8
100
AcDbEntity
  8
SLD-0_0
 62
     7
100
AcDbTrace
 10
1523.3808200609
 20
382.0650381397
 30
0.0
 11
1523.8888200609
 21
385.3670381397
 31
0.0
 12
1522.8728200609
 22
385.3670381397
 32
0.0
 13
1522.8728200609
 23
385.3670381397
 33
0.0
  0
LINE
  5
2CD
330
2C8
100
AcDbEntity
  8
SLD-0_0
 62
     7
100
AcDbLine
 10
1423.3808200609
 20
822.0650381397
 30
0.0
 11
1524.3808200609
 21
822.0650381397
 31
0.0
  0
LINE
  5
2CE
330
2C8
100
AcDbEntity
  8
SLD-0_0
 62
     7
100
AcDbLine
 10
1270.8808200609
 20
382.0650381397
 30
0.0
 11
1524.3808200609
 21
382.0650381397
 31
0.0
  0
LINE
  5
2CF
330
2C8
100
AcDbEntity
  8
SLD-0_0
 62
     7
100
AcDbLine
 10
1523.3808200609
 20
822.0650381397
 30
0.0
 11
1523.3808200609
 21
382.0650381397
 31
0.0
  0
MTEXT
  5
2D0
330
2C8
100
AcDbEntity
  8
SLD-0_0
 62
     7
100
AcDbMText
 10
1507.0096597658
 20
602.2792441712
 30
0.0
 40
12.7
 41
0.0
 71
     1
 72
     1
  1
440
  7
SLDTEXTSTYLE0
 11
-7.044195017643634E-15
 21
1.0
 31
0.0
 73
     1
 44
1.0
  0
ENDBLK
  5
2CA
330
2C8
100
AcDbEntity
  8
0
100
AcDbBlockEnd
  0
BLOCK
  5
2D3
330
2D2
100
AcDbEntity
  8
0
100
AcDbBlockBegin
  2
_D_10
 70
     0
 10
0.0
 20
0.0
 30
0.0
  3
_D_10
  1

  0
SOLID
  5
2D5
330
2D2
100
AcDbEntity
  8
SLD-0_0
 62
     7
100
AcDbTrace
 10
933.3808200609
 20
822.0650381397
 30
0.0
 11
932.8728200609
 21
818.7630381397
 31
0.0
 12
933.8888200609
 22
818.7630381397
 32
0.0
 13
933.8888200609
 23
818.7630381397
 33
0.0
  0
SOLID
  5
2D6
330
2D2
100
AcDbEntity
  8
SLD-0_0
 62
     7
100
AcDbTrace
 10
933.3808200609
 20
602.0650381397
 30
0.0
 11
933.8888200609
 21
605.3670381397
 31
0.0
 12
932.8728200609
 22
605.3670381397
 32
0.0
 13
932.8728200609
 23
605.3670381397
 33
0.0
  0
LINE
  5
2D7
330
2D2
100
AcDbEntity
  8
SLD-0_0
 62
     7
100
AcDbLine
 10
970.3808200609
 20
822.0650381397
 30
0.0
 11
932.3808200609
 21
822.0650381397
 31
0.0
  0
LINE
  5
2D8
330
2D2
100
AcDbEntity
  8
SLD-0_0
 62
     7
100
AcDbLine
 10
1006.8808200609
 20
602.0650381397
 30
0.0
 11
932.3808200609
 21
602.0650381397
 31
0.0
  0
LINE
  5
2D9
330
2D2
100
AcDbEntity
  8
SLD-0_0
 62
     7
100
AcDbLine
 10
933.3808200609
 20
822.0650381397
 30
0.0
 11
933.3808200609
 21
602.0650381397
 31
0.0
  0
MTEXT
  5
2DA
330
2D2
100
AcDbEntity
  8
SLD-0_0
 62
     7
100
AcDbMText
 10
917.0096597658
 20
694.6724523007
 30
0.0
 40
12.7
 41
0.0
 71
     1
 72
     1
  1
220
  7
SLDTEXTSTYLE0
 11
-7.044195017643634E-15
 21
1.0
 31
0.0
 73
     1
 44
1.0
  0
ENDBLK
  5
2D4
330
2D2
100
AcDbEntity
  8
0
100
AcDbBlockEnd
  0
BLOCK
  5
2DE
330
2DD
100
AcDbEntity
  8
0
100
AcDbBlockBegin
  2
_D_11
 70
     0
 10
0.0
 20
0.0
 30
0.0
  3
_D_11
  1

  0
ARC
  5
2E0
330
2DD
100
AcDbEntity
  8
SLD-0_0
 62
     7
100
AcDbCircle
 10
1196.8808200609
 20
602.0650381397
 30
0.0
 40
186.5428905104668
100
AcDbArc
 50
12.0126801071
 51
24.004246146
  0
SOLID
  5
2E1
330
2DD
100
AcDbEntity
  8
SLD-0_0
 62
     7
100
AcDbTrace
 10
1014.6756257562
 20
562.271606918
 30
0.0
 11
1018.0099775774
 21
562.4798518037
 31
0.0
 12
1017.7931940594
 22
563.4724548998
 32
0.0
 13
1017.7931940594
 23
563.4724548998
 33
0.0
  0
SOLID
  5
2E2
330
2DD
100
AcDbEntity
  8
SLD-0_0
 62
     7
100
AcDbTrace
 10
1379.0860143656
 20
641.8584693614
 30
0.0
 11
1375.7516625444
 21
641.6502244756
 31
0.0
 12
1375.9684460625
 22
640.6576213796
 32
0.0
 13
1375.9684460625
 23
640.6576213796
 33
0.0
  0
LINE
  5
2E3
330
2DD
100
AcDbEntity
  8
SLD-0_0
 62
     7
100
AcDbLine
 10
1379.0860143656
 20
641.8584693614
 30
0.0
 11
1014.6756257562
 21
562.271606918
 31
0.0
  0
MTEXT
  5
2E4
330
2DD
100
AcDbEntity
  8
SLD-0_0
 62
     7
100
AcDbMText
 10
1235.6797455439
 20
627.1750108768
 30
0.0
 40
12.7
 41
0.0
 71
     1
 72
     1
  1
%%c
  7
SLDTEXTSTYLE0
 11
0.9769715512315157
 21
0.213369604405796
 31
0.0
 73
     1
 44
1.0
  0
MTEXT
  5
2E5
330
2DD
100
AcDbEntity
  8
SLD-0_0
 62
     7
100
AcDbMText
 10
1253.2513480065
 20
631.0126311857
 30
0.0
 40
12.7
 41
0.0
 71
     1
 72
     1
  1
373
  7
SLDTEXTSTYLE0
 11
0.9769715512315157
 21
0.213369604405796
 31
0.0
 73
     1
 44
1.0
  0
ENDBLK
  5
2DF
330
2DD
100
AcDbEntity
  8
0
100
AcDbBlockEnd
  0
BLOCK
  5
2E9
330
2E8
100
AcDbEntity
  8
0
100
AcDbBlockBegin
  2
_NONE
 70
     0
 10
0.0
 20
0.0
 30
0.0
  3
_NONE
  1

  0
ENDBLK
  5
2EA
330
2E8
100
AcDbEntity
  8
0
100
AcDbBlockEnd
  0
BLOCK
  5
2EC
330
2EB
100
AcDbEntity
  8
0
100
AcDbBlockBegin
  2
_D_12
 70
     0
 10
0.0
 20
0.0
 30
0.0
  3
_D_12
  1

  0
SOLID
  5
2EE
330
2EB
100
AcDbEntity
  8
SLD-0_0
 62
     7
100
AcDbTrace
 10
1125.8803428163
 20
771.089377049
 30
0.0
 11
1125.7457528177
 21
767.7512408127
 31
0.0
 12
1126.755347062
 22
767.8651506969
 32
0.0
 13
1126.755347062
 23
767.8651506969
 33
0.0
  0
LINE
  5
2EF
330
2EB
100
AcDbEntity
  8
SLD-0_0
 62
     7
100
AcDbLine
 10
1125.8803428163
 20
771.089377049
 30
0.0
 11
1128.6206710554
 21
746.8015846581
 31
0.0
  0
LINE
  5
2F0
330
2EB
100
AcDbEntity
  8
SLD-0_0
 62
     7
100
AcDbLine
 10
1125.1403770333
 20
777.647764857
 30
0.0
 11
1125.8803428163
 21
771.089377049
 31
0.0
  0
LINE
  5
2F1
330
2EB
100
AcDbEntity
  8
SLD-0_0
 62
     7
100
AcDbLine
 10
1128.6206710554
 20
746.8015846581
 30
0.0
 11
1181.1198881722
 21
746.8015846581
 31
0.0
  0
MTEXT
  5
2F2
330
2EB
100
AcDbEntity
  8
SLD-0_0
 62
     7
100
AcDbMText
 10
1130.2081710554
 20
763.1727458845
 30
0.0
 40
12.7
 41
0.0
 71
     1
 72
     1
  1
%%c
  7
SLDTEXTSTYLE0
 73
     1
 44
1.0
  0
MTEXT
  5
2F3
330
2EB
100
AcDbEntity
  8
SLD-0_0
 62
     7
100
AcDbMText
 10
1148.193958298
 20
763.1727458845
 30
0.0
 40
12.7
 41
0.0
 71
     1
 72
     1
  1
6.60
  7
SLDTEXTSTYLE0
 73
     1
 44
1.0
  0
ENDBLK
  5
2ED
330
2EB
100
AcDbEntity
  8
0
100
AcDbBlockEnd
  0
BLOCK
  5
2F6
330
2F5
100
AcDbEntity
  8
0
100
AcDbBlockBegin
  2
_D_13
 70
     0
 10
0.0
 20
0.0
 30
0.0
  3
_D_13
  1

  0
SOLID
  5
2F8
330
2F5
100
AcDbEntity
  8
SLD-0_0
 62
     7
100
AcDbTrace
 10
1269.8808200609
 20
358.0650381397
 30
0.0
 11
1273.1828200609
 21
357.5570381397
 31
0.0
 12
1273.1828200609
 22
358.5730381397
 32
0.0
 13
1273.1828200609
 23
358.5730381397
 33
0.0
  0
SOLID
  5
2F9
330
2F5
100
AcDbEntity
  8
SLD-0_0
 62
     7
100
AcDbTrace
 10
1422.3808200609
 20
358.0650381397
 30
0.0
 11
1419.0788200609
 21
358.5730381397
 31
0.0
 12
1419.0788200609
 22
357.5570381397
 32
0.0
 13
1419.0788200609
 23
357.5570381397
 33
0.0
  0
LINE
  5
2FA
330
2F5
100
AcDbEntity
  8
SLD-0_0
 62
     7
100
AcDbLine
 10
1269.8808200609
 20
381.0650381397
 30
0.0
 11
1269.8808200609
 21
357.0650381397
 31
0.0
  0
LINE
  5
2FB
330
2F5
100
AcDbEntity
  8
SLD-0_0
 62
     7
100
AcDbLine
 10
1422.3808200609
 20
533.5650381397
 30
0.0
 11
1422.3808200609
 21
357.0650381397
 31
0.0
  0
LINE
  5
2FC
330
2F5
100
AcDbEntity
  8
SLD-0_0
 62
     7
100
AcDbLine
 10
1269.8808200609
 20
358.0650381397
 30
0.0
 11
1422.3808200609
 21
358.0650381397
 31
0.0
  0
MTEXT
  5
2FD
330
2F5
100
AcDbEntity
  8
SLD-0_0
 62
     7
100
AcDbMText
 10
1313.2327531883
 20
374.4361984348
 30
0.0
 40
12.7
 41
0.0
 71
     1
 72
     1
  1
152.50
  7
SLDTEXTSTYLE0
 73
     1
 44
1.0
  0
ENDBLK
  5
2F7
330
2F5
100
AcDbEntity
  8
0
100
AcDbBlockEnd
  0
BLOCK
  5
300
330
2FF
100
AcDbEntity
  8
0
100
AcDbBlockBegin
  2
_D_14
 70
     0
 10
0.0
 20
0.0
 30
0.0
  3
_D_14
  1

  0
SOLID
  5
302
330
2FF
100
AcDbEntity
  8
SLD-0_0
 62
     7
100
AcDbTrace
 10
1481.3808200609
 20
382.0650381397
 30
0.0
 11
1481.8888200609
 21
385.3670381397
 31
0.0
 12
1480.8728200609
 22
385.3670381397
 32
0.0
 13
1480.8728200609
 23
385.3670381397
 33
0.0
  0
SOLID
  5
303
330
2FF
100
AcDbEntity
  8
SLD-0_0
 62
     7
100
AcDbTrace
 10
1481.3808200609
 20
534.5650381397
 30
0.0
 11
1480.8728200609
 21
531.2630381397
 31
0.0
 12
1481.8888200609
 22
531.2630381397
 32
0.0
 13
1481.8888200609
 23
531.2630381397
 33
0.0
  0
LINE
  5
304
330
2FF
100
AcDbEntity
  8
SLD-0_0
 62
     7
100
AcDbLine
 10
1270.8808200609
 20
382.0650381397
 30
0.0
 11
1482.3808200609
 21
382.0650381397
 31
0.0
  0
LINE
  5
305
330
2FF
100
AcDbEntity
  8
SLD-0_0
 62
     7
100
AcDbLine
 10
1423.3808200609
 20
534.5650381397
 30
0.0
 11
1482.3808200609
 21
534.5650381397
 31
0.0
  0
LINE
  5
306
330
2FF
100
AcDbEntity
  8
SLD-0_0
 62
     7
100
AcDbLine
 10
1481.3808200609
 20
382.0650381397
 30
0.0
 11
1481.3808200609
 21
534.5650381397
 31
0.0
  0
MTEXT
  5
307
330
2FF
100
AcDbEntity
  8
SLD-0_0
 62
     7
100
AcDbMText
 10
1465.0096597658
 20
433.6072009934
 30
0.0
 40
12.7
 41
0.0
 71
     1
 72
     1
  1
152.50
  7
SLDTEXTSTYLE0
 11
6.123233995736766E-17
 21
1.0
 31
0.0
 73
     1
 44
1.0
  0
ENDBLK
  5
301
330
2FF
100
AcDbEntity
  8
0
100
AcDbBlockEnd
  0
BLOCK
  5
30A
330
309
100
AcDbEntity
  8
0
100
AcDbBlockBegin
  2
_D_15
 70
     0
 10
0.0
 20
0.0
 30
0.0
  3
_D_15
  1

  0
SOLID
  5
30C
330
309
100
AcDbEntity
  8
SLD-0_0
 62
     7
100
AcDbTrace
 10
1359.0747607101
 20
533.7340377322
 30
0.0
 11
1356.2290093248
 21
535.4841711708
 31
0.0
 12
1355.8345530951
 22
534.5478697861
 32
0.0
 13
1355.8345530951
 23
534.5478697861
 33
0.0
  0
SOLID
  5
30D
330
309
100
AcDbEntity
  8
SLD-0_0
 62
     7
100
AcDbTrace
 10
1034.6868794117
 20
670.3960385472
 30
0.0
 11
1037.532630797
 21
668.6459051086
 31
0.0
 12
1037.9270870267
 22
669.5822064932
 32
0.0
 13
1037.9270870267
 23
669.5822064932
 33
0.0
  0
LINE
  5
30E
330
309
100
AcDbEntity
  8
SLD-0_0
 62
     7
100
AcDbLine
 10
1034.6868794117
 20
670.3960385472
 30
0.0
 11
1359.0747607101
 21
533.7340377322
 31
0.0
  0
MTEXT
  5
30F
330
309
100
AcDbEntity
  8
SLD-0_0
 62
     7
100
AcDbMText
 10
1104.3156535893
 20
658.7459798246
 30
0.0
 40
12.7
 41
0.0
 71
     1
 72
     1
  1
%%c
  7
SLDTEXTSTYLE0
 11
0.9215564809612545
 21
-0.3882443204971696
 31
0.0
 73
     1
 44
1.0
  0
MTEXT
  5
310
330
309
100
AcDbEntity
  8
SLD-0_0
 62
     7
100
AcDbMText
 10
1120.890572388
 20
651.7631000779
 30
0.0
 40
12.7
 41
0.0
 71
     1
 72
     1
  1
352
  7
SLDTEXTSTYLE0
 11
0.9215564809612545
 21
-0.3882443204971696
 31
0.0
 73
     1
 44
1.0
  0
ENDBLK
  5
30B
330
309
100
AcDbEntity
  8
0
100
AcDbBlockEnd
  0
BLOCK
  5
312
330
311
100
AcDbEntity
  8
0
100
AcDbBlockBegin
  2
SW_CENTERMARKSYMBOL_0
 70
     0
 10
0.0
 20
0.0
 30
0.0
  3
SW_CENTERMARKSYMBOL_0
  1

  0
ARC
  5
314
330
311
100
AcDbEntity
  8
SLD-0_0
 62
     0
100
AcDbCircle
 10
71.3704601361
 20
-172.3035328134
 30
0.0
 40
186.5
100
AcDbArc
 50
112.5
 51
113.2680399399
  0
ARC
  5
315
330
311
100
AcDbEntity
  8
SLD-0_0
 62
     0
100
AcDbCircle
 10
71.3704601361
 20
-172.3035328134
 30
0.0
 40
186.5
100
AcDbArc
 50
111.7319600601
 51
112.5
  0
ARC
  5
316
330
311
100
AcDbEntity
  8
SLD-0_0
 62
     0
100
AcDbCircle
 10
71.3704601361
 20
-172.3035328134
 30
0.0
 40
186.5
100
AcDbArc
 50
67.5
 51
68.2680399399
  0
ARC
  5
317
330
311
100
AcDbEntity
  8
SLD-0_0
 62
     0
100
AcDbCircle
 10
71.3704601361
 20
-172.3035328134
 30
0.0
 40
186.5
100
AcDbArc
 50
66.7319600601
 51
67.5
  0
ARC
  5
318
330
311
100
AcDbEntity
  8
SLD-0_0
 62
     0
100
AcDbCircle
 10
71.3704601361
 20
-172.3035328134
 30
0.0
 40
186.4999999999999
100
AcDbArc
 50
22.5
 51
23.2680399399
  0
ARC
  5
319
330
311
100
AcDbEntity
  8
SLD-0_0
 62
     0
100
AcDbCircle
 10
71.3704601361
 20
-172.3035328134
 30
0.0
 40
186.5
100
AcDbArc
 50
21.7319600601
 51
22.5
  0
ARC
  5
31A
330
311
100
AcDbEntity
  8
SLD-0_0
 62
     0
100
AcDbCircle
 10
71.3704601361
 20
-172.3035328134
 30
0.0
 40
186.4999999999999
100
AcDbArc
 50
337.5
 51
338.2680399399
  0
ARC
  5
31B
330
311
100
AcDbEntity
  8
SLD-0_0
 62
     0
100
AcDbCircle
 10
71.3704601361
 20
-172.3035328134
 30
0.0
 40
186.4999999999999
100
AcDbArc
 50
336.7319600601
 51
337.5
  0
ARC
  5
31C
330
311
100
AcDbEntity
  8
SLD-0_0
 62
     0
100
AcDbCircle
 10
71.3704601361
 20
-172.3035328134
 30
0.0
 40
186.5
100
AcDbArc
 50
292.5
 51
293.2680399399
  0
ARC
  5
31D
330
311
100
AcDbEntity
  8
SLD-0_0
 62
     0
100
AcDbCircle
 10
71.3704601361
 20
-172.3035328134
 30
0.0
 40
186.5
100
AcDbArc
 50
291.7319600601
 51
292.5
  0
ARC
  5
31E
330
311
100
AcDbEntity
  8
SLD-0_0
 62
     0
100
AcDbCircle
 10
71.3704601361
 20
-172.3035328134
 30
0.0
 40
186.5000000000001
100
AcDbArc
 50
247.5
 51
248.2680399399
  0
ARC
  5
31F
330
311
100
AcDbEntity
  8
SLD-0_0
 62
     0
100
AcDbCircle
 10
71.3704601361
 20
-172.3035328134
 30
0.0
 40
186.5000000000001
100
AcDbArc
 50
246.7319600601
 51
247.5
  0
ARC
  5
320
330
311
100
AcDbEntity
  8
SLD-0_0
 62
     0
100
AcDbCircle
 10
71.3704601361
 20
-172.3035328134
 30
0.0
 40
186.5000000000003
100
AcDbArc
 50
202.5
 51
203.2680399399
  0
ARC
  5
321
330
311
100
AcDbEntity
  8
SLD-0_0
 62
     0
100
AcDbCircle
 10
71.3704601361
 20
-172.3035328134
 30
0.0
 40
186.5000000000002
100
AcDbArc
 50
201.7319600601
 51
202.5
  0
ARC
  5
322
330
311
100
AcDbEntity
  8
SLD-0_0
 62
     0
100
AcDbCircle
 10
71.3704601361
 20
-172.3035328134
 30
0.0
 40
186.5000000000001
100
AcDbArc
 50
157.5
 51
158.2680399399
  0
ARC
  5
323
330
311
100
AcDbEntity
  8
SLD-0_0
 62
     0
100
AcDbCircle
 10
71.3704601361
 20
-172.3035328134
 30
0.0
 40
186.5000000000001
100
AcDbArc
 50
156.7319600601
 51
157.5
  0
ARC
  5
324
330
311
100
AcDbEntity
  8
SLD-0_0
 62
     0
100
AcDbCircle
 10
71.3704601361
 20
-172.3035328134
 30
0.0
 40
186.5
100
AcDbArc
 50
24.0360798797
 51
65.9639201203
  0
ARC
  5
325
330
311
100
AcDbEntity
  8
SLD-0_0
 62
     0
100
AcDbCircle
 10
71.3704601361
 20
-172.3035328134
 30
0.0
 40
186.5000000000001
100
AcDbArc
 50
69.0360798797
 51
110.9639201203
  0
ARC
  5
326
330
311
100
AcDbEntity
  8
SLD-0_0
 62
     0
100
AcDbCircle
 10
71.3704601361
 20
-172.3035328134
 30
0.0
 40
186.5000000000001
100
AcDbArc
 50
114.0360798797
 51
155.9639201203
  0
ARC
  5
327
330
311
100
AcDbEntity
  8
SLD-0_0
 62
     0
100
AcDbCircle
 10
71.3704601361
 20
-172.3035328134
 30
0.0
 40
186.5000000000001
100
AcDbArc
 50
159.0360798797
 51
200.9639201203
  0
ARC
  5
328
330
311
100
AcDbEntity
  8
SLD-0_0
 62
     0
100
AcDbCircle
 10
71.3704601361
 20
-172.3035328134
 30
0.0
 40
186.5000000000001
100
AcDbArc
 50
204.0360798797
 51
245.9639201203
  0
ARC
  5
329
330
311
100
AcDbEntity
  8
SLD-0_0
 62
     0
100
AcDbCircle
 10
71.3704601361
 20
-172.3035328134
 30
0.0
 40
186.5000000000001
100
AcDbArc
 50
249.0360798797
 51
290.9639201203
  0
ARC
  5
32A
330
311
100
AcDbEntity
  8
SLD-0_0
 62
     0
100
AcDbCircle
 10
71.3704601361
 20
-172.3035328134
 30
0.0
 40
186.5
100
AcDbArc
 50
294.0360798797
 51
335.9639201203
  0
ARC
  5
32B
330
311
100
AcDbEntity
  8
SLD-0_0
 62
     0
100
AcDbCircle
 10
71.3704601361
 20
-172.3035328134
 30
0.0
 40
186.4999999999999
100
AcDbArc
 50
339.0360798797
 51
20.9639201203
  0
LINE
  5
32C
330
311
100
AcDbEntity
  8
SLD-0_0
 62
     0
100
AcDbLine
 10
0.0
 20
0.0
 30
0.0
 11
-0.9567085809
 21
2.3096988313
 31
0.0
  0
LINE
  5
32D
330
311
100
AcDbEntity
  8
SLD-0_0
 62
     0
100
AcDbLine
 10
0.0
 20
0.0
 30
0.0
 11
0.9567085809
 21
-2.3096988313
 31
0.0
  0
LINE
  5
32E
330
311
100
AcDbEntity
  8
SLD-0_0
 62
     0
100
AcDbLine
 10
-1.9134171618
 20
4.6193976626
 30
0.0
 11
-2.2195639077
 21
5.3585012886
 31
0.0
  0
LINE
  5
32F
330
311
100
AcDbEntity
  8
SLD-0_0
 62
     0
100
AcDbLine
 10
1.9134171618
 20
-4.6193976626
 30
0.0
 11
2.2195639077
 21
-5.3585012886
 31
0.0
  0
LINE
  5
330
330
311
100
AcDbEntity
  8
SLD-0_0
 62
     0
100
AcDbLine
 10
71.3704601361
 20
-172.3035328134
 30
0.0
 11
71.3704601361
 21
-169.8035328134
 31
0.0
  0
LINE
  5
331
330
311
100
AcDbEntity
  8
SLD-0_0
 62
     0
100
AcDbLine
 10
71.3704601361
 20
-172.3035328134
 30
0.0
 11
68.8704601361
 21
-172.3035328134
 31
0.0
  0
LINE
  5
332
330
311
100
AcDbEntity
  8
SLD-0_0
 62
     0
100
AcDbLine
 10
71.3704601361
 20
-172.3035328134
 30
0.0
 11
71.3704601361
 21
-174.8035328134
 31
0.0
  0
LINE
  5
333
330
311
100
AcDbEntity
  8
SLD-0_0
 62
     0
100
AcDbLine
 10
71.3704601361
 20
-172.3035328134
 30
0.0
 11
73.8704601361
 21
-172.3035328134
 31
0.0
  0
LINE
  5
334
330
311
100
AcDbEntity
  8
SLD-0_0
 62
     0
100
AcDbLine
 10
71.3704601361
 20
-167.3035328134
 30
0.0
 11
71.3704601361
 21
16.6964671866
 31
0.0
  0
LINE
  5
335
330
311
100
AcDbEntity
  8
SLD-0_0
 62
     0
100
AcDbLine
 10
66.3704601361
 20
-172.3035328134
 30
0.0
 11
-117.6295398639
 21
-172.3035328134
 31
0.0
  0
LINE
  5
336
330
311
100
AcDbEntity
  8
SLD-0_0
 62
     0
100
AcDbLine
 10
71.3704601361
 20
-177.3035328134
 30
0.0
 11
71.3704601361
 21
-361.3035328134
 31
0.0
  0
LINE
  5
337
330
311
100
AcDbEntity
  8
SLD-0_0
 62
     0
100
AcDbLine
 10
76.3704601361
 20
-172.3035328134
 30
0.0
 11
260.3704601361
 21
-172.3035328134
 31
0.0
  0
LINE
  5
338
330
311
100
AcDbEntity
  8
SLD-0_0
 62
     0
100
AcDbLine
 10
142.7409202722
 20
0.0
 30
0.0
 11
143.6976288531
 21
2.3096988313
 31
0.0
  0
LINE
  5
339
330
311
100
AcDbEntity
  8
SLD-0_0
 62
     0
100
AcDbLine
 10
142.7409202722
 20
0.0
 30
0.0
 11
141.7842116913
 21
-2.3096988313
 31
0.0
  0
LINE
  5
33A
330
311
100
AcDbEntity
  8
SLD-0_0
 62
     0
100
AcDbLine
 10
144.654337434
 20
4.6193976626
 30
0.0
 11
144.9604841799
 21
5.3585012886
 31
0.0
  0
LINE
  5
33B
330
311
100
AcDbEntity
  8
SLD-0_0
 62
     0
100
AcDbLine
 10
140.8275031104
 20
-4.6193976626
 30
0.0
 11
140.5213563645
 21
-5.3585012886
 31
0.0
  0
LINE
  5
33C
330
311
100
AcDbEntity
  8
SLD-0_0
 62
     0
100
AcDbLine
 10
243.6739929494
 20
-100.9330726773
 30
0.0
 11
245.9836917807
 21
-99.9763640964
 31
0.0
  0
LINE
  5
33D
330
311
100
AcDbEntity
  8
SLD-0_0
 62
     0
100
AcDbLine
 10
243.6739929494
 20
-100.9330726773
 30
0.0
 11
241.3642941182
 21
-101.8897812582
 31
0.0
  0
LINE
  5
33E
330
311
100
AcDbEntity
  8
SLD-0_0
 62
     0
100
AcDbLine
 10
248.293390612
 20
-99.0196555154
 30
0.0
 11
249.032494238
 21
-98.7135087696
 31
0.0
  0
LINE
  5
33F
330
311
100
AcDbEntity
  8
SLD-0_0
 62
     0
100
AcDbLine
 10
239.0545952869
 20
-102.8464898391
 30
0.0
 11
238.3154916609
 21
-103.152636585
 31
0.0
  0
LINE
  5
340
330
311
100
AcDbEntity
  8
SLD-0_0
 62
     0
100
AcDbLine
 10
243.6739929494
 20
-243.6739929494
 30
0.0
 11
245.9836917807
 21
-244.6307015304
 31
0.0
  0
LINE
  5
341
330
311
100
AcDbEntity
  8
SLD-0_0
 62
     0
100
AcDbLine
 10
243.6739929494
 20
-243.6739929494
 30
0.0
 11
241.3642941182
 21
-242.7172843685
 31
0.0
  0
LINE
  5
342
330
311
100
AcDbEntity
  8
SLD-0_0
 62
     0
100
AcDbLine
 10
248.293390612
 20
-245.5874101113
 30
0.0
 11
249.032494238
 21
-245.8935568572
 31
0.0
  0
LINE
  5
343
330
311
100
AcDbEntity
  8
SLD-0_0
 62
     0
100
AcDbLine
 10
239.0545952869
 20
-241.7605757876
 30
0.0
 11
238.3154916609
 21
-241.4544290417
 31
0.0
  0
LINE
  5
344
330
311
100
AcDbEntity
  8
SLD-0_0
 62
     0
100
AcDbLine
 10
142.7409202722
 20
-344.6070656267
 30
0.0
 11
143.6976288531
 21
-346.916764458
 31
0.0
  0
LINE
  5
345
330
311
100
AcDbEntity
  8
SLD-0_0
 62
     0
100
AcDbLine
 10
142.7409202722
 20
-344.6070656267
 30
0.0
 11
141.7842116913
 21
-342.2973667954
 31
0.0
  0
LINE
  5
346
330
311
100
AcDbEntity
  8
SLD-0_0
 62
     0
100
AcDbLine
 10
144.654337434
 20
-349.2264632893
 30
0.0
 11
144.9604841799
 21
-349.9655669153
 31
0.0
  0
LINE
  5
347
330
311
100
AcDbEntity
  8
SLD-0_0
 62
     0
100
AcDbLine
 10
140.8275031103
 20
-339.9876679642
 30
0.0
 11
140.5213563645
 21
-339.2485643381
 31
0.0
  0
LINE
  5
348
330
311
100
AcDbEntity
  8
SLD-0_0
 62
     0
100
AcDbLine
 10
0.0
 20
-344.6070656267
 30
0.0
 11
-0.9567085809
 21
-346.916764458
 31
0.0
  0
LINE
  5
349
330
311
100
AcDbEntity
  8
SLD-0_0
 62
     0
100
AcDbLine
 10
0.0
 20
-344.6070656267
 30
0.0
 11
0.9567085809
 21
-342.2973667954
 31
0.0
  0
LINE
  5
34A
330
311
100
AcDbEntity
  8
SLD-0_0
 62
     0
100
AcDbLine
 10
-1.9134171618
 20
-349.2264632893
 30
0.0
 11
-2.2195639077
 21
-349.9655669153
 31
0.0
  0
LINE
  5
34B
330
311
100
AcDbEntity
  8
SLD-0_0
 62
     0
100
AcDbLine
 10
1.9134171618
 20
-339.9876679642
 30
0.0
 11
2.2195639077
 21
-339.2485643381
 31
0.0
  0
LINE
  5
34C
330
311
100
AcDbEntity
  8
SLD-0_0
 62
     0
100
AcDbLine
 10
-100.9330726773
 20
-243.6739929494
 30
0.0
 11
-103.2427715085
 21
-244.6307015304
 31
0.0
  0
LINE
  5
34D
330
311
100
AcDbEntity
  8
SLD-0_0
 62
     0
100
AcDbLine
 10
-100.9330726773
 20
-243.6739929494
 30
0.0
 11
-98.623373846
 21
-242.7172843685
 31
0.0
  0
LINE
  5
34E
330
311
100
AcDbEntity
  8
SLD-0_0
 62
     0
100
AcDbLine
 10
-105.5524703398
 20
-245.5874101113
 30
0.0
 11
-106.2915739658
 21
-245.8935568572
 31
0.0
  0
LINE
  5
34F
330
311
100
AcDbEntity
  8
SLD-0_0
 62
     0
100
AcDbLine
 10
-96.3136750147
 20
-241.7605757876
 30
0.0
 11
-95.5745713887
 21
-241.4544290417
 31
0.0
  0
LINE
  5
350
330
311
100
AcDbEntity
  8
SLD-0_0
 62
     0
100
AcDbLine
 10
-100.9330726773
 20
-100.9330726773
 30
0.0
 11
-103.2427715085
 21
-99.9763640964
 31
0.0
  0
LINE
  5
351
330
311
100
AcDbEntity
  8
SLD-0_0
 62
     0
100
AcDbLine
 10
-100.9330726773
 20
-100.9330726773
 30
0.0
 11
-98.623373846
 21
-101.8897812582
 31
0.0
  0
LINE
  5
352
330
311
100
AcDbEntity
  8
SLD-0_0
 62
     0
100
AcDbLine
 10
-105.5524703398
 20
-99.0196555154
 30
0.0
 11
-106.2915739658
 21
-98.7135087695
 31
0.0
  0
LINE
  5
353
330
311
100
AcDbEntity
  8
SLD-0_0
 62
     0
100
AcDbLine
 10
-96.3136750147
 20
-102.8464898391
 30
0.0
 11
-95.5745713887
 21
-103.152636585
 31
0.0
  0
ENDBLK
  5
313
330
311
100
AcDbEntity
  8
0
100
AcDbBlockEnd
  0
BLOCK
  5
35F
330
35E
100
AcDbEntity
  8
0
100
AcDbBlockBegin
  2
_D_16
 70
     0
 10
0.0
 20
0.0
 30
0.0
  3
_D_16
  1

  0
SOLID
  5
361
330
35E
100
AcDbEntity
  8
SLD-0_0
 62
     7
100
AcDbTrace
 10
1745.0785264833
 20
556.5334003146
 30
0.0
 11
1748.3805264833
 21
556.0254003146
 31
0.0
 12
1748.3805264833
 22
557.0414003146
 32
0.0
 13
1748.3805264833
 23
557.0414003146
 33
0.0
  0
SOLID
  5
362
330
35E
100
AcDbEntity
  8
SLD-0_0
 62
     7
100
AcDbTrace
 10
2196.0785264833
 20
556.5334003146
 30
0.0
 11
2192.7765264833
 21
557.0414003146
 31
0.0
 12
2192.7765264833
 22
556.0254003146
 32
0.0
 13
2192.7765264833
 23
556.0254003146
 33
0.0
  0
LINE
  5
363
330
35E
100
AcDbEntity
  8
SLD-0_0
 62
     7
100
AcDbLine
 10
1745.0785264833
 20
579.5334003146
 30
0.0
 11
1745.0785264833
 21
555.5334003146
 31
0.0
  0
LINE
  5
364
330
35E
100
AcDbEntity
  8
SLD-0_0
 62
     7
100
AcDbLine
 10
2196.0785264833
 20
579.5334003146
 30
0.0
 11
2196.0785264833
 21
555.5334003146
 31
0.0
  0
LINE
  5
365
330
35E
100
AcDbEntity
  8
SLD-0_0
 62
     7
100
AcDbLine
 10
1745.0785264833
 20
556.5334003146
 30
0.0
 11
2196.0785264833
 21
556.5334003146
 31
0.0
  0
MTEXT
  5
366
330
35E
100
AcDbEntity
  8
SLD-0_0
 62
     7
100
AcDbMText
 10
1967.7954520276
 20
572.9045606097
 30
0.0
 40
12.7
 41
0.0
 71
     1
 72
     1
  1
451
  7
SLDTEXTSTYLE0
 73
     1
 44
1.0
  0
ENDBLK
  5
360
330
35E
100
AcDbEntity
  8
0
100
AcDbBlockEnd
  0
BLOCK
  5
369
330
368
100
AcDbEntity
  8
0
100
AcDbBlockBegin
  2
_D_17
 70
     0
 10
0.0
 20
0.0
 30
0.0
  3
_D_17
  1

  0
SOLID
  5
36B
330
368
100
AcDbEntity
  8
SLD-0_0
 62
     7
100
AcDbTrace
 10
2248.0785264833
 20
580.5334003146
 30
0.0
 11
2248.5865264833
 21
583.8354003146
 31
0.0
 12
2247.5705264833
 22
583.8354003146
 32
0.0
 13
2247.5705264833
 23
583.8354003146
 33
0.0
  0
SOLID
  5
36C
330
368
100
AcDbEntity
  8
SLD-0_0
 62
     7
100
AcDbTrace
 10
2248.0785264833
 20
710.5334003146
 30
0.0
 11
2247.5705264833
 21
707.2314003146
 31
0.0
 12
2248.5865264833
 22
707.2314003146
 32
0.0
 13
2248.5865264833
 23
707.2314003146
 33
0.0
  0
LINE
  5
36D
330
368
100
AcDbEntity
  8
SLD-0_0
 62
     7
100
AcDbLine
 10
2197.0785264833
 20
580.5334003146
 30
0.0
 11
2249.0785264833
 21
580.5334003146
 31
0.0
  0
LINE
  5
36E
330
368
100
AcDbEntity
  8
SLD-0_0
 62
     7
100
AcDbLine
 10
2197.0785264833
 20
710.5334003146
 30
0.0
 11
2249.0785264833
 21
710.5334003146
 31
0.0
  0
LINE
  5
36F
330
368
100
AcDbEntity
  8
SLD-0_0
 62
     7
100
AcDbLine
 10
2248.0785264833
 20
580.5334003146
 30
0.0
 11
2248.0785264833
 21
710.5334003146
 31
0.0
  0
MTEXT
  5
370
330
368
100
AcDbEntity
  8
SLD-0_0
 62
     7
100
AcDbMText
 10
2231.7073661882
 20
631.8848427714
 30
0.0
 40
12.7
 41
0.0
 71
     1
 72
     1
  1
130
  7
SLDTEXTSTYLE0
 11
-4.823748968393321E-15
 21
1.0
 31
0.0
 73
     1
 44
1.0
  0
ENDBLK
  5
36A
330
368
100
AcDbEntity
  8
0
100
AcDbBlockEnd
  0
BLOCK
  5
373
330
372
100
AcDbEntity
  8
0
100
AcDbBlockBegin
  2
_D_18
 70
     0
 10
0.0
 20
0.0
 30
0.0
  3
_D_18
  1

  0
SOLID
  5
375
330
372
100
AcDbEntity
  8
SLD-0_0
 62
     7
100
AcDbTrace
 10
2003.5431062893
 20
710.5334003146
 30
0.0
 11
2003.0351062893
 21
707.2314003146
 31
0.0
 12
2004.0511062893
 22
707.2314003146
 32
0.0
 13
2004.0511062893
 23
707.2314003146
 33
0.0
  0
SOLID
  5
376
330
372
100
AcDbEntity
  8
SLD-0_0
 62
     7
100
AcDbTrace
 10
2003.5431062893
 20
645.5334003146
 30
0.0
 11
2004.0511062893
 21
648.8354003146
 31
0.0
 12
2003.0351062893
 22
648.8354003146
 32
0.0
 13
2003.0351062893
 23
648.8354003146
 33
0.0
  0
LINE
  5
377
330
372
100
AcDbEntity
  8
SLD-0_0
 62
     7
100
AcDbLine
 10
1980.5785264833
 20
645.5334003146
 30
0.0
 11
2004.5431062893
 21
645.5334003146
 31
0.0
  0
LINE
  5
378
330
372
100
AcDbEntity
  8
SLD-0_0
 62
     7
100
AcDbLine
 10
2003.5431062893
 20
710.5334003146
 30
0.0
 11
2003.5431062893
 21
645.5334003146
 31
0.0
  0
MTEXT
  5
379
330
372
100
AcDbEntity
  8
SLD-0_0
 62
     7
100
AcDbMText
 10
1987.1719459942
 20
668.1873570134
 30
0.0
 40
12.7
 41
0.0
 71
     1
 72
     1
  1
65
  7
SLDTEXTSTYLE0
 11
-7.044195017643634E-15
 21
1.0
 31
0.0
 73
     1
 44
1.0
  0
ENDBLK
  5
374
330
372
100
AcDbEntity
  8
0
100
AcDbBlockEnd
  0
BLOCK
  5
37D
330
37C
100
AcDbEntity
  8
0
100
AcDbBlockBegin
  2
_D_19
 70
     0
 10
0.0
 20
0.0
 30
0.0
  3
_D_19
  1

  0
SOLID
  5
37F
330
37C
100
AcDbEntity
  8
SLD-0_0
 62
     7
100
AcDbTrace
 10
1961.5785264833
 20
727.5334003146
 30
0.0
 11
1958.2765264833
 21
728.0414003146
 31
0.0
 12
1958.2765264833
 22
727.0254003146
 32
0.0
 13
1958.2765264833
 23
727.0254003146
 33
0.0
  0
SOLID
  5
380
330
37C
100
AcDbEntity
  8
SLD-0_0
 62
     7
100
AcDbTrace
 10
1979.5785264833
 20
727.5334003146
 30
0.0
 11
1982.8805264833
 21
727.0254003146
 31
0.0
 12
1982.8805264833
 22
728.0414003146
 32
0.0
 13
1982.8805264833
 23
728.0414003146
 33
0.0
  0
LINE
  5
381
330
37C
100
AcDbEntity
  8
SLD-0_0
 62
     7
100
AcDbLine
 10
1961.5785264833
 20
711.5334003146
 30
0.0
 11
1961.5785264833
 21
728.5334003146
 31
0.0
  0
LINE
  5
382
330
37C
100
AcDbEntity
  8
SLD-0_0
 62
     7
100
AcDbLine
 10
1979.5785264833
 20
711.5334003146
 30
0.0
 11
1979.5785264833
 21
728.5334003146
 31
0.0
  0
LINE
  5
383
330
37C
100
AcDbEntity
  8
SLD-0_0
 62
     7
100
AcDbLine
 10
1961.5785264833
 20
727.5334003146
 30
0.0
 11
1955.2285264833
 21
727.5334003146
 31
0.0
  0
LINE
  5
384
330
37C
100
AcDbEntity
  8
SLD-0_0
 62
     7
100
AcDbLine
 10
1961.5785264833
 20
727.5334003146
 30
0.0
 11
1979.5785264833
 21
727.5334003146
 31
0.0
  0
LINE
  5
385
330
37C
100
AcDbEntity
  8
SLD-0_0
 62
     7
100
AcDbLine
 10
1979.5785264833
 20
727.5334003146
 30
0.0
 11
1985.9285264833
 21
727.5334003146
 31
0.0
  0
MTEXT
  5
386
330
37C
100
AcDbEntity
  8
SLD-0_0
 62
     7
100
AcDbMText
 10
1959.9476237953
 20
743.9045606097
 30
0.0
 40
12.7
 41
0.0
 71
     1
 72
     1
  1
18
  7
SLDTEXTSTYLE0
 73
     1
 44
1.0
  0
ENDBLK
  5
37E
330
37C
100
AcDbEntity
  8
0
100
AcDbBlockEnd
  0
BLOCK
  5
389
330
388
100
AcDbEntity
  8
0
100
AcDbBlockBegin
  2
_D_20
 70
     0
 10
0.0
 20
0.0
 30
0.0
  3
_D_20
  1

  0
SOLID
  5
38B
330
388
100
AcDbEntity
  8
SLD-0_0
 62
     7
100
AcDbTrace
 10
1979.5785264833
 20
727.5334003146
 30
0.0
 11
1982.8805264833
 21
727.0254003146
 31
0.0
 12
1982.8805264833
 22
728.0414003146
 32
0.0
 13
1982.8805264833
 23
728.0414003146
 33
0.0
  0
SOLID
  5
38C
330
388
100
AcDbEntity
  8
SLD-0_0
 62
     7
100
AcDbTrace
 10
2196.0785264833
 20
727.5334003146
 30
0.0
 11
2192.7765264833
 21
728.0414003146
 31
0.0
 12
2192.7765264833
 22
727.0254003146
 32
0.0
 13
2192.7765264833
 23
727.0254003146
 33
0.0
  0
LINE
  5
38D
330
388
100
AcDbEntity
  8
SLD-0_0
 62
     7
100
AcDbLine
 10
1979.5785264833
 20
711.5334003146
 30
0.0
 11
1979.5785264833
 21
728.5334003146
 31
0.0
  0
LINE
  5
38E
330
388
100
AcDbEntity
  8
SLD-0_0
 62
     7
100
AcDbLine
 10
2196.0785264833
 20
711.5334003146
 30
0.0
 11
2196.0785264833
 21
728.5334003146
 31
0.0
  0
LINE
  5
38F
330
388
100
AcDbEntity
  8
SLD-0_0
 62
     7
100
AcDbLine
 10
1979.5785264833
 20
727.5334003146
 30
0.0
 11
2196.0785264833
 21
727.5334003146
 31
0.0
  0
MTEXT
  5
390
330
388
100
AcDbEntity
  8
SLD-0_0
 62
     7
100
AcDbMText
 10
2050.6772711752
 20
743.9045606097
 30
0.0
 40
12.7
 41
0.0
 71
     1
 72
     1
  1
216.50
  7
SLDTEXTSTYLE0
 73
     1
 44
1.0
  0
ENDBLK
  5
38A
330
388
100
AcDbEntity
  8
0
100
AcDbBlockEnd
  0
BLOCK
  5
39B
330
39A
100
AcDbEntity
  8
0
100
AcDbBlockBegin
  2
_D_21
 70
     0
 10
0.0
 20
0.0
 30
0.0
  3
_D_21
  1

  0
SOLID
  5
39D
330
39A
100
AcDbEntity
  8
SLD-0_0
 62
     7
100
AcDbTrace
 10
1748.5332807681
 20
771.8165328285
 30
0.0
 11
1751.8352807681
 21
771.3085328285
 31
0.0
 12
1751.8352807681
 22
772.3245328285
 32
0.0
 13
1751.8352807681
 23
772.3245328285
 33
0.0
  0
SOLID
  5
39E
330
39A
100
AcDbEntity
  8
SLD-0_0
 62
     7
100
AcDbTrace
 10
2188.5332807681
 20
771.8165328285
 30
0.0
 11
2185.2312807681
 21
772.3245328285
 31
0.0
 12
2185.2312807681
 22
771.3085328285
 32
0.0
 13
2185.2312807681
 23
771.3085328285
 33
0.0
  0
LINE
  5
39F
330
39A
100
AcDbEntity
  8
SLD-0_0
 62
     7
100
AcDbLine
 10
1748.5332807681
 20
794.8165328285
 30
0.0
 11
1748.5332807681
 21
770.8165328285
 31
0.0
  0
LINE
  5
3A0
330
39A
100
AcDbEntity
  8
SLD-0_0
 62
     7
100
AcDbLine
 10
2188.5332807681
 20
794.8165328285
 30
0.0
 11
2188.5332807681
 21
770.8165328285
 31
0.0
  0
LINE
  5
3A1
330
39A
100
AcDbEntity
  8
SLD-0_0
 62
     7
100
AcDbLine
 10
1748.5332807681
 20
771.8165328285
 30
0.0
 11
2188.5332807681
 21
771.8165328285
 31
0.0
  0
MTEXT
  5
3A2
330
39A
100
AcDbEntity
  8
SLD-0_0
 62
     7
100
AcDbMText
 10
1961.1380540827
 20
788.1876931237
 30
0.0
 40
12.7
 41
0.0
 71
     1
 72
     1
  1
440
  7
SLDTEXTSTYLE0
 73
     1
 44
1.0
  0
ENDBLK
  5
39C
330
39A
100
AcDbEntity
  8
0
100
AcDbBlockEnd
  0
BLOCK
  5
3A5
330
3A4
100
AcDbEntity
  8
0
100
AcDbBlockBegin
  2
_D_22
 70
     0
 10
0.0
 20
0.0
 30
0.0
  3
_D_22
  1

  0
SOLID
  5
3A7
330
3A4
100
AcDbEntity
  8
SLD-0_0
 62
     7
100
AcDbTrace
 10
2233.5332807681
 20
795.8165328285
 30
0.0
 11
2234.0412807681
 21
799.1185328285
 31
0.0
 12
2233.0252807681
 22
799.1185328285
 32
0.0
 13
2233.0252807681
 23
799.1185328285
 33
0.0
  0
SOLID
  5
3A8
330
3A4
100
AcDbEntity
  8
SLD-0_0
 62
     7
100
AcDbTrace
 10
2233.5332807681
 20
925.8165328285
 30
0.0
 11
2233.0252807681
 21
922.5145328285
 31
0.0
 12
2234.0412807681
 22
922.5145328285
 32
0.0
 13
2234.0412807681
 23
922.5145328285
 33
0.0
  0
LINE
  5
3A9
330
3A4
100
AcDbEntity
  8
SLD-0_0
 62
     7
100
AcDbLine
 10
2189.5332807681
 20
795.8165328285
 30
0.0
 11
2234.5332807681
 21
795.8165328285
 31
0.0
  0
LINE
  5
3AA
330
3A4
100
AcDbEntity
  8
SLD-0_0
 62
     7
100
AcDbLine
 10
2189.5332807681
 20
925.8165328285
 30
0.0
 11
2234.5332807681
 21
925.8165328285
 31
0.0
  0
LINE
  5
3AB
330
3A4
100
AcDbEntity
  8
SLD-0_0
 62
     7
100
AcDbLine
 10
2233.5332807681
 20
795.8165328285
 30
0.0
 11
2233.5332807681
 21
925.8165328285
 31
0.0
  0
MTEXT
  5
3AC
330
3A4
100
AcDbEntity
  8
SLD-0_0
 62
     7
100
AcDbMText
 10
2217.162120473
 20
842.8351828191
 30
0.0
 40
12.7
 41
0.0
 71
     1
 72
     1
  1
130
  7
SLDTEXTSTYLE0
 11
5.053215498074303E-16
 21
1.0
 31
0.0
 73
     1
 44
1.0
  0
ENDBLK
  5
3A6
330
3A4
100
AcDbEntity
  8
0
100
AcDbBlockEnd
  0
BLOCK
  5
3AF
330
3AE
100
AcDbEntity
  8
0
100
AcDbBlockBegin
  2
_D_23
 70
     0
 10
0.0
 20
0.0
 30
0.0
  3
_D_23
  1

  0
SOLID
  5
3B1
330
3AE
100
AcDbEntity
  8
SLD-0_0
 62
     7
100
AcDbTrace
 10
2001.8787568031
 20
925.8165328285
 30
0.0
 11
2001.3707568031
 21
922.5145328285
 31
0.0
 12
2002.3867568031
 22
922.5145328285
 32
0.0
 13
2002.3867568031
 23
922.5145328285
 33
0.0
  0
SOLID
  5
3B2
330
3AE
100
AcDbEntity
  8
SLD-0_0
 62
     7
100
AcDbTrace
 10
2001.8787568031
 20
860.8165328285
 30
0.0
 11
2002.3867568031
 21
864.1185328285
 31
0.0
 12
2001.3707568031
 22
864.1185328285
 32
0.0
 13
2001.3707568031
 23
864.1185328285
 33
0.0
  0
LINE
  5
3B3
330
3AE
100
AcDbEntity
  8
SLD-0_0
 62
     7
100
AcDbLine
 10
1978.5332807681
 20
860.8165328285
 30
0.0
 11
2002.8787568031
 21
860.8165328285
 31
0.0
  0
LINE
  5
3B4
330
3AE
100
AcDbEntity
  8
SLD-0_0
 62
     7
100
AcDbLine
 10
2001.8787568031
 20
925.8165328285
 30
0.0
 11
2001.8787568031
 21
860.8165328285
 31
0.0
  0
MTEXT
  5
3B5
330
3AE
100
AcDbEntity
  8
SLD-0_0
 62
     7
100
AcDbMText
 10
1985.507596508
 20
886.2171397109
 30
0.0
 40
12.7
 41
0.0
 71
     1
 72
     1
  1
65
  7
SLDTEXTSTYLE0
 11
-7.044195017643634E-15
 21
1.0
 31
0.0
 73
     1
 44
1.0
  0
ENDBLK
  5
3B0
330
3AE
100
AcDbEntity
  8
0
100
AcDbBlockEnd
  0
BLOCK
  5
3B8
330
3B7
100
AcDbEntity
  8
0
100
AcDbBlockBegin
  2
_D_24
 70
     0
 10
0.0
 20
0.0
 30
0.0
  3
_D_24
  1

  0
SOLID
  5
3BA
330
3B7
100
AcDbEntity
  8
SLD-0_0
 62
     7
100
AcDbTrace
 10
1959.5332807681
 20
954.3647710221
 30
0.0
 11
1956.2312807681
 21
954.8727710221
 31
0.0
 12
1956.2312807681
 22
953.8567710221
 32
0.0
 13
1956.2312807681
 23
953.8567710221
 33
0.0
  0
SOLID
  5
3BB
330
3B7
100
AcDbEntity
  8
SLD-0_0
 62
     7
100
AcDbTrace
 10
1977.5332807681
 20
954.3647710221
 30
0.0
 11
1980.8352807681
 21
953.8567710221
 31
0.0
 12
1980.8352807681
 22
954.8727710221
 32
0.0
 13
1980.8352807681
 23
954.8727710221
 33
0.0
  0
LINE
  5
3BC
330
3B7
100
AcDbEntity
  8
SLD-0_0
 62
     7
100
AcDbLine
 10
1959.5332807681
 20
926.8165328285
 30
0.0
 11
1959.5332807681
 21
955.3647710221
 31
0.0
  0
LINE
  5
3BD
330
3B7
100
AcDbEntity
  8
SLD-0_0
 62
     7
100
AcDbLine
 10
1977.5332807681
 20
926.8165328285
 30
0.0
 11
1977.5332807681
 21
955.3647710221
 31
0.0
  0
LINE
  5
3BE
330
3B7
100
AcDbEntity
  8
SLD-0_0
 62
     7
100
AcDbLine
 10
1959.5332807681
 20
954.3647710221
 30
0.0
 11
1953.1832807681
 21
954.3647710221
 31
0.0
  0
LINE
  5
3BF
330
3B7
100
AcDbEntity
  8
SLD-0_0
 62
     7
100
AcDbLine
 10
1959.5332807681
 20
954.3647710221
 30
0.0
 11
1977.5332807681
 21
954.3647710221
 31
0.0
  0
LINE
  5
3C0
330
3B7
100
AcDbEntity
  8
SLD-0_0
 62
     7
100
AcDbLine
 10
1977.5332807681
 20
954.3647710221
 30
0.0
 11
1983.8832807681
 21
954.3647710221
 31
0.0
  0
MTEXT
  5
3C1
330
3B7
100
AcDbEntity
  8
SLD-0_0
 62
     7
100
AcDbMText
 10
1962.3185845693
 20
970.7359313172
 30
0.0
 40
12.7
 41
0.0
 71
     1
 72
     1
  1
18
  7
SLDTEXTSTYLE0
 73
     1
 44
1.0
  0
ENDBLK
  5
3B9
330
3B7
100
AcDbEntity
  8
0
100
AcDbBlockEnd
  0
BLOCK
  5
3C4
330
3C3
100
AcDbEntity
  8
0
100
AcDbBlockBegin
  2
_D_25
 70
     0
 10
0.0
 20
0.0
 30
0.0
  3
_D_25
  1

  0
SOLID
  5
3C6
330
3C3
100
AcDbEntity
  8
SLD-0_0
 62
     7
100
AcDbTrace
 10
1977.5332807681
 20
954.364771022
 30
0.0
 11
1980.8352807681
 21
953.856771022
 31
0.0
 12
1980.8352807681
 22
954.872771022
 32
0.0
 13
1980.8352807681
 23
954.872771022
 33
0.0
  0
SOLID
  5
3C7
330
3C3
100
AcDbEntity
  8
SLD-0_0
 62
     7
100
AcDbTrace
 10
2188.5332807681
 20
954.364771022
 30
0.0
 11
2185.2312807681
 21
954.872771022
 31
0.0
 12
2185.2312807681
 22
953.856771022
 32
0.0
 13
2185.2312807681
 23
953.856771022
 33
0.0
  0
LINE
  5
3C8
330
3C3
100
AcDbEntity
  8
SLD-0_0
 62
     7
100
AcDbLine
 10
1977.5332807681
 20
926.8165328285
 30
0.0
 11
1977.5332807681
 21
955.364771022
 31
0.0
  0
LINE
  5
3C9
330
3C3
100
AcDbEntity
  8
SLD-0_0
 62
     7
100
AcDbLine
 10
2188.5332807681
 20
926.8165328285
 30
0.0
 11
2188.5332807681
 21
955.364771022
 31
0.0
  0
LINE
  5
3CA
330
3C3
100
AcDbEntity
  8
SLD-0_0
 62
     7
100
AcDbLine
 10
1977.5332807681
 20
954.364771022
 30
0.0
 11
2188.5332807681
 21
954.364771022
 31
0.0
  0
MTEXT
  5
3CB
330
3C3
100
AcDbEntity
  8
SLD-0_0
 62
     7
100
AcDbMText
 10
2051.2956110145
 20
970.7359313171
 30
0.0
 40
12.7
 41
0.0
 71
     1
 72
     1
  1
211
  7
SLDTEXTSTYLE0
 73
     1
 44
1.0
  0
ENDBLK
  5
3C5
330
3C3
100
AcDbEntity
  8
0
100
AcDbBlockEnd
  0
BLOCK
  5
3D1
330
3D0
100
AcDbEntity
  8
0
100
AcDbBlockBegin
  2
SW_ANGULAR_DIMENSION_0
 70
     0
 10
0.0
 20
0.0
 30
0.0
  3
SW_ANGULAR_DIMENSION_0
  1

  0
ARC
  5
3D3
330
3D0
100
AcDbEntity
  8
SLD-0_0
 62
     0
100
AcDbCircle
 10
52.774440761
 20
2.9044324668
 30
0.0
 40
51.28244320098242
100
AcDbArc
 50
180.0
 51
225.0
  0
SOLID
  5
3D4
330
3D0
100
AcDbEntity
  8
SLD-0_0
 62
     0
100
AcDbTrace
 10
1.4919975601
 20
2.9044324668
 30
0.0
 11
1.0904006696
 21
-0.4121905051
 31
0.0
 12
2.1058756388
 22
-0.3795318607
 32
0.0
 13
2.1058756388
 23
-0.3795318607
 33
0.0
  0
SOLID
  5
3D5
330
3D0
100
AcDbEntity
  8
SLD-0_0
 62
     0
100
AcDbTrace
 10
16.5122774178
 20
-33.3577308764
 30
0.0
 11
14.6242413249
 21
-30.601540079
 31
0.0
 12
13.8830989392
 22
-31.2964961669
 32
0.0
 13
13.8830989392
 23
-31.2964961669
 33
0.0
  0
LINE
  5
3D6
330
3D0
100
AcDbEntity
  8
SLD-0_0
 62
     0
100
AcDbLine
 10
51.774440761
 20
2.9044324668
 30
0.0
 11
0.4919975601
 21
2.9044324668
 31
0.0
  0
LINE
  5
3D7
330
3D0
100
AcDbEntity
  8
SLD-0_0
 62
     0
100
AcDbLine
 10
34.0673339799
 20
-15.8026743144
 30
0.0
 11
15.8051706366
 21
-34.0648376576
 31
0.0
  0
MTEXT
  5
3D8
330
3D0
100
AcDbEntity
  8
SLD-0_0
 62
     0
100
AcDbMText
 10
15.6425241152
 20
4.8297338138
 30
0.0
 40
12.7
 41
0.0
 71
     1
 72
     1
  1
45°
  7
SLDTEXTSTYLE0
 11
0.2950147531828455
 21
-0.9554926977243022
 31
0.0
 73
     1
 44
1.0
  0
ENDBLK
  5
3D2
330
3D0
100
AcDbEntity
  8
0
100
AcDbBlockEnd
  0
BLOCK
  5
3DB
330
3DA
100
AcDbEntity
  8
0
100
AcDbBlockBegin
  2
SW_ANGULAR_DIMENSION_1
 70
     0
 10
0.0
 20
0.0
 30
0.0
  3
SW_ANGULAR_DIMENSION_1
  1

  0
ARC
  5
3DD
330
3DA
100
AcDbEntity
  8
SLD-0_0
 62
     0
100
AcDbCircle
 10
54.784088121
 20
-13.4234385131
 30
0.0
 40
54.93447613142907
100
AcDbArc
 50
135.0
 51
180.0
  0
SOLID
  5
3DE
330
3DA
100
AcDbEntity
  8
SLD-0_0
 62
     0
100
AcDbTrace
 10
15.9395475276
 20
25.4211020804
 30
0.0
 11
13.3059804688
 21
23.365477468
 31
0.0
 12
14.0456395226
 22
22.6689428428
 32
0.0
 13
14.0456395226
 23
22.6689428428
 33
0.0
  0
SOLID
  5
3DF
330
3DA
100
AcDbEntity
  8
SLD-0_0
 62
     0
100
AcDbTrace
 10
-0.1503880104
 20
-13.4234385131
 30
0.0
 11
0.4564872562
 21
-10.1381728601
 31
0.0
 12
-0.5590550334
 22
-10.1076792841
 32
0.0
 13
-0.5590550334
 23
-10.1076792841
 33
0.0
  0
LINE
  5
3E0
330
3DA
100
AcDbEntity
  8
SLD-0_0
 62
     0
100
AcDbLine
 10
36.0769813398
 20
5.2836682681
 30
0.0
 11
15.2324407464
 21
26.1282088616
 31
0.0
  0
LINE
  5
3E1
330
3DA
100
AcDbEntity
  8
SLD-0_0
 62
     0
100
AcDbLine
 10
53.784088121
 20
-13.4234385131
 30
0.0
 11
-1.1503880104
 21
-13.4234385131
 31
0.0
  0
MTEXT
  5
3E2
330
3DA
100
AcDbEntity
  8
SLD-0_0
 62
     0
100
AcDbMText
 10
-14.6026122565
 20
7.4012569672
 30
0.0
 40
12.7
 41
0.0
 71
     1
 72
     1
  1
45°
  7
SLDTEXTSTYLE0
 11
0.4520911672606789
 21
0.8919717352499892
 31
0.0
 73
     1
 44
1.0
  0
ENDBLK
  5
3DC
330
3DA
100
AcDbEntity
  8
0
100
AcDbBlockEnd
  0
BLOCK
  5
3E6
330
3E5
100
AcDbEntity
  8
0
100
AcDbBlockBegin
  2
_D_26
 70
     0
 10
0.0
 20
0.0
 30
0.0
  3
_D_26
  1

  0
SOLID
  5
3E8
330
3E5
100
AcDbEntity
  8
SLD-0_0
 62
     7
100
AcDbTrace
 10
1892.1157084123
 20
239.0141350195
 30
0.0
 11
1888.8137084123
 21
239.5221350195
 31
0.0
 12
1888.8137084123
 22
238.5061350195
 32
0.0
 13
1888.8137084123
 23
238.5061350195
 33
0.0
  0
SOLID
  5
3E9
330
3E5
100
AcDbEntity
  8
SLD-0_0
 62
     7
100
AcDbTrace
 10
1910.1157084123
 20
239.0141350195
 30
0.0
 11
1913.4177084123
 21
238.5061350195
 31
0.0
 12
1913.4177084123
 22
239.5221350195
 32
0.0
 13
1913.4177084123
 23
239.5221350195
 33
0.0
  0
LINE
  5
3EA
330
3E5
100
AcDbEntity
  8
SLD-0_0
 62
     7
100
AcDbLine
 10
1892.1157084123
 20
287.0141350195
 30
0.0
 11
1892.1157084123
 21
238.0141350195
 31
0.0
  0
LINE
  5
3EB
330
3E5
100
AcDbEntity
  8
SLD-0_0
 62
     7
100
AcDbLine
 10
1910.1157084123
 20
269.0141350195
 30
0.0
 11
1910.1157084123
 21
238.0141350195
 31
0.0
  0
LINE
  5
3EC
330
3E5
100
AcDbEntity
  8
SLD-0_0
 62
     7
100
AcDbLine
 10
1892.1157084123
 20
239.0141350195
 30
0.0
 11
1885.7657084123
 21
239.0141350195
 31
0.0
  0
LINE
  5
3ED
330
3E5
100
AcDbEntity
  8
SLD-0_0
 62
     7
100
AcDbLine
 10
1892.1157084123
 20
239.0141350195
 30
0.0
 11
1910.1157084123
 21
239.0141350195
 31
0.0
  0
LINE
  5
3EE
330
3E5
100
AcDbEntity
  8
SLD-0_0
 62
     7
100
AcDbLine
 10
1910.1157084123
 20
239.0141350195
 30
0.0
 11
1916.4657084123
 21
239.0141350195
 31
0.0
  0
MTEXT
  5
3EF
330
3E5
100
AcDbEntity
  8
SLD-0_0
 62
     7
100
AcDbMText
 10
1890.1128971435
 20
255.3852953146
 30
0.0
 40
12.7
 41
0.0
 71
     1
 72
     1
  1
18
  7
SLDTEXTSTYLE0
 73
     1
 44
1.0
  0
ENDBLK
  5
3E7
330
3E5
100
AcDbEntity
  8
0
100
AcDbBlockEnd
  0
BLOCK
  5
3FC
330
3FB
100
AcDbEntity
  8
0
100
AcDbBlockBegin
  2
_D_27
 70
     0
 10
0.0
 20
0.0
 30
0.0
  3
_D_27
  1

  0
SOLID
  5
3FE
330
3FB
100
AcDbEntity
  8
SLD-0_0
 62
     7
100
AcDbTrace
 10
2018.8914146474
 20
239.0141350195
 30
0.0
 11
2022.1934146474
 21
238.5061350195
 31
0.0
 12
2022.1934146474
 22
239.5221350195
 32
0.0
 13
2022.1934146474
 23
239.5221350195
 33
0.0
  0
SOLID
  5
3FF
330
3FB
100
AcDbEntity
  8
SLD-0_0
 62
     7
100
AcDbTrace
 10
2123.8914146474
 20
239.0141350195
 30
0.0
 11
2120.5894146474
 21
239.5221350195
 31
0.0
 12
2120.5894146474
 22
238.5061350195
 32
0.0
 13
2120.5894146474
 23
238.5061350195
 33
0.0
  0
LINE
  5
400
330
3FB
100
AcDbEntity
  8
SLD-0_0
 62
     7
100
AcDbLine
 10
2018.8914146474
 20
269.0141350195
 30
0.0
 11
2018.8914146474
 21
238.0141350195
 31
0.0
  0
LINE
  5
401
330
3FB
100
AcDbEntity
  8
SLD-0_0
 62
     7
100
AcDbLine
 10
2123.8914146474
 20
269.0141350195
 30
0.0
 11
2123.8914146474
 21
238.0141350195
 31
0.0
  0
LINE
  5
402
330
3FB
100
AcDbEntity
  8
SLD-0_0
 62
     7
100
AcDbLine
 10
2018.8914146474
 20
239.0141350195
 30
0.0
 11
2123.8914146474
 21
239.0141350195
 31
0.0
  0
MTEXT
  5
403
330
3FB
100
AcDbEntity
  8
SLD-0_0
 62
     7
100
AcDbMText
 10
2055.6678979212
 20
255.3852953146
 30
0.0
 40
12.7
 41
0.0
 71
     1
 72
     1
  1
105
  7
SLDTEXTSTYLE0
 73
     1
 44
1.0
  0
ENDBLK
  5
3FD
330
3FB
100
AcDbEntity
  8
0
100
AcDbBlockEnd
  0
BLOCK
  5
407
330
406
100
AcDbEntity
  8
0
100
AcDbBlockBegin
  2
_D_28
 70
     0
 10
0.0
 20
0.0
 30
0.0
  3
_D_28
  1

  0
SOLID
  5
409
330
406
100
AcDbEntity
  8
SLD-0_0
 62
     7
100
AcDbTrace
 10
2147.8914146474
 20
270.0141350195
 30
0.0
 11
2148.3994146474
 21
273.3161350195
 31
0.0
 12
2147.3834146474
 22
273.3161350195
 32
0.0
 13
2147.3834146474
 23
273.3161350195
 33
0.0
  0
SOLID
  5
40A
330
406
100
AcDbEntity
  8
SLD-0_0
 62
     7
100
AcDbTrace
 10
2147.8914146474
 20
485.6841350195
 30
0.0
 11
2147.3834146474
 21
482.3821350195
 31
0.0
 12
2148.3994146474
 22
482.3821350195
 32
0.0
 13
2148.3994146474
 23
482.3821350195
 33
0.0
  0
LINE
  5
40B
330
406
100
AcDbEntity
  8
SLD-0_0
 62
     7
100
AcDbLine
 10
2124.8914146474
 20
270.0141350195
 30
0.0
 11
2148.8914146474
 21
270.0141350195
 31
0.0
  0
LINE
  5
40C
330
406
100
AcDbEntity
  8
SLD-0_0
 62
     7
100
AcDbLine
 10
2124.8914146474
 20
485.6841350195
 30
0.0
 11
2148.8914146474
 21
485.6841350195
 31
0.0
  0
LINE
  5
40D
330
406
100
AcDbEntity
  8
SLD-0_0
 62
     7
100
AcDbLine
 10
2147.8914146474
 20
270.0141350195
 30
0.0
 11
2147.8914146474
 21
485.6841350195
 31
0.0
  0
MTEXT
  5
40E
330
406
100
AcDbEntity
  8
SLD-0_0
 62
     7
100
AcDbMText
 10
2131.5202543523
 20
345.1947433484
 30
0.0
 40
12.7
 41
0.0
 71
     1
 72
     1
  1
215.7
  7
SLDTEXTSTYLE0
 11
2.281678389207681E-15
 21
1.0
 31
0.0
 73
     1
 44
1.0
  0
ENDBLK
  5
408
330
406
100
AcDbEntity
  8
0
100
AcDbBlockEnd
  0
ENDSEC
  0
SECTION
  2
ENTITIES
  0
LINE
  5
7B
330
1F
100
AcDbEntity
  8
PREDETERMINADO
100
AcDbLine
 10
2326.3868914068
 20
55.3922002647
 30
0.0
 11
2317.6205776215
 21
55.3922002647
 31
0.0
  0
LINE
  5
7C
330
1F
100
AcDbEntity
  8
PREDETERMINADO
100
AcDbLine
 10
2311.9034164572
 20
26.9969664818
 30
0.0
 11
2317.2394335439
 21
26.9969664818
 31
0.0
  0
LINE
  5
7D
330
1F
100
AcDbEntity
  8
PREDETERMINADO
100
AcDbLine
 10
2347.349815676
 20
55.3922002647
 30
0.0
 11
2339.345790046
 21
55.3922002647
 31
0.0
  0
LINE
  5
7E
330
1F
100
AcDbEntity
  8
PREDETERMINADO
100
AcDbLine
 10
2334.2944881428
 20
29.4744029864
 30
0.0
 11
2342.2260222233
 21
29.4744029864
 31
0.0
  0
LINE
  5
7F
330
1F
100
AcDbEntity
  8
PREDETERMINADO
100
AcDbLine
 10
2077.3204038588
 20
136.545363934
 30
0.0
 11
2077.3204038588
 21
95.1623214457
 31
0.0
  0
LINE
  5
80
330
1F
100
AcDbEntity
  8
PREDETERMINADO
100
AcDbLine
 10
2077.3204038588
 20
95.1623214457
 30
0.0
 11
1590.3445052522
 21
95.1623214457
 31
0.0
  0
LINE
  5
81
330
1F
100
AcDbEntity
  8
PREDETERMINADO
100
AcDbLine
 10
1590.3445052522
 20
95.1623214457
 30
0.0
 11
1590.3445052522
 21
90.9233214457
 31
0.0
  0
LINE
  5
82
330
1F
100
AcDbEntity
  8
PREDETERMINADO
100
AcDbLine
 10
1590.3445052522
 20
90.9233214457
 30
0.0
 11
2081.5594038588
 21
90.9233214457
 31
0.0
  0
LINE
  5
83
330
1F
100
AcDbEntity
  8
PREDETERMINADO
100
AcDbLine
 10
2081.5594038588
 20
90.9233214457
 30
0.0
 11
2081.5594038588
 21
136.545363934
 31
0.0
  0
LINE
  5
84
330
1F
100
AcDbEntity
  8
PREDETERMINADO
100
AcDbLine
 10
2081.5594038588
 20
136.545363934
 30
0.0
 11
2077.3204038588
 21
136.545363934
 31
0.0
  0
LINE
  5
85
330
1F
100
AcDbEntity
  8
PREDETERMINADO
100
AcDbLine
 10
2334.2944881428
 20
29.4744029864
 30
0.0
 11
2342.2260222233
 21
29.4744029864
 31
0.0
  0
LINE
  5
86
330
1F
100
AcDbEntity
  8
PREDETERMINADO
100
AcDbLine
 10
2347.349815676
 20
55.3922002647
 30
0.0
 11
2339.345790046
 21
55.3922002647
 31
0.0
  0
LINE
  5
87
330
1F
100
AcDbEntity
  8
PREDETERMINADO
100
AcDbLine
 10
2326.3868914068
 20
55.3922002647
 30
0.0
 11
2317.6205776215
 21
55.3922002647
 31
0.0
  0
LINE
  5
88
330
1F
100
AcDbEntity
  8
PREDETERMINADO
100
AcDbLine
 10
2311.9034164572
 20
26.9969664818
 30
0.0
 11
2317.2394335439
 21
26.9969664818
 31
0.0
  0
LINE
  5
89
330
1F
100
AcDbEntity
  8
PREDETERMINADO
  6
Continuous
 62
   179
370
    15
100
AcDbLine
 10
1590.3445052522
 20
226.4337645885
 30
0.0
 11
1590.3445052522
 21
140.784363934
 31
0.0
  0
LINE
  5
8A
330
1F
100
AcDbEntity
  8
SLD-0_0
100
AcDbLine
 10
1779.091010637
 20
90.9233214457
 30
0.0
 11
1779.091010637
 21
14.4837645885
 31
0.0
  0
LINE
  5
8B
330
1F
100
AcDbEntity
  8
FORMATO
  6
Continuous
 62
   179
100
AcDbLine
 10
1784.8294038588
 20
140.784363934
 30
0.0
 11
1784.8294038588
 21
226.4337645885
 31
0.0
  0
LINE
  5
8C
330
1F
100
AcDbEntity
  8
FORMATO
  6
Continuous
 62
   179
100
AcDbLine
 10
1704.3365697089
 20
140.784363934
 30
0.0
 11
1784.8294038588
 21
140.784363934
 31
0.0
  0
LINE
  5
8D
330
1F
100
AcDbEntity
  8
FORMATO
  6
Continuous
 62
   179
100
AcDbLine
 10
1704.3365697089
 20
140.784363934
 30
0.0
 11
1704.3365697089
 21
226.4337645885
 31
0.0
  0
LINE
  5
8E
330
1F
100
AcDbEntity
  8
FORMATO
  6
Continuous
 62
   179
100
AcDbLine
 10
1590.3445052522
 20
161.979363934
 30
0.0
 11
1869.6094038588
 21
161.979363934
 31
0.0
  0
LINE
  5
8F
330
1F
100
AcDbEntity
  8
FORMATO
  6
Continuous
 62
   179
100
AcDbLine
 10
1590.3445052522
 20
183.174363934
 30
0.0
 11
1869.6094038588
 21
183.174363934
 31
0.0
  0
LINE
  5
90
330
1F
100
AcDbEntity
  8
FORMATO
  6
Continuous
 62
   179
100
AcDbLine
 10
1869.6094038588
 20
140.784363934
 30
0.0
 11
1869.6094038588
 21
226.4337645885
 31
0.0
  0
LINE
  5
91
330
1F
100
AcDbEntity
  8
FORMATO
  6
Continuous
 62
   179
100
AcDbLine
 10
2357.0944038588
 20
204.369363934
 30
0.0
 11
1590.3445052522
 21
204.369363934
 31
0.0
  0
LINE
  5
92
330
1F
100
AcDbEntity
  8
FORMATO
  6
Continuous
 62
   179
100
AcDbLine
 10
2176.5488016567
 20
226.4337645885
 30
0.0
 11
2176.5488016567
 21
178.732888883
 31
0.0
  0
LINE
  5
93
330
1F
100
AcDbEntity
  8
FORMATO
  6
Continuous
 62
   179
100
AcDbLine
 10
2123.9494038588
 20
226.4337645885
 30
0.0
 11
2123.9494038588
 21
178.732888883
 31
0.0
  0
LINE
  5
94
330
1F
100
AcDbEntity
  8
FORMATO
  6
Continuous
 62
   179
100
AcDbLine
 10
2081.5594038588
 20
178.732888883
 30
0.0
 11
2357.0944038588
 21
178.732888883
 31
0.0
  0
LINE
  5
95
330
1F
100
AcDbEntity
  8
FORMATO
  6
Continuous
 62
   179
100
AcDbLine
 10
2245.9156686259
 20
136.545363934
 30
0.0
 11
2245.9156686259
 21
226.4337645885
 31
0.0
  0
LINE
  5
96
330
1F
100
AcDbEntity
  8
PREDETERMINADO
370
    15
100
AcDbLine
 10
1590.3445052522
 20
95.1623214457
 30
0.0
 11
1590.3445052522
 21
14.4837645885
 31
0.0
  0
LINE
  5
97
330
1F
100
AcDbEntity
  8
FORMATO
  6
Continuous
 62
   179
100
AcDbLine
 10
2208.7294038588
 20
81.2084196758
 30
0.0
 11
2357.0944038588
 21
81.2084196758
 31
0.0
  0
LINE
  5
98
330
1F
100
AcDbEntity
  8
FORMATO
  6
Continuous
 62
   179
100
AcDbLine
 10
2208.7294038588
 20
14.4837645885
 30
0.0
 11
2208.7294038588
 21
136.545363934
 31
0.0
  0
LINE
  5
99
330
1F
100
AcDbEntity
  8
FORMATO
  6
Continuous
 62
   179
370
    15
100
AcDbLine
 10
1586.1055052522
 20
140.784363934
 30
0.0
 11
2077.3204038588
 21
140.784363934
 31
0.0
  0
LINE
  5
9A
330
1F
100
AcDbEntity
  8
FORMATO
  6
Continuous
 62
   179
370
    15
100
AcDbLine
 10
2081.5594038588
 20
90.9233214457
 30
0.0
 11
2081.5594038588
 21
136.545363934
 31
0.0
  0
LINE
  5
9B
330
1F
100
AcDbEntity
  8
FORMATO
  6
Continuous
 62
   179
100
AcDbLine
 10
1940.238174456
 20
90.9233214457
 30
0.0
 11
1940.238174456
 21
14.4837645885
 31
0.0
  0
LINE
  5
9C
330
1F
100
AcDbEntity
  8
SLD-0
  6
Continuous
 62
   179
100
AcDbLine
 10
2339.345790046
 20
55.3922002647
 30
0.0
 11
2347.349815676
 21
55.3922002647
 31
0.0
  0
LINE
  5
9D
330
1F
100
AcDbEntity
  8
SLD-0
  6
Continuous
 62
   179
100
AcDbLine
 10
2334.0097729593
 20
29.4744029864
 30
0.0
 11
2342.2260222233
 21
29.4744029864
 31
0.0
  0
LINE
  5
9E
330
1F
100
AcDbEntity
  8
SLD-0
  6
Continuous
 62
   179
100
AcDbLine
 10
2317.6205776215
 20
55.3922002647
 30
0.0
 11
2326.3868914068
 21
55.3922002647
 31
0.0
  0
LINE
  5
9F
330
1F
100
AcDbEntity
  8
FORMATO
  6
Continuous
 62
   179
100
AcDbLine
 10
1873.2879082551
 20
184.541111847
 30
0.0
 11
1879.9792919007
 21
184.541111847
 31
0.0
  0
LINE
  5
A0
330
1F
100
AcDbEntity
  8
FORMATO
  6
Continuous
 62
   179
100
AcDbLine
 10
1873.2879082551
 20
167.585111847
 30
0.0
 11
1879.9792919007
 21
167.585111847
 31
0.0
  0
LINE
  5
A1
330
1F
100
AcDbEntity
  8
FORMATO
  6
Continuous
 62
   179
100
AcDbLine
 10
1873.2879082551
 20
150.629111847
 30
0.0
 11
1879.9792919007
 21
150.629111847
 31
0.0
  0
LINE
  5
A2
330
1F
100
AcDbEntity
  8
FORMATO
  6
Continuous
 62
   179
100
AcDbLine
 10
2084.2217333106
 20
96.2614866588
 30
0.0
 11
2090.9131169562
 21
96.2614866588
 31
0.0
  0
LINE
  5
A3
330
1F
100
AcDbEntity
  8
FORMATO
  6
Continuous
 62
   179
100
AcDbLine
 10
2084.2217333106
 20
74.5987702522
 30
0.0
 11
2090.9131169562
 21
74.5987702522
 31
0.0
  0
LINE
  5
A4
330
1F
100
AcDbEntity
  8
FORMATO
  6
Continuous
 62
   179
100
AcDbLine
 10
2084.2217333106
 20
52.9360538457
 30
0.0
 11
2090.9131169562
 21
52.9360538457
 31
0.0
  0
LINE
  5
A5
330
1F
100
AcDbEntity
  8
FORMATO
  6
Continuous
 62
   179
100
AcDbLine
 10
2084.2217333106
 20
31.2733374392
 30
0.0
 11
2090.9131169562
 21
31.2733374392
 31
0.0
  0
LINE
  5
A6
330
1F
100
AcDbEntity
  8
PREDETERMINADO
100
AcDbLine
 10
2081.5594038588
 20
136.545363934
 30
0.0
 11
2357.4484632186
 21
136.545363934
 31
0.0
  0
LINE
  5
A7
330
1F
100
AcDbEntity
  8
FORMATO
  6
Continuous
 62
   179
370
    15
100
AcDbLine
 10
1590.3445052522
 20
226.4337645885
 30
0.0
 11
2357.0944038588
 21
226.4337645885
 31
0.0
  0
LINE
  5
A8
330
1F
100
AcDbEntity
  8
FORMATO
  6
Continuous
 62
   179
370
    15
100
AcDbLine
 10
2081.5594038588
 20
90.9233214457
 30
0.0
 11
1590.3445052522
 21
90.9233214457
 31
0.0
  0
LINE
  5
A9
330
1F
100
AcDbEntity
  8
PREDETERMINADO
  6
Continuous
 62
   179
100
AcDbLine
 10
1626.4171105113
 20
222.5853035127
 30
0.0
 11
1626.4171105113
 21
206.249343728
 31
0.0
  0
LINE
  5
AA
330
1F
100
AcDbEntity
  8
PREDETERMINADO
  6
Continuous
 62
   179
100
AcDbLine
 10
1610.0213274981
 20
218.8375233363
 30
0.0
 11
1610.0213274981
 21
209.9971239043
 31
0.0
  0
LINE
  5
AB
330
1F
100
AcDbEntity
  8
PREDETERMINADO
  6
CENTER
 62
   179
100
AcDbLine
 10
1646.5151671081
 20
223.6316247871
 30
0.0
 11
1646.5151671081
 21
205.0190596255
 31
0.0
  0
LINE
  5
AC
330
1F
100
AcDbEntity
  8
PREDETERMINADO
  6
Continuous
 62
   179
100
AcDbLine
 10
1626.4171105113
 20
222.5853035127
 30
0.0
 11
1610.0213274981
 21
218.8375233363
 31
0.0
  0
LINE
  5
AD
330
1F
100
AcDbEntity
  8
PREDETERMINADO
  6
Continuous
 62
   179
100
AcDbLine
 10
1610.0213274981
 20
209.9971239043
 30
0.0
 11
1626.4171105113
 21
206.249343728
 31
0.0
  0
LINE
  5
AE
330
1F
100
AcDbEntity
  8
PREDETERMINADO
  6
CENTER
 62
   179
100
AcDbLine
 10
1656.3437064934
 20
214.4173236203
 30
0.0
 11
1608.3304014588
 21
214.4173236203
 31
0.0
  0
LINE
  5
AF
330
1F
100
AcDbEntity
  8
PREDETERMINADO
370
    15
100
AcDbLine
 10
1590.3445052522
 20
14.4837645885
 30
0.0
 11
2357.0944038588
 21
14.4837645885
 31
0.0
  0
LINE
  5
B0
330
1F
100
AcDbEntity
  8
PREDETERMINADO
370
    15
100
AcDbLine
 10
2357.0944038588
 20
14.4837645885
 30
0.0
 11
2357.0944038588
 21
226.4337645885
 31
0.0
  0
LINE
  5
B1
330
1F
100
AcDbEntity
  8
PREDETERMINADO
370
    15
100
AcDbLine
 10
2077.3204038588
 20
136.545363934
 30
0.0
 11
2081.5594038588
 21
136.545363934
 31
0.0
  0
LINE
  5
B2
330
1F
100
AcDbEntity
  8
PREDETERMINADO
100
AcDbLine
 10
2081.5594038588
 20
136.545363934
 30
0.0
 11
2081.5594038588
 21
226.4337645885
 31
0.0
  0
LINE
  5
B3
330
1F
100
AcDbEntity
  8
PREDETERMINADO
100
AcDbLine
 10
2081.5594038588
 20
90.9233214457
 30
0.0
 11
2081.5594038588
 21
14.4837645885
 31
0.0
  0
LINE
  5
B4
330
1F
100
AcDbEntity
  8
PREDETERMINADO
370
    15
100
AcDbLine
 10
1586.1055052522
 20
140.784363934
 30
0.0
 11
1586.1055052522
 21
95.1623214457
 31
0.0
  0
LINE
  5
B5
330
1F
100
AcDbEntity
  8
PREDETERMINADO
370
    15
100
AcDbLine
 10
1586.1055052522
 20
95.1623214457
 30
0.0
 11
2077.3204038588
 21
95.1623214457
 31
0.0
  0
LINE
  5
B6
330
1F
100
AcDbEntity
  8
PREDETERMINADO
370
    15
100
AcDbLine
 10
2077.3204038588
 20
95.1623214457
 30
0.0
 11
2077.3204038588
 21
140.784363934
 31
0.0
  0
LINE
  5
B7
330
1F
100
AcDbEntity
  8
SLD-0
  6
Continuous
 62
   179
100
AcDbLine
 10
2311.9034164572
 20
26.9969664818
 30
0.0
 11
2317.2394335439
 21
26.9969664818
 31
0.0
  0
LINE
  5
B8
330
1F
100
AcDbEntity
  8
NONPLOT
100
AcDbLine
 10
20.2752616314
 20
271.0131637688
 30
0.0
 11
414.1539079938
 21
271.0131637688
 31
0.0
  0
LINE
  5
B9
330
1F
100
AcDbEntity
  8
NONPLOT
100
AcDbLine
 10
20.2752616314
 20
261.0131637688
 30
0.0
 11
414.1539079938
 21
261.0131637688
 31
0.0
  0
LINE
  5
BA
330
1F
100
AcDbEntity
  8
NONPLOT
100
AcDbLine
 10
20.2752616314
 20
15.5413915315
 30
0.0
 11
414.1539079938
 21
15.5413915315
 31
0.0
  0
LINE
  5
BB
330
1F
100
AcDbEntity
  8
NONPLOT
100
AcDbLine
 10
35.2752616314
 20
271.0131637688
 30
0.0
 11
35.2752616314
 21
261.0131637688
 31
0.0
  0
LINE
  5
BC
330
1F
100
AcDbEntity
  8
NONPLOT
100
AcDbLine
 10
399.1539079938
 20
5.5413915315
 30
0.0
 11
399.1539079938
 21
15.5413915315
 31
0.0
  0
LINE
  5
BD
330
1F
100
AcDbEntity
  8
NONPLOT
  6
Continuous
 62
   179
370
    15
100
AcDbLine
 10
414.1539079938
 20
5.5413915315
 30
0.0
 11
414.1539079938
 21
291.0131637688
 31
0.0
  0
LINE
  5
BE
330
1F
100
AcDbEntity
  8
NONPLOT
  6
Continuous
 62
   179
370
    15
100
AcDbLine
 10
414.1539079938
 20
291.0131637688
 30
0.0
 11
20.2752616314
 21
291.0131637688
 31
0.0
  0
LINE
  5
BF
330
1F
100
AcDbEntity
  8
NONPLOT
  6
Continuous
 62
     7
370
    15
100
AcDbLine
 10
20.2752616314
 20
291.0131637688
 30
0.0
 11
20.2752616314
 21
5.5413915315
 31
0.0
  0
LINE
  5
C0
330
1F
100
AcDbEntity
  8
NONPLOT
  6
Continuous
 62
     7
100
AcDbLine
 10
-0.0123065099
 20
140.7183915315
 30
0.0
 11
20.2752616314
 21
140.7183915315
 31
0.0
  0
LINE
  5
C1
330
1F
100
AcDbEntity
  8
NONPLOT
  6
Continuous
 62
   179
100
AcDbLine
 10
244.5621101288
 20
5.5413915315
 30
0.0
 11
244.5621101288
 21
2.7153915315
 31
0.0
  0
LINE
  5
C2
330
1F
100
AcDbEntity
  8
NONPLOT
  6
Continuous
 62
   179
100
AcDbLine
 10
246.359907498
 20
293.8391637688
 30
0.0
 11
246.359907498
 21
291.0131637688
 31
0.0
  0
LINE
  5
C3
330
1F
100
AcDbEntity
  8
NONPLOT
  6
Continuous
 62
   179
370
    15
100
AcDbLine
 10
20.2752616314
 20
5.5413915315
 30
0.0
 11
414.1539079938
 21
5.5413915315
 31
0.0
  0
LINE
  5
C4
330
1F
100
AcDbEntity
  8
NONPLOT
100
AcDbLine
 10
414.1539079938
 20
5.5413915315
 30
0.0
 11
294.1539079938
 21
5.5413915315
 31
0.0
  0
LINE
  5
C5
330
1F
100
AcDbEntity
  8
NONPLOT
100
AcDbLine
 10
414.1539079938
 20
5.5413915315
 30
0.0
 11
414.1539079938
 21
105.5413915315
 31
0.0
  0
LINE
  5
C6
330
1F
100
AcDbEntity
  8
NONPLOT
100
AcDbLine
 10
414.1539079938
 20
105.5413915315
 30
0.0
 11
294.1539079938
 21
105.5413915315
 31
0.0
  0
LINE
  5
C7
330
1F
100
AcDbEntity
  8
NONPLOT
100
AcDbLine
 10
294.1539079938
 20
5.5413915315
 30
0.0
 11
294.1539079938
 21
105.5413915315
 31
0.0
  0
LINE
  5
C8
330
1F
100
AcDbEntity
  8
NONPLOT
100
AcDbLine
 10
399.1539079938
 20
261.0131637688
 30
0.0
 11
399.1539079938
 21
271.0131637688
 31
0.0
  0
LINE
  5
C9
330
1F
100
AcDbEntity
  8
NONPLOT
100
AcDbLine
 10
35.2752616314
 20
15.5413915315
 30
0.0
 11
35.2752616314
 21
5.5413915315
 31
0.0
  0
ARC
  5
CA
330
1F
100
AcDbEntity
  8
PREDETERMINADO
100
AcDbCircle
 10
2244.247166479
 20
55.3922002647
 30
0.0
 40
73.3734111425301
100
AcDbArc
 50
337.2322750577
 51
0.0
  0
ARC
  5
CB
330
1F
100
AcDbEntity
  8
PREDETERMINADO
100
AcDbCircle
 10
2277.7413933749
 20
55.3922002647
 30
0.0
 40
48.64549803190766
100
AcDbArc
 50
324.2875534854
 51
0.0
  0
ARC
  5
CC
330
1F
100
AcDbEntity
  8
PREDETERMINADO
100
AcDbCircle
 10
2270.3291404731
 20
55.3922002647
 30
0.0
 40
69.01664957284493
100
AcDbArc
 50
337.9429486592
 51
0.0
  0
ARC
  5
CD
330
1F
100
AcDbEntity
  8
PREDETERMINADO
100
AcDbCircle
 10
2279.2376365319
 20
55.3922002647
 30
0.0
 40
68.11217914413874
100
AcDbArc
 50
337.634330245
 51
0.0
  0
ARC
  5
CE
330
1F
100
AcDbEntity
  8
PREDETERMINADO
100
AcDbCircle
 10
2279.2376365319
 20
55.3922002647
 30
0.0
 40
68.11217914413874
100
AcDbArc
 50
337.634330245
 51
0.0
  0
ARC
  5
CF
330
1F
100
AcDbEntity
  8
PREDETERMINADO
100
AcDbCircle
 10
2270.3291404731
 20
55.3922002647
 30
0.0
 40
69.01664957284493
100
AcDbArc
 50
337.9429486592
 51
0.0
  0
ARC
  5
D0
330
1F
100
AcDbEntity
  8
PREDETERMINADO
100
AcDbCircle
 10
2277.7413933749
 20
55.3922002647
 30
0.0
 40
48.64549803190766
100
AcDbArc
 50
324.2875534854
 51
0.0
  0
ARC
  5
D1
330
1F
100
AcDbEntity
  8
PREDETERMINADO
100
AcDbCircle
 10
2244.247166479
 20
55.3922002647
 30
0.0
 40
73.3734111425301
100
AcDbArc
 50
337.2322750577
 51
0.0
  0
CIRCLE
  5
D2
330
1F
100
AcDbEntity
  8
PREDETERMINADO
  6
Continuous
 62
   179
100
AcDbCircle
 10
1646.5151671081
 20
214.4173236203
 30
0.0
 40
8.16797989235628
  0
CIRCLE
  5
D3
330
1F
100
AcDbEntity
  8
PREDETERMINADO
  6
Continuous
 62
   179
100
AcDbCircle
 10
1646.5039427456
 20
214.4173236203
 30
0.0
 40
4.420199715999228
  0
ARC
  5
D4
330
1F
100
AcDbEntity
  8
SLD-0
  6
Continuous
 62
   179
100
AcDbCircle
 10
2270.3291404731
 20
55.3922002647
 30
0.0
 40
69.01664957284493
100
AcDbArc
 50
337.9429486592
 51
0.0
  0
ARC
  5
D5
330
1F
100
AcDbEntity
  8
SLD-0
  6
Continuous
 62
   179
100
AcDbCircle
 10
2279.2376365319
 20
55.3922002647
 30
0.0
 40
68.11217914413874
100
AcDbArc
 50
337.634330245
 51
0.0
  0
ARC
  5
D6
330
1F
100
AcDbEntity
  8
SLD-0
  6
Continuous
 62
   179
100
AcDbCircle
 10
2277.7413933749
 20
55.3922002647
 30
0.0
 40
48.64549803190766
100
AcDbArc
 50
324.2875534854
 51
0.0
  0
ARC
  5
D7
330
1F
100
AcDbEntity
  8
SLD-0
  6
Continuous
 62
   179
100
AcDbCircle
 10
2244.247166479
 20
55.3922002647
 30
0.0
 40
73.3734111425301
100
AcDbArc
 50
337.2322750577
 51
0.0
  0
HATCH
  5
D8
330
1F
100
AcDbEntity
  8
0
  6
Continuous
 62
   179
100
AcDbHatch
 10
0.0
 20
0.0
 30
0.0
210
0.0
220
0.0
230
1.0
  2
ANSI31
 70
     0
 71
     0
 91
        1
 92
        0
 93
        4
 72
     1
 10
2311.903416457192
 20
26.99696648181871
 11
2317.2394335439
 21
26.99696648181871
 72
     2
 10
2277.74139337492
 20
55.39220026465463
 40
48.64549803190743
 50
324.2875534853728
 51
360.0000000000008
 73
     1
 72
     1
 10
2326.386891406828
 20
55.39220026465463
 11
2317.620577621549
 21
55.39220026465463
 72
     2
 10
2244.247166479021
 20
55.39220026465463
 40
73.37341114252966
 50
0.0
 51
22.76772494225697
 73
     0
 97
        0
 75
     0
 76
     1
 52
90.0
 41
0.03125
 77
     0
 78
     1
 53
135.0000000000002
 43
0.0
 44
0.0
 45
-0.0701582509458525
 46
-0.070158250945853
 79
     0
 98
        1
 10
0.0
 20
0.0
  0
HATCH
  5
D9
330
1F
100
AcDbEntity
  8
0
  6
Continuous
 62
   179
100
AcDbHatch
 10
0.0
 20
0.0
 30
0.0
210
0.0
220
0.0
230
1.0
  2
ANSI31
 70
     0
 71
     0
 91
        1
 92
        0
 93
        4
 72
     1
 10
2334.294488142801
 20
29.47440298636239
 11
2342.226022223261
 21
29.47440298636239
 72
     2
 10
2279.237636531893
 20
55.39220026465463
 40
68.11217914413834
 50
337.6343302449529
 51
360.0000000000008
 73
     1
 72
     1
 10
2347.349815676032
 20
55.39220026465463
 11
2339.345790045973
 21
55.39220026465463
 72
     2
 10
2270.329140473128
 20
55.39220026465463
 40
69.01664957284461
 50
0.0
 51
22.05705134075574
 73
     0
 97
        0
 75
     0
 76
     1
 52
90.0
 41
0.03125
 77
     0
 78
     1
 53
135.0000000000002
 43
0.0
 44
0.0
 45
-0.0701582509458525
 46
-0.070158250945853
 79
     0
 98
        1
 10
0.0
 20
0.0
  0
HATCH
  5
DA
330
1F
100
AcDbEntity
  8
0
  6
Continuous
 62
   179
100
AcDbHatch
 10
0.0
 20
0.0
 30
0.0
210
0.0
220
0.0
230
1.0
  2
ANSI31
 70
     0
 71
     0
 91
        1
 92
        0
 93
        6
 72
     1
 10
2081.559403858756
 20
90.92332144566029
 11
2081.559403858756
 21
136.5453639339958
 72
     1
 10
2081.559403858756
 20
136.5453639339958
 11
2077.320403858754
 21
136.5453639339958
 72
     1
 10
2077.320403858754
 20
136.5453639339958
 11
2077.320403858754
 21
95.16232144565994
 72
     1
 10
2077.320403858754
 20
95.16232144565994
 11
1590.344505252188
 21
95.16232144565994
 72
     1
 10
1590.344505252188
 20
95.16232144565994
 11
1590.344505252188
 21
90.92332144566029
 72
     1
 10
1590.344505252188
 20
90.92332144566029
 11
2081.559403858756
 21
90.92332144566029
 97
        0
 75
     0
 76
     1
 52
0.0
 41
0.0625
 77
     0
 78
     1
 53
45.0
 43
0.0
 44
0.0
 45
-0.1403165018917055
 46
0.1403165018917055
 79
     0
 98
        1
 10
0.0
 20
0.0
  0
INSERT
  5
E1
330
1F
100
AcDbEntity
  8
SLD-0_0
100
AcDbBlockReference
  2
SW_NOTE_0
 10
921.6375802593
 20
870.794414277
 30
0.0
  0
INSERT
  5
E7
330
1F
100
AcDbEntity
  8
SLD-0_0
100
AcDbBlockReference
  2
SW_NOTE_1
 10
1570.7037079833
 20
1606.9853829999
 30
0.0
  0
INSERT
  5
ED
330
1F
100
AcDbEntity
  8
SLD-0_0
100
AcDbBlockReference
  2
SW_NOTE_2
 10
938.5984636837
 20
1613.6424730232
 30
0.0
  0
INSERT
  5
F3
330
1F
100
AcDbEntity
  8
SLD-0_0
100
AcDbBlockReference
  2
SW_NOTE_3
 10
48.6868482558
 20
1620.0118903025
 30
0.0
  0
INSERT
  5
F9
330
1F
100
AcDbEntity
  8
CAJETIN
100
AcDbBlockReference
  2
SW_NOTE_4
 10
1802.119971782
 20
119.2180786386
 30
0.0
  0
MTEXT
  5
FA
330
1F
100
AcDbEntity
  8
CAJETIN
100
AcDbMText
 10
2090.3194290674
 20
197.209304663
 30
0.0
 40
9.525
 41
0.0
 71
     1
 72
     1
  1
mm
  7
SLDTEXTSTYLE0
 73
     1
 44
1.0
  0
MTEXT
  5
FB
330
1F
100
AcDbEntity
  8
CAJETIN
100
AcDbMText
 10
1796.8324786344
 20
157.6869082218
 30
0.0
 40
9.525
 41
0.0
 71
     1
 72
     1
  1
18/01/2019
  7
SLDTEXTSTYLE0
 73
     1
 44
1.0
  0
MTEXT
  5
FC
330
1F
100
AcDbEntity
  8
CAJETIN
100
AcDbMText
 10
1796.8324786344
 20
178.9631223165
 30
0.0
 40
9.525
 41
0.0
 71
     1
 72
     1
  1
18/01/2019
  7
SLDTEXTSTYLE0
 73
     1
 44
1.0
  0
MTEXT
  5
FD
330
1F
100
AcDbEntity
  8
CAJETIN
100
AcDbMText
 10
1717.8612127376
 20
157.6869082218
 30
0.0
 40
9.525
 41
0.0
 71
     1
 72
     1
  1
J. Serrano
  7
SLDTEXTSTYLE0
 73
     1
 44
1.0
  0
MTEXT
  5
FE
330
1F
100
AcDbEntity
  8
CAJETIN
100
AcDbMText
 10
1717.8612127376
 20
178.9631223165
 30
0.0
 40
9.525
 41
0.0
 71
     1
 72
     1
  1
R. Climent
  7
SLDTEXTSTYLE0
 73
     1
 44
1.0
  0
MTEXT
  5
FF
330
1F
100
AcDbEntity
  8
CAJETIN
100
AcDbMText
 10
1796.8324786344
 20
199.8145515303
 30
0.0
 40
9.525
 41
0.0
 71
     1
 72
     1
  1
18/01/2019
  7
SLDTEXTSTYLE0
 73
     1
 44
1.0
  0
MTEXT
  5
100
330
1F
100
AcDbEntity
  8
CAJETIN
100
AcDbMText
 10
2108.162165289
 20
131.4581188801
 30
0.0
 40
9.525
 41
0.0
 71
     1
 72
     1
  1
MATERIAL
  7
SLDTEXTSTYLE0
 73
     1
 44
1.0
  0
MTEXT
  5
101
330
1F
100
AcDbEntity
  8
CAJETIN
100
AcDbMText
 10
1825.994358571
 20
86.1058371253
 30
0.0
 40
9.525
 41
0.0
 71
     1
 72
     1
  1
SIGNED
  7
SLDTEXTSTYLE0
 73
     1
 44
1.0
  0
MTEXT
  5
102
330
1F
100
AcDbEntity
  8
CAJETIN
100
AcDbMText
 10
2093.7198006162
 20
173.7432764092
 30
0.0
 40
9.525
 41
0.0
 71
     1
 72
     1
  1
DRAWING NUMBER
  7
SLDTEXTSTYLE0
 73
     1
 44
1.0
  0
MTEXT
  5
103
330
1F
100
AcDbEntity
  8
CAJETIN
100
AcDbMText
 10
2278.9369929611
 20
222.8754447289
 30
0.0
 40
9.525
 41
0.0
 71
     1
 72
     1
  1
SCALE
  7
SLDTEXTSTYLE0
 73
     1
 44
1.0
  0
MTEXT
  5
104
330
1F
100
AcDbEntity
  8
CAJETIN
100
AcDbMText
 10
2191.6536353937
 20
221.9191953056
 30
0.0
 40
9.525
 41
0.0
 71
     1
 72
     1
  1
DATE
  7
SLDTEXTSTYLE0
 73
     1
 44
1.0
  0
MTEXT
  5
105
330
1F
100
AcDbEntity
  8
CAJETIN
100
AcDbMText
 10
2128.3508383559
 20
221.9191953056
 30
0.0
 40
9.525
 41
0.0
 71
     1
 72
     1
  1
LEVEL
  7
SLDTEXTSTYLE0
 73
     1
 44
1.0
  0
MTEXT
  5
106
330
1F
100
AcDbEntity
  8
CAJETIN
100
AcDbMText
 10
2084.758804305
 20
221.9191953056
 30
0.0
 40
9.525
 41
0.0
 71
     1
 72
     1
  1
UNIT
  7
SLDTEXTSTYLE0
 73
     1
 44
1.0
  0
MTEXT
  5
107
330
1F
100
AcDbEntity
  8
CAJETIN
100
AcDbMText
 10
1940.5355176722
 20
222.8754447289
 30
0.0
 40
9.525
 41
0.0
 71
     1
 72
     1
  1
NOTES
  7
SLDTEXTSTYLE0
 73
     1
 44
1.0
  0
MTEXT
  5
108
330
1F
100
AcDbEntity
  8
CAJETIN
100
AcDbMText
 10
1951.329047588
 20
86.1058371253
 30
0.0
 40
9.525
 41
0.0
 71
     1
 72
     1
  1
PART NUMBER
  7
SLDTEXTSTYLE0
 73
     1
 44
1.0
  0
MTEXT
  5
109
330
1F
100
AcDbEntity
  8
CAJETIN
100
AcDbMText
 10
1595.4464510851
 20
85.6517916921
 30
0.0
 40
9.525
 41
0.0
 71
     1
 72
     1
  1
MODEL CODE:
  7
SLDTEXTSTYLE0
 73
     1
 44
1.0
  0
MTEXT
  5
10A
330
1F
100
AcDbEntity
  8
CAJETIN
100
AcDbMText
 10
1589.9606861945
 20
135.9232403208
 30
0.0
 40
9.525
 41
0.0
 71
     1
 72
     1
  1
TITLE:
  7
SLDTEXTSTYLE0
 73
     1
 44
1.0
  0
MTEXT
  5
10B
330
1F
100
AcDbEntity
  8
CAJETIN
100
AcDbMText
 10
1595.4464510851
 20
180.0350302131
 30
0.0
 40
9.525
 41
0.0
 71
     1
 72
     1
  1
DRAWN BY
  7
SLDTEXTSTYLE0
 73
     1
 44
1.0
  0
MTEXT
  5
10C
330
1F
100
AcDbEntity
  8
CAJETIN
100
AcDbMText
 10
1595.4464510851
 20
158.7912354645
 30
0.0
 40
9.525
 41
0.0
 71
     1
 72
     1
  1
REVISED BY
  7
SLDTEXTSTYLE0
 73
     1
 44
1.0
  0
MTEXT
  5
10D
330
1F
100
AcDbEntity
  8
CAJETIN
100
AcDbMText
 10
1595.4464510851
 20
200.0397542023
 30
0.0
 40
9.525
 41
0.0
 71
     1
 72
     1
  1
DESIGNED BY
  7
SLDTEXTSTYLE0
 73
     1
 44
1.0
  0
MTEXT
  5
10E
330
1F
100
AcDbEntity
  8
CAJETIN
100
AcDbMText
 10
1814.6758722664
 20
222.8754447289
 30
0.0
 40
9.525
 41
0.0
 71
     1
 72
     1
  1
DATE
  7
SLDTEXTSTYLE0
 73
     1
 44
1.0
  0
MTEXT
  5
10F
330
1F
100
AcDbEntity
  8
CAJETIN
100
AcDbMText
 10
1655.2569581168
 20
222.0051188788
 30
0.0
 40
9.525
 41
0.0
 71
     1
 72
     1
  1
CAD
  7
SLDTEXTSTYLE0
 73
     1
 44
1.0
  0
MTEXT
  5
110
330
1F
100
AcDbEntity
  8
CAJETIN
100
AcDbMText
 10
2273.3823078248
 20
173.7432764092
 30
0.0
 40
9.525
 41
0.0
 71
     1
 72
     1
  1
WEIGHT
  7
SLDTEXTSTYLE0
 73
     1
 44
1.0
  0
MTEXT
  5
111
330
1F
100
AcDbEntity
  8
CAJETIN
100
AcDbMText
 10
1729.4653405198
 20
222.8754447289
 30
0.0
 40
9.525
 41
0.0
 71
     1
 72
     1
  1
NAME
  7
SLDTEXTSTYLE0
 73
     1
 44
1.0
  0
MTEXT
  5
112
330
1F
100
AcDbEntity
  8
CAJETIN
100
AcDbMText
 10
2301.4725805261
 20
198.1253663996
 30
0.0
 40
9.525
 41
0.0
 71
     2
 72
     1
  1
1:1
  7
SLDTEXTSTYLE0
 73
     1
 44
1.0
  0
MTEXT
  5
113
330
1F
100
AcDbEntity
  8
CAJETIN
100
AcDbMText
 10
2128.6519649744
 20
155.5580237844
 30
0.0
 40
9.525
 41
0.0
 71
     1
 72
     1
  1
S-15LEX1000
  7
SLDTEXTSTYLE0
 73
     1
 44
1.0
  0
MTEXT
  5
114
330
1F
100
AcDbEntity
  8
CAJETIN
100
AcDbMText
 10
2145.4897415184
 20
197.209304663
 30
0.0
 40
9.525
 41
0.0
 71
     1
 72
     1
  1
01
  7
SLDTEXTSTYLE0
 73
     1
 44
1.0
  0
MTEXT
  5
116
330
1F
100
AcDbEntity
  8
PREDETERMINADO
100
AcDbMText
 10
2222.3941530168
 20
58.810923323
 30
0.0
 40
19.05
 41
0.0
 71
     1
 72
     1
  1
beyma
  7
SLDTEXTSTYLE1
 73
     1
 44
1.0
  0
MTEXT
  5
117
330
1F
100
AcDbEntity
  8
CAJETIN
100
AcDbMText
 10
1716.4862139092
 20
199.8145515303
 30
0.0
 40
9.525
 41
0.0
 71
     1
 72
     1
  1
R&D Dep.
  7
SLDTEXTSTYLE0
 73
     1
 44
1.0
  0
MTEXT
  5
118
330
1F
100
AcDbEntity
  8
CAJETIN
100
AcDbMText
 10
2311.9854193863
 20
155.5580237844
 30
0.0
 40
9.525
 41
0.0
 71
     1
 72
     1
  1
g.
  7
SLDTEXTSTYLE0
 73
     1
 44
1.0
  0
INSERT
  5
11E
330
1F
100
AcDbEntity
  8
CAJETIN
100
AcDbBlockReference
  2
SW_NOTE_5
 10
2101.2267675061
 20
99.3857912542
 30
0.0
  0
INSERT
  5
124
330
1F
100
AcDbEntity
  8
SLD-0_0
100
AcDbBlockReference
  2
SW_NOTE_6
 10
1687.0699932733
 20
935.0204831993
 30
0.0
  0
INSERT
  5
12A
330
1F
100
AcDbEntity
  8
SLD-0_0
100
AcDbBlockReference
  2
SW_NOTE_7
 10
1824.1208413196
 20
469.086750862
 30
0.0
  0
INSERT
  5
130
330
1F
100
AcDbEntity
  8
SLD-0_0
100
AcDbBlockReference
  2
SW_NOTE_8
 10
1687.0699932733
 20
702.9083435257
 30
0.0
  0
INSERT
  5
15C
330
1F
100
AcDbEntity
  8
SLD-0_0
100
AcDbBlockReference
  2
SW_TABLEANNOTATION_0
 10
996.8590515092
 20
230.0367339304
 30
0.0
  0
ARC
  5
15D
330
1F
100
AcDbEntity
  8
0
  6
Continuous
 62
     7
100
AcDbCircle
 10
458.2992730987
 20
144.8319925125
 30
0.0
 40
4.999999999999993
100
AcDbArc
 50
253.7188644571
 51
301.752392528
  0
LINE
  5
15E
330
1F
100
AcDbEntity
  8
0
  6
Continuous
 62
     7
100
AcDbLine
 10
267.9219344391
 20
195.225299106
 30
0.0
 11
456.8975196946
 21
140.0325042696
 31
0.0
  0
LINE
  5
15F
330
1F
100
AcDbEntity
  8
0
  6
Continuous
 62
     7
100
AcDbLine
 10
460.9305202575
 20
140.5803412581
 30
0.0
 11
563.7675013574
 21
204.2237348839
 31
0.0
  0
LINE
  5
160
330
1F
100
AcDbEntity
  8
0
  6
Continuous
 62
     7
100
AcDbLine
 10
264.2285077712
 20
203.4952290216
 30
0.0
 11
264.3254965017
 21
199.8903131343
 31
0.0
  0
ARC
  5
161
330
1F
100
AcDbEntity
  8
0
  6
Continuous
 62
     7
100
AcDbCircle
 10
269.3236878432
 20
200.0247873489
 30
0.0
 40
4.999999999999993
100
AcDbArc
 50
181.5411468226
 51
253.7188644571
  0
ARC
  5
162
330
1F
100
AcDbEntity
  8
0
  6
Continuous
 62
     7
100
AcDbCircle
 10
258.0648083749
 20
618.4993180026
 30
0.0
 40
5.000000000000008
100
AcDbArc
 50
121.752392528
 51
181.5411468226
  0
LINE
  5
163
330
1F
100
AcDbEntity
  8
0
  6
Continuous
 62
     7
100
AcDbLine
 10
253.0666170334
 20
618.3648437879
 30
0.0
 11
253.1636057639
 21
614.7599279006
 31
0.0
  0
LINE
  5
164
330
1F
100
AcDbEntity
  8
0
  6
Continuous
 62
     7
100
AcDbLine
 10
426.7999034617
 20
728.8055758499
 30
0.0
 11
255.433561216
 21
622.750969257
 31
0.0
  0
ARC
  5
165
330
1F
100
AcDbEntity
  8
0
  6
Continuous
 62
     7
100
AcDbCircle
 10
618.4067358761
 20
669.361129759
 30
0.0
 40
5.000000000000034
100
AcDbArc
 50
1.5411468226
 51
73.7188644571
  0
LINE
  5
166
330
1F
100
AcDbEntity
  8
0
  6
Continuous
 62
     7
100
AcDbLine
 10
623.501915948
 20
665.8906880864
 30
0.0
 11
623.4049272175
 21
669.4956039737
 31
0.0
  0
LINE
  5
167
330
1F
100
AcDbEntity
  8
0
  6
Continuous
 62
     7
100
AcDbLine
 10
619.8084892801
 20
674.160618002
 30
0.0
 11
430.8329040246
 21
729.3534128384
 31
0.0
  0
ARC
  5
168
330
1F
100
AcDbEntity
  8
0
  6
Continuous
 62
     7
100
AcDbCircle
 10
429.4311506206
 20
724.5539245955
 30
0.0
 40
5.000000000000129
100
AcDbArc
 50
73.7188644571
 51
121.752392528
  0
LINE
  5
169
330
1F
100
AcDbEntity
  8
0
  6
Continuous
 62
     7
100
AcDbLine
 10
155.0651541791
 20
520.6056689932
 30
0.0
 11
160.3995343558
 21
322.3352951914
 31
0.0
  0
LINE
  5
16A
330
1F
100
AcDbEntity
  8
0
  6
Continuous
 62
     7
100
AcDbLine
 10
739.3633988534
 20
312.5342297062
 30
0.0
 11
734.0290186767
 21
510.804603508
 31
0.0
  0
LINE
  5
16B
330
1F
100
AcDbEntity
  8
0
  6
Continuous
 62
     7
100
AcDbLine
 10
556.8189643471
 20
205.7822608275
 30
0.0
 11
462.2488707762
 21
147.255049838
 31
0.0
  0
ARC
  5
16C
330
1F
100
AcDbEntity
  8
0
  6
Continuous
 62
     7
100
AcDbCircle
 10
457.940579666
 20
155.9408963789
 30
0.0
 40
9.695633162507137
100
AcDbArc
 50
253.9989439313
 51
296.3820003181
  0
LINE
  5
16D
330
1F
100
AcDbEntity
  8
0
  6
Continuous
 62
     7
100
AcDbLine
 10
455.2679291927
 20
146.6209048623
 30
0.0
 11
266.2923439372
 21
201.8136996987
 31
0.0
  0
LWPOLYLINE
  5
16E
330
1F
100
AcDbEntity
  8
0
  6
Continuous
 62
     7
100
AcDbPolyline
 90
        9
 70
   128
 43
0.0
 10
265.1801127046
 20
204.8115617981
 10
264.6854024317
 20
204.4345680023
 10
264.3652116434
 20
204.0266437049
 10
264.2318450923
 20
203.6034652079
 10
264.2904279799
 20
203.1812950237
 10
264.538708999
 20
202.7763569155
 10
264.967146849
 20
202.4042124279
 10
265.5592769037
 20
202.0791628649
 10
266.2923439372
 20
201.8136996987
  0
LINE
  5
16F
330
1F
100
AcDbEntity
  8
0
  6
Continuous
 62
     7
100
AcDbLine
 10
265.1801127046
 20
204.8115617981
 30
0.0
 11
310.7949777653
 21
233.0415310289
 31
0.0
  0
LINE
  5
170
330
1F
100
AcDbEntity
  8
0
  6
Continuous
 62
     7
100
AcDbLine
 10
347.9518111373
 20
256.0370229899
 30
0.0
 11
364.02663914
 21
265.9853567031
 31
0.0
  0
LINE
  5
171
330
1F
100
AcDbEntity
  8
0
  6
Continuous
 62
     7
100
AcDbLine
 10
404.1171684892
 20
290.7964442394
 30
0.0
 11
436.5464549504
 21
310.8661683909
 31
0.0
  0
LWPOLYLINE
  5
172
330
1F
100
AcDbEntity
  8
0
  6
Continuous
 62
     7
100
AcDbPolyline
 90
        3
 70
   128
 43
0.0
 10
443.5273965338
 20
311.5003133667
 10
442.6815638765
 20
311.6959885353
 10
441.8953046103
 20
311.8020115745
  0
LWPOLYLINE
  5
173
330
1F
100
AcDbEntity
  8
0
  6
Continuous
 62
     7
100
AcDbPolyline
 90
        3
 70
   128
 43
0.0
 10
437.6094300152
 20
311.3552536283
 10
437.1966732696
 20
311.197744025
 10
436.5464549504
 20
310.8661683909
  0
LINE
  5
174
330
1F
100
AcDbEntity
  8
0
  6
Continuous
 62
     7
100
AcDbLine
 10
443.5273965338
 20
311.5003133667
 30
0.0
 11
453.4260558306
 21
308.6092802685
 31
0.0
  0
LINE
  5
175
330
1F
100
AcDbEntity
  8
0
  6
Continuous
 62
     7
100
AcDbLine
 10
469.8948611389
 20
303.7993499733
 30
0.0
 11
554.8494149487
 21
278.9872598162
 31
0.0
  0
ARC
  5
176
330
1F
100
AcDbEntity
  8
0
  6
Continuous
 62
     7
100
AcDbCircle
 10
446.8756776587
 20
567.2055952579
 30
0.0
 40
9.695633162506725
100
AcDbArc
 50
253.9989439313
 51
296.3820003181
  0
LINE
  5
177
330
1F
100
AcDbEntity
  8
0
  6
Continuous
 62
     7
100
AcDbLine
 10
444.2030271854
 20
557.8856037413
 30
0.0
 11
255.2274419299
 21
613.0783985777
 31
0.0
  0
LINE
  5
178
330
1F
100
AcDbEntity
  8
0
  6
Continuous
 62
     7
100
AcDbLine
 10
622.5503110146
 20
664.5743553099
 30
0.0
 11
451.1839687689
 21
558.5197487171
 31
0.0
  0
LWPOLYLINE
  5
179
330
1F
100
AcDbEntity
  8
0
  6
Continuous
 62
     7
100
AcDbPolyline
 90
        6
 70
   128
 43
0.0
 10
255.2274419299
 20
613.0783985777
 10
254.4943748964
 20
613.3438617439
 10
253.9022448417
 20
613.668911307
 10
253.4738069916
 20
614.0410557946
 10
253.2255259726
 20
614.4459939027
 10
253.1636057639
 20
614.7599279006
  0
ARC
  5
17A
330
1F
100
AcDbEntity
  8
0
  6
Continuous
 62
     7
100
AcDbCircle
 10
621.9369785199
 20
666.0198805036
 30
0.0
 40
1.570261072123302
100
AcDbArc
 50
292.991383272
 51
355.2806848959
  0
LINE
  5
17B
330
1F
100
AcDbEntity
  8
0
  6
Continuous
 62
     7
100
AcDbLine
 10
295.1778247328
 20
601.4103660184
 30
0.0
 11
160.3662594715
 21
517.9786528209
 31
0.0
  0
LINE
  5
17C
330
1F
100
AcDbEntity
  8
0
  6
Continuous
 62
     7
100
AcDbLine
 10
160.3662594715
 20
517.9786528209
 30
0.0
 11
157.1289903451
 21
518.9241396703
 31
0.0
  0
LWPOLYLINE
  5
17D
330
1F
100
AcDbEntity
  8
0
  6
Continuous
 62
     7
100
AcDbPolyline
 90
        9
 70
   128
 43
0.0
 10
156.0167591125
 20
521.9220017697
 10
155.5220488395
 20
521.5450079739
 10
155.2018580513
 20
521.1370836765
 10
155.0684915001
 20
520.7139051796
 10
155.1270743878
 20
520.2917349953
 10
155.3753554068
 20
519.8867968872
 10
155.8037932568
 20
519.5146523996
 10
156.3959233115
 20
519.1896028365
 10
157.1289903451
 20
518.9241396703
  0
LINE
  5
17E
330
1F
100
AcDbEntity
  8
0
  6
Continuous
 62
     7
100
AcDbLine
 10
287.8939691983
 20
603.5377114297
 30
0.0
 11
156.0167591125
 21
521.9220017697
 31
0.0
  0
LINE
  5
17F
330
1F
100
AcDbEntity
  8
0
  6
Continuous
 62
     7
100
AcDbLine
 10
160.3662594715
 20
517.9786528209
 30
0.0
 11
165.7006396482
 21
319.708279019
 31
0.0
  0
LINE
  5
180
330
1F
100
AcDbEntity
  8
0
  6
Continuous
 62
     7
100
AcDbLine
 10
165.7006396482
 20
319.708279019
 30
0.0
 11
162.4633705218
 21
320.6537658685
 31
0.0
  0
LINE
  5
181
330
1F
100
AcDbEntity
  8
0
  6
Continuous
 62
     7
100
AcDbLine
 10
342.9356922448
 20
429.394892687
 30
0.0
 11
338.6492804758
 21
588.7139579887
 31
0.0
  0
LINE
  5
182
330
1F
100
AcDbEntity
  8
0
  6
Continuous
 62
     7
100
AcDbLine
 10
165.7006396482
 20
319.708279019
 30
0.0
 11
216.063958563
 21
350.8769548758
 31
0.0
  0
LINE
  5
183
330
1F
100
AcDbEntity
  8
0
  6
Continuous
 62
     7
100
AcDbLine
 10
241.4738928076
 20
366.6025667116
 30
0.0
 11
312.5758709947
 21
410.6059119764
 31
0.0
  0
LINE
  5
184
330
1F
100
AcDbEntity
  8
0
  6
Continuous
 62
     7
100
AcDbLine
 10
338.3067977929
 20
426.5301785686
 30
0.0
 11
342.9356922448
 21
429.394892687
 31
0.0
  0
LWPOLYLINE
  5
185
330
1F
100
AcDbEntity
  8
0
  6
Continuous
 62
     7
100
AcDbPolyline
 90
        6
 70
   128
 43
0.0
 10
162.4633705218
 20
320.6537658685
 10
161.7303034882
 20
320.9192290347
 10
161.1381734335
 20
321.2442785977
 10
160.7097355835
 20
321.6164230853
 10
160.4614545645
 20
322.0213611934
 10
160.3995343558
 20
322.3352951914
  0
ARC
  5
186
330
1F
100
AcDbEntity
  8
0
  6
Continuous
 62
     7
100
AcDbCircle
 10
557.4027803873
 20
412.1195106796
 30
0.0
 40
9.69563316250756
100
AcDbArc
 50
253.9989439313
 51
296.3820003181
  0
LINE
  5
187
330
1F
100
AcDbEntity
  8
0
  6
Continuous
 62
     7
100
AcDbLine
 10
554.7301299141
 20
402.7995191629
 30
0.0
 11
551.4928607876
 21
403.7450060124
 31
0.0
  0
LINE
  5
188
330
1F
100
AcDbEntity
  8
0
  6
Continuous
 62
     7
100
AcDbLine
 10
728.7279133842
 20
513.4316196804
 30
0.0
 11
551.4928607876
 21
403.7450060124
 31
0.0
  0
LINE
  5
189
330
1F
100
AcDbEntity
  8
0
  6
Continuous
 62
     7
100
AcDbLine
 10
731.9651825107
 20
512.4861328309
 30
0.0
 11
728.7279133842
 21
513.4316196804
 31
0.0
  0
LWPOLYLINE
  5
18A
330
1F
100
AcDbEntity
  8
0
  6
Continuous
 62
     7
100
AcDbPolyline
 90
        9
 70
   128
 43
0.0
 10
733.0774137433
 20
509.4882707315
 10
733.5721240162
 20
509.8652645273
 10
733.8923148045
 20
510.2731888247
 10
734.0256813557
 20
510.6963673217
 10
733.967098468
 20
511.118537506
 10
733.718817449
 20
511.5234756141
 10
733.2903795989
 20
511.8956201017
 10
732.6982495442
 20
512.2206696647
 10
731.9651825107
 20
512.4861328309
  0
LINE
  5
18B
330
1F
100
AcDbEntity
  8
0
  6
Continuous
 62
     7
100
AcDbLine
 10
733.0774137433
 20
509.4882707315
 30
0.0
 11
561.7110714976
 21
403.4336641387
 31
0.0
  0
ARC
  5
18C
330
1F
100
AcDbEntity
  8
0
  6
Continuous
 62
     7
100
AcDbCircle
 10
562.737160564
 20
213.8491368777
 30
0.0
 40
9.695633162508043
100
AcDbArc
 50
253.9989439313
 51
296.3820003181
  0
LINE
  5
18D
330
1F
100
AcDbEntity
  8
0
  6
Continuous
 62
     7
100
AcDbLine
 10
551.4928607876
 20
403.7450060124
 30
0.0
 11
556.8272409643
 21
205.4746322105
 31
0.0
  0
LINE
  5
18E
330
1F
100
AcDbEntity
  8
0
  6
Continuous
 62
     7
100
AcDbLine
 10
560.0645100908
 20
204.5291453611
 30
0.0
 11
556.8272409643
 21
205.4746322105
 31
0.0
  0
LINE
  5
18F
330
1F
100
AcDbEntity
  8
0
  6
Continuous
 62
     7
100
AcDbLine
 10
567.0454516742
 20
205.1632903368
 30
0.0
 11
738.41179392
 21
311.2178969297
 31
0.0
  0
ARC
  5
190
330
1F
100
AcDbEntity
  8
0
  6
Continuous
 62
     7
100
AcDbCircle
 10
737.7984614252
 20
312.6634221234
 30
0.0
 40
1.570261072124508
100
AcDbArc
 50
292.991383272
 51
355.2806848959
  0
LINE
  5
191
330
1F
100
AcDbEntity
  8
0
  6
Continuous
 62
     7
100
AcDbLine
 10
336.1756116136
 20
276.6013816114
 30
0.0
 11
366.9863409557
 21
295.6694187557
 31
0.0
  0
LINE
  5
192
330
1F
100
AcDbEntity
  8
0
  6
Continuous
 62
     7
100
AcDbLine
 10
336.1756116136
 20
276.6013816114
 30
0.0
 11
272.6156045596
 21
363.3444118321
 31
0.0
  0
LINE
  5
193
330
1F
100
AcDbEntity
  8
0
  6
Continuous
 62
     7
100
AcDbLine
 10
272.6156045596
 20
363.3444118321
 30
0.0
 11
303.4263339018
 21
382.4124489764
 31
0.0
  0
LINE
  5
194
330
1F
100
AcDbEntity
  8
0
  6
Continuous
 62
     7
100
AcDbLine
 10
366.9863409557
 20
295.6694187557
 30
0.0
 11
303.4263339018
 21
382.4124489764
 31
0.0
  0
LINE
  5
195
330
1F
100
AcDbEntity
  8
0
  6
Continuous
 62
     7
100
AcDbLine
 10
272.9242208103
 20
351.8736397193
 30
0.0
 11
325.8746843303
 21
279.6099023439
 31
0.0
  0
LINE
  5
196
330
1F
100
AcDbEntity
  8
0
  6
Continuous
 62
     7
100
AcDbLine
 10
272.6156045596
 20
363.3444118321
 30
0.0
 11
272.9242208103
 21
351.8736397193
 31
0.0
  0
LINE
  5
197
330
1F
100
AcDbEntity
  8
0
  6
Continuous
 62
     7
100
AcDbLine
 10
325.8746843303
 20
279.6099023439
 30
0.0
 11
336.1756116136
 21
276.6013816114
 31
0.0
  0
LINE
  5
198
330
1F
100
AcDbEntity
  8
0
  6
Continuous
 62
     7
100
AcDbLine
 10
455.1180431821
 20
310.0421842538
 30
0.0
 11
395.255773171
 21
259.346246609
 31
0.0
  0
LINE
  5
199
330
1F
100
AcDbEntity
  8
0
  6
Continuous
 62
     7
100
AcDbLine
 10
455.4266594327
 20
298.5714121409
 30
0.0
 11
455.1180431821
 21
310.0421842538
 31
0.0
  0
LINE
  5
19A
330
1F
100
AcDbEntity
  8
0
  6
Continuous
 62
     7
100
AcDbLine
 10
405.5567004542
 20
256.3377258766
 30
0.0
 11
455.4266594327
 21
298.5714121409
 31
0.0
  0
LINE
  5
19B
330
1F
100
AcDbEntity
  8
0
  6
Continuous
 62
     7
100
AcDbLine
 10
395.255773171
 20
259.346246609
 30
0.0
 11
405.5567004542
 21
256.3377258766
 31
0.0
  0
LINE
  5
19C
330
1F
100
AcDbEntity
  8
0
  6
Continuous
 62
     7
100
AcDbLine
 10
455.4266594327
 20
298.5714121409
 30
0.0
 11
486.2373887749
 21
317.6394492852
 31
0.0
  0
LINE
  5
19D
330
1F
100
AcDbEntity
  8
0
  6
Continuous
 62
     7
100
AcDbLine
 10
455.1180431821
 20
310.0421842538
 30
0.0
 11
485.9287725243
 21
329.110221398
 31
0.0
  0
LINE
  5
19E
330
1F
100
AcDbEntity
  8
0
  6
Continuous
 62
     7
100
AcDbLine
 10
486.2373887749
 20
317.6394492852
 30
0.0
 11
485.9287725243
 21
329.110221398
 31
0.0
  0
LINE
  5
19F
330
1F
100
AcDbEntity
  8
0
  6
Continuous
 62
     7
100
AcDbLine
 10
405.5567004542
 20
256.3377258766
 30
0.0
 11
436.3674297963
 21
275.4057630208
 31
0.0
  0
LINE
  5
1A0
330
1F
100
AcDbEntity
  8
0
  6
Continuous
 62
     7
100
AcDbLine
 10
436.3674297963
 20
275.4057630208
 30
0.0
 11
486.2373887749
 21
317.6394492852
 31
0.0
  0
LINE
  5
1A1
330
1F
100
AcDbEntity
  8
0
  6
Continuous
 62
     7
100
AcDbLine
 10
475.4010570967
 20
437.4468409456
 30
0.0
 11
472.8429793301
 21
532.5264974733
 31
0.0
  0
LINE
  5
1A2
330
1F
100
AcDbEntity
  8
0
  6
Continuous
 62
     7
100
AcDbLine
 10
456.3277484563
 20
425.6428179515
 30
0.0
 11
475.4010570967
 21
437.4468409456
 31
0.0
  0
LINE
  5
1A3
330
1F
100
AcDbEntity
  8
0
  6
Continuous
 62
     7
100
AcDbLine
 10
456.5459730999
 20
417.5317572051
 30
0.0
 11
456.3277484563
 21
425.6428179515
 31
0.0
  0
LINE
  5
1A4
330
1F
100
AcDbEntity
  8
0
  6
Continuous
 62
     7
100
AcDbLine
 10
475.6192817402
 20
429.3357801992
 30
0.0
 11
456.5459730999
 21
417.5317572051
 31
0.0
  0
LINE
  5
1A5
330
1F
100
AcDbEntity
  8
0
  6
Continuous
 62
     7
100
AcDbLine
 10
478.1773595068
 20
334.2561236714
 30
0.0
 11
475.6192817402
 21
429.3357801992
 31
0.0
  0
LINE
  5
1A6
330
1F
100
AcDbEntity
  8
0
  6
Continuous
 62
     7
100
AcDbLine
 10
440.0307422261
 20
310.6480776833
 30
0.0
 11
478.1773595068
 21
334.2561236714
 31
0.0
  0
LINE
  5
1A7
330
1F
100
AcDbEntity
  8
0
  6
Continuous
 62
     7
100
AcDbLine
 10
434.6963620494
 20
508.9184514852
 30
0.0
 11
440.0307422261
 21
310.6480776833
 31
0.0
  0
LINE
  5
1A8
330
1F
100
AcDbEntity
  8
0
  6
Continuous
 62
     7
100
AcDbLine
 10
472.8429793301
 20
532.5264974733
 30
0.0
 11
434.6963620494
 21
508.9184514852
 31
0.0
  0
LINE
  5
1A9
330
1F
100
AcDbEntity
  8
0
  6
Continuous
 62
     7
100
AcDbLine
 10
472.8429793301
 20
532.5264974733
 30
0.0
 11
465.5591237956
 21
534.6538428846
 31
0.0
  0
LINE
  5
1AA
330
1F
100
AcDbEntity
  8
0
  6
Continuous
 62
     7
100
AcDbLine
 10
434.6963620494
 20
508.9184514852
 30
0.0
 11
427.4125065149
 21
511.0457968964
 31
0.0
  0
LINE
  5
1AB
330
1F
100
AcDbEntity
  8
0
  6
Continuous
 62
     7
100
AcDbLine
 10
465.5591237956
 20
534.6538428846
 30
0.0
 11
427.4125065149
 21
511.0457968964
 31
0.0
  0
LINE
  5
1AC
330
1F
100
AcDbEntity
  8
0
  6
Continuous
 62
     7
100
AcDbLine
 10
440.0307422261
 20
310.6480776833
 30
0.0
 11
432.7468866916
 21
312.7754230946
 31
0.0
  0
LINE
  5
1AD
330
1F
100
AcDbEntity
  8
0
  6
Continuous
 62
     7
100
AcDbLine
 10
427.4125065149
 20
511.0457968964
 30
0.0
 11
432.7468866916
 21
312.7754230946
 31
0.0
  0
LINE
  5
1AE
330
1F
100
AcDbEntity
  8
0
  6
Continuous
 62
     7
100
AcDbLine
 10
475.6192817402
 20
429.3357801992
 30
0.0
 11
468.3354262058
 21
431.4631256104
 31
0.0
  0
LINE
  5
1AF
330
1F
100
AcDbEntity
  8
0
  6
Continuous
 62
     7
100
AcDbLine
 10
468.3354262058
 20
431.4631256104
 30
0.0
 11
456.3703808554
 21
424.0582399084
 31
0.0
  0
LINE
  5
1B0
330
1F
100
AcDbEntity
  8
0
  6
Continuous
 62
     7
100
AcDbLine
 10
493.0520258108
 20
448.3706111471
 30
0.0
 11
580.6606215449
 21
422.783373284
 31
0.0
  0
LINE
  5
1B1
330
1F
100
AcDbEntity
  8
0
  6
Continuous
 62
     7
100
AcDbLine
 10
512.1253344512
 20
460.1746341412
 30
0.0
 11
493.0520258108
 21
448.3706111471
 31
0.0
  0
LINE
  5
1B2
330
1F
100
AcDbEntity
  8
0
  6
Continuous
 62
     7
100
AcDbLine
 10
504.8414789167
 20
462.3019795524
 30
0.0
 11
512.1253344512
 21
460.1746341412
 31
0.0
  0
LINE
  5
1B3
330
1F
100
AcDbEntity
  8
0
  6
Continuous
 62
     7
100
AcDbLine
 10
485.7681702764
 20
450.4979565584
 30
0.0
 11
504.8414789167
 21
462.3019795524
 31
0.0
  0
LINE
  5
1B4
330
1F
100
AcDbEntity
  8
0
  6
Continuous
 62
     7
100
AcDbLine
 10
398.1595745423
 20
476.0851944215
 30
0.0
 11
428.5922415044
 21
467.1969354345
 31
0.0
  0
LINE
  5
1B5
330
1F
100
AcDbEntity
  8
0
  6
Continuous
 62
     7
100
AcDbLine
 10
474.9650331218
 20
453.6531542616
 30
0.0
 11
485.7681702764
 21
450.4979565584
 31
0.0
  0
LINE
  5
1B6
330
1F
100
AcDbEntity
  8
0
  6
Continuous
 62
     7
100
AcDbLine
 10
427.858599785
 20
494.4652239946
 30
0.0
 11
398.1595745423
 21
476.0851944215
 31
0.0
  0
LINE
  5
1B7
330
1F
100
AcDbEntity
  8
0
  6
Continuous
 62
     7
100
AcDbLine
 10
618.8072388256
 20
446.3914192721
 30
0.0
 11
474.0227143196
 21
488.6776360114
 31
0.0
  0
LINE
  5
1B8
330
1F
100
AcDbEntity
  8
0
  6
Continuous
 62
     7
100
AcDbLine
 10
580.6606215449
 20
422.783373284
 30
0.0
 11
618.8072388256
 21
446.3914192721
 31
0.0
  0
LINE
  5
1B9
330
1F
100
AcDbEntity
  8
0
  6
Continuous
 62
     7
100
AcDbLine
 10
493.0520258108
 20
448.3706111471
 30
0.0
 11
493.2702504544
 21
440.2595504007
 31
0.0
  0
LINE
  5
1BA
330
1F
100
AcDbEntity
  8
0
  6
Continuous
 62
     7
100
AcDbLine
 10
580.6606215449
 20
422.783373284
 30
0.0
 11
580.6867447515
 21
421.8124155056
 31
0.0
  0
LINE
  5
1BB
330
1F
100
AcDbEntity
  8
0
  6
Continuous
 62
     7
100
AcDbLine
 10
493.2702504544
 20
440.2595504007
 30
0.0
 11
572.9101621538
 21
416.999671082
 31
0.0
  0
LINE
  5
1BC
330
1F
100
AcDbEntity
  8
0
  6
Continuous
 62
     7
100
AcDbLine
 10
618.8072388256
 20
446.3914192721
 30
0.0
 11
618.8333620322
 21
445.4204614937
 31
0.0
  0
LINE
  5
1BD
330
1F
100
AcDbEntity
  8
0
  6
Continuous
 62
     7
100
AcDbLine
 10
485.7681702764
 20
450.4979565584
 30
0.0
 11
485.98639492
 21
442.3868958119
 31
0.0
  0
LINE
  5
1BE
330
1F
100
AcDbEntity
  8
0
  6
Continuous
 62
     7
100
AcDbLine
 10
504.8414789167
 20
462.3019795524
 30
0.0
 11
505.0170711612
 21
455.7754968491
 31
0.0
  0
LINE
  5
1BF
330
1F
100
AcDbEntity
  8
0
  6
Continuous
 62
     7
100
AcDbLine
 10
485.98639492
 20
442.3868958119
 30
0.0
 11
493.0946582099
 21
446.786033104
 31
0.0
  0
LINE
  5
1C0
330
1F
100
AcDbEntity
  8
0
  6
Continuous
 62
     7
100
AcDbLine
 10
398.1595745423
 20
476.0851944215
 30
0.0
 11
398.3777991859
 21
467.9741336751
 31
0.0
  0
LINE
  5
1C1
330
1F
100
AcDbEntity
  8
0
  6
Continuous
 62
     7
100
AcDbLine
 10
398.3777991859
 20
467.9741336751
 30
0.0
 11
428.810466148
 21
459.0858746881
 31
0.0
  0
LINE
  5
1C2
330
1F
100
AcDbEntity
  8
0
  6
Continuous
 62
     7
100
AcDbLine
 10
475.1832577653
 20
445.5420935151
 30
0.0
 11
485.98639492
 21
442.3868958119
 31
0.0
  0
LINE
  5
1C3
330
1F
100
AcDbEntity
  8
0
  6
Continuous
 62
     7
100
AcDbLine
 10
399.1613028692
 20
275.4117173012
 30
0.0
 11
404.443142185
 21
278.6805236688
 31
0.0
  0
LINE
  5
1C4
330
1F
100
AcDbEntity
  8
0
  6
Continuous
 62
     7
100
AcDbLine
 10
399.1613028692
 20
275.4117173012
 30
0.0
 11
395.6757703674
 21
404.9633820012
 31
0.0
  0
LINE
  5
1C5
330
1F
100
AcDbEntity
  8
0
  6
Continuous
 62
     7
100
AcDbLine
 10
395.6757703674
 20
404.9633820012
 30
0.0
 11
400.9576096832
 21
408.2321883688
 31
0.0
  0
LINE
  5
1C6
330
1F
100
AcDbEntity
  8
0
  6
Continuous
 62
     7
100
AcDbLine
 10
404.443142185
 20
278.6805236688
 30
0.0
 11
400.9576096832
 21
408.2321883688
 31
0.0
  0
LINE
  5
1C7
330
1F
100
AcDbEntity
  8
0
  6
Continuous
 62
     7
100
AcDbLine
 10
339.2997078215
 20
224.716351267
 30
0.0
 11
399.1613028692
 21
275.4117173012
 31
0.0
  0
LINE
  5
1C8
330
1F
100
AcDbEntity
  8
0
  6
Continuous
 62
     7
100
AcDbLine
 10
280.2195462641
 20
241.9714862693
 30
0.0
 11
339.2997078215
 21
224.716351267
 31
0.0
  0
LINE
  5
1C9
330
1F
100
AcDbEntity
  8
0
  6
Continuous
 62
     7
100
AcDbLine
 10
216.6602558666
 20
328.7135384387
 30
0.0
 11
280.2195462641
 21
241.9714862693
 31
0.0
  0
LINE
  5
1CA
330
1F
100
AcDbEntity
  8
0
  6
Continuous
 62
     7
100
AcDbLine
 10
213.1747233648
 20
458.2652031388
 30
0.0
 11
216.6602558666
 21
328.7135384387
 31
0.0
  0
LINE
  5
1CB
330
1F
100
AcDbEntity
  8
0
  6
Continuous
 62
     7
100
AcDbLine
 10
395.6757703674
 20
404.9633820012
 30
0.0
 11
213.1747233648
 21
458.2652031388
 31
0.0
  0
LWPOLYLINE
  5
1CC
330
1F
100
AcDbEntity
  8
0
  6
Continuous
 62
     7
100
AcDbPolyline
 90
      150
 70
   128
 43
0.0
 10
386.8101891928
 20
309.1964920015
 10
386.6386371176
 20
312.9594696169
 10
386.3256548013
 20
316.7571524329
 10
385.8717987151
 20
320.582788308
 10
385.2778757986
 20
324.4295754012
 10
384.5449420251
 20
328.2906742655
 10
383.674300524
 20
332.159220008
 10
382.6674992643
 20
336.0283344955
 10
381.5263283016
 20
339.8911385837
 10
380.2528165965
 20
343.7407643478
 10
378.8492284063
 20
347.5703672938
 10
377.3180592594
 20
351.3731385273
 10
375.6620315188
 20
355.14231686
 10
373.8840895414
 20
358.8712008301
 10
371.9873944432
 20
362.5531606182
 10
369.9753184787
 20
366.1816498341
 10
367.8514390457
 20
369.7502171564
 10
365.6195323242
 20
373.2525178026
 10
363.283566563
 20
376.68232481
 10
360.8476950239
 20
380.0335401068
 10
358.3162485977
 20
383.3002053546
 10
355.6937281037
 20
386.4765125418
 10
352.9847962876
 20
389.5568143101
 10
350.1942695314
 20
392.5356339954
 10
347.3271092898
 20
395.4076753649
 10
344.388413269
 20
398.167832034
 10
341.3834063634
 20
400.8111965448
 10
338.3174313656
 20
403.3330690916
 10
335.1959394672
 20
405.7289658772
 10
332.0244805669
 20
407.9946270844
 10
328.8086934029
 20
410.1260244503
 10
325.5542955275
 20
412.1193684282
 10
322.2670731412
 20
413.9711149252
 10
318.9528708056
 20
415.6779716037
 10
315.6175810514
 20
417.2369037347
 10
312.2671339021
 20
418.6451395938
 10
308.9074863304
 20
419.9001753891
 10
305.5446116673
 20
420.9997797126
 10
302.1844889809
 20
421.9419975081
 10
298.833092447
 20
422.7251535467
 10
295.4963807262
 20
423.3478554055
 10
292.1802863702
 20
423.8089959433
 10
288.8907052738
 20
424.1077552691
 10
285.633486192
 20
424.2436021997
 10
282.4144203416
 20
424.2162952043
 10
279.2392311042
 20
424.0258828337
 10
276.1135638503
 20
423.672703634
 10
273.0429759023
 20
423.1573855451
 10
270.0329266535
 20
422.4808447837
 10
267.0887678615
 20
421.6442842146
 10
264.2157341334
 20
420.649191212
 10
261.4189336182
 20
419.4973350148
 10
258.7033389251
 20
418.1907635815
 10
256.0737782825
 20
416.7317999482
 10
253.5349269532
 20
415.1230380991
 10
251.0912989222
 20
413.3673383541
 10
248.7472388709
 20
411.4678222833
 10
246.5069144527
 20
409.4278671568
 10
244.3743088825
 20
407.2510999405
 10
242.3532138553
 20
404.9413908471
 10
240.4472228042
 20
402.5028464549
 10
238.6597245117
 20
399.9398024071
 10
236.9938970847
 20
397.2568157022
 10
235.4527023035
 20
394.4586565929
 10
234.0388803561
 20
391.5503001039
 10
232.7549449664
 20
388.5369171868
 10
231.6031789247
 20
385.4238655265
 10
230.5856300289
 20
382.2166800154
 10
229.7041074438
 20
378.9210629121
 10
228.9601784845
 20
375.5428737037
 10
228.3551658295
 20
372.0881186872
 10
227.8901451692
 20
368.5629402911
 10
227.5659432933
 20
364.9736061537
 10
227.383136621
 20
361.3264979804
 10
227.3420501759
 20
357.6281001962
 10
227.4427570081
 20
353.8849884175
 10
227.6850780647
 20
350.1038177605
 10
228.0685825075
 20
346.2913110086
 10
228.5925884797
 20
342.4542466596
 10
229.2561643178
 20
338.5994468739
 10
230.0581302081
 20
334.733765345
 10
230.9970602847
 20
330.8640751134
 10
232.071285164
 20
326.9972563472
 10
233.2788949135
 20
323.140184109
 10
234.617742447
 20
319.2997161326
 10
236.0854473425
 20
315.4826806298
 10
237.6794000743
 20
311.6958641505
 10
239.3967666526
 20
307.9459995162
 10
241.2344936623
 20
304.2397538493
 10
243.1893136918
 20
300.5837167194
 10
245.2577511424
 20
296.9843884271
 10
247.4361284079
 20
293.4481684468
 10
249.7205724129
 20
289.9813440484
 10
252.1070214994
 20
286.5900791194
 10
254.591232648
 20
283.2804032049
 10
257.168789022
 20
280.0582007881
 10
259.8351078201
 20
276.9292008271
 10
262.5854484248
 20
273.8989665697
 10
265.414920831
 20
270.9728856619
 10
268.3184943398
 20
268.1561605687
 10
271.2910065037
 20
265.4537993245
 10
274.3271723044
 20
262.8706066291
 10
277.42159355
 20
260.4111753048
 10
280.5687684723
 20
258.0798781306
 10
283.7631015093
 20
255.880860068
 10
286.9989132534
 20
253.8180308908
 10
290.2704505493
 20
251.8950582339
 10
293.5718967231
 20
250.1153610726
 10
296.8973819241
 20
248.4821036435
 10
300.2409935609
 20
246.9981898187
 10
303.596786814
 20
245.6662579429
 10
306.9587952055
 20
244.4886761422
 10
310.3210412071
 20
243.4675381142
 10
313.6775468682
 20
242.604659405
 10
317.0223444442
 20
241.9015741815
 10
320.349487007
 20
241.3595325035
 10
323.6530590187
 20
240.9794981013
 10
326.9271868486
 20
240.7621466624
 10
330.1660492171
 20
240.7078646295
 10
333.363887545
 20
240.8167485142
 10
336.5150161925
 20
241.0886047249
 10
339.6138325678
 20
241.5229499111
 10
342.6548270885
 20
242.119011823
 10
345.6325929773
 20
242.8757306842
 10
348.5418358751
 20
243.7917610763
 10
351.3773832543
 20
244.8654743306
 10
354.1341936151
 20
246.0949614241
 10
356.8073654492
 20
247.4780363737
 10
359.3921459547
 20
249.0122401226
 10
361.8839394862
 20
250.6948449124
 10
364.2783157256
 20
252.5228591333
 10
366.5710175596
 20
254.4930326427
 10
368.7579686477
 20
256.601862544
 10
370.8352806708
 20
258.8455994146
 10
372.799260244
 20
261.2202539722
 10
374.6464154833
 20
263.7216041676
 10
376.3734622139
 20
266.3452026916
 10
377.9773298099
 20
269.0863848816
 10
379.4551666532
 20
271.9402770158
 10
380.8043452039
 20
274.9018049781
 10
382.0224666716
 20
277.9657032799
 10
383.1073652809
 20
281.1265244217
 10
384.0571121217
 20
284.378648579
 10
384.8700185787
 20
287.7162935937
 10
385.5446393339
 20
291.1335252547
 10
386.0797749363
 20
294.6242678489
 10
386.4744739341
 20
298.1823149633
 10
386.7280345672
 20
301.8013405199
 10
386.8400060138
 20
305.4749100235
 10
386.8101891928
 20
309.1964920015
  0
LINE
  5
1CD
330
1F
100
AcDbEntity
  8
0
  6
Continuous
 62
     7
100
AcDbLine
 10
213.1747233648
 20
458.2652031388
 30
0.0
 11
218.4565626806
 21
461.5340095064
 31
0.0
  0
LINE
  5
1CE
330
1F
100
AcDbEntity
  8
0
  6
Continuous
 62
     7
100
AcDbLine
 10
400.9576096832
 20
408.2321883688
 30
0.0
 11
218.4565626806
 21
461.5340095064
 31
0.0
  0
LWPOLYLINE
  5
1CF
330
1F
100
AcDbEntity
  8
0
  6
Continuous
 62
     7
100
AcDbPolyline
 90
       76
 70
   128
 43
0.0
 10
255.9942535016
 20
416.6845013059
 10
255.0021045409
 20
416.0310398679
 10
252.5584765099
 20
414.2753401229
 10
250.2144164587
 20
412.3758240521
 10
247.9740920404
 20
410.3358689256
 10
245.8414864702
 20
408.1591017093
 10
243.820391443
 20
405.8493926159
 10
241.9144003919
 20
403.4108482237
 10
240.1269020994
 20
400.8478041759
 10
238.4610746724
 20
398.164817471
 10
236.9198798912
 20
395.3666583617
 10
235.5060579438
 20
392.4583018726
 10
234.2221225541
 20
389.4449189556
 10
233.0703565124
 20
386.3318672953
 10
232.0528076166
 20
383.1246817842
 10
231.1712850316
 20
379.8290646809
 10
230.4273560723
 20
376.4508754725
 10
229.8223434172
 20
372.996120456
 10
229.3573227569
 20
369.4709420598
 10
229.0331208811
 20
365.8816079225
 10
228.8503142088
 20
362.2344997492
 10
228.8092277636
 20
358.536101965
 10
228.9099345959
 20
354.7929901863
 10
229.1522556524
 20
351.0118195293
 10
229.5357600952
 20
347.1993127773
 10
230.0597660674
 20
343.3622484284
 10
230.7233419055
 20
339.5074486427
 10
231.5253077959
 20
335.6417671137
 10
232.4642378724
 20
331.7720768821
 10
233.5384627517
 20
327.905258116
 10
234.7460725012
 20
324.0481858778
 10
236.0849200347
 20
320.2077179014
 10
237.5526249302
 20
316.3906823986
 10
239.146577662
 20
312.6038659193
 10
240.8639442403
 20
308.8540012849
 10
242.70167125
 20
305.1477556181
 10
244.6564912795
 20
301.4917184882
 10
246.7249287301
 20
297.8923901959
 10
248.9033059956
 20
294.3561702155
 10
251.1877500006
 20
290.8893458172
 10
253.5741990871
 20
287.4980808882
 10
256.0584102358
 20
284.1884049737
 10
258.6359666097
 20
280.9662025568
 10
261.3022854078
 20
277.8372025958
 10
264.0526260125
 20
274.8069683385
 10
266.8820984187
 20
271.8808874306
 10
269.7856719276
 20
269.0641623374
 10
272.7581840914
 20
266.3618010933
 10
275.7943498921
 20
263.7786083979
 10
278.8887711377
 20
261.3191770735
 10
282.03594606
 20
258.9878798994
 10
285.230279097
 20
256.7888618368
 10
288.4660908411
 20
254.7260326595
 10
291.737628137
 20
252.8030600027
 10
295.0390743108
 20
251.0233628414
 10
298.3645595118
 20
249.3901054123
 10
301.7081711486
 20
247.9061915875
 10
305.0639644017
 20
246.5742597116
 10
308.4259727932
 20
245.396677911
 10
311.7882187948
 20
244.375539883
 10
315.1447244559
 20
243.5126611738
 10
318.4895220319
 20
242.8095759502
 10
321.8166645948
 20
242.2675342722
 10
325.1202366064
 20
241.8874998701
 10
328.3943644363
 20
241.6701484312
 10
331.6332268048
 20
241.6158663983
 10
334.8310651327
 20
241.724750283
 10
337.9821937802
 20
241.9966064936
 10
341.0810101555
 20
242.4309516799
 10
344.1220046762
 20
243.0270135918
 10
347.099770565
 20
243.783732453
 10
350.0090134629
 20
244.6997628451
 10
352.844560842
 20
245.7734760994
 10
355.6013712028
 20
247.0029631929
 10
358.2745430369
 20
248.3860381425
 10
359.6577979966
 20
249.181711802
  0
LWPOLYLINE
  5
1D0
330
1F
100
AcDbEntity
  8
0
  6
Continuous
 62
     7
100
AcDbPolyline
 90
      141
 70
   128
 43
0.0
 10
379.7795353237
 20
312.58639675
 10
379.6120911779
 20
316.1654883553
 10
379.3015567999
 20
319.7792620094
 10
378.8485575649
 20
323.4204400533
 10
378.2540057527
 20
327.0816896389
 10
377.5190987118
 20
330.7556374968
 10
376.6453164471
 20
334.4348847849
 10
375.6344186398
 20
338.112021989
 10
374.4884411036
 20
341.7796438439
 10
373.2096916846
 20
345.4303642474
 10
371.800745614
 20
349.0568311344
 10
370.2644403218
 20
352.6517412833
 10
368.6038697223
 20
356.2078550234
 10
366.8223779837
 20
359.7180108149
 10
364.9235527933
 20
363.1751396712
 10
362.9112181323
 20
366.5722793949
 10
360.7894265749
 20
369.9025885986
 10
358.562451127
 20
373.1593604828
 10
356.2347766207
 20
376.3360363424
 10
353.8110906827
 20
379.4262187749
 10
351.296274294
 20
382.4236845642
 10
348.69539196
 20
385.3223972131
 10
346.0136815117
 20
388.1165191
 10
343.256543557
 20
390.8004232354
 10
340.4295306048
 20
393.3687045935
 10
337.538335883
 20
395.8161909975
 10
334.588781873
 20
398.1379535353
 10
331.586808584
 20
400.3293164864
 10
328.5384615907
 20
402.3858667373
 10
325.4498798583
 20
404.3034626694
 10
322.3272833794
 20
406.0782424999
 10
319.1769606476
 20
407.7066320583
 10
316.0052559938
 20
409.1853519847
 10
312.818556809
 20
410.5114243341
 10
309.6232806813
 20
411.6821785731
 10
306.4258624715
 20
412.6952569586
 10
303.2327413544
 20
413.5486192855
 10
300.050347851
 20
414.2405469956
 10
296.8850908783
 20
414.7696466386
 10
293.7433448425
 20
415.1348526783
 10
290.6314368022
 20
415.3354296383
 10
287.5556337259
 20
415.3709735833
 10
284.5221298717
 20
415.2414129325
 10
281.5370343126
 20
414.9470086038
 10
278.6063586339
 20
414.4883534883
 10
275.7360048263
 20
413.8663712565
 10
272.9317534005
 20
413.0823144978
 10
270.1992517455
 20
412.137762198
 10
267.5440027561
 20
411.03461656
 10
264.9713537504
 20
409.7750991721
 10
262.4864857011
 20
408.3617465347
 10
260.0944028017
 20
406.7974049521
 10
257.7999223889
 20
405.0852247998
 10
255.6076652409
 20
403.228654181
 10
253.5220462717
 20
401.2314319818
 10
251.5472656405
 20
399.0975803418
 10
249.6873002927
 20
396.8313965543
 10
247.9458959509
 20
394.4374444118
 10
246.3265595716
 20
391.9205450155
 10
244.832552283
 20
389.2857670656
 10
243.4668828168
 20
386.5384166544
 10
242.2323014495
 20
383.6840265799
 10
241.1312944638
 20
380.7283452039
 10
240.1660791413
 20
377.6773248754
 10
239.338599297
 20
374.5371099432
 10
238.6505213653
 20
371.3140243823
 10
238.1032310436
 20
368.0145590581
 10
237.6978305017
 20
364.6453586547
 10
237.4351361624
 20
361.2132082932
 10
237.3156770572
 20
357.7250198678
 10
237.3396937607
 20
354.1878181257
 10
237.5071379065
 20
350.6087265205
 10
237.8176722844
 20
346.9949528663
 10
238.2706715195
 20
343.3537748224
 10
238.8652233316
 20
339.6925252368
 10
239.6001303725
 20
336.0185773789
 10
240.4739126372
 20
332.3393300908
 10
241.4848104445
 20
328.6621928867
 10
242.6307879808
 20
324.9945710318
 10
243.9095373998
 20
321.3438506283
 10
245.3184834703
 20
317.7173837413
 10
246.8547887626
 20
314.1224735924
 10
248.5153593621
 20
310.5663598523
 10
250.2968511007
 20
307.0562040608
 10
252.1956762911
 20
303.5990752045
 10
254.2080109521
 20
300.2019354808
 10
256.3298025094
 20
296.8716262771
 10
258.5567779573
 20
293.6148543929
 10
260.8844524636
 20
290.4381785333
 10
263.3081384016
 20
287.3479961008
 10
265.8229547903
 20
284.3505303115
 10
268.4238371243
 20
281.4518176626
 10
271.1055475726
 20
278.6576957757
 10
273.8626855273
 20
275.9737916403
 10
276.6896984795
 20
273.4055102822
 10
279.5808932013
 20
270.9580238782
 10
282.5304472114
 20
268.6362613404
 10
285.5324205003
 20
266.4448983893
 10
288.5807674936
 20
264.3883481385
 10
291.669349226
 20
262.4707522063
 10
294.791945705
 20
260.6959723758
 10
297.9422684367
 20
259.0675828174
 10
301.1139730905
 20
257.588862891
 10
304.3006722753
 20
256.2627905416
 10
307.4959484031
 20
255.0920363026
 10
310.6933666128
 20
254.0789579171
 10
313.8864877299
 20
253.2255955902
 10
317.0688812333
 20
252.5336678801
 10
320.2341382061
 20
252.0045682371
 10
323.3758842418
 20
251.6393621974
 10
326.4877922821
 20
251.4387852374
 10
329.5635953585
 20
251.4032412924
 10
332.5970992127
 20
251.5328019432
 10
335.5821947717
 20
251.8272062719
 10
338.5128704504
 20
252.2858613874
 10
341.383224258
 20
252.9078436192
 10
344.1874756839
 20
253.6919003779
 10
346.9199773388
 20
254.6364526777
 10
349.5752263282
 20
255.7395983157
 10
352.1478753339
 20
256.9991157036
 10
354.6327433833
 20
258.412468341
 10
357.0248262826
 20
259.9768099237
 10
359.3193066954
 20
261.6889900759
 10
361.5115638435
 20
263.5455606947
 10
363.5971828126
 20
265.542782894
 10
365.5719634438
 20
267.6766345339
 10
367.4319287916
 20
269.9428183214
 10
369.1733331335
 20
272.3367704639
 10
370.7926695127
 20
274.8536698603
 10
372.2866768013
 20
277.4884478101
 10
373.6523462676
 20
280.2357982213
 10
374.8869276348
 20
283.0901882958
 10
375.9879346205
 20
286.0458696718
 10
376.9531499431
 20
289.0968900003
 10
377.7806297874
 20
292.2371049325
 10
378.468707719
 20
295.4601904934
 10
379.0159980408
 20
298.7596558176
 10
379.4213985826
 20
302.128856221
 10
379.6840929219
 20
305.5610065825
 10
379.8035520272
 20
309.0491950079
 10
379.7795353237
 20
312.58639675
  0
LWPOLYLINE
  5
1D1
330
1F
100
AcDbEntity
  8
0
  6
Continuous
 62
     7
100
AcDbPolyline
 90
       20
 70
   128
 43
0.0
 10
278.9253770514
 20
419.0745409094
 10
278.8400323029
 20
419.5785100456
 10
278.6192275414
 20
420.0701303016
 10
278.286890389
 20
420.4961269942
 10
277.8790347328
 20
420.8103367718
 10
277.4398580617
 20
420.9787101296
 10
277.0169519826
 20
420.9830012016
 10
276.6561449312
 20
420.8227449836
 10
276.39653595
 20
420.5153077236
 10
276.2662577004
 20
420.0940050188
 10
276.2794278522
 20
419.6044915547
 10
276.4346192151
 20
419.0998137106
 10
276.7150143968
 20
418.6346611619
 10
277.0902282288
 20
418.2594404047
 10
277.5196004702
 20
418.0148124303
 10
277.9566019762
 20
417.9272864754
 10
278.353876853
 20
418.0063473355
 10
278.6683742032
 20
418.2434275395
 10
278.8660133591
 20
418.6128357686
 10
278.9253770514
 20
419.0745409094
  0
LWPOLYLINE
  5
1D2
330
1F
100
AcDbEntity
  8
0
  6
Continuous
 62
     7
100
AcDbPolyline
 90
       20
 70
   128
 43
0.0
 10
336.6867238358
 20
402.204583035
 10
336.6013790874
 20
402.7085521712
 10
336.3805743259
 20
403.2001724272
 10
336.0482371734
 20
403.6261691198
 10
335.6403815172
 20
403.9403788974
 10
335.2012048462
 20
404.1087522552
 10
334.778298767
 20
404.1130433272
 10
334.4174917156
 20
403.9527871093
 10
334.1578827345
 20
403.6453498492
 10
334.0276044848
 20
403.2240471444
 10
334.0407746366
 20
402.7345336803
 10
334.1959659995
 20
402.2298558362
 10
334.4763611813
 20
401.7647032875
 10
334.8515750132
 20
401.3894825303
 10
335.2809472546
 20
401.1448545559
 10
335.7179487607
 20
401.057328601
 10
336.1152236374
 20
401.1363894611
 10
336.4297209877
 20
401.3734696651
 10
336.6273601435
 20
401.7428778942
 10
336.6867238358
 20
402.204583035
  0
LWPOLYLINE
  5
1D3
330
1F
100
AcDbEntity
  8
0
  6
Continuous
 62
     7
100
AcDbPolyline
 90
       20
 70
   128
 43
0.0
 10
378.7538351605
 20
344.7938167676
 10
378.668490412
 20
345.2977859038
 10
378.4476856505
 20
345.7894061597
 10
378.1153484981
 20
346.2154028523
 10
377.7074928419
 20
346.52961263
 10
377.2683161708
 20
346.6979859877
 10
376.8454100917
 20
346.7022770598
 10
376.4846030403
 20
346.5420208418
 10
376.2249940591
 20
346.2345835817
 10
376.0947158095
 20
345.813280877
 10
376.1078859613
 20
345.3237674129
 10
376.2630773242
 20
344.8190895688
 10
376.5434725059
 20
344.3539370201
 10
376.9186863379
 20
343.9787162629
 10
377.3480585792
 20
343.7340882884
 10
377.7850600853
 20
343.6465623336
 10
378.1823349621
 20
343.7256231936
 10
378.4968323123
 20
343.9627033976
 10
378.6944714682
 20
344.3321116268
 10
378.7538351605
 20
344.7938167676
  0
LWPOLYLINE
  5
1D4
330
1F
100
AcDbEntity
  8
0
  6
Continuous
 62
     7
100
AcDbPolyline
 90
       20
 70
   128
 43
0.0
 10
380.4843677412
 20
280.4726903603
 10
380.3990229927
 20
280.9766594966
 10
380.1782182312
 20
281.4682797525
 10
379.8458810788
 20
281.8942764451
 10
379.4380254225
 20
282.2084862227
 10
378.9988487515
 20
282.3768595805
 10
378.5759426724
 20
282.3811506525
 10
378.215135621
 20
282.2208944346
 10
377.9555266398
 20
281.9134571745
 10
377.8252483902
 20
281.4921544698
 10
377.838418542
 20
281.0026410056
 10
377.9936099048
 20
280.4979631616
 10
378.2740050866
 20
280.0328106128
 10
378.6492189186
 20
279.6575898556
 10
379.0785911599
 20
279.4129618812
 10
379.515592666
 20
279.3254359264
 10
379.9128675427
 20
279.4044967864
 10
380.227364893
 20
279.6415769904
 10
380.4250040489
 20
280.0109852196
 10
380.4843677412
 20
280.4726903603
  0
LWPOLYLINE
  5
1D5
330
1F
100
AcDbEntity
  8
0
  6
Continuous
 62
     7
100
AcDbPolyline
 90
       20
 70
   128
 43
0.0
 10
340.8645990623
 20
246.9196473155
 10
340.7792543138
 20
247.4236164518
 10
340.5584495523
 20
247.9152367077
 10
340.2261123999
 20
248.3412334003
 10
339.8182567437
 20
248.6554431779
 10
339.3790800726
 20
248.8238165357
 10
338.9561739935
 20
248.8281076077
 10
338.5953669421
 20
248.6678513898
 10
338.3357579609
 20
248.3604141297
 10
338.2054797113
 20
247.939111425
 10
338.2186498631
 20
247.4495979608
 10
338.373841226
 20
246.9449201168
 10
338.6542364077
 20
246.479767568
 10
339.0294502397
 20
246.1045468108
 10
339.458822481
 20
245.8599188364
 10
339.8958239871
 20
245.7723928816
 10
340.2930988639
 20
245.8514537416
 10
340.6075962141
 20
246.0885339456
 10
340.80523537
 20
246.4579421748
 10
340.8645990623
 20
246.9196473155
  0
LWPOLYLINE
  5
1D6
330
1F
100
AcDbEntity
  8
0
  6
Continuous
 62
     7
100
AcDbPolyline
 90
       20
 70
   128
 43
0.0
 10
283.1032522778
 20
263.7896051899
 10
283.0179075293
 20
264.2935743262
 10
282.7971027678
 20
264.7851945821
 10
282.4647656154
 20
265.2111912747
 10
282.0569099592
 20
265.5254010523
 10
281.6177332881
 20
265.6937744101
 10
281.194827209
 20
265.6980654821
 10
280.8340201576
 20
265.5378092642
 10
280.5744111764
 20
265.2303720041
 10
280.4441329268
 20
264.8090692994
 10
280.4573030786
 20
264.3195558352
 10
280.6124944415
 20
263.8148779912
 10
280.8928896233
 20
263.3497254424
 10
281.2681034552
 20
262.9745046852
 10
281.6974756966
 20
262.7298767108
 10
282.1344772026
 20
262.642350756
 10
282.5317520794
 20
262.721411616
 10
282.8462494296
 20
262.95849182
 10
283.0438885855
 20
263.3279000492
 10
283.1032522778
 20
263.7896051899
  0
LWPOLYLINE
  5
1D7
330
1F
100
AcDbEntity
  8
0
  6
Continuous
 62
     7
100
AcDbPolyline
 90
       20
 70
   128
 43
0.0
 10
241.0361409532
 20
321.2003714574
 10
240.9507962047
 20
321.7043405936
 10
240.7299914432
 20
322.1959608495
 10
240.3976542908
 20
322.6219575421
 10
239.9897986346
 20
322.9361673198
 10
239.5506219635
 20
323.1045406775
 10
239.1277158844
 20
323.1088317496
 10
238.766908833
 20
322.9485755316
 10
238.5072998518
 20
322.6411382715
 10
238.3770216022
 20
322.2198355668
 10
238.390191754
 20
321.7303221027
 10
238.5453831169
 20
321.2256442586
 10
238.8257782986
 20
320.7604917099
 10
239.2009921306
 20
320.3852709527
 10
239.630364372
 20
320.1406429782
 10
240.067365878
 20
320.0531170234
 10
240.4646407548
 20
320.1321778834
 10
240.779138105
 20
320.3692580874
 10
240.9767772609
 20
320.7386663166
 10
241.0361409532
 20
321.2003714574
  0
LWPOLYLINE
  5
1D8
330
1F
100
AcDbEntity
  8
0
  6
Continuous
 62
     7
100
AcDbPolyline
 90
       20
 70
   128
 43
0.0
 10
239.3056083725
 20
385.5214978646
 10
239.220263624
 20
386.0254670008
 10
238.9994588625
 20
386.5170872568
 10
238.6671217101
 20
386.9430839494
 10
238.2592660539
 20
387.257293727
 10
237.8200893828
 20
387.4256670848
 10
237.3971833037
 20
387.4299581568
 10
237.0363762523
 20
387.2697019389
 10
236.7767672711
 20
386.9622646788
 10
236.6464890215
 20
386.540961974
 10
236.6596591733
 20
386.0514485099
 10
236.8148505362
 20
385.5467706658
 10
237.095245718
 20
385.0816181171
 10
237.4704595499
 20
384.7063973599
 10
237.8998317913
 20
384.4617693855
 10
238.3368332973
 20
384.3742434306
 10
238.7341081741
 20
384.4533042907
 10
239.0486055243
 20
384.6903844947
 10
239.2462446802
 20
385.0597927238
 10
239.3056083725
 20
385.5214978646
  0
LWPOLYLINE
  5
1D9
330
1F
100
AcDbEntity
  8
0
  6
Continuous
 62
     7
100
AcDbPolyline
 90
       71
 70
   128
 43
0.0
 10
264.1857319733
 20
409.3501383801
 10
263.9090645298
 20
409.1582095509
 10
261.614584117
 20
407.4460293986
 10
259.4223269689
 20
405.5894587798
 10
257.3367079998
 20
403.5922365806
 10
255.3619273686
 20
401.4583849406
 10
253.5019620208
 20
399.1922011531
 10
251.7605576789
 20
396.7982490106
 10
250.1412212997
 20
394.2813496143
 10
248.6472140111
 20
391.6465716644
 10
247.2815445448
 20
388.8992212532
 10
246.0469631776
 20
386.0448311787
 10
244.9459561919
 20
383.0891498028
 10
243.9807408693
 20
380.0381294742
 10
243.1532610251
 20
376.897914542
 10
242.4651830934
 20
373.6748289811
 10
241.9178927717
 20
370.3753636569
 10
241.5124922298
 20
367.0061632535
 10
241.2497978905
 20
363.574012892
 10
241.1303387852
 20
360.0858244666
 10
241.1543554887
 20
356.5486227245
 10
241.3217996345
 20
352.9695311193
 10
241.6323340125
 20
349.3557574651
 10
242.0853332476
 20
345.7145794212
 10
242.6798850597
 20
342.0533298356
 10
243.4147921006
 20
338.3793819777
 10
244.2885743653
 20
334.7001346896
 10
245.2994721726
 20
331.0229974855
 10
246.4454497089
 20
327.3553756306
 10
247.7241991278
 20
323.7046552271
 10
249.1331451984
 20
320.0781883401
 10
250.6694504906
 20
316.4832781912
 10
252.3300210901
 20
312.9271644511
 10
254.1115128287
 20
309.4170086596
 10
256.0103380192
 20
305.9598798033
 10
258.0226726801
 20
302.5627400796
 10
260.1444642375
 20
299.2324308759
 10
262.3714396854
 20
295.9756589917
 10
264.6991141917
 20
292.7989831322
 10
267.1228001297
 20
289.7088006996
 10
269.6376165184
 20
286.7113349103
 10
272.2384988524
 20
283.8126222615
 10
274.9202093007
 20
281.0185003745
 10
277.6773472554
 20
278.3345962391
 10
280.5043602076
 20
275.766314881
 10
283.3955549294
 20
273.3188284771
 10
286.3451089394
 20
270.9970659392
 10
289.3470822284
 20
268.8057029881
 10
292.3954292217
 20
266.7491527373
 10
295.4840109541
 20
264.8315568051
 10
298.606607433
 20
263.0567769746
 10
301.7569301648
 20
261.4283874162
 10
304.9286348186
 20
259.9496674898
 10
308.1153340034
 20
258.6235951404
 10
311.3106101311
 20
257.4528409014
 10
314.5080283409
 20
256.4397625159
 10
317.701149458
 20
255.586400189
 10
320.8835429614
 20
254.8944724789
 10
324.0487999341
 20
254.3653728359
 10
327.1905459699
 20
254.0001667962
 10
330.3024540102
 20
253.7995898362
 10
333.3782570865
 20
253.7640458912
 10
336.4117609407
 20
253.893606542
 10
339.3968564998
 20
254.1880108707
 10
342.3275321785
 20
254.6466659862
 10
345.1978859861
 20
255.268648218
 10
348.0021374119
 20
256.0527049768
 10
350.7346390669
 20
256.9972572765
 10
353.3898880563
 20
258.1004029146
 10
355.962537062
 20
259.3599203025
 10
356.748158839
 20
259.7848810944
  0
LINE
  5
1DA
330
1F
100
AcDbEntity
  8
0
  6
Continuous
 62
     7
100
AcDbLine
 10
339.2997078215
 20
224.716351267
 30
0.0
 11
344.5815471373
 21
227.9851576345
 31
0.0
  0
LINE
  5
1DB
330
1F
100
AcDbEntity
  8
0
  6
Continuous
 62
     7
100
AcDbLine
 10
344.5815471373
 20
227.9851576345
 30
0.0
 11
404.443142185
 21
278.6805236688
 31
0.0
  0
LINE
  5
1DC
330
1F
100
AcDbEntity
  8
0
  6
Continuous
 62
     7
100
AcDbLine
 10
666.3195004192
 20
474.8085178603
 30
0.0
 11
663.7352994461
 21
570.8591321664
 31
0.0
  0
LINE
  5
1DD
330
1F
100
AcDbEntity
  8
0
  6
Continuous
 62
     7
100
AcDbLine
 10
663.7352994461
 20
570.8591321664
 30
0.0
 11
669.0171387619
 21
574.127938534
 31
0.0
  0
LINE
  5
1DE
330
1F
100
AcDbEntity
  8
0
  6
Continuous
 62
     7
100
AcDbLine
 10
671.601339735
 20
478.0773242279
 30
0.0
 11
669.0171387619
 21
574.127938534
 31
0.0
  0
LINE
  5
1DF
330
1F
100
AcDbEntity
  8
0
  6
Continuous
 62
     7
100
AcDbLine
 10
663.7352994461
 20
570.8591321664
 30
0.0
 11
532.8774
 21
609.0778956489
 31
0.0
  0
LINE
  5
1E0
330
1F
100
AcDbEntity
  8
0
  6
Continuous
 62
     7
100
AcDbLine
 10
486.5686326202
 20
425.8905795021
 30
0.0
 11
554.9877162157
 21
405.9078899992
 31
0.0
  0
LINE
  5
1E1
330
1F
100
AcDbEntity
  8
0
  6
Continuous
 62
     7
100
AcDbLine
 10
482.4792162062
 20
577.8876427369
 30
0.0
 11
484.9653590192
 21
485.4816933024
 31
0.0
  0
LINE
  5
1E2
330
1F
100
AcDbEntity
  8
0
  6
Continuous
 62
     7
100
AcDbLine
 10
486.1225393501
 20
442.4711524039
 30
0.0
 11
486.5686326202
 21
425.8905795021
 31
0.0
  0
LINE
  5
1E3
330
1F
100
AcDbEntity
  8
0
  6
Continuous
 62
     7
100
AcDbLine
 10
669.0171387619
 20
574.127938534
 30
0.0
 11
538.1592393158
 21
612.3467020165
 31
0.0
  0
LINE
  5
1E4
330
1F
100
AcDbEntity
  8
0
  6
Continuous
 62
     8
370
     0
100
AcDbLine
 10
462.2488707762
 20
147.255049838
 30
0.0
 11
462.3458595067
 21
143.6501339507
 31
0.0
  0
ARC
  5
1E5
330
1F
100
AcDbEntity
  8
0
  6
Continuous
 62
     8
370
     0
100
AcDbCircle
 10
458.0375683965
 20
152.3359804916
 30
0.0
 40
9.695633162507535
100
AcDbArc
 50
253.9989439313
 51
296.3820003181
  0
LINE
  5
1E6
330
1F
100
AcDbEntity
  8
0
  6
Continuous
 62
     8
370
     0
100
AcDbLine
 10
455.3649179232
 20
143.015988975
 30
0.0
 11
455.2679291927
 21
146.6209048623
 31
0.0
  0
ARC
  5
1E7
330
1F
100
AcDbEntity
  8
0
  6
Continuous
 62
     8
370
     0
100
AcDbCircle
 10
459.0420069312
 20
143.3122173345
 30
0.0
 40
3.321088598706583
100
AcDbArc
 50
304.6556425283
 51
5.8398802342
  0
LWPOLYLINE
  5
1E8
330
1F
100
AcDbEntity
  8
0
  6
Continuous
 62
     8
370
     0
100
AcDbPolyline
 90
        7
 70
   128
 43
0.0
 10
455.3649179232
 20
143.015988975
 10
455.4449526884
 20
142.1717777221
 10
455.6346773863
 20
141.4297970318
 10
455.9268010031
 20
140.8185608058
 10
456.310097392
 20
140.3615585096
 10
456.7698366877
 20
140.076352485
 10
456.8975196946
 20
140.0325042696
  0
LINE
  5
1E9
330
1F
100
AcDbEntity
  8
0
  6
Continuous
 62
     8
370
     0
100
AcDbLine
 10
266.2923439372
 20
201.8136996987
 30
0.0
 11
266.3893326677
 21
198.2087838114
 31
0.0
  0
LINE
  5
1EA
330
1F
100
AcDbEntity
  8
0
  6
Continuous
 62
     8
370
     0
100
AcDbLine
 10
266.3893326677
 20
198.2087838114
 30
0.0
 11
455.3649179232
 21
143.015988975
 31
0.0
  0
LINE
  5
1EB
330
1F
100
AcDbEntity
  8
0
  6
Continuous
 62
     8
370
     0
100
AcDbLine
 10
462.3458595067
 20
143.6501339507
 30
0.0
 11
560.5247748329
 21
204.4107600117
 31
0.0
  0
LWPOLYLINE
  5
1EC
330
1F
100
AcDbEntity
  8
0
  6
Continuous
 62
     8
370
     0
100
AcDbPolyline
 90
        7
 70
   128
 43
0.0
 10
266.3893326677
 20
198.2087838114
 10
266.4693674329
 20
197.3645725585
 10
266.6590921308
 20
196.6225918682
 10
266.9512157476
 20
196.0113556422
 10
267.3345121365
 20
195.554353346
 10
267.7942514323
 20
195.2691473214
 10
267.9219344391
 20
195.225299106
  0
LWPOLYLINE
  5
1ED
330
1F
100
AcDbEntity
  8
0
  6
Continuous
 62
     8
370
     0
100
AcDbPolyline
 90
        6
 70
   128
 43
0.0
 10
266.3893326677
 20
198.2087838114
 10
265.6562656342
 20
198.4742469776
 10
265.0641355795
 20
198.7992965406
 10
264.6356977294
 20
199.1714410282
 10
264.3874167104
 20
199.5763791363
 10
264.3254965017
 20
199.8903131343
  0
LWPOLYLINE
  5
1EE
330
1F
100
AcDbEntity
  8
0
  6
Continuous
 62
     8
370
     0
100
AcDbPolyline
 90
        9
 70
   128
 43
0.0
 10
444.1060384549
 20
561.4905196286
 10
444.1387693135
 20
562.404518879
 10
444.2830079673
 20
563.3531816483
 10
444.5332114058
 20
564.3000513583
 10
444.8797644511
 20
565.208740337
 10
445.3093492641
 20
566.0443281767
 10
445.8054571413
 20
566.7747037051
 10
446.3490229352
 20
567.3717990005
 10
446.9191577173
 20
567.8126680253
  0
ARC
  5
1EF
330
1F
100
AcDbEntity
  8
0
  6
Continuous
 62
     8
370
     0
100
AcDbCircle
 10
444.7815588157
 20
561.8754009696
 30
0.0
 40
6.310346199290648
100
AcDbArc
 50
2.2638172959
 51
70.1995623262
  0
ARC
  5
1F0
330
1F
100
AcDbEntity
  8
0
  6
Continuous
 62
     8
370
     0
100
AcDbCircle
 10
446.7786889282
 20
570.8105111452
 30
0.0
 40
9.695633162507841
100
AcDbArc
 50
253.9989439313
 51
296.3820003181
  0
LINE
  5
1F1
330
1F
100
AcDbEntity
  8
0
  6
Continuous
 62
     8
370
     0
100
AcDbLine
 10
444.2030271854
 20
557.8856037413
 30
0.0
 11
444.1060384549
 21
561.4905196286
 31
0.0
  0
LINE
  5
1F2
330
1F
100
AcDbEntity
  8
0
  6
Continuous
 62
     8
370
     0
100
AcDbLine
 10
451.0869800384
 20
562.1246646044
 30
0.0
 11
451.1839687689
 21
558.5197487171
 31
0.0
  0
LINE
  5
1F3
330
1F
100
AcDbEntity
  8
0
  6
Continuous
 62
     8
370
     0
100
AcDbLine
 10
444.1060384549
 20
561.4905196286
 30
0.0
 11
255.1304531994
 21
616.683314465
 31
0.0
  0
LWPOLYLINE
  5
1F4
330
1F
100
AcDbEntity
  8
0
  6
Continuous
 62
     8
370
     0
100
AcDbPolyline
 90
        9
 70
   128
 43
0.0
 10
255.1304531994
 20
616.683314465
 10
255.163184058
 20
617.5973137154
 10
255.3074227118
 20
618.5459764847
 10
255.5576261503
 20
619.4928461947
 10
255.9041791956
 20
620.4015351734
 10
256.3337640086
 20
621.2371230131
 10
256.8298718858
 20
621.9674985415
 10
257.3734376798
 20
622.5645938369
 10
257.9435724618
 20
623.0054628617
  0
LINE
  5
1F5
330
1F
100
AcDbEntity
  8
0
  6
Continuous
 62
     8
370
     0
100
AcDbLine
 10
257.9435724618
 20
623.0054628617
 30
0.0
 11
446.9191577173
 21
567.8126680253
 31
0.0
  0
LINE
  5
1F6
330
1F
100
AcDbEntity
  8
0
  6
Continuous
 62
     8
370
     0
100
AcDbLine
 10
446.9191577173
 20
567.8126680253
 30
0.0
 11
618.285499963
 21
673.8672746182
 31
0.0
  0
ARC
  5
1F7
330
1F
100
AcDbEntity
  8
0
  6
Continuous
 62
     8
370
     0
100
AcDbCircle
 10
616.1479010615
 20
667.9300075624
 30
0.0
 40
6.310346199291043
100
AcDbArc
 50
2.2638172959
 51
70.1995623262
  0
LINE
  5
1F8
330
1F
100
AcDbEntity
  8
0
  6
Continuous
 62
     8
370
     0
100
AcDbLine
 10
622.4533222841
 20
668.1792711972
 30
0.0
 11
451.0869800384
 21
562.1246646044
 31
0.0
  0
LINE
  5
1F9
330
1F
100
AcDbEntity
  8
0
  6
Continuous
 62
     8
370
     0
100
AcDbLine
 10
255.1304531994
 20
616.683314465
 30
0.0
 11
255.2274419299
 21
613.0783985777
 31
0.0
  0
LINE
  5
1FA
330
1F
100
AcDbEntity
  8
0
  6
Continuous
 62
     8
370
     0
100
AcDbLine
 10
622.5503110146
 20
664.5743553099
 30
0.0
 11
622.4533222841
 21
668.1792711972
 31
0.0
  0
LINE
  5
1FB
330
1F
100
AcDbEntity
  8
0
  6
Continuous
 62
     8
370
     0
100
AcDbLine
 10
429.3099147075
 20
729.0600694546
 30
0.0
 11
257.9435724618
 21
623.0054628617
 31
0.0
  0
LINE
  5
1FC
330
1F
100
AcDbEntity
  8
0
  6
Continuous
 62
     8
370
     0
100
AcDbLine
 10
618.285499963
 20
673.8672746182
 30
0.0
 11
429.3099147075
 21
729.0600694546
 31
0.0
  0
ARC
  5
1FD
330
1F
100
AcDbEntity
  8
0
  6
Continuous
 62
     8
370
     0
100
AcDbCircle
 10
256.9677603596
 20
620.1245952856
 30
0.0
 40
3.041645483950976
100
AcDbArc
 50
71.2876488297
 51
120.2913819379
  0
LWPOLYLINE
  5
1FE
330
1F
100
AcDbEntity
  8
0
  6
Continuous
 62
     8
370
     0
100
AcDbPolyline
 90
        6
 70
   128
 43
0.0
 10
253.0666170334
 20
618.3648437879
 10
253.1285372421
 20
618.05090979
 10
253.3768182611
 20
617.6459716819
 10
253.8052561112
 20
617.2738271943
 10
254.3973861659
 20
616.9487776312
 10
255.1304531994
 20
616.683314465
  0
ARC
  5
1FF
330
1F
100
AcDbEntity
  8
0
  6
Continuous
 62
     8
370
     0
100
AcDbCircle
 10
428.3341026054
 20
726.1792018784
 30
0.0
 40
3.04164548395193
100
AcDbArc
 50
71.2876488297
 51
120.2913819378
  0
ARC
  5
200
330
1F
100
AcDbEntity
  8
0
  6
Continuous
 62
     8
370
     0
100
AcDbCircle
 10
619.3680010669
 20
672.3473350486
 30
0.0
 40
1.866018471261698
100
AcDbArc
 50
76.3460153994
 51
125.45847315
  0
ARC
  5
201
330
1F
100
AcDbEntity
  8
0
  6
Continuous
 62
     8
370
     0
100
AcDbCircle
 10
621.8399897894
 20
669.6247963909
 30
0.0
 40
1.570261072125086
100
AcDbArc
 50
292.991383272
 51
355.2806848959
  0
ARC
  5
202
330
1F
100
AcDbEntity
  8
0
  6
Continuous
 62
     8
370
     0
100
AcDbCircle
 10
430.3924158114
 20
727.540129885
 30
0.0
 40
1.86601847126189
100
AcDbArc
 50
76.3460153994
 51
125.45847315
  0
LINE
  5
203
330
1F
100
AcDbEntity
  8
0
  6
Continuous
 62
     8
370
     0
100
AcDbLine
 10
157.1289903451
 20
518.9241396703
 30
0.0
 11
162.4633705218
 21
320.6537658685
 31
0.0
  0
LINE
  5
204
330
1F
100
AcDbEntity
  8
0
  6
Continuous
 62
     8
370
     0
100
AcDbLine
 10
561.7110714976
 20
403.4336641387
 30
0.0
 11
567.0454516742
 21
205.1632903368
 31
0.0
  0
LINE
  5
205
330
1F
100
AcDbEntity
  8
0
  6
Continuous
 62
     8
370
     0
100
AcDbLine
 10
560.0645100908
 20
204.5291453611
 30
0.0
 11
554.7301299141
 21
402.7995191629
 31
0.0
  0
LINE
  5
206
330
1F
100
AcDbEntity
  8
0
  6
Continuous
 62
     8
370
     0
100
AcDbLine
 10
738.41179392
 20
311.2178969297
 30
0.0
 11
733.0774137433
 21
509.4882707315
 31
0.0
  0
INSERT
  5
20C
330
1F
100
AcDbEntity
  8
SLD-0_0
100
AcDbBlockReference
  2
SW_NOTE_9
 10
326.1537204404
 20
763.321291487
 30
0.0
  0
LEADER
  5
216
330
1F
100
AcDbEntity
  8
SLD-0_0
100
AcDbLeader
  3
SLDDIMSTYLE0
 76
     2
 10
424.3456731734
 20
661.5213972054
 30
0.0
 10
326.1537204404
 20
763.321291487
 30
0.0
  0
INSERT
  5
21C
330
1F
100
AcDbEntity
  8
SLD-0_0
100
AcDbBlockReference
  2
SW_NOTE_10
 10
396.0573813858
 20
442.4244543513
 30
0.0
  0
LEADER
  5
21D
330
1F
100
AcDbEntity
  8
SLD-0_0
100
AcDbLeader
  3
SLDDIMSTYLE0
 76
     2
 10
466.8555404954
 20
381.15870082
 30
0.0
 10
396.0573813858
 20
442.4244543513
 30
0.0
  0
INSERT
  5
223
330
1F
100
AcDbEntity
  8
SLD-0_0
100
AcDbBlockReference
  2
SW_NOTE_11
 10
702.5331330118
 20
633.9123347236
 30
0.0
  0
LEADER
  5
224
330
1F
100
AcDbEntity
  8
SLD-0_0
100
AcDbLeader
  3
SLDDIMSTYLE0
 76
     2
 10
621.7129143112
 20
537.0282143339
 30
0.0
 10
702.5331330118
 20
633.9123347236
 30
0.0
  0
INSERT
  5
22A
330
1F
100
AcDbEntity
  8
SLD-0_0
100
AcDbBlockReference
  2
SW_NOTE_12
 10
521.901644318
 20
373.8202841027
 30
0.0
  0
LEADER
  5
22B
330
1F
100
AcDbEntity
  8
SLD-0_0
100
AcDbLeader
  3
SLDDIMSTYLE0
 76
     2
 10
526.5717826858
 20
453.0206193881
 30
0.0
 10
521.901644318
 20
373.8202841027
 30
0.0
  0
INSERT
  5
231
330
1F
100
AcDbEntity
  8
SLD-0_0
100
AcDbBlockReference
  2
SW_NOTE_13
 10
782.4160996048
 20
448.4850265262
 30
0.0
  0
LEADER
  5
232
330
1F
100
AcDbEntity
  8
SLD-0_0
100
AcDbLeader
  3
SLDDIMSTYLE0
 76
     2
 10
645.8169969311
 20
402.7111549695
 30
0.0
 10
782.4160996048
 20
448.4850265262
 30
0.0
  0
INSERT
  5
238
330
1F
100
AcDbEntity
  8
SLD-0_0
100
AcDbBlockReference
  2
SW_NOTE_14
 10
78.6441242704
 20
325.6234728133
 30
0.0
  0
LEADER
  5
239
330
1F
100
AcDbEntity
  8
SLD-0_0
100
AcDbLeader
  3
SLDDIMSTYLE0
 76
     2
 10
235.7271408671
 20
427.7990049875
 30
0.0
 10
78.6441242704
 20
325.6234728133
 30
0.0
  0
INSERT
  5
23F
102
{ACAD_REACTORS
330
240
102
}
330
1F
100
AcDbEntity
  8
SLD-0_0
100
AcDbBlockReference
  2
SW_NOTE_15
 10
194.5989107046
 20
160.3052747369
 30
0.0
  0
LEADER
  5
240
330
1F
100
AcDbEntity
  8
SLD-0_0
100
AcDbLeader
  3
SLDDIMSTYLE0
 73
     2
 76
     2
 10
393.9735794424
 20
208.7627759839
 30
0.0
 10
194.5989107046
 20
160.3052747369
 30
0.0
340
23F
  0
INSERT
  5
246
330
1F
100
AcDbEntity
  8
SLD-0_0
100
AcDbBlockReference
  2
SW_NOTE_16
 10
136.1237462085
 20
633.3061606974
 30
0.0
  0
LEADER
  5
247
330
1F
100
AcDbEntity
  8
SLD-0_0
100
AcDbLeader
  3
SLDDIMSTYLE0
 76
     2
 10
226.0779677833
 20
512.7117281255
 30
0.0
 10
136.1237462085
 20
633.3061606974
 30
0.0
  0
INSERT
  5
24D
330
1F
100
AcDbEntity
  8
SLD-0_0
100
AcDbBlockReference
  2
SW_NOTE_17
 10
130.7543512551
 20
240.217357085
 30
0.0
  0
LEADER
  5
24E
330
1F
100
AcDbEntity
  8
SLD-0_0
100
AcDbLeader
  3
SLDDIMSTYLE0
 76
     2
 10
317.3447129625
 20
325.3069501782
 30
0.0
 10
130.7543512551
 20
240.217357085
 30
0.0
  0
LINE
  5
24F
330
1F
100
AcDbEntity
  8
0
  6
Continuous
 62
     7
100
AcDbLine
 10
722.166795437
 20
1547.5106181236
 30
0.0
 11
118.166795437
 21
1547.5106181236
 31
0.0
  0
LINE
  5
250
330
1F
100
AcDbEntity
  8
0
  6
Continuous
 62
     7
100
AcDbLine
 10
722.166795437
 20
1060.5106181236
 30
0.0
 11
722.166795437
 21
1547.5106181236
 31
0.0
  0
LINE
  5
251
330
1F
100
AcDbEntity
  8
0
  6
Continuous
 62
     7
100
AcDbLine
 10
118.166795437
 20
1060.5106181236
 30
0.0
 11
722.166795437
 21
1060.5106181236
 31
0.0
  0
LINE
  5
252
330
1F
100
AcDbEntity
  8
0
  6
Continuous
 62
     7
100
AcDbLine
 10
118.166795437
 20
1547.5106181236
 30
0.0
 11
118.166795437
 21
1060.5106181236
 31
0.0
  0
DIMENSION
  5
253
330
1F
100
AcDbEntity
  8
SLD-0_0
 62
     7
100
AcDbDimension
  2
_D
 10
722.166795437
 20
1008.5106181236
 30
0.0
 11
394.1501535191
 21
1008.5106181236
 31
0.0
 70
   160
  1
<>
 71
     2
 42
-1.0
  3
SLDDIMSTYLE1
100
AcDbAlignedDimension
 13
118.166795437
 23
1060.5106181236
 33
0.0
 14
722.166795437
 24
1060.5106181236
 34
0.0
100
AcDbRotatedDimension
  0
DIMENSION
  5
25E
330
1F
100
AcDbEntity
  8
SLD-0_0
 62
     7
100
AcDbDimension
  2
_D_1
 10
767.166795437
 20
1547.5106181236
 30
0.0
 11
767.166795437
 21
1291.4024936019
 31
0.0
 70
   160
  1
<>
 71
     2
 42
-1.0
  3
SLDDIMSTYLE1
100
AcDbAlignedDimension
 13
722.166795437
 23
1060.5106181236
 33
0.0
 14
722.166795437
 24
1547.5106181236
 34
0.0
 50
90.0
100
AcDbRotatedDimension
  0
LINE
  5
268
330
1F
100
AcDbEntity
  8
0
  6
Continuous
 62
     7
100
AcDbLine
 10
2211.8992710213
 20
1082.1237855746
 30
0.0
 11
1607.8992710213
 21
1082.1237855746
 31
0.0
  0
LINE
  5
269
330
1F
100
AcDbEntity
  8
0
  6
Continuous
 62
     7
100
AcDbLine
 10
2211.8992710213
 20
1522.1237855746
 30
0.0
 11
2211.8992710213
 21
1082.1237855746
 31
0.0
  0
LINE
  5
26A
330
1F
100
AcDbEntity
  8
0
  6
Continuous
 62
     7
100
AcDbLine
 10
1607.8992710213
 20
1522.1237855746
 30
0.0
 11
2211.8992710213
 21
1522.1237855746
 31
0.0
  0
LINE
  5
26B
330
1F
100
AcDbEntity
  8
0
  6
Continuous
 62
     7
100
AcDbLine
 10
1607.8992710213
 20
1082.1237855746
 30
0.0
 11
1607.8992710213
 21
1522.1237855746
 31
0.0
  0
DIMENSION
  5
26C
330
1F
100
AcDbEntity
  8
SLD-0_0
 62
     7
100
AcDbDimension
  2
_D_2
 10
1607.8992710213
 20
1058.1237855746
 30
0.0
 11
1945.2908742709
 21
1058.1237855746
 31
0.0
 70
   160
  1
<>
 71
     2
 42
-1.0
  3
SLDDIMSTYLE1
100
AcDbAlignedDimension
 13
2211.8992710213
 23
1082.1237855746
 33
0.0
 14
1607.8992710213
 24
1082.1237855746
 34
0.0
 50
0.0
100
AcDbRotatedDimension
  0
DIMENSION
  5
276
330
1F
100
AcDbEntity
  8
SLD-0_0
 62
     7
100
AcDbDimension
  2
_D_3
 10
2235.8992710213
 20
1082.1237855746
 30
0.0
 11
2235.8992710213
 21
1296.732773499
 31
0.0
 70
   160
  1
<>
 71
     2
 42
-1.0
  3
SLDDIMSTYLE1
100
AcDbAlignedDimension
 13
2211.8992710213
 23
1522.1237855746
 33
0.0
 14
2211.8992710213
 24
1082.1237855746
 34
0.0
 50
90.0
100
AcDbRotatedDimension
  0
LINE
  5
280
330
1F
100
AcDbEntity
  8
0
  6
Continuous
 62
     7
100
AcDbLine
 10
978.9666451057
 20
1524.0106181236
 30
0.0
 11
1429.9666451057
 21
1524.0106181236
 31
0.0
  0
LINE
  5
281
330
1F
100
AcDbEntity
  8
0
  6
Continuous
 62
     7
100
AcDbLine
 10
978.9666451057
 20
1084.0106181236
 30
0.0
 11
978.9666451057
 21
1524.0106181236
 31
0.0
  0
LINE
  5
282
330
1F
100
AcDbEntity
  8
0
  6
Continuous
 62
     7
100
AcDbLine
 10
1429.9666451057
 20
1084.0106181236
 30
0.0
 11
978.9666451057
 21
1084.0106181236
 31
0.0
  0
LINE
  5
283
330
1F
100
AcDbEntity
  8
0
  6
Continuous
 62
     7
100
AcDbLine
 10
1429.9666451057
 20
1524.0106181236
 30
0.0
 11
1429.9666451057
 21
1084.0106181236
 31
0.0
  0
DIMENSION
  5
284
330
1F
100
AcDbEntity
  8
SLD-0_0
 62
     7
100
AcDbDimension
  2
_D_4
 10
978.9666451057
 20
1060.0106181236
 30
0.0
 11
1196.3336054627
 21
1060.0106181236
 31
0.0
 70
   160
  1
<>
 71
     2
 42
-1.0
  3
SLDDIMSTYLE1
100
AcDbAlignedDimension
 13
1429.9666451057
 23
1084.0106181236
 33
0.0
 14
978.9666451057
 24
1084.0106181236
 34
0.0
100
AcDbRotatedDimension
  0
DIMENSION
  5
28E
330
1F
100
AcDbEntity
  8
SLD-0_0
 62
     7
100
AcDbDimension
  2
_D_5
 10
1453.9666451057
 20
1084.0106181236
 30
0.0
 11
1453.9666451057
 21
1296.732773499
 31
0.0
 70
   160
  1
<>
 71
     2
 42
-1.0
  3
SLDDIMSTYLE1
100
AcDbAlignedDimension
 13
1429.9666451057
 23
1524.0106181236
 33
0.0
 14
1429.9666451057
 24
1084.0106181236
 34
0.0
 50
90.0
100
AcDbRotatedDimension
  0
LINE
  5
298
330
1F
100
AcDbEntity
  8
0
  6
Continuous
 62
     7
100
AcDbLine
 10
1269.8808200609
 20
382.0650381397
 30
0.0
 11
1422.3808200609
 21
534.5650381397
 31
0.0
  0
LINE
  5
299
330
1F
100
AcDbEntity
  8
0
  6
Continuous
 62
     7
100
AcDbLine
 10
1123.8808200609
 20
382.0650381397
 30
0.0
 11
1269.8808200609
 21
382.0650381397
 31
0.0
  0
LINE
  5
29A
330
1F
100
AcDbEntity
  8
0
  6
Continuous
 62
     7
100
AcDbLine
 10
971.3808200609
 20
534.5650381397
 30
0.0
 11
1123.8808200609
 21
382.0650381397
 31
0.0
  0
LINE
  5
29B
330
1F
100
AcDbEntity
  8
0
  6
Continuous
 62
     7
100
AcDbLine
 10
1422.3808200609
 20
822.0650381397
 30
0.0
 11
971.3808200609
 21
822.0650381397
 31
0.0
  0
LINE
  5
29C
330
1F
100
AcDbEntity
  8
0
  6
Continuous
 62
     7
100
AcDbLine
 10
1422.3808200609
 20
534.5650381397
 30
0.0
 11
1422.3808200609
 21
822.0650381397
 31
0.0
  0
LINE
  5
29D
330
1F
100
AcDbEntity
  8
0
  6
Continuous
 62
     7
100
AcDbLine
 10
971.3808200609
 20
822.0650381397
 30
0.0
 11
971.3808200609
 21
534.5650381397
 31
0.0
  0
CIRCLE
  5
29E
330
1F
100
AcDbEntity
  8
0
  6
Continuous
 62
     7
100
AcDbCircle
 10
1196.8808200609
 20
602.0650381397
 30
0.0
 40
197.0
  0
CIRCLE
  5
29F
330
1F
100
AcDbEntity
  8
0
  6
Continuous
 62
     7
100
AcDbCircle
 10
1125.5103599248
 20
774.368570953
 30
0.0
 40
3.300000000000182
  0
CIRCLE
  5
2A0
330
1F
100
AcDbEntity
  8
0
  6
Continuous
 62
     7
100
AcDbCircle
 10
1268.251280197
 20
774.368570953
 30
0.0
 40
3.300000000000182
  0
CIRCLE
  5
2A1
330
1F
100
AcDbEntity
  8
0
  6
Continuous
 62
     7
100
AcDbCircle
 10
1369.1843528743
 20
673.4354982758
 30
0.0
 40
3.299999999999955
  0
CIRCLE
  5
2A2
330
1F
100
AcDbEntity
  8
0
  6
Continuous
 62
     7
100
AcDbCircle
 10
1369.1843528743
 20
530.6945780036
 30
0.0
 40
3.299999999999955
  0
CIRCLE
  5
2A3
330
1F
100
AcDbEntity
  8
0
  6
Continuous
 62
     7
100
AcDbCircle
 10
1268.251280197
 20
429.7615053263
 30
0.0
 40
3.299999999999955
  0
CIRCLE
  5
2A4
330
1F
100
AcDbEntity
  8
0
  6
Continuous
 62
     7
100
AcDbCircle
 10
1125.5103599248
 20
429.7615053263
 30
0.0
 40
3.300000000000182
  0
CIRCLE
  5
2A5
330
1F
100
AcDbEntity
  8
0
  6
Continuous
 62
     7
100
AcDbCircle
 10
1024.5772872475
 20
530.6945780036
 30
0.0
 40
3.300000000000182
  0
CIRCLE
  5
2A6
330
1F
100
AcDbEntity
  8
0
  6
Continuous
 62
     7
100
AcDbCircle
 10
1024.5772872476
 20
673.4354982758
 30
0.0
 40
3.300000000000182
  0
CIRCLE
  5
2A7
330
1F
100
AcDbEntity
  8
0
  6
Continuous
 62
     7
100
AcDbCircle
 10
1196.8808200609
 20
602.0650381397
 30
0.0
 40
176.0000000000002
  0
DIMENSION
  5
2A8
330
1F
100
AcDbEntity
  8
SLD-0_0
 62
     7
100
AcDbDimension
  2
_D_6
 10
971.3808200609
 20
853.0650381397
 30
0.0
 11
1202.8792520854
 21
853.0650381397
 31
0.0
 70
   160
  1
<>
 71
     2
 42
-1.0
  3
SLDDIMSTYLE1
100
AcDbAlignedDimension
 13
1422.3808200609
 23
822.0650381397
 33
0.0
 14
971.3808200609
 24
822.0650381397
 34
0.0
100
AcDbRotatedDimension
  0
DIMENSION
  5
2B2
330
1F
100
AcDbEntity
  8
SLD-0_0
 62
     7
100
AcDbDimension
  2
_D_7
 10
1269.8808200609
 20
358.0650381397
 30
0.0
 11
1198.3739382207
 21
358.0650381397
 31
0.0
 70
   160
  1
<>
 71
     2
 42
-1.0
  3
SLDDIMSTYLE1
100
AcDbAlignedDimension
 13
1123.8808200609
 23
382.0650381397
 33
0.0
 14
1269.8808200609
 24
382.0650381397
 34
0.0
100
AcDbRotatedDimension
  0
DIMENSION
  5
2BC
330
1F
100
AcDbEntity
  8
SLD-0_0
 62
     7
100
AcDbDimension
  2
_D_8
 10
1481.3808200609
 20
822.0650381397
 30
0.0
 11
1481.3808200609
 21
682.903867149
 31
0.0
 70
   160
  1
<>
 71
     2
 42
-1.0
  3
SLDDIMSTYLE2
100
AcDbAlignedDimension
 13
1422.3808200609
 23
534.5650381397
 33
0.0
 14
1422.3808200609
 24
822.0650381397
 34
0.0
 50
90.0
100
AcDbRotatedDimension
  0
DIMENSION
  5
2C7
330
1F
100
AcDbEntity
  8
SLD-0_0
 62
     7
100
AcDbDimension
  2
_D_9
 10
1523.3808200609
 20
382.0650381397
 30
0.0
 11
1523.3808200609
 21
616.3903551118
 31
0.0
 70
   160
  1
<>
 71
     2
 42
-1.0
  3
SLDDIMSTYLE1
100
AcDbAlignedDimension
 13
1422.3808200609
 23
822.0650381397
 33
0.0
 14
1269.8808200609
 24
382.0650381397
 34
0.0
 50
90.0
100
AcDbRotatedDimension
  0
DIMENSION
  5
2D1
330
1F
100
AcDbEntity
  8
SLD-0_0
 62
     7
100
AcDbDimension
  2
_D_10
 10
933.3808200609
 20
602.0650381397
 30
0.0
 11
933.3808200609
 21
708.7835632413
 31
0.0
 70
   160
  1
<>
 71
     2
 42
-1.0
  3
SLDDIMSTYLE1
100
AcDbAlignedDimension
 13
971.3808200609
 23
822.0650381397
 33
0.0
 14
1007.8808200609
 24
602.0650381397
 34
0.0
 50
90.0
100
AcDbRotatedDimension
  0
DIMENSION
  5
2DB
330
1F
100
AcDbEntity
  8
SLD-0_0
 62
     7
100
AcDbDimension
  2
_D_11
 10
1379.0860143656
 20
641.8584693614
 30
0.0
 11
1262.4732427342
 21
616.3903651118
 31
0.0
 70
   163
  1
<>
 71
     1
 42
-1.0
  3
SLDDIMSTYLE3
100
AcDbDiametricDimension
 15
1014.6756257562
 25
562.271606918
 35
0.0
 40
0.0
  0
DIMENSION
  5
2E6
330
1F
100
AcDbEntity
  8
SLD-0_0
 62
     7
100
AcDbDimension
  2
_D_12
 10
1125.1403770333
 20
777.647764857
 30
0.0
 11
1155.6640296138
 21
757.0674183563
 31
0.0
 70
   163
  1
<>
 71
     1
 42
-1.0
  3
SLDDIMSTYLE4
100
AcDbDiametricDimension
 15
1125.8803428163
 25
771.089377049
 35
0.0
 40
0.0
  0
DIMENSION
  5
2F4
330
1F
100
AcDbEntity
  8
SLD-0_0
 62
     7
100
AcDbDimension
  2
_D_13
 10
1422.3808200609
 20
358.0650381397
 30
0.0
 11
1339.1031247982
 21
358.0650381397
 31
0.0
 70
   160
  1
<>
 71
     2
 42
-1.0
  3
SLDDIMSTYLE2
100
AcDbAlignedDimension
 13
1269.8808200609
 23
382.0650381397
 33
0.0
 14
1422.3808200609
 24
534.5650381397
 34
0.0
100
AcDbRotatedDimension
  0
DIMENSION
  5
2FE
330
1F
100
AcDbEntity
  8
SLD-0_0
 62
     7
100
AcDbDimension
  2
_D_14
 10
1481.3808200609
 20
534.5650381397
 30
0.0
 11
1481.3808200609
 21
459.4775726033
 31
0.0
 70
   160
  1
<>
 71
     2
 42
-1.0
  3
SLDDIMSTYLE2
100
AcDbAlignedDimension
 13
1269.8808200609
 23
382.0650381397
 33
0.0
 14
1422.3808200609
 24
534.5650381397
 34
0.0
 50
90.0
100
AcDbRotatedDimension
  0
DIMENSION
  5
308
330
1F
100
AcDbEntity
  8
SLD-0_0
 62
     7
100
AcDbDimension
  2
_D_15
 10
1034.6868794117
 20
670.3960385472
 30
0.0
 11
1118.713883602
 21
634.9961528959
 31
0.0
 70
   163
  1
<>
 71
     1
 42
-1.0
  3
SLDDIMSTYLE3
100
AcDbDiametricDimension
 15
1359.0747607101
 25
533.7340377322
 35
0.0
 40
0.0
  0
INSERT
  5
354
330
1F
100
AcDbEntity
  8
SLD-0_0
 62
     7
100
AcDbBlockReference
  2
SW_CENTERMARKSYMBOL_0
 10
1125.5103599248
 20
774.368570953
 30
0.0
  0
LINE
  5
355
330
1F
100
AcDbEntity
  8
0
  6
Continuous
 62
     7
100
AcDbLine
 10
1961.5785264833
 20
710.5334003146
 30
0.0
 11
1745.0785264833
 21
710.5334003146
 31
0.0
  0
LINE
  5
356
330
1F
100
AcDbEntity
  8
0
  6
Continuous
 62
     7
100
AcDbLine
 10
1961.5785264833
 20
645.5334003146
 30
0.0
 11
1961.5785264833
 21
710.5334003146
 31
0.0
  0
LINE
  5
357
330
1F
100
AcDbEntity
  8
0
  6
Continuous
 62
     7
100
AcDbLine
 10
1979.5785264833
 20
645.5334003146
 30
0.0
 11
1961.5785264833
 21
645.5334003146
 31
0.0
  0
LINE
  5
358
330
1F
100
AcDbEntity
  8
0
  6
Continuous
 62
     7
100
AcDbLine
 10
1979.5785264833
 20
710.5334003146
 30
0.0
 11
1979.5785264833
 21
645.5334003146
 31
0.0
  0
LINE
  5
359
330
1F
100
AcDbEntity
  8
0
  6
Continuous
 62
     7
100
AcDbLine
 10
2196.0785264833
 20
710.5334003146
 30
0.0
 11
1979.5785264833
 21
710.5334003146
 31
0.0
  0
LINE
  5
35A
330
1F
100
AcDbEntity
  8
0
  6
Continuous
 62
     7
100
AcDbLine
 10
2196.0785264833
 20
580.5334003146
 30
0.0
 11
2196.0785264833
 21
710.5334003146
 31
0.0
  0
LINE
  5
35B
330
1F
100
AcDbEntity
  8
0
  6
Continuous
 62
     7
100
AcDbLine
 10
1745.0785264833
 20
580.5334003146
 30
0.0
 11
2196.0785264833
 21
580.5334003146
 31
0.0
  0
LINE
  5
35C
330
1F
100
AcDbEntity
  8
0
  6
Continuous
 62
     7
100
AcDbLine
 10
1745.0785264833
 20
710.5334003146
 30
0.0
 11
1745.0785264833
 21
580.5334003146
 31
0.0
  0
DIMENSION
  5
35D
330
1F
100
AcDbEntity
  8
SLD-0_0
 62
     7
100
AcDbDimension
  2
_D_16
 10
2196.0785264833
 20
556.5334003146
 30
0.0
 11
1981.9065629682
 21
556.5334003146
 31
0.0
 70
   160
  1
<>
 71
     2
 42
-1.0
  3
SLDDIMSTYLE1
100
AcDbAlignedDimension
 13
1745.0785264833
 23
580.5334003146
 33
0.0
 14
2196.0785264833
 24
580.5334003146
 34
0.0
 50
0.0
100
AcDbRotatedDimension
  0
DIMENSION
  5
367
330
1F
100
AcDbEntity
  8
SLD-0_0
 62
     7
100
AcDbDimension
  2
_D_17
 10
2248.0785264833
 20
710.5334003146
 30
0.0
 11
2248.0785264833
 21
645.9959537119
 31
0.0
 70
   160
  1
<>
 71
     2
 42
-1.0
  3
SLDDIMSTYLE1
100
AcDbAlignedDimension
 13
2196.0785264833
 23
580.5334003146
 33
0.0
 14
2196.0785264833
 24
710.5334003146
 34
0.0
 50
90.0
100
AcDbRotatedDimension
  0
DIMENSION
  5
371
330
1F
100
AcDbEntity
  8
SLD-0_0
 62
     7
100
AcDbDimension
  2
_D_18
 10
2003.5431062893
 20
645.5334003146
 30
0.0
 11
2003.5431062893
 21
677.5947646176
 31
0.0
 70
   160
  1
<>
 71
     2
 42
-1.0
  3
SLDDIMSTYLE1
100
AcDbAlignedDimension
 13
1979.5785264833
 23
710.5334003146
 33
0.0
 14
1979.5785264833
 24
645.5334003146
 34
0.0
 50
90.0
100
AcDbRotatedDimension
  0
DIMENSION
  5
37A
330
1F
100
AcDbEntity
  8
SLD-0_0
 62
     7
100
AcDbDimension
  2
_D_19
 10
1979.5785264833
 20
727.5334003146
 30
0.0
 11
1969.3550313995
 21
727.5334003146
 31
0.0
 70
   160
  1
<>
 71
     2
 42
-1.0
  3
SLDDIMSTYLE5
100
AcDbAlignedDimension
 13
1961.5785264833
 23
710.5334003146
 33
0.0
 14
1979.5785264833
 24
710.5334003146
 34
0.0
100
AcDbRotatedDimension
  0
DIMENSION
  5
387
330
1F
100
AcDbEntity
  8
SLD-0_0
 62
     7
100
AcDbDimension
  2
_D_20
 10
2196.0785264833
 20
727.5334003146
 30
0.0
 11
2076.5476427851
 21
727.5334003146
 31
0.0
 70
   160
  1
<>
 71
     2
 42
-1.0
  3
SLDDIMSTYLE2
100
AcDbAlignedDimension
 13
1979.5785264833
 23
710.5334003146
 33
0.0
 14
2196.0785264833
 24
710.5334003146
 34
0.0
 50
0.0
100
AcDbRotatedDimension
  0
LINE
  5
391
330
1F
100
AcDbEntity
  8
0
  6
Continuous
 62
     7
100
AcDbLine
 10
1959.5332807681
 20
925.8165328285
 30
0.0
 11
1748.5332807681
 21
925.8165328285
 31
0.0
  0
LINE
  5
392
330
1F
100
AcDbEntity
  8
0
  6
Continuous
 62
     7
100
AcDbLine
 10
1959.5332807681
 20
860.8165328285
 30
0.0
 11
1959.5332807681
 21
925.8165328285
 31
0.0
  0
LINE
  5
393
330
1F
100
AcDbEntity
  8
0
  6
Continuous
 62
     7
100
AcDbLine
 10
1977.5332807681
 20
860.8165328285
 30
0.0
 11
1959.5332807681
 21
860.8165328285
 31
0.0
  0
LINE
  5
394
330
1F
100
AcDbEntity
  8
0
  6
Continuous
 62
     7
100
AcDbLine
 10
1977.5332807681
 20
925.8165328285
 30
0.0
 11
1977.5332807681
 21
860.8165328285
 31
0.0
  0
LINE
  5
395
330
1F
100
AcDbEntity
  8
0
  6
Continuous
 62
     7
100
AcDbLine
 10
1748.5332807681
 20
795.8165328285
 30
0.0
 11
2188.5332807681
 21
795.8165328285
 31
0.0
  0
LINE
  5
396
330
1F
100
AcDbEntity
  8
0
  6
Continuous
 62
     7
100
AcDbLine
 10
1748.5332807681
 20
925.8165328285
 30
0.0
 11
1748.5332807681
 21
795.8165328285
 31
0.0
  0
LINE
  5
397
330
1F
100
AcDbEntity
  8
0
  6
Continuous
 62
     7
100
AcDbLine
 10
2188.5332807681
 20
925.8165328285
 30
0.0
 11
1977.5332807681
 21
925.8165328285
 31
0.0
  0
LINE
  5
398
330
1F
100
AcDbEntity
  8
0
  6
Continuous
 62
     7
100
AcDbLine
 10
2188.5332807681
 20
795.8165328285
 30
0.0
 11
2188.5332807681
 21
925.8165328285
 31
0.0
  0
DIMENSION
  5
399
330
1F
100
AcDbEntity
  8
SLD-0_0
 62
     7
100
AcDbDimension
  2
_D_21
 10
2188.5332807681
 20
771.8165328285
 30
0.0
 11
1975.2491650232
 21
771.8165328285
 31
0.0
 70
   160
  1
<>
 71
     2
 42
-1.0
  3
SLDDIMSTYLE1
100
AcDbAlignedDimension
 13
1748.5332807681
 23
795.8165328285
 33
0.0
 14
2188.5332807681
 24
795.8165328285
 34
0.0
100
AcDbRotatedDimension
  0
DIMENSION
  5
3A3
330
1F
100
AcDbEntity
  8
SLD-0_0
 62
     7
100
AcDbDimension
  2
_D_22
 10
2233.5332807681
 20
925.8165328285
 30
0.0
 11
2233.5332807681
 21
856.9462937597
 31
0.0
 70
   160
  1
<>
 71
     2
 42
-1.0
  3
SLDDIMSTYLE1
100
AcDbAlignedDimension
 13
2188.5332807681
 23
795.8165328285
 33
0.0
 14
2188.5332807681
 24
925.8165328285
 34
0.0
 50
90.0
100
AcDbRotatedDimension
  0
DIMENSION
  5
3AD
330
1F
100
AcDbEntity
  8
SLD-0_0
 62
     7
100
AcDbDimension
  2
_D_23
 10
2001.8787568031
 20
860.8165328285
 30
0.0
 11
2001.8787568031
 21
895.6245473151
 31
0.0
 70
   160
  1
<>
 71
     2
 42
-1.0
  3
SLDDIMSTYLE1
100
AcDbAlignedDimension
 13
1977.5332807681
 23
925.8165328285
 33
0.0
 14
1977.5332807681
 24
860.8165328285
 34
0.0
 50
90.0
100
AcDbRotatedDimension
  0
DIMENSION
  5
3B6
330
1F
100
AcDbEntity
  8
SLD-0_0
 62
     7
100
AcDbDimension
  2
_D_24
 10
1977.5332807681
 20
954.3647710221
 30
0.0
 11
1971.7259921734
 21
954.3647710221
 31
0.0
 70
   160
  1
<>
 71
     2
 42
-1.0
  3
SLDDIMSTYLE5
100
AcDbAlignedDimension
 13
1959.5332807681
 23
925.8165328285
 33
0.0
 14
1977.5332807681
 24
925.8165328285
 34
0.0
100
AcDbRotatedDimension
  0
DIMENSION
  5
3C2
330
1F
100
AcDbEntity
  8
SLD-0_0
 62
     7
100
AcDbDimension
  2
_D_25
 10
2188.5332807681
 20
954.3647710221
 30
0.0
 11
2065.4067219551
 21
954.3647710221
 31
0.0
 70
   160
  1
<>
 71
     2
 42
-1.0
  3
SLDDIMSTYLE1
100
AcDbAlignedDimension
 13
1977.5332807681
 23
925.8165328285
 33
0.0
 14
2188.5332807681
 24
925.8165328285
 34
0.0
100
AcDbRotatedDimension
  0
LINE
  5
3CC
330
1F
100
AcDbEntity
  8
0
  6
Continuous
 62
     7
100
AcDbLine
 10
1892.1157084123
 20
288.0141350195
 30
0.0
 11
1892.1157084123
 21
467.6841350195
 31
0.0
  0
LINE
  5
3CD
330
1F
100
AcDbEntity
  8
0
  6
Continuous
 62
     7
100
AcDbLine
 10
1892.1157084123
 20
467.6841350195
 30
0.0
 11
1910.1157084123
 21
485.6841350195
 31
0.0
  0
LINE
  5
3CE
330
1F
100
AcDbEntity
  8
0
  6
Continuous
 62
     7
100
AcDbLine
 10
1910.1157084123
 20
270.0141350195
 30
0.0
 11
1892.1157084123
 21
288.0141350195
 31
0.0
  0
LINE
  5
3CF
330
1F
100
AcDbEntity
  8
0
  6
Continuous
 62
     7
100
AcDbLine
 10
1910.1157084123
 20
485.6841350195
 30
0.0
 11
1910.1157084123
 21
270.0141350195
 31
0.0
  0
INSERT
  5
3D9
330
1F
100
AcDbEntity
  8
SLD-0_0
 62
     7
100
AcDbBlockReference
  2
SW_ANGULAR_DIMENSION_0
 10
1857.3412676513
 20
482.7797025527
 30
0.0
  0
INSERT
  5
3E3
330
1F
100
AcDbEntity
  8
SLD-0_0
 62
     7
100
AcDbBlockReference
  2
SW_ANGULAR_DIMENSION_1
 10
1855.3316202913
 20
283.4375735326
 30
0.0
  0
DIMENSION
  5
3E4
330
1F
100
AcDbEntity
  8
SLD-0_0
 62
     7
100
AcDbDimension
  2
_D_26
 10
1910.1157084123
 20
239.0141350195
 30
0.0
 11
1899.5203047476
 21
239.0141350195
 31
0.0
 70
   160
  1
<>
 71
     2
 42
-1.0
  3
SLDDIMSTYLE5
100
AcDbAlignedDimension
 13
1892.1157084123
 23
288.0141350195
 33
0.0
 14
1910.1157084123
 24
270.0141350195
 34
0.0
 50
0.0
100
AcDbRotatedDimension
  0
LINE
  5
3F0
330
1F
100
AcDbEntity
  8
0
  6
Continuous
 62
     7
100
AcDbLine
 10
2018.8914146474
 20
270.0141350195
 30
0.0
 11
2123.8914146474
 21
270.0141350195
 31
0.0
  0
LINE
  5
3F1
330
1F
100
AcDbEntity
  8
0
  6
Continuous
 62
     7
100
AcDbLine
 10
2018.8914146474
 20
270.0141350195
 30
0.0
 11
2018.8914146474
 21
288.0141350195
 31
0.0
  0
LINE
  5
3F2
330
1F
100
AcDbEntity
  8
0
  6
Continuous
 62
     7
100
AcDbLine
 10
2018.8914146474
 20
288.0141350195
 30
0.0
 11
2123.8914146474
 21
288.0141350195
 31
0.0
  0
LINE
  5
3F3
330
1F
100
AcDbEntity
  8
0
  6
Continuous
 62
     7
100
AcDbLine
 10
2123.8914146474
 20
270.0141350195
 30
0.0
 11
2123.8914146474
 21
288.0141350195
 31
0.0
  0
LINE
  5
3F4
330
1F
100
AcDbEntity
  8
0
  6
Continuous
 62
     7
100
AcDbLine
 10
2018.8914146474
 20
288.0141350195
 30
0.0
 11
2018.8914146474
 21
467.6841350195
 31
0.0
  0
LINE
  5
3F5
330
1F
100
AcDbEntity
  8
0
  6
Continuous
 62
     7
100
AcDbLine
 10
2018.8914146474
 20
467.6841350195
 30
0.0
 11
2123.8914146474
 21
467.6841350195
 31
0.0
  0
LINE
  5
3F6
330
1F
100
AcDbEntity
  8
0
  6
Continuous
 62
     7
100
AcDbLine
 10
2123.8914146474
 20
288.0141350195
 30
0.0
 11
2123.8914146474
 21
467.6841350195
 31
0.0
  0
LINE
  5
3F7
330
1F
100
AcDbEntity
  8
0
  6
Continuous
 62
     7
100
AcDbLine
 10
2018.8914146474
 20
485.6841350195
 30
0.0
 11
2123.8914146474
 21
485.6841350195
 31
0.0
  0
LINE
  5
3F8
330
1F
100
AcDbEntity
  8
0
  6
Continuous
 62
     7
100
AcDbLine
 10
2123.8914146474
 20
467.6841350195
 30
0.0
 11
2123.8914146474
 21
485.6841350195
 31
0.0
  0
LINE
  5
3F9
330
1F
100
AcDbEntity
  8
0
  6
Continuous
 62
     7
100
AcDbLine
 10
2018.8914146474
 20
467.6841350195
 30
0.0
 11
2018.8914146474
 21
485.6841350195
 31
0.0
  0
DIMENSION
  5
3FA
330
1F
100
AcDbEntity
  8
SLD-0_0
 62
     7
100
AcDbDimension
  2
_D_27
 10
2123.8914146474
 20
239.0141350195
 30
0.0
 11
2069.7790088618
 21
239.0141350195
 31
0.0
 70
   160
  1
<>
 71
     2
 42
-1.0
  3
SLDDIMSTYLE1
100
AcDbAlignedDimension
 13
2018.8914146474
 23
270.0141350195
 33
0.0
 14
2123.8914146474
 24
270.0141350195
 34
0.0
 50
0.0
100
AcDbRotatedDimension
  0
DIMENSION
  5
404
330
1F
100
AcDbEntity
  8
SLD-0_0
 62
     7
100
AcDbDimension
  2
_D_28
 10
2147.8914146474
 20
485.6841350195
 30
0.0
 11
2147.8914146474
 21
366.3614106906
 31
0.0
 70
   160
  1
<>
 71
     2
 42
-1.0
  3
SLDDIMSTYLE6
100
AcDbAlignedDimension
 13
2123.8914146474
 23
270.0141350195
 33
0.0
 14
2123.8914146474
 24
485.6841350195
 34
0.0
 50
90.0
100
AcDbRotatedDimension
  0
ENDSEC
  0
SECTION
  2
OBJECTS
  0
DICTIONARY
  5
C
330
0
100
AcDbDictionary
281
     1
  3
ACAD_GROUP
350
D
  3
ACAD_LAYOUT
350
1A
  3
ACAD_MLINESTYLE
350
17
  3
ACAD_PLOTSETTINGS
350
19
  3
ACAD_PLOTSTYLENAME
350
E
  3
ACAD_SCALELIST
350
47
  0
DICTIONARY
  5
D
102
{ACAD_REACTORS
330
C
102
}
330
C
100
AcDbDictionary
281
     1
  0
DICTIONARY
  5
1A
102
{ACAD_REACTORS
330
C
102
}
330
C
100
AcDbDictionary
281
     1
  3
Layout1
350
1E
  3
Layout2
350
26
  3
Model
350
22
  0
DICTIONARY
  5
17
102
{ACAD_REACTORS
330
C
102
}
330
C
100
AcDbDictionary
281
     1
  3
Standard
350
18
  0
DICTIONARY
  5
19
102
{ACAD_REACTORS
330
C
102
}
330
C
100
AcDbDictionary
281
     1
  0
ACDBDICTIONARYWDFLT
  5
E
102
{ACAD_REACTORS
330
C
102
}
330
C
100
AcDbDictionary
281
     1
  3
Normal
350
F
100
AcDbDictionaryWithDefault
340
F
  0
DICTIONARY
  5
47
102
{ACAD_REACTORS
330
C
102
}
330
C
100
AcDbDictionary
281
     1
  3
A0
350
48
  3
A1
350
49
  3
A2
350
4A
  3
A3
350
4B
  3
A4
350
4C
  3
A5
350
4D
  3
A6
350
4E
  3
A7
350
4F
  3
A8
350
50
  3
A9
350
51
  3
B0
350
52
  3
B1
350
53
  3
B2
350
54
  3
B3
350
55
  3
B4
350
56
  3
B5
350
57
  3
B6
350
58
  3
B7
350
59
  3
B8
350
5A
  3
B9
350
5B
  3
C0
350
5C
  3
C1
350
5D
  3
C2
350
5E
  3
C3
350
5F
  3
C4
350
60
  3
C5
350
61
  3
C6
350
62
  3
C7
350
63
  3
C8
350
64
  3
C9
350
65
  3
D0
350
66
  3
D1
350
67
  3
D2
350
68
  0
LAYOUT
  5
1E
102
{ACAD_REACTORS
330
1A
102
}
330
1A
100
AcDbPlotSettings
  1

  2
none_device
  4

  6

 40
0.0
 41
0.0
 42
0.0
 43
0.0
 44
0.0
 45
0.0
 46
0.0
 47
0.0
 48
0.0
 49
0.0
140
0.0
141
0.0
142
1.0
143
1.0
 70
   688
 72
     1
 73
     0
 74
     5
  7

 75
    16
147
1.0
148
0.0
149
0.0
100
AcDbLayout
  1
Layout1
 70
     1
 71
     1
 10
0.0
 20
0.0
 11
420.0
 21
297.0
 12
0.0
 22
0.0
 32
0.0
 14
1.0000000000E+20
 24
1.0000000000E+20
 34
1.0000000000E+20
 15
-1.0000000000E+20
 25
-1.0000000000E+20
 35
-1.0000000000E+20
146
0.0
 13
0.0
 23
0.0
 33
0.0
 16
1.0
 26
0.0
 36
0.0
 17
0.0
 27
1.0
 37
0.0
 76
     0
330
1B
  0
LAYOUT
  5
26
102
{ACAD_REACTORS
330
1A
102
}
330
1A
100
AcDbPlotSettings
  1

  2
none_device
  4

  6

 40
0.0
 41
0.0
 42
0.0
 43
0.0
 44
0.0
 45
0.0
 46
0.0
 47
0.0
 48
0.0
 49
0.0
140
0.0
141
0.0
142
1.0
143
1.0
 70
   688
 72
     1
 73
     0
 74
     5
  7

 75
    16
147
1.0
148
0.0
149
0.0
100
AcDbLayout
  1
Layout2
 70
     1
 71
     2
 10
0.0
 20
0.0
 11
0.0
 21
0.0
 12
0.0
 22
0.0
 32
0.0
 14
0.0
 24
0.0
 34
0.0
 15
0.0
 25
0.0
 35
0.0
146
0.0
 13
0.0
 23
0.0
 33
0.0
 16
1.0
 26
0.0
 36
0.0
 17
0.0
 27
1.0
 37
0.0
 76
     0
330
23
  0
LAYOUT
  5
22
102
{ACAD_REACTORS
330
1A
102
}
330
1A
100
AcDbPlotSettings
  1

  2
none_device
  4
Letter_(8.50_x_11.00_Inches)
  6

 40
6.35
 41
6.35
 42
6.35000508
 43
6.35000508
 44
215.9
 45
279.4
 46
0.0
 47
0.0
 48
0.0
 49
0.0
140
0.0
141
0.0
142
1.0
143
1.0
 70
  1712
 72
     1
 73
     0
 74
     0
  7

 75
     0
147
1.0
148
0.0
149
0.0
100
AcDbLayout
  1
Model
 70
     1
 71
     0
 10
0.0
 20
0.0
 11
2378.0
 21
1682.0
 12
0.0
 22
0.0
 32
0.0
 14
0.0
 24
0.0
 34
0.0
 15
2378.0
 25
1682.0
 35
0.0
146
0.0
 13
0.0
 23
0.0
 33
0.0
 16
1.0
 26
0.0
 36
0.0
 17
0.0
 27
1.0
 37
0.0
 76
     0
330
1F
331
29
  0
MLINESTYLE
  5
18
102
{ACAD_REACTORS
330
17
102
}
330
17
100
AcDbMlineStyle
  2
Standard
 70
     0
  3

 62
   256
 51
90.0
 52
90.0
 71
     2
 49
0.5
 62
   256
  6
BYLAYER
 49
-0.5
 62
   256
  6
BYLAYER
  0
ACDBPLACEHOLDER
  5
F
102
{ACAD_REACTORS
330
E
102
}
330
E
  0
SCALE
  5
48
102
{ACAD_REACTORS
330
47
102
}
330
47
100
AcDbScale
 70
     0
300
1:1
140
1.0
141
1.0
290
     1
  0
SCALE
  5
49
102
{ACAD_REACTORS
330
47
102
}
330
47
100
AcDbScale
 70
     0
300
1:2
140
1.0
141
2.0
290
     0
  0
SCALE
  5
4A
102
{ACAD_REACTORS
330
47
102
}
330
47
100
AcDbScale
 70
     0
300
1:4
140
1.0
141
4.0
290
     0
  0
SCALE
  5
4B
102
{ACAD_REACTORS
330
47
102
}
330
47
100
AcDbScale
 70
     0
300
1:5
140
1.0
141
5.0
290
     0
  0
SCALE
  5
4C
102
{ACAD_REACTORS
330
47
102
}
330
47
100
AcDbScale
 70
     0
300
1:8
140
1.0
141
8.0
290
     0
  0
SCALE
  5
4D
102
{ACAD_REACTORS
330
47
102
}
330
47
100
AcDbScale
 70
     0
300
1:10
140
1.0
141
10.0
290
     0
  0
SCALE
  5
4E
102
{ACAD_REACTORS
330
47
102
}
330
47
100
AcDbScale
 70
     0
300
1:16
140
1.0
141
16.0
290
     0
  0
SCALE
  5
4F
102
{ACAD_REACTORS
330
47
102
}
330
47
100
AcDbScale
 70
     0
300
1:20
140
1.0
141
20.0
290
     0
  0
SCALE
  5
50
102
{ACAD_REACTORS
330
47
102
}
330
47
100
AcDbScale
 70
     0
300
1:30
140
1.0
141
30.0
290
     0
  0
SCALE
  5
51
102
{ACAD_REACTORS
330
47
102
}
330
47
100
AcDbScale
 70
     0
300
1:40
140
1.0
141
40.0
290
     0
  0
SCALE
  5
52
102
{ACAD_REACTORS
330
47
102
}
330
47
100
AcDbScale
 70
     0
300
1:50
140
1.0
141
50.0
290
     0
  0
SCALE
  5
53
102
{ACAD_REACTORS
330
47
102
}
330
47
100
AcDbScale
 70
     0
300
1:100
140
1.0
141
100.0
290
     0
  0
SCALE
  5
54
102
{ACAD_REACTORS
330
47
102
}
330
47
100
AcDbScale
 70
     0
300
2:1
140
2.0
141
1.0
290
     0
  0
SCALE
  5
55
102
{ACAD_REACTORS
330
47
102
}
330
47
100
AcDbScale
 70
     0
300
4:1
140
4.0
141
1.0
290
     0
  0
SCALE
  5
56
102
{ACAD_REACTORS
330
47
102
}
330
47
100
AcDbScale
 70
     0
300
8:1
140
8.0
141
1.0
290
     0
  0
SCALE
  5
57
102
{ACAD_REACTORS
330
47
102
}
330
47
100
AcDbScale
 70
     0
300
10:1
140
10.0
141
1.0
290
     0
  0
SCALE
  5
58
102
{ACAD_REACTORS
330
47
102
}
330
47
100
AcDbScale
 70
     0
300
100:1
140
100.0
141
1.0
290
     0
  0
SCALE
  5
59
102
{ACAD_REACTORS
330
47
102
}
330
47
100
AcDbScale
 70
     0
300
1/128" = 1'-0"
140
0.0078125
141
12.0
290
     0
  0
SCALE
  5
5A
102
{ACAD_REACTORS
330
47
102
}
330
47
100
AcDbScale
 70
     0
300
1/64" = 1'-0"
140
0.015625
141
12.0
290
     0
  0
SCALE
  5
5B
102
{ACAD_REACTORS
330
47
102
}
330
47
100
AcDbScale
 70
     0
300
1/32" = 1'-0"
140
0.03125
141
12.0
290
     0
  0
SCALE
  5
5C
102
{ACAD_REACTORS
330
47
102
}
330
47
100
AcDbScale
 70
     0
300
1/16" = 1'-0"
140
0.0625
141
12.0
290
     0
  0
SCALE
  5
5D
102
{ACAD_REACTORS
330
47
102
}
330
47
100
AcDbScale
 70
     0
300
3/32" = 1'-0"
140
0.09375
141
12.0
290
     0
  0
SCALE
  5
5E
102
{ACAD_REACTORS
330
47
102
}
330
47
100
AcDbScale
 70
     0
300
1/8" = 1'-0"
140
0.125
141
12.0
290
     0
  0
SCALE
  5
5F
102
{ACAD_REACTORS
330
47
102
}
330
47
100
AcDbScale
 70
     0
300
3/16" = 1'-0"
140
0.1875
141
12.0
290
     0
  0
SCALE
  5
60
102
{ACAD_REACTORS
330
47
102
}
330
47
100
AcDbScale
 70
     0
300
1/4" = 1'-0"
140
0.25
141
12.0
290
     0
  0
SCALE
  5
61
102
{ACAD_REACTORS
330
47
102
}
330
47
100
AcDbScale
 70
     0
300
3/8" = 1'-0"
140
0.375
141
12.0
290
     0
  0
SCALE
  5
62
102
{ACAD_REACTORS
330
47
102
}
330
47
100
AcDbScale
 70
     0
300
1/2" = 1'-0"
140
0.5
141
12.0
290
     0
  0
SCALE
  5
63
102
{ACAD_REACTORS
330
47
102
}
330
47
100
AcDbScale
 70
     0
300
3/4" = 1'-0"
140
0.75
141
12.0
290
     0
  0
SCALE
  5
64
102
{ACAD_REACTORS
330
47
102
}
330
47
100
AcDbScale
 70
     0
300
1" = 1'-0"
140
1.0
141
12.0
290
     0
  0
SCALE
  5
65
102
{ACAD_REACTORS
330
47
102
}
330
47
100
AcDbScale
 70
     0
300
1-1/2" = 1'-0"
140
1.5
141
12.0
290
     0
  0
SCALE
  5
66
102
{ACAD_REACTORS
330
47
102
}
330
47
100
AcDbScale
 70
     0
300
3" = 1'-0"
140
3.0
141
12.0
290
     0
  0
SCALE
  5
67
102
{ACAD_REACTORS
330
47
102
}
330
47
100
AcDbScale
 70
     0
300
6" = 1'-0"
140
6.0
141
12.0
290
     0
  0
SCALE
  5
68
102
{ACAD_REACTORS
330
47
102
}
330
47
100
AcDbScale
 70
     0
300
1'-0" = 1'-0"
140
12.0
141
12.0
290
     0
  0
ENDSEC
  0
EOF
