  0
SECTION
  2
HEADER
  9
$ACADVER
  1
AC1015
  9
$ACADMAINTVER
 70
     6
  9
$DWGCODEPAGE
  3
ANSI_1252
  9
$INSBASE
 10
0.0
 20
0.0
 30
0.0
  9
$EXTMIN
 10
0.0
 20
0.0
 30
0.0
  9
$EXTMAX
 10
2378.0
 20
1682.0
 30
0.0
  9
$LIMMIN
 10
0.0
 20
0.0
  9
$LIMMAX
 10
2378.0
 20
1682.0
  9
$ORTHOMODE
 70
     0
  9
$REGENMODE
 70
     1
  9
$FILLMODE
 70
     1
  9
$QTEXTMODE
 70
     0
  9
$MIRRTEXT
 70
     1
  9
$LTSCALE
 40
1.0
  9
$ATTMODE
 70
     1
  9
$TEXTSIZE
 40
2.5
  9
$TRACEWID
 40
1.0
  9
$TEXTSTYLE
  7
Standard
  9
$CLAYER
  8
0
  9
$CELTYPE
  6
ByLayer
  9
$CECOLOR
 62
   256
  9
$CELTSCALE
 40
1.0
  9
$DISPSILH
 70
     0
  9
$DIMSCALE
 40
1.0
  9
$DIMASZ
 40
3.302
  9
$DIMEXO
 40
1.0
  9
$DIMDLI
 40
3.75
  9
$DIMRND
 40
0.0
  9
$DIMDLE
 40
0.0
  9
$DIMEXE
 40
1.0
  9
$DIMTP
 40
0.0
  9
$DIMTM
 40
0.0
  9
$DIMTXT
 40
3.5
  9
$DIMCEN
 40
2.5
  9
$DIMTSZ
 40
0.0
  9
$DIMTOL
 70
     0
  9
$DIMLIM
 70
     0
  9
$DIMTIH
 70
     1
  9
$DIMTOH
 70
     1
  9
$DIMSE1
 70
     0
  9
$DIMSE2
 70
     0
  9
$DIMTAD
 70
     1
  9
$DIMZIN
 70
     0
  9
$DIMBLK
  1

  9
$DIMASO
 70
     1
  9
$DIMSHO
 70
     1
  9
$DIMPOST
  1

  9
$DIMAPOST
  1

  9
$DIMALT
 70
     0
  9
$DIMALTD
 70
     3
  9
$DIMALTF
 40
0.0393700787
  9
$DIMLFAC
 40
1.0
  9
$DIMTOFL
 70
     1
  9
$DIMTVP
 40
0.0
  9
$DIMTIX
 70
     0
  9
$DIMSOXD
 70
     0
  9
$DIMSAH
 70
     0
  9
$DIMBLK1
  1

  9
$DIMBLK2
  1

  9
$DIMSTYLE
  2
ISO-25
  9
$DIMCLRD
 70
     0
  9
$DIMCLRE
 70
     0
  9
$DIMCLRT
 70
     0
  9
$DIMTFAC
 40
1.0
  9
$DIMGAP
 40
1.524
  9
$DIMJUST
 70
     0
  9
$DIMSD1
 70
     0
  9
$DIMSD2
 70
     0
  9
$DIMTOLJ
 70
     0
  9
$DIMTZIN
 70
     0
  9
$DIMALTZ
 70
     0
  9
$DIMALTTZ
 70
     0
  9
$DIMUPT
 70
     0
  9
$DIMDEC
 70
     2
  9
$DIMTDEC
 70
     2
  9
$DIMALTU
 70
     2
  9
$DIMALTTD
 70
     3
  9
$DIMTXSTY
  7
Standard
  9
$DIMAUNIT
 70
     0
  9
$DIMADEC
 70
     2
  9
$DIMALTRND
 40
0.0
  9
$DIMAZIN
 70
     0
  9
$DIMDSEP
 70
    44
  9
$DIMATFIT
 70
     3
  9
$DIMFRAC
 70
     0
  9
$DIMLDRBLK
  1

  9
$DIMLUNIT
 70
     2
  9
$DIMLWD
 70
    -2
  9
$DIMLWE
 70
    -2
  9
$DIMTMOVE
 70
     0
  9
$LUNITS
 70
     2
  9
$LUPREC
 70
     2
  9
$SKETCHINC
 40
1.0
  9
$FILLETRAD
 40
10.0
  9
$AUNITS
 70
     0
  9
$AUPREC
 70
     2
  9
$MENU
  1
.
  9
$ELEVATION
 40
0.0
  9
$PELEVATION
 40
0.0
  9
$THICKNESS
 40
0.0
  9
$LIMCHECK
 70
     0
  9
$CHAMFERA
 40
0.0
  9
$CHAMFERB
 40
0.0
  9
$CHAMFERC
 40
0.0
  9
$CHAMFERD
 40
0.0
  9
$SKPOLY
 70
     0
  9
$TDCREATE
 40
2459254.383540903
  9
$TDUCREATE
 40
2459254.341874236
  9
$TDUPDATE
 40
2459254.383572349
  9
$TDUUPDATE
 40
2459254.341905683
  9
$TDINDWG
 40
0.0000000116
  9
$TDUSRTIMER
 40
0.0000000116
  9
$USRTIMER
 70
     1
  9
$ANGBASE
 50
0.0
  9
$ANGDIR
 70
     0
  9
$PDMODE
 70
     0
  9
$PDSIZE
 40
-1.0
  9
$PLINEWID
 40
0.0
  9
$SPLFRAME
 70
     0
  9
$SPLINETYPE
 70
     6
  9
$SPLINESEGS
 70
     8
  9
$HANDSEED
  5
448
  9
$SURFTAB1
 70
     6
  9
$SURFTAB2
 70
     6
  9
$SURFTYPE
 70
     6
  9
$SURFU
 70
     6
  9
$SURFV
 70
     6
  9
$UCSBASE
  2

  9
$UCSNAME
  2

  9
$UCSORG
 10
0.0
 20
0.0
 30
0.0
  9
$UCSXDIR
 10
1.0
 20
0.0
 30
0.0
  9
$UCSYDIR
 10
0.0
 20
1.0
 30
0.0
  9
$UCSORTHOREF
  2

  9
$UCSORTHOVIEW
 70
     0
  9
$UCSORGTOP
 10
0.0
 20
0.0
 30
0.0
  9
$UCSORGBOTTOM
 10
0.0
 20
0.0
 30
0.0
  9
$UCSORGLEFT
 10
0.0
 20
0.0
 30
0.0
  9
$UCSORGRIGHT
 10
0.0
 20
0.0
 30
0.0
  9
$UCSORGFRONT
 10
0.0
 20
0.0
 30
0.0
  9
$UCSORGBACK
 10
0.0
 20
0.0
 30
0.0
  9
$PUCSBASE
  2

  9
$PUCSNAME
  2

  9
$PUCSORG
 10
0.0
 20
0.0
 30
0.0
  9
$PUCSXDIR
 10
1.0
 20
0.0
 30
0.0
  9
$PUCSYDIR
 10
0.0
 20
1.0
 30
0.0
  9
$PUCSORTHOREF
  2

  9
$PUCSORTHOVIEW
 70
     0
  9
$PUCSORGTOP
 10
0.0
 20
0.0
 30
0.0
  9
$PUCSORGBOTTOM
 10
0.0
 20
0.0
 30
0.0
  9
$PUCSORGLEFT
 10
0.0
 20
0.0
 30
0.0
  9
$PUCSORGRIGHT
 10
0.0
 20
0.0
 30
0.0
  9
$PUCSORGFRONT
 10
0.0
 20
0.0
 30
0.0
  9
$PUCSORGBACK
 10
0.0
 20
0.0
 30
0.0
  9
$USERI1
 70
     0
  9
$USERI2
 70
     0
  9
$USERI3
 70
     0
  9
$USERI4
 70
     0
  9
$USERI5
 70
     0
  9
$USERR1
 40
0.0
  9
$USERR2
 40
0.0
  9
$USERR3
 40
0.0
  9
$USERR4
 40
0.0
  9
$USERR5
 40
0.0
  9
$WORLDVIEW
 70
     1
  9
$SHADEDGE
 70
     3
  9
$SHADEDIF
 70
    70
  9
$TILEMODE
 70
     1
  9
$MAXACTVP
 70
    64
  9
$PINSBASE
 10
0.0
 20
0.0
 30
0.0
  9
$PLIMCHECK
 70
     0
  9
$PEXTMIN
 10
1.0000000000E+20
 20
1.0000000000E+20
 30
1.0000000000E+20
  9
$PEXTMAX
 10
-1.0000000000E+20
 20
-1.0000000000E+20
 30
-1.0000000000E+20
  9
$PLIMMIN
 10
0.0
 20
0.0
  9
$PLIMMAX
 10
420.0
 20
297.0
  9
$UNITMODE
 70
     0
  9
$VISRETAIN
 70
     1
  9
$PLINEGEN
 70
     0
  9
$PSLTSCALE
 70
     1
  9
$TREEDEPTH
 70
  3020
  9
$CMLSTYLE
  2
Standard
  9
$CMLJUST
 70
     0
  9
$CMLSCALE
 40
20.0
  9
$PROXYGRAPHICS
 70
     1
  9
$MEASUREMENT
 70
     1
  9
$CELWEIGHT
370
    -1
  9
$ENDCAPS
280
     0
  9
$JOINSTYLE
280
     0
  9
$LWDISPLAY
290
     1
  9
$INSUNITS
 70
     4
  9
$HYPERLINKBASE
  1

  9
$STYLESHEET
  1

  9
$XEDIT
290
     1
  9
$CEPSNTYPE
380
     0
  9
$PSTYLEMODE
290
     1
  9
$FINGERPRINTGUID
  2
{4F8C73EC-CA5B-4FEF-88D8-B991A179F81B}
  9
$VERSIONGUID
  2
{FAEB1C32-E019-11D5-929B-00C0DF256EC4}
  9
$EXTNAMES
290
     1
  9
$PSVPSCALE
 40
0.0
  9
$OLESTARTUP
290
     0
  0
ENDSEC
  0
SECTION
  2
CLASSES
  0
CLASS
  1
ACDBDICTIONARYWDFLT
  2
AcDbDictionaryWithDefault
  3
ObjectDBX Classes
 90
        0
280
     0
281
     0
  0
CLASS
  1
VISUALSTYLE
  2
AcDbVisualStyle
  3
ObjectDBX Classes
 90
     4095
280
     0
281
     0
  0
CLASS
  1
MATERIAL
  2
AcDbMaterial
  3
ObjectDBX Classes
 90
     1153
280
     0
281
     0
  0
CLASS
  1
SCALE
  2
AcDbScale
  3
ObjectDBX Classes
 90
     1153
280
     0
281
     0
  0
CLASS
  1
TABLESTYLE
  2
AcDbTableStyle
  3
ObjectDBX Classes
 90
     4095
280
     0
281
     0
  0
CLASS
  1
MLEADERSTYLE
  2
AcDbMLeaderStyle
  3
ACDB_MLEADERSTYLE_CLASS
 90
     4095
280
     0
281
     0
  0
CLASS
  1
SUN
  2
AcDbSun
  3
SCENEOE
 90
     1153
280
     0
281
     0
  0
CLASS
  1
ACDBPLACEHOLDER
  2
AcDbPlaceHolder
  3
ObjectDBX Classes
 90
        0
280
     0
281
     0
  0
CLASS
  1
LAYOUT
  2
AcDbLayout
  3
ObjectDBX Classes
 90
        0
280
     0
281
     0
  0
ENDSEC
  0
SECTION
  2
TABLES
  0
TABLE
  2
VPORT
  5
8
330
0
100
AcDbSymbolTable
 70
     1
  0
VPORT
  5
29
330
8
100
AcDbSymbolTableRecord
100
AcDbViewportTableRecord
  2
*Active
 70
     0
 10
0.0
 20
0.0
 11
1.0
 21
1.0
 12
1189.0
 22
841.0
 13
0.0
 23
0.0
 14
10.0
 24
10.0
 15
10.0
 25
10.0
 16
0.0
 26
0.0
 36
1.0
 17
0.0
 27
0.0
 37
0.0
 40
1682.0
 41
1.4137931034
 42
50.0
 43
0.0
 44
0.0
 50
0.0
 51
0.0
 71
     0
 72
  2000
 73
     1
 74
     3
 75
     0
 76
     0
 77
     0
 78
     0
281
     0
 65
     1
110
0.0
120
0.0
130
0.0
111
1.0
121
0.0
131
0.0
112
0.0
122
1.0
132
0.0
 79
     0
146
0.0
  0
ENDTAB
  0
TABLE
  2
LTYPE
  5
5
330
0
100
AcDbSymbolTable
 70
     6
  0
LTYPE
  5
14
330
5
100
AcDbSymbolTableRecord
100
AcDbLinetypeTableRecord
  2
ByBlock
 70
     0
  3

 72
    65
 73
     0
 40
0.0
  0
LTYPE
  5
15
330
5
100
AcDbSymbolTableRecord
100
AcDbLinetypeTableRecord
  2
ByLayer
 70
     0
  3

 72
    65
 73
     0
 40
0.0
  0
LTYPE
  5
16
330
5
100
AcDbSymbolTableRecord
100
AcDbLinetypeTableRecord
  2
Continuous
 70
     0
  3
Solid line
 72
    65
 73
     0
 40
0.0
  0
LTYPE
  5
6E
330
5
100
AcDbSymbolTableRecord
100
AcDbLinetypeTableRecord
  2
HIDDEN
 70
     0
  3
Hidden __ __ __ __ __ __ __ __ __ __ __ __ __ __
 72
    65
 73
     2
 40
1.905
 49
1.27
 74
     0
 49
-0.635
 74
     0
  0
LTYPE
  5
6F
330
5
100
AcDbSymbolTableRecord
100
AcDbLinetypeTableRecord
  2
PHANTOM
 70
     0
  3
Phantom ______  __  __  ______  __  __  ______
 72
    65
 73
     6
 40
12.7
 49
6.35
 74
     0
 49
-1.27
 74
     0
 49
1.27
 74
     0
 49
-1.27
 74
     0
 49
1.27
 74
     0
 49
-1.27
 74
     0
  0
LTYPE
  5
70
330
5
100
AcDbSymbolTableRecord
100
AcDbLinetypeTableRecord
  2
CENTER
 70
     0
  3
Center ____ _ ____ _ ____ _ ____ _ ____ _ ____
 72
    65
 73
     4
 40
10.16
 49
6.35
 74
     0
 49
-1.27
 74
     0
 49
1.27
 74
     0
 49
-1.27
 74
     0
  0
LTYPE
  5
71
330
5
100
AcDbSymbolTableRecord
100
AcDbLinetypeTableRecord
  2
CENTERX2
 70
     0
  3
Center (2x) ________  __  ________  __  _____
 72
    65
 73
     4
 40
20.32
 49
12.7
 74
     0
 49
-2.54
 74
     0
 49
2.54
 74
     0
 49
-2.54
 74
     0
  0
LTYPE
  5
72
330
5
100
AcDbSymbolTableRecord
100
AcDbLinetypeTableRecord
  2
DOT2
 70
     0
  3
Dot (.5x) ........................................
 72
    65
 73
     2
 40
0.635
 49
0.0
 74
     0
 49
-0.635
 74
     0
  0
ENDTAB
  0
TABLE
  2
LAYER
  5
2
330
0
100
AcDbSymbolTable
 70
     9
  0
LAYER
  5
10
330
2
100
AcDbSymbolTableRecord
100
AcDbLayerTableRecord
  2
0
 70
     0
 62
     7
  6
Continuous
370
    -3
390
F
  0
LAYER
  5
73
330
2
100
AcDbSymbolTableRecord
100
AcDbLayerTableRecord
  2
SLD-0_0
 70
     0
 62
   179
  6
Continuous
370
    -3
390
F
  0
LAYER
  5
74
330
2
100
AcDbSymbolTableRecord
100
AcDbLayerTableRecord
  2
SLD-0
 70
     0
 62
   179
  6
Continuous
370
    -3
390
F
  0
LAYER
  5
75
330
2
100
AcDbSymbolTableRecord
100
AcDbLayerTableRecord
  2
PREDETERMINADO
 70
     0
 62
   179
  6
Continuous
370
    -3
390
F
  0
LAYER
  5
76
330
2
100
AcDbSymbolTableRecord
100
AcDbLayerTableRecord
  2
CAJETIN
 70
     0
 62
   179
  6
Continuous
370
    -3
390
F
  0
LAYER
  5
77
330
2
100
AcDbSymbolTableRecord
100
AcDbLayerTableRecord
  2
FORMATO
 70
     0
 62
   179
  6
Continuous
370
    -3
390
F
  0
LAYER
  5
78
330
2
100
AcDbSymbolTableRecord
100
AcDbLayerTableRecord
  2
NONPLOT
 70
     0
 62
    -1
  6
DOT2
290
     0
370
    -3
390
F
  0
LAYER
  5
79
330
2
100
AcDbSymbolTableRecord
100
AcDbLayerTableRecord
  2
TEXTOS
 70
     0
 62
   142
  6
Continuous
370
    -3
390
F
  0
LAYER
  5
7A
330
2
100
AcDbSymbolTableRecord
100
AcDbLayerTableRecord
  2
FORMAT
 70
     0
 62
     7
  6
Continuous
370
    -3
390
F
  0
ENDTAB
  0
TABLE
  2
STYLE
  5
3
330
0
100
AcDbSymbolTable
 70
     6
  0
STYLE
  5
11
330
3
100
AcDbSymbolTableRecord
100
AcDbTextStyleTableRecord
  2
Standard
 70
     0
 40
0.0
 41
1.0
 50
0.0
 71
     0
 42
2.5
  3
txt
  4

  0
STYLE
  5
DF
330
3
100
AcDbSymbolTableRecord
100
AcDbTextStyleTableRecord
  2
SLDTEXTSTYLE0
 70
     0
 40
0.0
 41
0.605
 50
0.0
 71
     0
 42
2.5
  3
TXT
  4

  0
STYLE
  5
115
330
3
100
AcDbSymbolTableRecord
100
AcDbTextStyleTableRecord
  2
SLDTEXTSTYLE1
 70
     0
 40
0.0
 41
0.5636394322
 50
0.0
 71
     0
 42
2.5
  3
TXT
  4

  0
STYLE
  5
146
330
3
100
AcDbSymbolTableRecord
100
AcDbTextStyleTableRecord
  2
SLDTEXTSTYLE2
 70
     0
 40
0.0
 41
0.75
 50
0.0
 71
     0
 42
2.5
  3
TXT
  4

  0
STYLE
  5
148
330
3
100
AcDbSymbolTableRecord
100
AcDbTextStyleTableRecord
  2
SLDTEXTSTYLE3
 70
     0
 40
0.0
 41
0.6785714286
 50
0.0
 71
     0
 42
2.5
  3
TXT
  4

  0
STYLE
  5
15B
330
3
100
AcDbSymbolTableRecord
100
AcDbTextStyleTableRecord
  2
SLDTEXTSTYLE4
 70
     0
 40
0.0
 41
0.6730769231
 50
0.0
 71
     0
 42
2.5
  3
TXT
  4

  0
ENDTAB
  0
TABLE
  2
VIEW
  5
6
330
0
100
AcDbSymbolTable
 70
     0
  0
ENDTAB
  0
TABLE
  2
UCS
  5
7
330
0
100
AcDbSymbolTable
 70
     0
  0
ENDTAB
  0
TABLE
  2
APPID
  5
9
330
0
100
AcDbSymbolTable
 70
     1
  0
APPID
  5
12
330
9
100
AcDbSymbolTableRecord
100
AcDbRegAppTableRecord
  2
ACAD
 70
     0
  0
ENDTAB
  0
TABLE
  2
DIMSTYLE
  5
A
330
0
100
AcDbSymbolTable
 70
    11
100
AcDbDimStyleTable
  0
DIMSTYLE
105
27
330
A
100
AcDbSymbolTableRecord
100
AcDbDimStyleTableRecord
  2
ISO-25
 70
     0
 41
2.5
 42
0.625
 43
3.75
 44
1.25
 73
     0
 74
     0
 77
     1
 78
     8
140
2.5
141
2.5
143
0.0393700787
147
0.625
171
     3
172
     1
178
     0
271
     2
272
     2
274
     3
278
    44
283
     0
284
     8
340
11
  0
DIMSTYLE
105
243
330
A
100
AcDbSymbolTableRecord
100
AcDbDimStyleTableRecord
  2
SLDDIMSTYLE0
 70
     0
 41
1.016
 44
0.0
 45
0.000000001
146
1.016
147
0.0
173
     1
178
     0
271
     0
272
     0
276
     2
340
11
341
244
343
244
344
244
  0
DIMSTYLE
105
28A
102
{ACAD_REACTORS
330
289
330
294
330
2A2
330
2AC
330
2BA
330
2C4
330
2E0
330
2EA
330
30C
330
316
330
39B
330
3B0
330
3BA
330
3CD
330
3E3
330
3ED
330
3FB
330
405
330
419
102
}
330
A
100
AcDbSymbolTableRecord
100
AcDbDimStyleTableRecord
  2
SLDDIMSTYLE1
 70
     0
 41
3.302
 44
0.0
 45
0.000000001
 73
     0
 74
     0
 77
     1
 78
    12
 79
     3
140
12.3279296875
147
3.0819824219
173
     1
178
     0
271
     2
272
     2
276
     2
284
    12
340
DF
  0
DIMSTYLE
105
2F5
102
{ACAD_REACTORS
330
2F4
330
32A
102
}
330
A
100
AcDbSymbolTableRecord
100
AcDbDimStyleTableRecord
  2
SLDDIMSTYLE2
 70
     0
 41
3.302
 44
0.0
 45
0.000000001
 73
     0
 74
     0
 77
     1
 78
    12
 79
     3
140
12.3279296875
141
0.0
147
3.0819824219
172
     1
173
     1
178
     0
271
     2
272
     2
276
     2
284
    12
340
DF
  0
DIMSTYLE
105
2FF
102
{ACAD_REACTORS
330
2FE
102
}
330
A
100
AcDbSymbolTableRecord
100
AcDbDimStyleTableRecord
  2
SLDDIMSTYLE3
 70
     0
 41
3.302
 44
0.0
 45
0.000000001
 78
     4
 79
     1
140
12.3279296875
141
0.0
147
3.0819824219
172
     1
173
     1
178
     0
271
     2
272
     2
276
     2
284
    12
340
DF
341
300
343
300
  0
DIMSTYLE
105
321
102
{ACAD_REACTORS
330
320
102
}
330
A
100
AcDbSymbolTableRecord
100
AcDbDimStyleTableRecord
  2
SLDDIMSTYLE4
 70
     0
 41
3.302
 44
0.0
 73
     0
 74
     0
 77
     1
 78
    12
 79
     3
140
12.3279296875
147
3.0819824219
173
     1
178
     0
179
     2
272
     2
276
     2
284
    12
340
DF
  0
DIMSTYLE
105
334
102
{ACAD_REACTORS
330
333
102
}
330
A
100
AcDbSymbolTableRecord
100
AcDbDimStyleTableRecord
  2
SLDDIMSTYLE5
 70
     0
 41
3.302
 44
0.0
 45
0.000000001
 78
    12
 79
     3
140
12.3279296875
141
0.0
147
3.0819824219
172
     1
173
     1
178
     0
271
     2
272
     2
276
     2
284
    12
340
DF
  0
DIMSTYLE
105
3A6
102
{ACAD_REACTORS
330
3A5
102
}
330
A
100
AcDbSymbolTableRecord
100
AcDbDimStyleTableRecord
  2
SLDDIMSTYLE6
 70
     0
 41
3.302
 44
0.0
 45
0.000000001
 73
     0
 74
     0
 77
     1
 78
     4
 79
     1
140
12.3279296875
147
3.0819824219
173
     1
178
     0
271
     2
272
     2
276
     2
284
    12
340
DF
  0
DIMSTYLE
105
3C5
102
{ACAD_REACTORS
330
3C4
102
}
330
A
100
AcDbSymbolTableRecord
100
AcDbDimStyleTableRecord
  2
SLDDIMSTYLE7
 70
     0
 41
3.302
 44
0.0
 45
0.000000001
 73
     0
 74
     0
 77
     1
 78
    12
 79
     3
140
12.3279296875
141
0.0
147
3.0819824219
173
     1
178
     0
271
     2
272
     2
276
     2
284
    12
340
DF
  0
DIMSTYLE
105
3D7
102
{ACAD_REACTORS
330
3D6
330
43C
102
}
330
A
100
AcDbSymbolTableRecord
100
AcDbDimStyleTableRecord
  2
SLDDIMSTYLE8
 70
     0
 41
3.302
 44
0.0
 45
0.000000001
 73
     0
 74
     0
 77
     1
 78
    12
 79
     3
140
12.3279296875
147
3.0819824219
172
     1
173
     1
178
     0
271
     2
272
     2
276
     2
284
    12
289
     0
340
DF
  0
DIMSTYLE
105
432
102
{ACAD_REACTORS
330
431
102
}
330
A
100
AcDbSymbolTableRecord
100
AcDbDimStyleTableRecord
  2
SLDDIMSTYLE9
 70
     0
 41
3.302
 44
0.0
 45
0.000000001
 73
     0
 74
     0
 77
     1
 78
    12
 79
     3
140
12.3279296875
147
3.0819824219
173
     1
178
     0
271
     1
272
     1
276
     2
284
    12
340
DF
  0
ENDTAB
  0
TABLE
  2
BLOCK_RECORD
  5
1
330
0
100
AcDbSymbolTable
 70
    53
  0
BLOCK_RECORD
  5
1F
330
1
100
AcDbSymbolTableRecord
100
AcDbBlockTableRecord
  2
*Model_Space
340
22
  0
BLOCK_RECORD
  5
1B
330
1
100
AcDbSymbolTableRecord
100
AcDbBlockTableRecord
  2
*Paper_Space
340
1E
  0
BLOCK_RECORD
  5
23
330
1
100
AcDbSymbolTableRecord
100
AcDbBlockTableRecord
  2
*Paper_Space0
340
26
  0
BLOCK_RECORD
  5
DB
330
1
100
AcDbSymbolTableRecord
100
AcDbBlockTableRecord
  2
SW_NOTE_0
340
0
102
{BLKREFS
331
E1
102
}
  0
BLOCK_RECORD
  5
E2
330
1
100
AcDbSymbolTableRecord
100
AcDbBlockTableRecord
  2
SW_NOTE_1
340
0
102
{BLKREFS
331
E7
102
}
  0
BLOCK_RECORD
  5
E8
330
1
100
AcDbSymbolTableRecord
100
AcDbBlockTableRecord
  2
SW_NOTE_2
340
0
102
{BLKREFS
331
ED
102
}
  0
BLOCK_RECORD
  5
EE
330
1
100
AcDbSymbolTableRecord
100
AcDbBlockTableRecord
  2
SW_NOTE_3
340
0
102
{BLKREFS
331
F3
102
}
  0
BLOCK_RECORD
  5
F4
330
1
100
AcDbSymbolTableRecord
100
AcDbBlockTableRecord
  2
SW_NOTE_4
340
0
102
{BLKREFS
331
F9
102
}
  0
BLOCK_RECORD
  5
119
330
1
100
AcDbSymbolTableRecord
100
AcDbBlockTableRecord
  2
SW_NOTE_5
340
0
102
{BLKREFS
331
11E
102
}
  0
BLOCK_RECORD
  5
11F
330
1
100
AcDbSymbolTableRecord
100
AcDbBlockTableRecord
  2
SW_NOTE_6
340
0
102
{BLKREFS
331
124
102
}
  0
BLOCK_RECORD
  5
125
330
1
100
AcDbSymbolTableRecord
100
AcDbBlockTableRecord
  2
SW_NOTE_7
340
0
102
{BLKREFS
331
12A
102
}
  0
BLOCK_RECORD
  5
12B
330
1
100
AcDbSymbolTableRecord
100
AcDbBlockTableRecord
  2
SW_NOTE_8
340
0
102
{BLKREFS
331
130
102
}
  0
BLOCK_RECORD
  5
131
330
1
100
AcDbSymbolTableRecord
100
AcDbBlockTableRecord
  2
SW_TABLEANNOTATION_0
340
0
102
{BLKREFS
331
15E
102
}
  0
BLOCK_RECORD
  5
23D
330
1
100
AcDbSymbolTableRecord
100
AcDbBlockTableRecord
  2
SW_NOTE_9
340
0
102
{BLKREFS
331
242
102
}
  0
BLOCK_RECORD
  5
244
330
1
100
AcDbSymbolTableRecord
100
AcDbBlockTableRecord
  2
_DOT
340
0
  0
BLOCK_RECORD
  5
24D
330
1
100
AcDbSymbolTableRecord
100
AcDbBlockTableRecord
  2
SW_NOTE_10
340
0
102
{BLKREFS
331
252
102
}
  0
BLOCK_RECORD
  5
254
330
1
100
AcDbSymbolTableRecord
100
AcDbBlockTableRecord
  2
SW_NOTE_11
340
0
102
{BLKREFS
331
259
102
}
  0
BLOCK_RECORD
  5
25B
330
1
100
AcDbSymbolTableRecord
100
AcDbBlockTableRecord
  2
SW_NOTE_12
340
0
102
{BLKREFS
331
260
102
}
  0
BLOCK_RECORD
  5
262
330
1
100
AcDbSymbolTableRecord
100
AcDbBlockTableRecord
  2
SW_NOTE_13
340
0
102
{BLKREFS
331
267
102
}
  0
BLOCK_RECORD
  5
269
330
1
100
AcDbSymbolTableRecord
100
AcDbBlockTableRecord
  2
SW_NOTE_14
340
0
102
{BLKREFS
331
26E
102
}
  0
BLOCK_RECORD
  5
270
330
1
100
AcDbSymbolTableRecord
100
AcDbBlockTableRecord
  2
SW_NOTE_15
340
0
102
{BLKREFS
331
275
102
}
  0
BLOCK_RECORD
  5
277
330
1
100
AcDbSymbolTableRecord
100
AcDbBlockTableRecord
  2
SW_NOTE_16
340
0
102
{BLKREFS
331
27C
102
}
  0
BLOCK_RECORD
  5
27E
330
1
100
AcDbSymbolTableRecord
100
AcDbBlockTableRecord
  2
SW_NOTE_17
340
0
102
{BLKREFS
331
283
102
}
  0
BLOCK_RECORD
  5
28B
330
1
100
AcDbSymbolTableRecord
100
AcDbBlockTableRecord
  2
_D
340
0
  0
BLOCK_RECORD
  5
295
330
1
100
AcDbSymbolTableRecord
100
AcDbBlockTableRecord
  2
_D_1
340
0
  0
BLOCK_RECORD
  5
2A3
330
1
100
AcDbSymbolTableRecord
100
AcDbBlockTableRecord
  2
_D_2
340
0
  0
BLOCK_RECORD
  5
2AD
330
1
100
AcDbSymbolTableRecord
100
AcDbBlockTableRecord
  2
_D_3
340
0
  0
BLOCK_RECORD
  5
2BB
330
1
100
AcDbSymbolTableRecord
100
AcDbBlockTableRecord
  2
_D_4
340
0
  0
BLOCK_RECORD
  5
2C5
330
1
100
AcDbSymbolTableRecord
100
AcDbBlockTableRecord
  2
_D_5
340
0
  0
BLOCK_RECORD
  5
2E1
330
1
100
AcDbSymbolTableRecord
100
AcDbBlockTableRecord
  2
_D_6
340
0
  0
BLOCK_RECORD
  5
2EB
330
1
100
AcDbSymbolTableRecord
100
AcDbBlockTableRecord
  2
_D_7
340
0
  0
BLOCK_RECORD
  5
2F6
330
1
100
AcDbSymbolTableRecord
100
AcDbBlockTableRecord
  2
_D_8
340
0
  0
BLOCK_RECORD
  5
300
330
1
100
AcDbSymbolTableRecord
100
AcDbBlockTableRecord
  2
_NONE
340
0
  0
BLOCK_RECORD
  5
303
330
1
100
AcDbSymbolTableRecord
100
AcDbBlockTableRecord
  2
_D_9
340
0
  0
BLOCK_RECORD
  5
30D
330
1
100
AcDbSymbolTableRecord
100
AcDbBlockTableRecord
  2
_D_10
340
0
  0
BLOCK_RECORD
  5
317
330
1
100
AcDbSymbolTableRecord
100
AcDbBlockTableRecord
  2
_D_11
340
0
  0
BLOCK_RECORD
  5
322
330
1
100
AcDbSymbolTableRecord
100
AcDbBlockTableRecord
  2
_D_12
340
0
  0
BLOCK_RECORD
  5
32B
330
1
100
AcDbSymbolTableRecord
100
AcDbBlockTableRecord
  2
_D_13
340
0
  0
BLOCK_RECORD
  5
335
330
1
100
AcDbSymbolTableRecord
100
AcDbBlockTableRecord
  2
_D_14
340
0
  0
BLOCK_RECORD
  5
33F
330
1
100
AcDbSymbolTableRecord
100
AcDbBlockTableRecord
  2
SW_CENTERMARKSYMBOL_0
340
0
102
{BLKREFS
331
382
102
}
  0
BLOCK_RECORD
  5
39C
330
1
100
AcDbSymbolTableRecord
100
AcDbBlockTableRecord
  2
_D_15
340
0
  0
BLOCK_RECORD
  5
3A7
330
1
100
AcDbSymbolTableRecord
100
AcDbBlockTableRecord
  2
_D_16
340
0
  0
BLOCK_RECORD
  5
3B1
330
1
100
AcDbSymbolTableRecord
100
AcDbBlockTableRecord
  2
_D_17
340
0
  0
BLOCK_RECORD
  5
3BB
330
1
100
AcDbSymbolTableRecord
100
AcDbBlockTableRecord
  2
_D_18
340
0
  0
BLOCK_RECORD
  5
3C6
330
1
100
AcDbSymbolTableRecord
100
AcDbBlockTableRecord
  2
_D_19
340
0
  0
BLOCK_RECORD
  5
3CE
330
1
100
AcDbSymbolTableRecord
100
AcDbBlockTableRecord
  2
_D_20
340
0
  0
BLOCK_RECORD
  5
3D8
330
1
100
AcDbSymbolTableRecord
100
AcDbBlockTableRecord
  2
_D_21
340
0
  0
BLOCK_RECORD
  5
3E4
330
1
100
AcDbSymbolTableRecord
100
AcDbBlockTableRecord
  2
_D_22
340
0
  0
BLOCK_RECORD
  5
3EE
330
1
100
AcDbSymbolTableRecord
100
AcDbBlockTableRecord
  2
_D_23
340
0
  0
BLOCK_RECORD
  5
3FC
330
1
100
AcDbSymbolTableRecord
100
AcDbBlockTableRecord
  2
_D_24
340
0
  0
BLOCK_RECORD
  5
406
330
1
100
AcDbSymbolTableRecord
100
AcDbBlockTableRecord
  2
_D_25
340
0
  0
BLOCK_RECORD
  5
41A
330
1
100
AcDbSymbolTableRecord
100
AcDbBlockTableRecord
  2
_D_26
340
0
  0
BLOCK_RECORD
  5
427
330
1
100
AcDbSymbolTableRecord
100
AcDbBlockTableRecord
  2
SW_ANGULAR_DIMENSION_0
340
0
102
{BLKREFS
331
430
102
}
  0
BLOCK_RECORD
  5
433
330
1
100
AcDbSymbolTableRecord
100
AcDbBlockTableRecord
  2
_D_27
340
0
  0
BLOCK_RECORD
  5
43D
330
1
100
AcDbSymbolTableRecord
100
AcDbBlockTableRecord
  2
_D_28
340
0
  0
ENDTAB
  0
ENDSEC
  0
SECTION
  2
BLOCKS
  0
BLOCK
  5
20
330
1F
100
AcDbEntity
  8
0
100
AcDbBlockBegin
  2
*Model_Space
 70
     0
 10
0.0
 20
0.0
 30
0.0
  3
*Model_Space
  1

  0
ENDBLK
  5
21
330
1F
100
AcDbEntity
  8
0
100
AcDbBlockEnd
  0
BLOCK
  5
1C
330
1B
100
AcDbEntity
 67
     1
  8
0
100
AcDbBlockBegin
  2
*Paper_Space
 70
     0
 10
0.0
 20
0.0
 30
0.0
  3
*Paper_Space
  1

  0
ENDBLK
  5
1D
330
1B
100
AcDbEntity
 67
     1
  8
0
100
AcDbBlockEnd
  0
BLOCK
  5
24
330
23
100
AcDbEntity
  8
0
100
AcDbBlockBegin
  2
*Paper_Space0
 70
     0
 10
0.0
 20
0.0
 30
0.0
  3
*Paper_Space0
  1

  0
ENDBLK
  5
25
330
23
100
AcDbEntity
  8
0
100
AcDbBlockEnd
  0
BLOCK
  5
DC
330
DB
100
AcDbEntity
  8
0
100
AcDbBlockBegin
  2
SW_NOTE_0
 70
     0
 10
0.0
 20
0.0
 30
0.0
  3
SW_NOTE_0
  1

  0
CIRCLE
  5
DE
330
DB
100
AcDbEntity
  8
SLD-0_0
 62
     0
100
AcDbCircle
 10
4.6685427649
 20
9.6391090565
 30
0.0
 40
10.08004950881138
  0
MTEXT
  5
E0
330
DB
100
AcDbEntity
  8
SLD-0_0
 62
     0
100
AcDbMText
 10
0.0
 20
16.3200536553
 30
0.0
 40
12.7
 41
0.0
 71
     1
 72
     1
  1
4
  7
SLDTEXTSTYLE0
 73
     1
 44
1.0
  0
ENDBLK
  5
DD
330
DB
100
AcDbEntity
  8
0
100
AcDbBlockEnd
  0
BLOCK
  5
E3
330
E2
100
AcDbEntity
  8
0
100
AcDbBlockBegin
  2
SW_NOTE_1
 70
     0
 10
0.0
 20
0.0
 30
0.0
  3
SW_NOTE_1
  1

  0
CIRCLE
  5
E5
330
E2
100
AcDbEntity
  8
SLD-0_0
 62
     0
100
AcDbCircle
 10
4.6556349325
 20
9.6429229549
 30
0.0
 40
10.10394225800687
  0
MTEXT
  5
E6
330
E2
100
AcDbEntity
  8
SLD-0_0
 62
     0
100
AcDbMText
 10
0.0
 20
16.3200536553
 30
0.0
 40
12.7
 41
0.0
 71
     1
 72
     1
  1
3
  7
SLDTEXTSTYLE0
 73
     1
 44
1.0
  0
ENDBLK
  5
E4
330
E2
100
AcDbEntity
  8
0
100
AcDbBlockEnd
  0
BLOCK
  5
E9
330
E8
100
AcDbEntity
  8
0
100
AcDbBlockBegin
  2
SW_NOTE_2
 70
     0
 10
0.0
 20
0.0
 30
0.0
  3
SW_NOTE_2
  1

  0
CIRCLE
  5
EB
330
E8
100
AcDbEntity
  8
SLD-0_0
 62
     0
100
AcDbCircle
 10
4.6253556181
 20
9.608009523
 30
0.0
 40
10.14935229367273
  0
MTEXT
  5
EC
330
E8
100
AcDbEntity
  8
SLD-0_0
 62
     0
100
AcDbMText
 10
0.0
 20
16.3200536553
 30
0.0
 40
12.7
 41
0.0
 71
     1
 72
     1
  1
2
  7
SLDTEXTSTYLE0
 73
     1
 44
1.0
  0
ENDBLK
  5
EA
330
E8
100
AcDbEntity
  8
0
100
AcDbBlockEnd
  0
BLOCK
  5
EF
330
EE
100
AcDbEntity
  8
0
100
AcDbBlockBegin
  2
SW_NOTE_3
 70
     0
 10
0.0
 20
0.0
 30
0.0
  3
SW_NOTE_3
  1

  0
CIRCLE
  5
F1
330
EE
100
AcDbEntity
  8
SLD-0_0
 62
     0
100
AcDbCircle
 10
4.649907391
 20
9.6040953238
 30
0.0
 40
10.12556669663628
  0
MTEXT
  5
F2
330
EE
100
AcDbEntity
  8
SLD-0_0
 62
     0
100
AcDbMText
 10
0.0
 20
16.3200536553
 30
0.0
 40
12.7
 41
0.0
 71
     1
 72
     1
  1
1
  7
SLDTEXTSTYLE0
 73
     1
 44
1.0
  0
ENDBLK
  5
F0
330
EE
100
AcDbEntity
  8
0
100
AcDbBlockEnd
  0
BLOCK
  5
F5
330
F4
100
AcDbEntity
  8
0
100
AcDbBlockBegin
  2
SW_NOTE_4
 70
     0
 10
0.0
 20
0.0
 30
0.0
  3
SW_NOTE_4
  1

  0
MTEXT
  5
F7
330
F4
100
AcDbEntity
  8
CAJETIN
 62
     0
100
AcDbMText
 10
40.18359375
 20
12.2400402414
 30
0.0
 40
9.525
 41
0.0
 71
     2
 72
     1
  1
S-18LEX1000
  7
SLDTEXTSTYLE0
 73
     1
 44
1.0
  0
MTEXT
  5
F8
330
F4
100
AcDbEntity
  8
CAJETIN
 62
     0
100
AcDbMText
 10
42.5593521595
 20
-0.4599596051
 30
0.0
 40
9.525
 41
0.0
 71
     2
 72
     1
  1
DIRECT RADIATION SUBWOOFER
  7
SLDTEXTSTYLE0
 73
     1
 44
1.0
  0
ENDBLK
  5
F6
330
F4
100
AcDbEntity
  8
0
100
AcDbBlockEnd
  0
BLOCK
  5
11A
330
119
100
AcDbEntity
  8
0
100
AcDbBlockBegin
  2
SW_NOTE_5
 70
     0
 10
0.0
 20
0.0
 30
0.0
  3
SW_NOTE_5
  1

  0
MTEXT
  5
11C
330
119
100
AcDbEntity
  8
CAJETIN
 62
     0
100
AcDbMText
 10
0.0
 20
12.2400402414
 30
0.0
 40
9.525
 41
0.0
 71
     1
 72
     1
  1
Birch Plywood
  7
SLDTEXTSTYLE0
 73
     1
 44
1.0
  0
MTEXT
  5
11D
330
119
100
AcDbEntity
  8
CAJETIN
 62
     0
100
AcDbMText
 10
0.0
 20
-0.4599596051
 30
0.0
 40
9.525
 41
0.0
 71
     1
 72
     1
  1
18mm
  7
SLDTEXTSTYLE0
 73
     1
 44
1.0
  0
ENDBLK
  5
11B
330
119
100
AcDbEntity
  8
0
100
AcDbBlockEnd
  0
BLOCK
  5
120
330
11F
100
AcDbEntity
  8
0
100
AcDbBlockBegin
  2
SW_NOTE_6
 70
     0
 10
0.0
 20
0.0
 30
0.0
  3
SW_NOTE_6
  1

  0
CIRCLE
  5
122
330
11F
100
AcDbEntity
  8
SLD-0_0
 62
     0
100
AcDbCircle
 10
4.6424748225
 20
9.6430604838
 30
0.0
 40
10.08004950881153
  0
MTEXT
  5
123
330
11F
100
AcDbEntity
  8
SLD-0_0
 62
     0
100
AcDbMText
 10
0.0
 20
16.3200536553
 30
0.0
 40
12.7
 41
0.0
 71
     1
 72
     1
  1
5
  7
SLDTEXTSTYLE0
 73
     1
 44
1.0
  0
ENDBLK
  5
121
330
11F
100
AcDbEntity
  8
0
100
AcDbBlockEnd
  0
BLOCK
  5
126
330
125
100
AcDbEntity
  8
0
100
AcDbBlockBegin
  2
SW_NOTE_7
 70
     0
 10
0.0
 20
0.0
 30
0.0
  3
SW_NOTE_7
  1

  0
CIRCLE
  5
128
330
125
100
AcDbEntity
  8
SLD-0_0
 62
     0
100
AcDbCircle
 10
4.6647977335
 20
9.632569215
 30
0.0
 40
10.10394225800677
  0
MTEXT
  5
129
330
125
100
AcDbEntity
  8
SLD-0_0
 62
     0
100
AcDbMText
 10
0.0
 20
16.3200536553
 30
0.0
 40
12.7
 41
0.0
 71
     1
 72
     1
  1
7
  7
SLDTEXTSTYLE0
 73
     1
 44
1.0
  0
ENDBLK
  5
127
330
125
100
AcDbEntity
  8
0
100
AcDbBlockEnd
  0
BLOCK
  5
12C
330
12B
100
AcDbEntity
  8
0
100
AcDbBlockBegin
  2
SW_NOTE_8
 70
     0
 10
0.0
 20
0.0
 30
0.0
  3
SW_NOTE_8
  1

  0
CIRCLE
  5
12E
330
12B
100
AcDbEntity
  8
SLD-0_0
 62
     0
100
AcDbCircle
 10
4.6584573803
 20
9.6578704376
 30
0.0
 40
10.12556669663632
  0
MTEXT
  5
12F
330
12B
100
AcDbEntity
  8
SLD-0_0
 62
     0
100
AcDbMText
 10
0.0
 20
16.3200536553
 30
0.0
 40
12.7
 41
0.0
 71
     1
 72
     1
  1
6
  7
SLDTEXTSTYLE0
 73
     1
 44
1.0
  0
ENDBLK
  5
12D
330
12B
100
AcDbEntity
  8
0
100
AcDbBlockEnd
  0
BLOCK
  5
132
330
131
100
AcDbEntity
  8
0
100
AcDbBlockBegin
  2
SW_TABLEANNOTATION_0
 70
     0
 10
0.0
 20
0.0
 30
0.0
  3
SW_TABLEANNOTATION_0
  1

  0
LINE
  5
134
330
131
100
AcDbEntity
  8
CAJETIN
 62
     0
100
AcDbLine
 10
0.0
 20
0.0
 30
0.0
 11
0.0
 21
-203.252238381
 31
0.0
  0
LINE
  5
135
330
131
100
AcDbEntity
  8
CAJETIN
 62
     0
100
AcDbLine
 10
0.0
 20
-203.252238381
 30
0.0
 11
524.1828627233
 21
-203.252238381
 31
0.0
  0
LINE
  5
136
330
131
100
AcDbEntity
  8
CAJETIN
 62
     0
100
AcDbLine
 10
524.1828627233
 20
-203.252238381
 30
0.0
 11
524.1828627233
 21
0.0
 31
0.0
  0
LINE
  5
137
330
131
100
AcDbEntity
  8
CAJETIN
 62
     0
100
AcDbLine
 10
524.1828627233
 20
0.0
 30
0.0
 11
0.0
 21
0.0
 31
0.0
  0
LINE
  5
138
330
131
100
AcDbEntity
  8
CAJETIN
 62
     0
100
AcDbLine
 10
119.1500609111
 20
0.0
 30
0.0
 11
119.1500609111
 21
-35.9852446918
 31
0.0
  0
LINE
  5
139
330
131
100
AcDbEntity
  8
CAJETIN
 62
     0
100
AcDbLine
 10
401.9446123234
 20
0.0
 30
0.0
 11
401.9446123234
 21
-35.9852446918
 31
0.0
  0
LINE
  5
13A
330
131
100
AcDbEntity
  8
CAJETIN
 62
     0
100
AcDbLine
 10
119.1500609111
 20
-35.9852446918
 30
0.0
 11
119.1500609111
 21
-203.252238381
 31
0.0
  0
LINE
  5
13B
330
131
100
AcDbEntity
  8
CAJETIN
 62
     0
100
AcDbLine
 10
401.9446123234
 20
-35.9852446918
 30
0.0
 11
401.9446123234
 21
-203.252238381
 31
0.0
  0
LINE
  5
13C
330
131
100
AcDbEntity
  8
CAJETIN
 62
     0
100
AcDbLine
 10
0.0
 20
-59.8805295046
 30
0.0
 11
524.1828627233
 21
-59.8805295046
 31
0.0
  0
LINE
  5
13D
330
131
100
AcDbEntity
  8
CAJETIN
 62
     0
100
AcDbLine
 10
0.0
 20
-83.7758143173
 30
0.0
 11
524.1828627233
 21
-83.7758143173
 31
0.0
  0
LINE
  5
13E
330
131
100
AcDbEntity
  8
CAJETIN
 62
     0
100
AcDbLine
 10
0.0
 20
-107.6710991301
 30
0.0
 11
524.1828627233
 21
-107.6710991301
 31
0.0
  0
LINE
  5
13F
330
131
100
AcDbEntity
  8
CAJETIN
 62
     0
100
AcDbLine
 10
0.0
 20
-131.5663839428
 30
0.0
 11
524.1828627233
 21
-131.5663839428
 31
0.0
  0
LINE
  5
140
330
131
100
AcDbEntity
  8
CAJETIN
 62
     0
100
AcDbLine
 10
0.0
 20
-155.4616687556
 30
0.0
 11
524.1828627233
 21
-155.4616687556
 31
0.0
  0
LINE
  5
141
330
131
100
AcDbEntity
  8
CAJETIN
 62
     0
100
AcDbLine
 10
0.0
 20
-179.3569535683
 30
0.0
 11
524.1828627233
 21
-179.3569535683
 31
0.0
  0
LINE
  5
142
330
131
100
AcDbEntity
  8
CAJETIN
 62
     0
100
AcDbLine
 10
0.0
 20
-35.9852446918
 30
0.0
 11
524.1828627233
 21
-35.9852446918
 31
0.0
  0
MTEXT
  5
143
330
131
100
AcDbEntity
  8
CAJETIN
 62
     0
100
AcDbMText
 10
25.4379006719
 20
-11.720048533
 30
0.0
 40
12.7
 41
0.0
 71
     1
 72
     1
  1
ITEM N.º
  7
SLDTEXTSTYLE0
 73
     1
 44
1.0
  0
MTEXT
  5
144
330
131
100
AcDbEntity
  8
CAJETIN
 62
     0
100
AcDbMText
 10
175.8806672485
 20
-11.720048533
 30
0.0
 40
12.7
 41
0.0
 71
     1
 72
     1
  1
PARTS DIMENSIONS
  7
SLDTEXTSTYLE0
 73
     1
 44
1.0
  0
MTEXT
  5
145
330
131
100
AcDbEntity
  8
CAJETIN
 62
     0
100
AcDbMText
 10
445.6600343404
 20
-11.720048533
 30
0.0
 40
12.7
 41
0.0
 71
     1
 72
     1
  1
QTY
  7
SLDTEXTSTYLE0
 73
     1
 44
1.0
  0
MTEXT
  5
147
330
131
100
AcDbEntity
  8
CAJETIN
 62
     0
100
AcDbMText
 10
54.883085998
 20
-41.582602813
 30
0.0
 40
12.7
 41
0.0
 71
     1
 72
     1
  1
1
  7
SLDTEXTSTYLE2
 73
     1
 44
1.0
  0
MTEXT
  5
149
330
131
100
AcDbEntity
  8
CAJETIN
 62
     0
100
AcDbMText
 10
205.514006743
 20
-41.582602813
 30
0.0
 40
12.7
 41
0.0
 71
     1
 72
     1
  1
800 x 600 x 18
  7
SLDTEXTSTYLE3
 73
     1
 44
1.0
  0
MTEXT
  5
14A
330
131
100
AcDbEntity
  8
CAJETIN
 62
     0
100
AcDbMText
 10
458.3717930657
 20
-41.582602813
 30
0.0
 40
12.7
 41
0.0
 71
     1
 72
     1
  1
2
  7
SLDTEXTSTYLE2
 73
     1
 44
1.0
  0
MTEXT
  5
14B
330
131
100
AcDbEntity
  8
CAJETIN
 62
     0
100
AcDbMText
 10
54.883085998
 20
-65.4778876258
 30
0.0
 40
12.7
 41
0.0
 71
     1
 72
     1
  1
2
  7
SLDTEXTSTYLE2
 73
     1
 44
1.0
  0
MTEXT
  5
14C
330
131
100
AcDbEntity
  8
CAJETIN
 62
     0
100
AcDbMText
 10
204.4321563633
 20
-65.4778876258
 30
0.0
 40
12.7
 41
0.0
 71
     1
 72
     1
  1
564 X 500 x 18
  7
SLDTEXTSTYLE3
 73
     1
 44
1.0
  0
MTEXT
  5
14D
330
131
100
AcDbEntity
  8
CAJETIN
 62
     0
100
AcDbMText
 10
458.3717930657
 20
-65.4778876258
 30
0.0
 40
12.7
 41
0.0
 71
     1
 72
     1
  1
1
  7
SLDTEXTSTYLE2
 73
     1
 44
1.0
  0
MTEXT
  5
14E
330
131
100
AcDbEntity
  8
CAJETIN
 62
     0
100
AcDbMText
 10
54.883085998
 20
-89.3731724385
 30
0.0
 40
12.7
 41
0.0
 71
     1
 72
     1
  1
3
  7
SLDTEXTSTYLE2
 73
     1
 44
1.0
  0
MTEXT
  5
14F
330
131
100
AcDbEntity
  8
CAJETIN
 62
     0
100
AcDbMText
 10
205.514006743
 20
-89.3731724385
 30
0.0
 40
12.7
 41
0.0
 71
     1
 72
     1
  1
800 x 500 x 18
  7
SLDTEXTSTYLE3
 73
     1
 44
1.0
  0
MTEXT
  5
150
330
131
100
AcDbEntity
  8
CAJETIN
 62
     0
100
AcDbMText
 10
458.3717930657
 20
-89.3731724385
 30
0.0
 40
12.7
 41
0.0
 71
     1
 72
     1
  1
2
  7
SLDTEXTSTYLE2
 73
     1
 44
1.0
  0
MTEXT
  5
151
330
131
100
AcDbEntity
  8
CAJETIN
 62
     0
100
AcDbMText
 10
54.883085998
 20
-113.2684572513
 30
0.0
 40
12.7
 41
0.0
 71
     1
 72
     1
  1
4
  7
SLDTEXTSTYLE2
 73
     1
 44
1.0
  0
MTEXT
  5
152
330
131
100
AcDbEntity
  8
CAJETIN
 62
     0
100
AcDbMText
 10
205.514006743
 20
-113.2684572513
 30
0.0
 40
12.7
 41
0.0
 71
     1
 72
     1
  1
564 x 500 x 18
  7
SLDTEXTSTYLE3
 73
     1
 44
1.0
  0
MTEXT
  5
153
330
131
100
AcDbEntity
  8
CAJETIN
 62
     0
100
AcDbMText
 10
458.3717930657
 20
-113.2684572513
 30
0.0
 40
12.7
 41
0.0
 71
     1
 72
     1
  1
1
  7
SLDTEXTSTYLE2
 73
     1
 44
1.0
  0
MTEXT
  5
154
330
131
100
AcDbEntity
  8
CAJETIN
 62
     0
100
AcDbMText
 10
54.883085998
 20
-137.163742064
 30
0.0
 40
12.7
 41
0.0
 71
     1
 72
     1
  1
5
  7
SLDTEXTSTYLE2
 73
     1
 44
1.0
  0
MTEXT
  5
155
330
131
100
AcDbEntity
  8
CAJETIN
 62
     0
100
AcDbMText
 10
205.514006743
 20
-137.163742064
 30
0.0
 40
12.7
 41
0.0
 71
     1
 72
     1
  1
285 x 234 x 18
  7
SLDTEXTSTYLE3
 73
     1
 44
1.0
  0
MTEXT
  5
156
330
131
100
AcDbEntity
  8
CAJETIN
 62
     0
100
AcDbMText
 10
458.3717930657
 20
-137.163742064
 30
0.0
 40
12.7
 41
0.0
 71
     1
 72
     1
  1
2
  7
SLDTEXTSTYLE2
 73
     1
 44
1.0
  0
MTEXT
  5
157
330
131
100
AcDbEntity
  8
CAJETIN
 62
     0
100
AcDbMText
 10
54.883085998
 20
-161.0590268768
 30
0.0
 40
12.7
 41
0.0
 71
     1
 72
     1
  1
6
  7
SLDTEXTSTYLE2
 73
     1
 44
1.0
  0
MTEXT
  5
158
330
131
100
AcDbEntity
  8
CAJETIN
 62
     0
100
AcDbMText
 10
205.514006743
 20
-161.0590268768
 30
0.0
 40
12.7
 41
0.0
 71
     1
 72
     1
  1
564 x 230 x 18
  7
SLDTEXTSTYLE3
 73
     1
 44
1.0
  0
MTEXT
  5
159
330
131
100
AcDbEntity
  8
CAJETIN
 62
     0
100
AcDbMText
 10
458.3717930657
 20
-161.0590268768
 30
0.0
 40
12.7
 41
0.0
 71
     1
 72
     1
  1
1
  7
SLDTEXTSTYLE2
 73
     1
 44
1.0
  0
MTEXT
  5
15A
330
131
100
AcDbEntity
  8
CAJETIN
 62
     0
100
AcDbMText
 10
54.883085998
 20
-184.9543116895
 30
0.0
 40
12.7
 41
0.0
 71
     1
 72
     1
  1
7
  7
SLDTEXTSTYLE2
 73
     1
 44
1.0
  0
MTEXT
  5
15C
330
131
100
AcDbEntity
  8
CAJETIN
 62
     0
100
AcDbMText
 10
210.2059502692
 20
-184.9543116895
 30
0.0
 40
12.7
 41
0.0
 71
     1
 72
     1
  1
500 x 85 x 18
  7
SLDTEXTSTYLE4
 73
     1
 44
1.0
  0
MTEXT
  5
15D
330
131
100
AcDbEntity
  8
CAJETIN
 62
     0
100
AcDbMText
 10
458.3717930657
 20
-184.9543116895
 30
0.0
 40
12.7
 41
0.0
 71
     1
 72
     1
  1
1
  7
SLDTEXTSTYLE2
 73
     1
 44
1.0
  0
ENDBLK
  5
133
330
131
100
AcDbEntity
  8
0
100
AcDbBlockEnd
  0
BLOCK
  5
23E
330
23D
100
AcDbEntity
  8
0
100
AcDbBlockBegin
  2
SW_NOTE_9
 70
     0
 10
0.0
 20
0.0
 30
0.0
  3
SW_NOTE_9
  1

  0
CIRCLE
  5
240
330
23D
100
AcDbEntity
  8
SLD-0_0
 62
     0
100
AcDbCircle
 10
-14.742445966
 20
10.3337166412
 30
0.0
 40
18.00348334851928
  0
MTEXT
  5
241
330
23D
100
AcDbEntity
  8
SLD-0_0
 62
     0
100
AcDbMText
 10
-14.683649768
 20
17.4247800836
 30
0.0
 40
12.7
 41
0.0
 71
     2
 72
     1
  1
1
  7
SLDTEXTSTYLE0
 73
     1
 44
1.0
  0
ENDBLK
  5
23F
330
23D
100
AcDbEntity
  8
0
100
AcDbBlockEnd
  0
BLOCK
  5
245
330
244
100
AcDbEntity
  8
0
100
AcDbBlockBegin
  2
_DOT
 70
     0
 10
0.0
 20
0.0
 30
0.0
  3
_DOT
  1

  0
POLYLINE
  5
247
330
244
100
AcDbEntity
  8
0
  6
ByBlock
 62
     0
100
AcDb2dPolyline
 66
     1
 10
0.0
 20
0.0
 30
0.0
 70
     1
 40
0.5
 41
0.5
  0
VERTEX
  5
249
330
247
100
AcDbEntity
  8
0
  6
ByBlock
 62
     0
100
AcDbVertex
100
AcDb2dVertex
 10
-0.25
 20
0.0
 30
0.0
 42
1.0
  0
VERTEX
  5
24A
330
247
100
AcDbEntity
  8
0
  6
ByBlock
 62
     0
100
AcDbVertex
100
AcDb2dVertex
 10
0.25
 20
0.0
 30
0.0
 42
1.0
  0
SEQEND
  5
24B
330
247
100
AcDbEntity
  8
0
  6
ByBlock
 62
     0
  0
LINE
  5
248
330
244
100
AcDbEntity
  8
0
  6
ByBlock
 62
     0
370
    -2
100
AcDbLine
 10
-0.5
 20
0.0
 30
0.0
 11
-1.0
 21
0.0
 31
0.0
  0
ENDBLK
  5
246
330
244
100
AcDbEntity
  8
0
100
AcDbBlockEnd
  0
BLOCK
  5
24E
330
24D
100
AcDbEntity
  8
0
100
AcDbBlockBegin
  2
SW_NOTE_10
 70
     0
 10
0.0
 20
0.0
 30
0.0
  3
SW_NOTE_10
  1

  0
CIRCLE
  5
250
330
24D
100
AcDbEntity
  8
SLD-0_0
 62
     0
100
AcDbCircle
 10
15.1862852651
 20
9.6696511068
 30
0.0
 40
18.00348334851928
  0
MTEXT
  5
251
330
24D
100
AcDbEntity
  8
SLD-0_0
 62
     0
100
AcDbMText
 10
15.245081463
 20
16.7607145492
 30
0.0
 40
12.7
 41
0.0
 71
     2
 72
     1
  1
6
  7
SLDTEXTSTYLE0
 73
     1
 44
1.0
  0
ENDBLK
  5
24F
330
24D
100
AcDbEntity
  8
0
100
AcDbBlockEnd
  0
BLOCK
  5
255
330
254
100
AcDbEntity
  8
0
100
AcDbBlockBegin
  2
SW_NOTE_11
 70
     0
 10
0.0
 20
0.0
 30
0.0
  3
SW_NOTE_11
  1

  0
CIRCLE
  5
257
330
254
100
AcDbEntity
  8
SLD-0_0
 62
     0
100
AcDbCircle
 10
11.8899732897
 20
13.5186518504
 30
0.0
 40
18.00348334851923
  0
MTEXT
  5
258
330
254
100
AcDbEntity
  8
SLD-0_0
 62
     0
100
AcDbMText
 10
11.9487694876
 20
20.6097152927
 30
0.0
 40
12.7
 41
0.0
 71
     2
 72
     1
  1
7
  7
SLDTEXTSTYLE0
 73
     1
 44
1.0
  0
ENDBLK
  5
256
330
254
100
AcDbEntity
  8
0
100
AcDbBlockEnd
  0
BLOCK
  5
25C
330
25B
100
AcDbEntity
  8
0
100
AcDbBlockBegin
  2
SW_NOTE_12
 70
     0
 10
0.0
 20
0.0
 30
0.0
  3
SW_NOTE_12
  1

  0
CIRCLE
  5
25E
330
25B
100
AcDbEntity
  8
SLD-0_0
 62
     0
100
AcDbCircle
 10
11.9335143879
 20
13.480231713
 30
0.0
 40
18.00348334851928
  0
MTEXT
  5
25F
330
25B
100
AcDbEntity
  8
SLD-0_0
 62
     0
100
AcDbMText
 10
11.9923105858
 20
20.5712951553
 30
0.0
 40
12.7
 41
0.0
 71
     2
 72
     1
  1
2
  7
SLDTEXTSTYLE0
 73
     1
 44
1.0
  0
ENDBLK
  5
25D
330
25B
100
AcDbEntity
  8
0
100
AcDbBlockEnd
  0
BLOCK
  5
263
330
262
100
AcDbEntity
  8
0
100
AcDbBlockBegin
  2
SW_NOTE_13
 70
     0
 10
0.0
 20
0.0
 30
0.0
  3
SW_NOTE_13
  1

  0
CIRCLE
  5
265
330
262
100
AcDbEntity
  8
SLD-0_0
 62
     0
100
AcDbCircle
 10
17.5791910235
 20
3.8855444457
 30
0.0
 40
18.00348334851921
  0
MTEXT
  5
266
330
262
100
AcDbEntity
  8
SLD-0_0
 62
     0
100
AcDbMText
 10
17.6379872214
 20
10.9766078881
 30
0.0
 40
12.7
 41
0.0
 71
     2
 72
     1
  1
3
  7
SLDTEXTSTYLE0
 73
     1
 44
1.0
  0
ENDBLK
  5
264
330
262
100
AcDbEntity
  8
0
100
AcDbBlockEnd
  0
BLOCK
  5
26A
330
269
100
AcDbEntity
  8
0
100
AcDbBlockBegin
  2
SW_NOTE_14
 70
     0
 10
0.0
 20
0.0
 30
0.0
  3
SW_NOTE_14
  1

  0
CIRCLE
  5
26C
330
269
100
AcDbEntity
  8
SLD-0_0
 62
     0
100
AcDbCircle
 10
-17.3948296328
 20
-4.6416930883
 30
0.0
 40
18.00348334851925
  0
MTEXT
  5
26D
330
269
100
AcDbEntity
  8
SLD-0_0
 62
     0
100
AcDbMText
 10
-17.3360334349
 20
2.4493703541
 30
0.0
 40
12.7
 41
0.0
 71
     2
 72
     1
  1
4
  7
SLDTEXTSTYLE0
 73
     1
 44
1.0
  0
ENDBLK
  5
26B
330
269
100
AcDbEntity
  8
0
100
AcDbBlockEnd
  0
BLOCK
  5
271
330
270
100
AcDbEntity
  8
0
100
AcDbBlockBegin
  2
SW_NOTE_15
 70
     0
 10
0.0
 20
0.0
 30
0.0
  3
SW_NOTE_15
  1

  0
CIRCLE
  5
273
330
270
100
AcDbEntity
  8
SLD-0_0
 62
     0
100
AcDbCircle
 10
-16.9485472244
 20
-6.0722450265
 30
0.0
 40
18.00348334851925
  0
MTEXT
  5
274
330
270
100
AcDbEntity
  8
SLD-0_0
 62
     0
100
AcDbMText
 10
-16.8897510265
 20
1.0188184159
 30
0.0
 40
12.7
 41
0.0
 71
     2
 72
     1
  1
1
  7
SLDTEXTSTYLE0
 73
     1
 44
1.0
  0
ENDBLK
  5
272
330
270
100
AcDbEntity
  8
0
100
AcDbBlockEnd
  0
BLOCK
  5
278
330
277
100
AcDbEntity
  8
0
100
AcDbBlockBegin
  2
SW_NOTE_16
 70
     0
 10
0.0
 20
0.0
 30
0.0
  3
SW_NOTE_16
  1

  0
CIRCLE
  5
27A
330
277
100
AcDbEntity
  8
SLD-0_0
 62
     0
100
AcDbCircle
 10
-9.5780270884
 20
15.2442385764
 30
0.0
 40
18.00348334851921
  0
MTEXT
  5
27B
330
277
100
AcDbEntity
  8
SLD-0_0
 62
     0
100
AcDbMText
 10
-9.5192308904
 20
22.3353020188
 30
0.0
 40
12.7
 41
0.0
 71
     2
 72
     1
  1
3
  7
SLDTEXTSTYLE0
 73
     1
 44
1.0
  0
ENDBLK
  5
279
330
277
100
AcDbEntity
  8
0
100
AcDbBlockEnd
  0
BLOCK
  5
27F
330
27E
100
AcDbEntity
  8
0
100
AcDbBlockBegin
  2
SW_NOTE_17
 70
     0
 10
0.0
 20
0.0
 30
0.0
  3
SW_NOTE_17
  1

  0
CIRCLE
  5
281
330
27E
100
AcDbEntity
  8
SLD-0_0
 62
     0
100
AcDbCircle
 10
3.6664277162
 20
17.6261941576
 30
0.0
 40
18.00348334851921
  0
MTEXT
  5
282
330
27E
100
AcDbEntity
  8
SLD-0_0
 62
     0
100
AcDbMText
 10
3.7252239141
 20
24.7172576
 30
0.0
 40
12.7
 41
0.0
 71
     2
 72
     1
  1
5
  7
SLDTEXTSTYLE0
 73
     1
 44
1.0
  0
ENDBLK
  5
280
330
27E
100
AcDbEntity
  8
0
100
AcDbBlockEnd
  0
BLOCK
  5
28C
330
28B
100
AcDbEntity
  8
0
100
AcDbBlockBegin
  2
_D
 70
     0
 10
0.0
 20
0.0
 30
0.0
  3
_D
  1

  0
SOLID
  5
28E
330
28B
100
AcDbEntity
  8
SLD-0_0
100
AcDbTrace
 10
877.4135801889
 20
966.0106181236
 30
0.0
 11
874.1115801889
 21
966.5186181236
 31
0.0
 12
874.1115801889
 22
965.5026181236
 32
0.0
 13
874.1115801889
 23
965.5026181236
 33
0.0
  0
SOLID
  5
28F
330
28B
100
AcDbEntity
  8
SLD-0_0
100
AcDbTrace
 10
77.4135801889
 20
966.0106181236
 30
0.0
 11
80.7155801889
 21
965.5026181236
 31
0.0
 12
80.7155801889
 22
966.5186181236
 32
0.0
 13
80.7155801889
 23
966.5186181236
 33
0.0
  0
LINE
  5
290
330
28B
100
AcDbEntity
  8
SLD-0_0
100
AcDbLine
 10
877.4135801889
 20
1003.0106181236
 30
0.0
 11
877.4135801889
 21
965.0106181236
 31
0.0
  0
LINE
  5
291
330
28B
100
AcDbEntity
  8
SLD-0_0
100
AcDbLine
 10
77.4135801889
 20
1003.0106181236
 30
0.0
 11
77.4135801889
 21
965.0106181236
 31
0.0
  0
LINE
  5
292
330
28B
100
AcDbEntity
  8
SLD-0_0
100
AcDbLine
 10
877.4135801889
 20
966.0106181236
 30
0.0
 11
77.4135801889
 21
966.0106181236
 31
0.0
  0
MTEXT
  5
293
330
28B
100
AcDbEntity
  8
SLD-0_0
100
AcDbMText
 10
447.1519146724
 20
982.3817784187
 30
0.0
 40
12.7
 41
0.0
 71
     1
 72
     1
  1
800
  7
SLDTEXTSTYLE0
 73
     1
 44
1.0
  0
ENDBLK
  5
28D
330
28B
100
AcDbEntity
  8
0
100
AcDbBlockEnd
  0
BLOCK
  5
296
330
295
100
AcDbEntity
  8
0
100
AcDbBlockBegin
  2
_D_1
 70
     0
 10
0.0
 20
0.0
 30
0.0
  3
_D_1
  1

  0
SOLID
  5
298
330
295
100
AcDbEntity
  8
SLD-0_0
100
AcDbTrace
 10
901.4135801889
 20
1004.0106181236
 30
0.0
 11
901.9215801889
 21
1007.3126181236
 31
0.0
 12
900.9055801889
 22
1007.3126181236
 32
0.0
 13
900.9055801889
 23
1007.3126181236
 33
0.0
  0
SOLID
  5
299
330
295
100
AcDbEntity
  8
SLD-0_0
100
AcDbTrace
 10
901.4135801889
 20
1604.0106181236
 30
0.0
 11
900.9055801889
 21
1600.7086181236
 31
0.0
 12
901.9215801889
 22
1600.7086181236
 32
0.0
 13
901.9215801889
 23
1600.7086181236
 33
0.0
  0
LINE
  5
29A
330
295
100
AcDbEntity
  8
SLD-0_0
100
AcDbLine
 10
878.4135801889
 20
1004.0106181236
 30
0.0
 11
902.4135801889
 21
1004.0106181236
 31
0.0
  0
LINE
  5
29B
330
295
100
AcDbEntity
  8
SLD-0_0
100
AcDbLine
 10
878.4135801889
 20
1604.0106181236
 30
0.0
 11
902.4135801889
 21
1604.0106181236
 31
0.0
  0
LINE
  5
29C
330
295
100
AcDbEntity
  8
SLD-0_0
100
AcDbLine
 10
901.4135801889
 20
1004.0106181236
 30
0.0
 11
901.4135801889
 21
1604.0106181236
 31
0.0
  0
MTEXT
  5
29D
330
295
100
AcDbEntity
  8
SLD-0_0
100
AcDbMText
 10
885.0424198938
 20
1278.0959602728
 30
0.0
 40
12.7
 41
0.0
 71
     1
 72
     1
  1
600
  7
SLDTEXTSTYLE0
 11
-3.713525943768165E-15
 21
1.0
 31
0.0
 73
     1
 44
1.0
  0
ENDBLK
  5
297
330
295
100
AcDbEntity
  8
0
100
AcDbBlockEnd
  0
BLOCK
  5
2A4
330
2A3
100
AcDbEntity
  8
0
100
AcDbBlockBegin
  2
_D_2
 70
     0
 10
0.0
 20
0.0
 30
0.0
  3
_D_2
  1

  0
SOLID
  5
2A6
330
2A3
100
AcDbEntity
  8
SLD-0_0
100
AcDbTrace
 10
1540.6975930614
 20
1030.0106181236
 30
0.0
 11
1543.9995930614
 21
1029.5026181236
 31
0.0
 12
1543.9995930614
 22
1030.5186181236
 32
0.0
 13
1543.9995930614
 23
1030.5186181236
 33
0.0
  0
SOLID
  5
2A7
330
2A3
100
AcDbEntity
  8
SLD-0_0
100
AcDbTrace
 10
2340.6975930614
 20
1030.0106181235
 30
0.0
 11
2337.3955930614
 21
1030.5186181235
 31
0.0
 12
2337.3955930614
 22
1029.5026181235
 32
0.0
 13
2337.3955930614
 23
1029.5026181235
 33
0.0
  0
LINE
  5
2A8
330
2A3
100
AcDbEntity
  8
SLD-0_0
100
AcDbLine
 10
1540.6975930614
 20
1053.0106181236
 30
0.0
 11
1540.6975930614
 21
1029.0106181236
 31
0.0
  0
LINE
  5
2A9
330
2A3
100
AcDbEntity
  8
SLD-0_0
100
AcDbLine
 10
2340.6975930614
 20
1053.0106181236
 30
0.0
 11
2340.6975930614
 21
1029.0106181235
 31
0.0
  0
LINE
  5
2AA
330
2A3
100
AcDbEntity
  8
SLD-0_0
100
AcDbLine
 10
1540.6975930614
 20
1030.0106181236
 30
0.0
 11
2340.6975930614
 21
1030.0106181235
 31
0.0
  0
MTEXT
  5
2AB
330
2A3
100
AcDbEntity
  8
SLD-0_0
100
AcDbMText
 10
1923.198500517
 20
1046.3817784187
 30
0.0
 40
12.7
 41
0.0
 71
     1
 72
     1
  1
800
  7
SLDTEXTSTYLE0
 73
     1
 44
1.0
  0
ENDBLK
  5
2A5
330
2A3
100
AcDbEntity
  8
0
100
AcDbBlockEnd
  0
BLOCK
  5
2AE
330
2AD
100
AcDbEntity
  8
0
100
AcDbBlockBegin
  2
_D_3
 70
     0
 10
0.0
 20
0.0
 30
0.0
  3
_D_3
  1

  0
SOLID
  5
2B0
330
2AD
100
AcDbEntity
  8
SLD-0_0
100
AcDbTrace
 10
2364.6975930614
 20
1554.0106181236
 30
0.0
 11
2364.1895930614
 21
1550.7086181236
 31
0.0
 12
2365.2055930614
 22
1550.7086181236
 32
0.0
 13
2365.2055930614
 23
1550.7086181236
 33
0.0
  0
SOLID
  5
2B1
330
2AD
100
AcDbEntity
  8
SLD-0_0
100
AcDbTrace
 10
2364.6975930614
 20
1054.0106181236
 30
0.0
 11
2365.2055930614
 21
1057.3126181236
 31
0.0
 12
2364.1895930614
 22
1057.3126181236
 32
0.0
 13
2364.1895930614
 23
1057.3126181236
 33
0.0
  0
LINE
  5
2B2
330
2AD
100
AcDbEntity
  8
SLD-0_0
100
AcDbLine
 10
2341.6975930614
 20
1554.0106181236
 30
0.0
 11
2365.6975930614
 21
1554.0106181236
 31
0.0
  0
LINE
  5
2B3
330
2AD
100
AcDbEntity
  8
SLD-0_0
100
AcDbLine
 10
2341.6975930614
 20
1054.0106181236
 30
0.0
 11
2365.6975930614
 21
1054.0106181236
 31
0.0
  0
LINE
  5
2B4
330
2AD
100
AcDbEntity
  8
SLD-0_0
100
AcDbLine
 10
2364.6975930614
 20
1554.0106181236
 30
0.0
 11
2364.6975930614
 21
1054.0106181236
 31
0.0
  0
MTEXT
  5
2B5
330
2AD
100
AcDbEntity
  8
SLD-0_0
100
AcDbMText
 10
2348.3264327663
 20
1299.2503451281
 30
0.0
 40
12.7
 41
0.0
 71
     1
 72
     1
  1
500
  7
SLDTEXTSTYLE0
 11
6.123233995736766E-17
 21
1.0
 31
0.0
 73
     1
 44
1.0
  0
ENDBLK
  5
2AF
330
2AD
100
AcDbEntity
  8
0
100
AcDbBlockEnd
  0
BLOCK
  5
2BC
330
2BB
100
AcDbEntity
  8
0
100
AcDbBlockBegin
  2
_D_4
 70
     0
 10
0.0
 20
0.0
 30
0.0
  3
_D_4
  1

  0
SOLID
  5
2BE
330
2BB
100
AcDbEntity
  8
SLD-0_0
100
AcDbTrace
 10
1520.5924443777
 20
1554.0106181236
 30
0.0
 11
1520.0844443777
 21
1550.7086181236
 31
0.0
 12
1521.1004443777
 22
1550.7086181236
 32
0.0
 13
1521.1004443777
 23
1550.7086181236
 33
0.0
  0
SOLID
  5
2BF
330
2BB
100
AcDbEntity
  8
SLD-0_0
100
AcDbTrace
 10
1520.5924443777
 20
1054.0106181236
 30
0.0
 11
1521.1004443777
 21
1057.3126181236
 31
0.0
 12
1520.0844443777
 22
1057.3126181236
 32
0.0
 13
1520.0844443777
 23
1057.3126181236
 33
0.0
  0
LINE
  5
2C0
330
2BB
100
AcDbEntity
  8
SLD-0_0
100
AcDbLine
 10
1497.4770020808
 20
1554.0106181236
 30
0.0
 11
1521.5924443777
 21
1554.0106181236
 31
0.0
  0
LINE
  5
2C1
330
2BB
100
AcDbEntity
  8
SLD-0_0
100
AcDbLine
 10
1497.4770020808
 20
1054.0106181236
 30
0.0
 11
1521.5924443777
 21
1054.0106181236
 31
0.0
  0
LINE
  5
2C2
330
2BB
100
AcDbEntity
  8
SLD-0_0
100
AcDbLine
 10
1520.5924443777
 20
1554.0106181236
 30
0.0
 11
1520.5924443777
 21
1054.0106181236
 31
0.0
  0
MTEXT
  5
2C3
330
2BB
100
AcDbEntity
  8
SLD-0_0
100
AcDbMText
 10
1504.2212840826
 20
1320.3365667973
 30
0.0
 40
12.7
 41
0.0
 71
     1
 72
     1
  1
500
  7
SLDTEXTSTYLE0
 11
-7.044195017643634E-15
 21
1.0
 31
0.0
 73
     1
 44
1.0
  0
ENDBLK
  5
2BD
330
2BB
100
AcDbEntity
  8
0
100
AcDbBlockEnd
  0
BLOCK
  5
2C6
330
2C5
100
AcDbEntity
  8
0
100
AcDbBlockBegin
  2
_D_5
 70
     0
 10
0.0
 20
0.0
 30
0.0
  3
_D_5
  1

  0
SOLID
  5
2C8
330
2C5
100
AcDbEntity
  8
SLD-0_0
100
AcDbTrace
 10
1496.4770020808
 20
1030.0106181236
 30
0.0
 11
1493.1750020808
 21
1030.5186181236
 31
0.0
 12
1493.1750020808
 22
1029.5026181236
 32
0.0
 13
1493.1750020808
 23
1029.5026181236
 33
0.0
  0
SOLID
  5
2C9
330
2C5
100
AcDbEntity
  8
SLD-0_0
100
AcDbTrace
 10
932.4770020808
 20
1030.0106181236
 30
0.0
 11
935.7790020808
 21
1029.5026181236
 31
0.0
 12
935.7790020808
 22
1030.5186181236
 32
0.0
 13
935.7790020808
 23
1030.5186181236
 33
0.0
  0
LINE
  5
2CA
330
2C5
100
AcDbEntity
  8
SLD-0_0
100
AcDbLine
 10
1496.4770020808
 20
1053.0106181236
 30
0.0
 11
1496.4770020808
 21
1029.0106181236
 31
0.0
  0
LINE
  5
2CB
330
2C5
100
AcDbEntity
  8
SLD-0_0
100
AcDbLine
 10
932.4770020808
 20
1053.0106181236
 30
0.0
 11
932.4770020808
 21
1029.0106181236
 31
0.0
  0
LINE
  5
2CC
330
2C5
100
AcDbEntity
  8
SLD-0_0
100
AcDbLine
 10
1496.4770020808
 20
1030.0106181236
 30
0.0
 11
932.4770020808
 21
1030.0106181236
 31
0.0
  0
MTEXT
  5
2CD
330
2C5
100
AcDbEntity
  8
SLD-0_0
100
AcDbMText
 10
1221.8893518362
 20
1046.3817784187
 30
0.0
 40
12.7
 41
0.0
 71
     1
 72
     1
  1
564
  7
SLDTEXTSTYLE0
 73
     1
 44
1.0
  0
ENDBLK
  5
2C7
330
2C5
100
AcDbEntity
  8
0
100
AcDbBlockEnd
  0
BLOCK
  5
2E2
330
2E1
100
AcDbEntity
  8
0
100
AcDbBlockBegin
  2
_D_6
 70
     0
 10
0.0
 20
0.0
 30
0.0
  3
_D_6
  1

  0
SOLID
  5
2E4
330
2E1
100
AcDbEntity
  8
SLD-0_0
100
AcDbTrace
 10
914.8808200609
 20
862.0650381397
 30
0.0
 11
918.1828200609
 21
861.5570381397
 31
0.0
 12
918.1828200609
 22
862.5730381397
 32
0.0
 13
918.1828200609
 23
862.5730381397
 33
0.0
  0
SOLID
  5
2E5
330
2E1
100
AcDbEntity
  8
SLD-0_0
100
AcDbTrace
 10
1478.8808200609
 20
862.0650381397
 30
0.0
 11
1475.5788200609
 21
862.5730381397
 31
0.0
 12
1475.5788200609
 22
861.5570381397
 32
0.0
 13
1475.5788200609
 23
861.5570381397
 33
0.0
  0
LINE
  5
2E6
330
2E1
100
AcDbEntity
  8
SLD-0_0
100
AcDbLine
 10
914.8808200609
 20
687.566696003
 30
0.0
 11
914.8808200609
 21
863.0650381397
 31
0.0
  0
LINE
  5
2E7
330
2E1
100
AcDbEntity
  8
SLD-0_0
100
AcDbLine
 10
1478.8808200609
 20
687.566696003
 30
0.0
 11
1478.8808200609
 21
863.0650381397
 31
0.0
  0
LINE
  5
2E8
330
2E1
100
AcDbEntity
  8
SLD-0_0
100
AcDbLine
 10
914.8808200609
 20
862.0650381397
 30
0.0
 11
1478.8808200609
 21
862.0650381397
 31
0.0
  0
MTEXT
  5
2E9
330
2E1
100
AcDbEntity
  8
SLD-0_0
100
AcDbMText
 10
1178.5703727274
 20
878.4361984348
 30
0.0
 40
12.7
 41
0.0
 71
     1
 72
     1
  1
564
  7
SLDTEXTSTYLE0
 73
     1
 44
1.0
  0
ENDBLK
  5
2E3
330
2E1
100
AcDbEntity
  8
0
100
AcDbBlockEnd
  0
BLOCK
  5
2EC
330
2EB
100
AcDbEntity
  8
0
100
AcDbBlockBegin
  2
_D_7
 70
     0
 10
0.0
 20
0.0
 30
0.0
  3
_D_7
  1

  0
SOLID
  5
2EE
330
2EB
100
AcDbEntity
  8
SLD-0_0
100
AcDbTrace
 10
883.8808200609
 20
852.0650381397
 30
0.0
 11
883.3728200609
 21
848.7630381397
 31
0.0
 12
884.3888200609
 22
848.7630381397
 32
0.0
 13
884.3888200609
 23
848.7630381397
 33
0.0
  0
SOLID
  5
2EF
330
2EB
100
AcDbEntity
  8
SLD-0_0
100
AcDbTrace
 10
883.8808200609
 20
352.0650381397
 30
0.0
 11
884.3888200609
 21
355.3670381397
 31
0.0
 12
883.3728200609
 22
355.3670381397
 32
0.0
 13
883.3728200609
 23
355.3670381397
 33
0.0
  0
LINE
  5
2F0
330
2EB
100
AcDbEntity
  8
SLD-0_0
100
AcDbLine
 10
1079.3791621976
 20
852.0650381397
 30
0.0
 11
882.8808200609
 21
852.0650381397
 31
0.0
  0
LINE
  5
2F1
330
2EB
100
AcDbEntity
  8
SLD-0_0
100
AcDbLine
 10
1079.3791621976
 20
352.0650381397
 30
0.0
 11
882.8808200609
 21
352.0650381397
 31
0.0
  0
LINE
  5
2F2
330
2EB
100
AcDbEntity
  8
SLD-0_0
100
AcDbLine
 10
883.8808200609
 20
852.0650381397
 30
0.0
 11
883.8808200609
 21
352.0650381397
 31
0.0
  0
MTEXT
  5
2F3
330
2EB
100
AcDbEntity
  8
SLD-0_0
100
AcDbMText
 10
867.5096597658
 20
586.2815991243
 30
0.0
 40
12.7
 41
0.0
 71
     1
 72
     1
  1
500
  7
SLDTEXTSTYLE0
 11
-7.044195017643634E-15
 21
1.0
 31
0.0
 73
     1
 44
1.0
  0
ENDBLK
  5
2ED
330
2EB
100
AcDbEntity
  8
0
100
AcDbBlockEnd
  0
BLOCK
  5
2F7
330
2F6
100
AcDbEntity
  8
0
100
AcDbBlockBegin
  2
_D_8
 70
     0
 10
0.0
 20
0.0
 30
0.0
  3
_D_8
  1

  0
SOLID
  5
2F9
330
2F6
100
AcDbEntity
  8
SLD-0_0
100
AcDbTrace
 10
1003.8285997012
 20
694.4059294836
 30
0.0
 11
1006.588175677
 21
692.5228446651
 31
0.0
 12
1007.0265791612
 22
693.4393916552
 32
0.0
 13
1007.0265791612
 23
693.4393916552
 33
0.0
  0
SOLID
  5
2FA
330
2F6
100
AcDbEntity
  8
SLD-0_0
100
AcDbTrace
 10
1389.9330404206
 20
509.7241467957
 30
0.0
 11
1387.1734644448
 21
511.6072316142
 31
0.0
 12
1386.7350609606
 22
510.6906846241
 32
0.0
 13
1386.7350609606
 23
510.6906846241
 33
0.0
  0
LINE
  5
2FB
330
2F6
100
AcDbEntity
  8
SLD-0_0
100
AcDbLine
 10
1389.9330404206
 20
509.7241467957
 30
0.0
 11
1003.8285997012
 21
694.4059294836
 31
0.0
  0
MTEXT
  5
2FC
330
2F6
100
AcDbEntity
  8
SLD-0_0
100
AcDbMText
 10
1303.0014146886
 20
569.4193312675
 30
0.0
 40
12.7
 41
0.0
 71
     1
 72
     1
  1
%%c
  7
SLDTEXTSTYLE0
 11
0.9021131792508805
 21
-0.4314994922614263
 31
0.0
 73
     1
 44
1.0
  0
MTEXT
  5
2FD
330
2F6
100
AcDbEntity
  8
SLD-0_0
100
AcDbMText
 10
1319.2266303994
 20
561.6584732043
 30
0.0
 40
12.7
 41
0.0
 71
     1
 72
     1
  1
428
  7
SLDTEXTSTYLE0
 11
0.9021131792508805
 21
-0.4314994922614263
 31
0.0
 73
     1
 44
1.0
  0
ENDBLK
  5
2F8
330
2F6
100
AcDbEntity
  8
0
100
AcDbBlockEnd
  0
BLOCK
  5
301
330
300
100
AcDbEntity
  8
0
100
AcDbBlockBegin
  2
_NONE
 70
     0
 10
0.0
 20
0.0
 30
0.0
  3
_NONE
  1

  0
ENDBLK
  5
302
330
300
100
AcDbEntity
  8
0
100
AcDbBlockEnd
  0
BLOCK
  5
304
330
303
100
AcDbEntity
  8
0
100
AcDbBlockBegin
  2
_D_9
 70
     0
 10
0.0
 20
0.0
 30
0.0
  3
_D_9
  1

  0
SOLID
  5
306
330
303
100
AcDbEntity
  8
SLD-0_0
100
AcDbTrace
 10
1279.1997985848
 20
802.1218970337
 30
0.0
 11
1277.1355953694
 21
799.4950485254
 31
0.0
 12
1278.0206228154
 22
798.9960671431
 32
0.0
 13
1278.0206228154
 23
798.9960671431
 33
0.0
  0
LINE
  5
307
330
303
100
AcDbEntity
  8
SLD-0_0
100
AcDbLine
 10
1279.1997985848
 20
802.1218970337
 30
0.0
 11
1262.048712017
 21
771.7015589615
 31
0.0
  0
LINE
  5
308
330
303
100
AcDbEntity
  8
SLD-0_0
100
AcDbLine
 10
1283.32523521
 20
809.4390530831
 30
0.0
 11
1279.1997985848
 21
802.1218970337
 31
0.0
  0
LINE
  5
309
330
303
100
AcDbEntity
  8
SLD-0_0
100
AcDbLine
 10
1262.048712017
 20
771.7015589615
 30
0.0
 11
1209.5494949001
 21
771.7015589615
 31
0.0
  0
MTEXT
  5
30A
330
303
100
AcDbEntity
  8
SLD-0_0
100
AcDbMText
 10
1209.5494949001
 20
788.072720188
 30
0.0
 40
12.7
 41
0.0
 71
     1
 72
     1
  1
%%c
  7
SLDTEXTSTYLE0
 73
     1
 44
1.0
  0
MTEXT
  5
30B
330
303
100
AcDbEntity
  8
SLD-0_0
100
AcDbMText
 10
1227.5352821428
 20
788.072720188
 30
0.0
 40
12.7
 41
0.0
 71
     1
 72
     1
  1
8.40
  7
SLDTEXTSTYLE0
 73
     1
 44
1.0
  0
ENDBLK
  5
305
330
303
100
AcDbEntity
  8
0
100
AcDbBlockEnd
  0
BLOCK
  5
30E
330
30D
100
AcDbEntity
  8
0
100
AcDbBlockBegin
  2
_D_10
 70
     0
 10
0.0
 20
0.0
 30
0.0
  3
_D_10
  1

  0
SOLID
  5
310
330
30D
100
AcDbEntity
  8
SLD-0_0
100
AcDbTrace
 10
1313.3824779242
 20
328.0650381397
 30
0.0
 11
1310.0804779242
 21
328.5730381397
 31
0.0
 12
1310.0804779242
 22
327.5570381397
 32
0.0
 13
1310.0804779242
 23
327.5570381397
 33
0.0
  0
SOLID
  5
311
330
30D
100
AcDbEntity
  8
SLD-0_0
100
AcDbTrace
 10
1080.3791621976
 20
328.0650381397
 30
0.0
 11
1083.6811621976
 21
327.5570381397
 31
0.0
 12
1083.6811621976
 22
328.5730381397
 32
0.0
 13
1083.6811621976
 23
328.5730381397
 33
0.0
  0
LINE
  5
312
330
30D
100
AcDbEntity
  8
SLD-0_0
100
AcDbLine
 10
1313.3824779242
 20
351.0650381397
 30
0.0
 11
1313.3824779242
 21
327.0650381397
 31
0.0
  0
LINE
  5
313
330
30D
100
AcDbEntity
  8
SLD-0_0
100
AcDbLine
 10
1080.3791621976
 20
351.0650381397
 30
0.0
 11
1080.3791621976
 21
327.0650381397
 31
0.0
  0
LINE
  5
314
330
30D
100
AcDbEntity
  8
SLD-0_0
100
AcDbLine
 10
1313.3824779242
 20
328.0650381397
 30
0.0
 11
1080.3791621976
 21
328.0650381397
 31
0.0
  0
MTEXT
  5
315
330
30D
100
AcDbEntity
  8
SLD-0_0
100
AcDbMText
 10
1190.6812001375
 20
344.4361984348
 30
0.0
 40
12.7
 41
0.0
 71
     1
 72
     1
  1
233
  7
SLDTEXTSTYLE0
 73
     1
 44
1.0
  0
ENDBLK
  5
30F
330
30D
100
AcDbEntity
  8
0
100
AcDbBlockEnd
  0
BLOCK
  5
318
330
317
100
AcDbEntity
  8
0
100
AcDbBlockBegin
  2
_D_11
 70
     0
 10
0.0
 20
0.0
 30
0.0
  3
_D_11
  1

  0
SOLID
  5
31A
330
317
100
AcDbEntity
  8
SLD-0_0
100
AcDbTrace
 10
904.8808200609
 20
686.566696003
 30
0.0
 11
904.3728200609
 21
683.264696003
 31
0.0
 12
905.3888200609
 22
683.264696003
 32
0.0
 13
905.3888200609
 23
683.264696003
 33
0.0
  0
SOLID
  5
31B
330
317
100
AcDbEntity
  8
SLD-0_0
100
AcDbTrace
 10
904.8808200609
 20
517.5633802764
 30
0.0
 11
905.3888200609
 21
520.8653802764
 31
0.0
 12
904.3728200609
 22
520.8653802764
 32
0.0
 13
904.3728200609
 23
520.8653802764
 33
0.0
  0
LINE
  5
31C
330
317
100
AcDbEntity
  8
SLD-0_0
100
AcDbLine
 10
913.8808200609
 20
686.566696003
 30
0.0
 11
903.8808200609
 21
686.566696003
 31
0.0
  0
LINE
  5
31D
330
317
100
AcDbEntity
  8
SLD-0_0
100
AcDbLine
 10
913.8808200609
 20
517.5633802764
 30
0.0
 11
903.8808200609
 21
517.5633802764
 31
0.0
  0
LINE
  5
31E
330
317
100
AcDbEntity
  8
SLD-0_0
100
AcDbLine
 10
904.8808200609
 20
686.566696003
 30
0.0
 11
904.8808200609
 21
517.5633802764
 31
0.0
  0
MTEXT
  5
31F
330
317
100
AcDbEntity
  8
SLD-0_0
100
AcDbMText
 10
888.5096597658
 20
586.2815991243
 30
0.0
 40
12.7
 41
0.0
 71
     1
 72
     1
  1
169
  7
SLDTEXTSTYLE0
 11
-6.156016597943509E-15
 21
1.0
 31
0.0
 73
     1
 44
1.0
  0
ENDBLK
  5
319
330
317
100
AcDbEntity
  8
0
100
AcDbBlockEnd
  0
BLOCK
  5
323
330
322
100
AcDbEntity
  8
0
100
AcDbBlockBegin
  2
_D_12
 70
     0
 10
0.0
 20
0.0
 30
0.0
  3
_D_12
  1

  0
ARC
  5
325
330
322
100
AcDbEntity
  8
SLD-0_0
100
AcDbCircle
 10
1080.3791621976
 20
352.0650381397
 30
0.0
 40
146.1586397881548
100
AcDbArc
 50
135.0
 51
180.0
  0
SOLID
  5
326
330
322
100
AcDbEntity
  8
SLD-0_0
100
AcDbTrace
 10
977.0293968744
 20
455.4148034629
 30
0.0
 11
974.3578044937
 21
453.4088467955
 31
0.0
 12
975.0842928507
 22
452.6985858102
 32
0.0
 13
975.0842928507
 23
452.6985858102
 33
0.0
  0
SOLID
  5
327
330
322
100
AcDbEntity
  8
SLD-0_0
100
AcDbTrace
 10
934.2205224095
 20
352.0650381397
 30
0.0
 11
934.7657820856
 21
355.3610903064
 31
0.0
 12
933.7498468828
 22
355.3725647909
 32
0.0
 13
933.7498468828
 23
355.3725647909
 33
0.0
  0
LINE
  5
328
330
322
100
AcDbEntity
  8
SLD-0_0
100
AcDbLine
 10
1079.3791621976
 20
352.0650381397
 30
0.0
 11
933.2205224095
 21
352.0650381397
 31
0.0
  0
MTEXT
  5
329
330
322
100
AcDbEntity
  8
SLD-0_0
100
AcDbMText
 10
925.4966153111
 20
402.9671101013
 30
0.0
 40
12.7
 41
0.0
 71
     1
 72
     1
  1
45°
  7
SLDTEXTSTYLE0
 11
0.3858099098354738
 21
0.9225782966625345
 31
0.0
 73
     1
 44
1.0
  0
ENDBLK
  5
324
330
322
100
AcDbEntity
  8
0
100
AcDbBlockEnd
  0
BLOCK
  5
32C
330
32B
100
AcDbEntity
  8
0
100
AcDbBlockBegin
  2
_D_13
 70
     0
 10
0.0
 20
0.0
 30
0.0
  3
_D_13
  1

  0
SOLID
  5
32E
330
32B
100
AcDbEntity
  8
SLD-0_0
 62
     7
100
AcDbTrace
 10
996.3433608804
 20
527.3607714247
 30
0.0
 11
999.6149704958
 21
528.0374090856
 31
0.0
 12
999.2602997716
 22
528.9894934712
 32
0.0
 13
999.2602997716
 23
528.9894934712
 33
0.0
  0
SOLID
  5
32F
330
32B
100
AcDbEntity
  8
SLD-0_0
 62
     7
100
AcDbTrace
 10
1397.4182792414
 20
676.7693048547
 30
0.0
 11
1394.146669626
 21
676.0926671938
 31
0.0
 12
1394.5013403502
 22
675.1405828081
 32
0.0
 13
1394.5013403502
 23
675.1405828081
 33
0.0
  0
LINE
  5
330
330
32B
100
AcDbEntity
  8
SLD-0_0
 62
     7
100
AcDbLine
 10
1397.4182792414
 20
676.7693048547
 30
0.0
 11
996.3433608804
 21
527.3607714247
 31
0.0
  0
MTEXT
  5
331
330
32B
100
AcDbEntity
  8
SLD-0_0
 62
     7
100
AcDbMText
 10
1275.6072643688
 20
648.8180154072
 30
0.0
 40
12.7
 41
0.0
 71
     1
 72
     1
  1
%%c
  7
SLDTEXTSTYLE0
 11
0.937090930750074
 21
0.3490853584812174
 31
0.0
 73
     1
 44
1.0
  0
MTEXT
  5
332
330
32B
100
AcDbEntity
  8
SLD-0_0
 62
     7
100
AcDbMText
 10
1292.4615824763
 20
655.0965903944
 30
0.0
 40
12.7
 41
0.0
 71
     1
 72
     1
  1
428
  7
SLDTEXTSTYLE0
 11
0.937090930750074
 21
0.3490853584812174
 31
0.0
 73
     1
 44
1.0
  0
ENDBLK
  5
32D
330
32B
100
AcDbEntity
  8
0
100
AcDbBlockEnd
  0
BLOCK
  5
336
330
335
100
AcDbEntity
  8
0
100
AcDbBlockBegin
  2
_D_14
 70
     0
 10
0.0
 20
0.0
 30
0.0
  3
_D_14
  1

  0
SOLID
  5
338
330
335
100
AcDbEntity
  8
SLD-0_0
 62
     7
100
AcDbTrace
 10
1054.5020191968
 20
420.1604558321
 30
0.0
 11
1056.9372673712
 21
422.4475575634
 31
0.0
 12
1056.1372021953
 22
423.0737777438
 32
0.0
 13
1056.1372021953
 23
423.0737777438
 33
0.0
  0
SOLID
  5
339
330
335
100
AcDbEntity
  8
SLD-0_0
 62
     7
100
AcDbTrace
 10
1339.259620925
 20
783.9696204473
 30
0.0
 11
1336.8243727507
 21
781.682518716
 31
0.0
 12
1337.6244379265
 22
781.0562985355
 32
0.0
 13
1337.6244379265
 23
781.0562985355
 33
0.0
  0
LINE
  5
33A
330
335
100
AcDbEntity
  8
SLD-0_0
 62
     7
100
AcDbLine
 10
1054.5020191968
 20
420.1604558321
 30
0.0
 11
1273.9984258552
 21
700.591263852
 31
0.0
  0
LINE
  5
33B
330
335
100
AcDbEntity
  8
SLD-0_0
 62
     7
100
AcDbLine
 10
1339.259620925
 20
783.9696204473
 30
0.0
 11
1290.0687971815
 21
721.1229312484
 31
0.0
  0
MTEXT
  5
33C
330
335
100
AcDbEntity
  8
SLD-0_0
 62
     7
100
AcDbMText
 10
1212.8333118382
 20
716.9624250784
 30
0.0
 40
12.7
 41
0.0
 71
     1
 72
     1
  1
%%c
  7
SLDTEXTSTYLE0
 73
     1
 44
1.0
  0
MTEXT
  5
33D
330
335
100
AcDbEntity
  8
SLD-0_0
 62
     7
100
AcDbMText
 10
1230.8190990808
 20
716.9624250784
 30
0.0
 40
12.7
 41
0.0
 71
     1
 72
     1
  1
462
  7
SLDTEXTSTYLE0
 73
     1
 44
1.0
  0
MTEXT
  5
33E
330
335
100
AcDbEntity
  8
SLD-0_0
 62
     7
100
AcDbMText
 10
1263.803820962
 20
716.9624250784
 30
0.0
 40
12.7
 41
0.0
 71
     1
 72
     1
  1
5mm Depth
  7
SLDTEXTSTYLE0
 73
     1
 44
1.0
  0
ENDBLK
  5
337
330
335
100
AcDbEntity
  8
0
100
AcDbBlockEnd
  0
BLOCK
  5
340
330
33F
100
AcDbEntity
  8
0
100
AcDbBlockBegin
  2
SW_CENTERMARKSYMBOL_0
 70
     0
 10
0.0
 20
0.0
 30
0.0
  3
SW_CENTERMARKSYMBOL_0
  1

  0
ARC
  5
342
330
33F
100
AcDbEntity
  8
SLD-0_0
 62
     0
100
AcDbCircle
 10
-84.3816968365
 20
-203.7154369187
 30
0.0
 40
220.5000000000001
100
AcDbArc
 50
67.5
 51
68.1496120126
  0
ARC
  5
343
330
33F
100
AcDbEntity
  8
SLD-0_0
 62
     0
100
AcDbCircle
 10
-84.3816968365
 20
-203.7154369187
 30
0.0
 40
220.5000000000001
100
AcDbArc
 50
66.8503879874
 51
67.5
  0
ARC
  5
344
330
33F
100
AcDbEntity
  8
SLD-0_0
 62
     0
100
AcDbCircle
 10
-84.3816968365
 20
-203.7154369187
 30
0.0
 40
220.5000000000001
100
AcDbArc
 50
112.5
 51
113.1496120126
  0
ARC
  5
345
330
33F
100
AcDbEntity
  8
SLD-0_0
 62
     0
100
AcDbCircle
 10
-84.3816968365
 20
-203.7154369187
 30
0.0
 40
220.5000000000001
100
AcDbArc
 50
111.8503879874
 51
112.5
  0
ARC
  5
346
330
33F
100
AcDbEntity
  8
SLD-0_0
 62
     0
100
AcDbCircle
 10
-84.3816968365
 20
-203.7154369187
 30
0.0
 40
220.5000000000002
100
AcDbArc
 50
22.5
 51
23.1496120126
  0
ARC
  5
347
330
33F
100
AcDbEntity
  8
SLD-0_0
 62
     0
100
AcDbCircle
 10
-84.3816968365
 20
-203.7154369187
 30
0.0
 40
220.5000000000002
100
AcDbArc
 50
21.8503879874
 51
22.5
  0
ARC
  5
348
330
33F
100
AcDbEntity
  8
SLD-0_0
 62
     0
100
AcDbCircle
 10
-84.3816968365
 20
-203.7154369187
 30
0.0
 40
220.5000000000001
100
AcDbArc
 50
337.5
 51
338.1496120126
  0
ARC
  5
349
330
33F
100
AcDbEntity
  8
SLD-0_0
 62
     0
100
AcDbCircle
 10
-84.3816968365
 20
-203.7154369187
 30
0.0
 40
220.5000000000002
100
AcDbArc
 50
336.8503879874
 51
337.5
  0
ARC
  5
34A
330
33F
100
AcDbEntity
  8
SLD-0_0
 62
     0
100
AcDbCircle
 10
-84.3816968365
 20
-203.7154369187
 30
0.0
 40
220.5000000000001
100
AcDbArc
 50
292.5
 51
293.1496120126
  0
ARC
  5
34B
330
33F
100
AcDbEntity
  8
SLD-0_0
 62
     0
100
AcDbCircle
 10
-84.3816968365
 20
-203.7154369187
 30
0.0
 40
220.5000000000001
100
AcDbArc
 50
291.8503879874
 51
292.5
  0
ARC
  5
34C
330
33F
100
AcDbEntity
  8
SLD-0_0
 62
     0
100
AcDbCircle
 10
-84.3816968365
 20
-203.7154369187
 30
0.0
 40
220.5000000000001
100
AcDbArc
 50
247.5
 51
248.1496120126
  0
ARC
  5
34D
330
33F
100
AcDbEntity
  8
SLD-0_0
 62
     0
100
AcDbCircle
 10
-84.3816968365
 20
-203.7154369187
 30
0.0
 40
220.5000000000001
100
AcDbArc
 50
246.8503879874
 51
247.5
  0
ARC
  5
34E
330
33F
100
AcDbEntity
  8
SLD-0_0
 62
     0
100
AcDbCircle
 10
-84.3816968365
 20
-203.7154369187
 30
0.0
 40
220.5000000000001
100
AcDbArc
 50
202.5
 51
203.1496120126
  0
ARC
  5
34F
330
33F
100
AcDbEntity
  8
SLD-0_0
 62
     0
100
AcDbCircle
 10
-84.3816968365
 20
-203.7154369187
 30
0.0
 40
220.5000000000001
100
AcDbArc
 50
201.8503879874
 51
202.5
  0
ARC
  5
350
330
33F
100
AcDbEntity
  8
SLD-0_0
 62
     0
100
AcDbCircle
 10
-84.3816968365
 20
-203.7154369187
 30
0.0
 40
220.5000000000001
100
AcDbArc
 50
157.5
 51
158.1496120126
  0
ARC
  5
351
330
33F
100
AcDbEntity
  8
SLD-0_0
 62
     0
100
AcDbCircle
 10
-84.3816968365
 20
-203.7154369187
 30
0.0
 40
220.5000000000001
100
AcDbArc
 50
156.8503879874
 51
157.5
  0
ARC
  5
352
330
33F
100
AcDbEntity
  8
SLD-0_0
 62
     0
100
AcDbCircle
 10
-84.3816968365
 20
-203.7154369187
 30
0.0
 40
220.5000000000001
100
AcDbArc
 50
23.7992240252
 51
66.2007759748
  0
ARC
  5
353
330
33F
100
AcDbEntity
  8
SLD-0_0
 62
     0
100
AcDbCircle
 10
-84.3816968365
 20
-203.7154369187
 30
0.0
 40
220.5000000000001
100
AcDbArc
 50
68.7992240252
 51
111.2007759748
  0
ARC
  5
354
330
33F
100
AcDbEntity
  8
SLD-0_0
 62
     0
100
AcDbCircle
 10
-84.3816968365
 20
-203.7154369187
 30
0.0
 40
220.5000000000001
100
AcDbArc
 50
113.7992240252
 51
156.2007759748
  0
ARC
  5
355
330
33F
100
AcDbEntity
  8
SLD-0_0
 62
     0
100
AcDbCircle
 10
-84.3816968365
 20
-203.7154369187
 30
0.0
 40
220.5000000000001
100
AcDbArc
 50
158.7992240252
 51
201.2007759748
  0
ARC
  5
356
330
33F
100
AcDbEntity
  8
SLD-0_0
 62
     0
100
AcDbCircle
 10
-84.3816968365
 20
-203.7154369187
 30
0.0
 40
220.5000000000001
100
AcDbArc
 50
203.7992240252
 51
246.2007759748
  0
ARC
  5
357
330
33F
100
AcDbEntity
  8
SLD-0_0
 62
     0
100
AcDbCircle
 10
-84.3816968365
 20
-203.7154369187
 30
0.0
 40
220.5000000000001
100
AcDbArc
 50
248.7992240252
 51
291.2007759748
  0
ARC
  5
358
330
33F
100
AcDbEntity
  8
SLD-0_0
 62
     0
100
AcDbCircle
 10
-84.3816968365
 20
-203.7154369187
 30
0.0
 40
220.5000000000002
100
AcDbArc
 50
293.7992240252
 51
336.2007759748
  0
ARC
  5
359
330
33F
100
AcDbEntity
  8
SLD-0_0
 62
     0
100
AcDbCircle
 10
-84.3816968365
 20
-203.7154369187
 30
0.0
 40
220.5000000000003
100
AcDbArc
 50
338.7992240252
 51
21.2007759748
  0
LINE
  5
35A
330
33F
100
AcDbEntity
  8
SLD-0_0
 62
     0
100
AcDbLine
 10
0.0
 20
0.0
 30
0.0
 11
0.9567085809
 21
2.3096988313
 31
0.0
  0
LINE
  5
35B
330
33F
100
AcDbEntity
  8
SLD-0_0
 62
     0
100
AcDbLine
 10
0.0
 20
0.0
 30
0.0
 11
-0.9567085809
 21
-2.3096988313
 31
0.0
  0
LINE
  5
35C
330
33F
100
AcDbEntity
  8
SLD-0_0
 62
     0
100
AcDbLine
 10
1.9134171618
 20
4.6193976626
 30
0.0
 11
2.5639789968
 21
6.1899928678
 31
0.0
  0
LINE
  5
35D
330
33F
100
AcDbEntity
  8
SLD-0_0
 62
     0
100
AcDbLine
 10
-1.9134171618
 20
-4.6193976626
 30
0.0
 11
-2.5639789968
 21
-6.1899928678
 31
0.0
  0
LINE
  5
35E
330
33F
100
AcDbEntity
  8
SLD-0_0
 62
     0
100
AcDbLine
 10
-84.3816968365
 20
-203.7154369187
 30
0.0
 11
-84.3816968365
 21
-201.2154369187
 31
0.0
  0
LINE
  5
35F
330
33F
100
AcDbEntity
  8
SLD-0_0
 62
     0
100
AcDbLine
 10
-84.3816968365
 20
-203.7154369187
 30
0.0
 11
-86.8816968365
 21
-203.7154369187
 31
0.0
  0
LINE
  5
360
330
33F
100
AcDbEntity
  8
SLD-0_0
 62
     0
100
AcDbLine
 10
-84.3816968365
 20
-203.7154369187
 30
0.0
 11
-84.3816968365
 21
-206.2154369187
 31
0.0
  0
LINE
  5
361
330
33F
100
AcDbEntity
  8
SLD-0_0
 62
     0
100
AcDbLine
 10
-84.3816968365
 20
-203.7154369187
 30
0.0
 11
-81.8816968365
 21
-203.7154369187
 31
0.0
  0
LINE
  5
362
330
33F
100
AcDbEntity
  8
SLD-0_0
 62
     0
100
AcDbLine
 10
-84.3816968365
 20
-198.7154369187
 30
0.0
 11
-84.3816968365
 21
19.2845630813
 31
0.0
  0
LINE
  5
363
330
33F
100
AcDbEntity
  8
SLD-0_0
 62
     0
100
AcDbLine
 10
-89.3816968365
 20
-203.7154369187
 30
0.0
 11
-307.3816968365
 21
-203.7154369187
 31
0.0
  0
LINE
  5
364
330
33F
100
AcDbEntity
  8
SLD-0_0
 62
     0
100
AcDbLine
 10
-84.3816968365
 20
-208.7154369187
 30
0.0
 11
-84.3816968365
 21
-426.7154369187
 31
0.0
  0
LINE
  5
365
330
33F
100
AcDbEntity
  8
SLD-0_0
 62
     0
100
AcDbLine
 10
-79.3816968365
 20
-203.7154369187
 30
0.0
 11
138.6183031635
 21
-203.7154369187
 31
0.0
  0
LINE
  5
366
330
33F
100
AcDbEntity
  8
SLD-0_0
 62
     0
100
AcDbLine
 10
-168.763393673
 20
0.0
 30
0.0
 11
-169.7201022539
 21
2.3096988313
 31
0.0
  0
LINE
  5
367
330
33F
100
AcDbEntity
  8
SLD-0_0
 62
     0
100
AcDbLine
 10
-168.763393673
 20
0.0
 30
0.0
 11
-167.8066850921
 21
-2.3096988313
 31
0.0
  0
LINE
  5
368
330
33F
100
AcDbEntity
  8
SLD-0_0
 62
     0
100
AcDbLine
 10
-170.6768108348
 20
4.6193976626
 30
0.0
 11
-171.3273726699
 21
6.1899928678
 31
0.0
  0
LINE
  5
369
330
33F
100
AcDbEntity
  8
SLD-0_0
 62
     0
100
AcDbLine
 10
-166.8499765112
 20
-4.6193976626
 30
0.0
 11
-166.1994146762
 21
-6.1899928678
 31
0.0
  0
LINE
  5
36A
330
33F
100
AcDbEntity
  8
SLD-0_0
 62
     0
100
AcDbLine
 10
119.3337400822
 20
-119.3337400822
 30
0.0
 11
121.6434389135
 21
-118.3770315013
 31
0.0
  0
LINE
  5
36B
330
33F
100
AcDbEntity
  8
SLD-0_0
 62
     0
100
AcDbLine
 10
119.3337400822
 20
-119.3337400822
 30
0.0
 11
117.024041251
 21
-120.2904486632
 31
0.0
  0
LINE
  5
36C
330
33F
100
AcDbEntity
  8
SLD-0_0
 62
     0
100
AcDbLine
 10
123.9531377448
 20
-117.4203229204
 30
0.0
 11
125.5237329501
 21
-116.7697610854
 31
0.0
  0
LINE
  5
36D
330
33F
100
AcDbEntity
  8
SLD-0_0
 62
     0
100
AcDbLine
 10
114.7143424197
 20
-121.2471572441
 30
0.0
 11
113.1437472144
 21
-121.8977190791
 31
0.0
  0
LINE
  5
36E
330
33F
100
AcDbEntity
  8
SLD-0_0
 62
     0
100
AcDbLine
 10
119.3337400822
 20
-288.0971337552
 30
0.0
 11
121.6434389135
 21
-289.0538423362
 31
0.0
  0
LINE
  5
36F
330
33F
100
AcDbEntity
  8
SLD-0_0
 62
     0
100
AcDbLine
 10
119.3337400822
 20
-288.0971337552
 30
0.0
 11
117.024041251
 21
-287.1404251743
 31
0.0
  0
LINE
  5
370
330
33F
100
AcDbEntity
  8
SLD-0_0
 62
     0
100
AcDbLine
 10
123.9531377448
 20
-290.0105509171
 30
0.0
 11
125.5237329501
 21
-290.6611127521
 31
0.0
  0
LINE
  5
371
330
33F
100
AcDbEntity
  8
SLD-0_0
 62
     0
100
AcDbLine
 10
114.7143424197
 20
-286.1837165934
 30
0.0
 11
113.1437472144
 21
-285.5331547584
 31
0.0
  0
LINE
  5
372
330
33F
100
AcDbEntity
  8
SLD-0_0
 62
     0
100
AcDbLine
 10
0.0
 20
-407.4308738375
 30
0.0
 11
0.9567085809
 21
-409.7405726688
 31
0.0
  0
LINE
  5
373
330
33F
100
AcDbEntity
  8
SLD-0_0
 62
     0
100
AcDbLine
 10
0.0
 20
-407.4308738375
 30
0.0
 11
-0.9567085809
 21
-405.1211750062
 31
0.0
  0
LINE
  5
374
330
33F
100
AcDbEntity
  8
SLD-0_0
 62
     0
100
AcDbLine
 10
1.9134171618
 20
-412.0502715
 30
0.0
 11
2.5639789968
 21
-413.6208667053
 31
0.0
  0
LINE
  5
375
330
33F
100
AcDbEntity
  8
SLD-0_0
 62
     0
100
AcDbLine
 10
-1.9134171618
 20
-402.8114761749
 30
0.0
 11
-2.5639789969
 21
-401.2408809697
 31
0.0
  0
LINE
  5
376
330
33F
100
AcDbEntity
  8
SLD-0_0
 62
     0
100
AcDbLine
 10
-168.763393673
 20
-407.4308738375
 30
0.0
 11
-169.7201022539
 21
-409.7405726688
 31
0.0
  0
LINE
  5
377
330
33F
100
AcDbEntity
  8
SLD-0_0
 62
     0
100
AcDbLine
 10
-168.763393673
 20
-407.4308738375
 30
0.0
 11
-167.8066850921
 21
-405.1211750062
 31
0.0
  0
LINE
  5
378
330
33F
100
AcDbEntity
  8
SLD-0_0
 62
     0
100
AcDbLine
 10
-170.6768108348
 20
-412.0502715
 30
0.0
 11
-171.3273726699
 21
-413.6208667053
 31
0.0
  0
LINE
  5
379
330
33F
100
AcDbEntity
  8
SLD-0_0
 62
     0
100
AcDbLine
 10
-166.8499765112
 20
-402.8114761749
 30
0.0
 11
-166.1994146762
 21
-401.2408809697
 31
0.0
  0
LINE
  5
37A
330
33F
100
AcDbEntity
  8
SLD-0_0
 62
     0
100
AcDbLine
 10
-288.0971337552
 20
-288.0971337552
 30
0.0
 11
-290.4068325865
 21
-289.0538423361
 31
0.0
  0
LINE
  5
37B
330
33F
100
AcDbEntity
  8
SLD-0_0
 62
     0
100
AcDbLine
 10
-288.0971337552
 20
-288.0971337552
 30
0.0
 11
-285.787434924
 21
-287.1404251743
 31
0.0
  0
LINE
  5
37C
330
33F
100
AcDbEntity
  8
SLD-0_0
 62
     0
100
AcDbLine
 10
-292.7165314178
 20
-290.0105509171
 30
0.0
 11
-294.2871266231
 21
-290.6611127521
 31
0.0
  0
LINE
  5
37D
330
33F
100
AcDbEntity
  8
SLD-0_0
 62
     0
100
AcDbLine
 10
-283.4777360927
 20
-286.1837165934
 30
0.0
 11
-281.9071408874
 21
-285.5331547584
 31
0.0
  0
LINE
  5
37E
330
33F
100
AcDbEntity
  8
SLD-0_0
 62
     0
100
AcDbLine
 10
-288.0971337552
 20
-119.3337400822
 30
0.0
 11
-290.4068325865
 21
-118.3770315013
 31
0.0
  0
LINE
  5
37F
330
33F
100
AcDbEntity
  8
SLD-0_0
 62
     0
100
AcDbLine
 10
-288.0971337552
 20
-119.3337400822
 30
0.0
 11
-285.787434924
 21
-120.2904486631
 31
0.0
  0
LINE
  5
380
330
33F
100
AcDbEntity
  8
SLD-0_0
 62
     0
100
AcDbLine
 10
-292.7165314178
 20
-117.4203229204
 30
0.0
 11
-294.2871266231
 21
-116.7697610854
 31
0.0
  0
LINE
  5
381
330
33F
100
AcDbEntity
  8
SLD-0_0
 62
     0
100
AcDbLine
 10
-283.4777360927
 20
-121.2471572441
 30
0.0
 11
-281.9071408874
 21
-121.8977190791
 31
0.0
  0
ENDBLK
  5
341
330
33F
100
AcDbEntity
  8
0
100
AcDbBlockEnd
  0
BLOCK
  5
39D
330
39C
100
AcDbEntity
  8
0
100
AcDbBlockBegin
  2
_D_15
 70
     0
 10
0.0
 20
0.0
 30
0.0
  3
_D_15
  1

  0
SOLID
  5
39F
330
39C
100
AcDbEntity
  8
SLD-0_0
100
AcDbTrace
 10
1702.1425242235
 20
711.8798168999
 30
0.0
 11
1705.4445242235
 21
711.3718168999
 31
0.0
 12
1705.4445242235
 22
712.3878168999
 32
0.0
 13
1705.4445242235
 23
712.3878168999
 33
0.0
  0
SOLID
  5
3A0
330
39C
100
AcDbEntity
  8
SLD-0_0
100
AcDbTrace
 10
2266.1425242235
 20
711.8798168999
 30
0.0
 11
2262.8405242235
 21
712.3878168999
 31
0.0
 12
2262.8405242235
 22
711.3718168999
 32
0.0
 13
2262.8405242235
 23
711.3718168999
 33
0.0
  0
LINE
  5
3A1
330
39C
100
AcDbEntity
  8
SLD-0_0
100
AcDbLine
 10
1702.1425242235
 20
758.4258621799
 30
0.0
 11
1702.1425242235
 21
710.8798168999
 31
0.0
  0
LINE
  5
3A2
330
39C
100
AcDbEntity
  8
SLD-0_0
100
AcDbLine
 10
2266.1425242235
 20
758.4258621799
 30
0.0
 11
2266.1425242235
 21
710.8798168999
 31
0.0
  0
LINE
  5
3A3
330
39C
100
AcDbEntity
  8
SLD-0_0
100
AcDbLine
 10
1702.1425242235
 20
711.8798168999
 30
0.0
 11
2266.1425242235
 21
711.8798168999
 31
0.0
  0
MTEXT
  5
3A4
330
39C
100
AcDbEntity
  8
SLD-0_0
100
AcDbMText
 10
1963.665371033
 20
728.250977195
 30
0.0
 40
12.7
 41
0.0
 71
     1
 72
     1
  1
564
  7
SLDTEXTSTYLE0
 73
     1
 44
1.0
  0
ENDBLK
  5
39E
330
39C
100
AcDbEntity
  8
0
100
AcDbBlockEnd
  0
BLOCK
  5
3A8
330
3A7
100
AcDbEntity
  8
0
100
AcDbBlockBegin
  2
_D_16
 70
     0
 10
0.0
 20
0.0
 30
0.0
  3
_D_16
  1

  0
SOLID
  5
3AA
330
3A7
100
AcDbEntity
  8
SLD-0_0
100
AcDbTrace
 10
1747.1425242235
 20
735.4258621799
 30
0.0
 11
1750.4445242235
 21
734.9178621799
 31
0.0
 12
1750.4445242235
 22
735.9338621799
 32
0.0
 13
1750.4445242235
 23
735.9338621799
 33
0.0
  0
SOLID
  5
3AB
330
3A7
100
AcDbEntity
  8
SLD-0_0
100
AcDbTrace
 10
1961.6425242235
 20
735.4258621799
 30
0.0
 11
1958.3405242235
 21
735.9338621799
 31
0.0
 12
1958.3405242235
 22
734.9178621799
 32
0.0
 13
1958.3405242235
 23
734.9178621799
 33
0.0
  0
LINE
  5
3AC
330
3A7
100
AcDbEntity
  8
SLD-0_0
100
AcDbLine
 10
1747.1425242235
 20
853.4258621799
 30
0.0
 11
1747.1425242235
 21
734.4258621799
 31
0.0
  0
LINE
  5
3AD
330
3A7
100
AcDbEntity
  8
SLD-0_0
100
AcDbLine
 10
1961.6425242235
 20
853.4258621799
 30
0.0
 11
1961.6425242235
 21
734.4258621799
 31
0.0
  0
LINE
  5
3AE
330
3A7
100
AcDbEntity
  8
SLD-0_0
100
AcDbLine
 10
1747.1425242235
 20
735.4258621799
 30
0.0
 11
1961.6425242235
 21
735.4258621799
 31
0.0
  0
MTEXT
  5
3AF
330
3A7
100
AcDbEntity
  8
SLD-0_0
100
AcDbMText
 10
1819.5571022306
 20
751.797022475
 30
0.0
 40
12.7
 41
0.0
 71
     1
 72
     1
  1
214.50
  7
SLDTEXTSTYLE0
 73
     1
 44
1.0
  0
ENDBLK
  5
3A9
330
3A7
100
AcDbEntity
  8
0
100
AcDbBlockEnd
  0
BLOCK
  5
3B2
330
3B1
100
AcDbEntity
  8
0
100
AcDbBlockBegin
  2
_D_17
 70
     0
 10
0.0
 20
0.0
 30
0.0
  3
_D_17
  1

  0
SOLID
  5
3B4
330
3B1
100
AcDbEntity
  8
SLD-0_0
100
AcDbTrace
 10
1685.1425242235
 20
944.4258621799
 30
0.0
 11
1684.6345242235
 21
941.1238621799
 31
0.0
 12
1685.6505242235
 22
941.1238621799
 32
0.0
 13
1685.6505242235
 23
941.1238621799
 33
0.0
  0
SOLID
  5
3B5
330
3B1
100
AcDbEntity
  8
SLD-0_0
100
AcDbTrace
 10
1685.1425242235
 20
804.4258621799
 30
0.0
 11
1685.6505242235
 21
807.7278621799
 31
0.0
 12
1684.6345242235
 22
807.7278621799
 32
0.0
 13
1684.6345242235
 23
807.7278621799
 33
0.0
  0
LINE
  5
3B6
330
3B1
100
AcDbEntity
  8
SLD-0_0
100
AcDbLine
 10
1796.1425242235
 20
944.4258621799
 30
0.0
 11
1684.1425242235
 21
944.4258621799
 31
0.0
  0
LINE
  5
3B7
330
3B1
100
AcDbEntity
  8
SLD-0_0
100
AcDbLine
 10
1796.1425242235
 20
804.4258621799
 30
0.0
 11
1684.1425242235
 21
804.4258621799
 31
0.0
  0
LINE
  5
3B8
330
3B1
100
AcDbEntity
  8
SLD-0_0
100
AcDbLine
 10
1685.1425242235
 20
944.4258621799
 30
0.0
 11
1685.1425242235
 21
804.4258621799
 31
0.0
  0
MTEXT
  5
3B9
330
3B1
100
AcDbEntity
  8
SLD-0_0
100
AcDbMText
 10
1668.7713639284
 20
856.0666426282
 30
0.0
 40
12.7
 41
0.0
 71
     1
 72
     1
  1
140
  7
SLDTEXTSTYLE0
 11
-7.044195017643634E-15
 21
1.0
 31
0.0
 73
     1
 44
1.0
  0
ENDBLK
  5
3B3
330
3B1
100
AcDbEntity
  8
0
100
AcDbBlockEnd
  0
BLOCK
  5
3BC
330
3BB
100
AcDbEntity
  8
0
100
AcDbBlockBegin
  2
_D_18
 70
     0
 10
0.0
 20
0.0
 30
0.0
  3
_D_18
  1

  0
SOLID
  5
3BE
330
3BB
100
AcDbEntity
  8
SLD-0_0
100
AcDbTrace
 10
1664.1425242235
 20
759.4258621799
 30
0.0
 11
1664.6505242235
 21
762.7278621799
 31
0.0
 12
1663.6345242235
 22
762.7278621799
 32
0.0
 13
1663.6345242235
 23
762.7278621799
 33
0.0
  0
SOLID
  5
3BF
330
3BB
100
AcDbEntity
  8
SLD-0_0
100
AcDbTrace
 10
1664.1425242235
 20
989.4258621799
 30
0.0
 11
1663.6345242235
 21
986.1238621799
 31
0.0
 12
1664.6505242235
 22
986.1238621799
 32
0.0
 13
1664.6505242235
 23
986.1238621799
 33
0.0
  0
LINE
  5
3C0
330
3BB
100
AcDbEntity
  8
SLD-0_0
100
AcDbLine
 10
1701.1425242235
 20
759.4258621799
 30
0.0
 11
1663.1425242235
 21
759.4258621799
 31
0.0
  0
LINE
  5
3C1
330
3BB
100
AcDbEntity
  8
SLD-0_0
100
AcDbLine
 10
1701.1425242235
 20
989.4258621799
 30
0.0
 11
1663.1425242235
 21
989.4258621799
 31
0.0
  0
LINE
  5
3C2
330
3BB
100
AcDbEntity
  8
SLD-0_0
100
AcDbLine
 10
1664.1425242235
 20
759.4258621799
 30
0.0
 11
1664.1425242235
 21
989.4258621799
 31
0.0
  0
MTEXT
  5
3C3
330
3BB
100
AcDbEntity
  8
SLD-0_0
100
AcDbMText
 10
1647.7713639284
 20
856.0666426282
 30
0.0
 40
12.7
 41
0.0
 71
     1
 72
     1
  1
230
  7
SLDTEXTSTYLE0
 11
6.123233995736766E-17
 21
1.0
 31
0.0
 73
     1
 44
1.0
  0
ENDBLK
  5
3BD
330
3BB
100
AcDbEntity
  8
0
100
AcDbBlockEnd
  0
BLOCK
  5
3C7
330
3C6
100
AcDbEntity
  8
0
100
AcDbBlockBegin
  2
_D_19
 70
     0
 10
0.0
 20
0.0
 30
0.0
  3
_D_19
  1

  0
SOLID
  5
3C9
330
3C6
100
AcDbEntity
  8
SLD-0_0
100
AcDbTrace
 10
1949.160973359
 20
821.3749019145
 30
0.0
 11
1951.3028939836
 21
818.8110290554
 31
0.0
 12
1951.9744894962
 22
819.5734039418
 32
0.0
 13
1951.9744894962
 23
819.5734039418
 33
0.0
  0
LINE
  5
3CA
330
3C6
100
AcDbEntity
  8
SLD-0_0
100
AcDbLine
 10
1949.160973359
 20
821.3749019145
 30
0.0
 11
1985.519662097
 21
789.3456042099
 31
0.0
  0
LINE
  5
3CB
330
3C6
100
AcDbEntity
  8
SLD-0_0
100
AcDbLine
 10
1949.160973359
 20
821.3749019145
 30
0.0
 11
1911.6425242235
 21
854.4258621799
 31
0.0
  0
MTEXT
  5
3CC
330
3C6
100
AcDbEntity
  8
SLD-0_0
100
AcDbMText
 10
1973.0066630649
 20
822.105740986
 30
0.0
 40
12.7
 41
0.0
 71
     1
 72
     1
  1
R50
  7
SLDTEXTSTYLE0
 11
0.750368982711129
 21
-0.6610192053072781
 31
0.0
 73
     1
 44
1.0
  0
ENDBLK
  5
3C8
330
3C6
100
AcDbEntity
  8
0
100
AcDbBlockEnd
  0
BLOCK
  5
3CF
330
3CE
100
AcDbEntity
  8
0
100
AcDbBlockBegin
  2
_D_20
 70
     0
 10
0.0
 20
0.0
 30
0.0
  3
_D_20
  1

  0
SOLID
  5
3D1
330
3CE
100
AcDbEntity
  8
SLD-0_0
100
AcDbTrace
 10
2022.2615367592
 20
904.4258621799
 30
0.0
 11
2022.7695367592
 21
907.7278621799
 31
0.0
 12
2021.7535367592
 22
907.7278621799
 32
0.0
 13
2021.7535367592
 23
907.7278621799
 33
0.0
  0
SOLID
  5
3D2
330
3CE
100
AcDbEntity
  8
SLD-0_0
100
AcDbTrace
 10
2022.2615367592
 20
989.4258621799
 30
0.0
 11
2021.7535367592
 21
986.1238621799
 31
0.0
 12
2022.7695367592
 22
986.1238621799
 32
0.0
 13
2022.7695367592
 23
986.1238621799
 33
0.0
  0
LINE
  5
3D3
330
3CE
100
AcDbEntity
  8
SLD-0_0
100
AcDbLine
 10
1994.1425242235
 20
904.4258621799
 30
0.0
 11
2023.2615367592
 21
904.4258621799
 31
0.0
  0
LINE
  5
3D4
330
3CE
100
AcDbEntity
  8
SLD-0_0
100
AcDbLine
 10
2022.2615367592
 20
904.4258621799
 30
0.0
 11
2022.2615367592
 21
989.4258621799
 31
0.0
  0
MTEXT
  5
3D5
330
3CE
100
AcDbEntity
  8
SLD-0_0
100
AcDbMText
 10
2005.8903764641
 20
938.2243225202
 30
0.0
 40
12.7
 41
0.0
 71
     1
 72
     1
  1
85
  7
SLDTEXTSTYLE0
 11
6.123233995736766E-17
 21
1.0
 31
0.0
 73
     1
 44
1.0
  0
ENDBLK
  5
3D0
330
3CE
100
AcDbEntity
  8
0
100
AcDbBlockEnd
  0
BLOCK
  5
3D9
330
3D8
100
AcDbEntity
  8
0
100
AcDbBlockBegin
  2
_D_21
 70
     0
 10
0.0
 20
0.0
 30
0.0
  3
_D_21
  1

  0
SOLID
  5
3DB
330
3D8
100
AcDbEntity
  8
SLD-0_0
100
AcDbTrace
 10
1975.1425242235
 20
997.8603689586
 30
0.0
 11
1971.8405242235
 21
998.3683689586
 31
0.0
 12
1971.8405242235
 22
997.3523689586
 32
0.0
 13
1971.8405242235
 23
997.3523689586
 33
0.0
  0
SOLID
  5
3DC
330
3D8
100
AcDbEntity
  8
SLD-0_0
100
AcDbTrace
 10
1993.1425242235
 20
997.8603689586
 30
0.0
 11
1996.4445242235
 21
997.3523689586
 31
0.0
 12
1996.4445242235
 22
998.3683689586
 32
0.0
 13
1996.4445242235
 23
998.3683689586
 33
0.0
  0
LINE
  5
3DD
330
3D8
100
AcDbEntity
  8
SLD-0_0
100
AcDbLine
 10
1975.1425242235
 20
990.4258621799
 30
0.0
 11
1975.1425242235
 21
998.8603689586
 31
0.0
  0
LINE
  5
3DE
330
3D8
100
AcDbEntity
  8
SLD-0_0
100
AcDbLine
 10
1993.1425242235
 20
990.4258621799
 30
0.0
 11
1993.1425242235
 21
998.8603689586
 31
0.0
  0
LINE
  5
3DF
330
3D8
100
AcDbEntity
  8
SLD-0_0
100
AcDbLine
 10
1975.1425242235
 20
997.8603689586
 30
0.0
 11
1968.7925242235
 21
997.8603689586
 31
0.0
  0
LINE
  5
3E0
330
3D8
100
AcDbEntity
  8
SLD-0_0
100
AcDbLine
 10
1975.1425242235
 20
997.8603689586
 30
0.0
 11
1993.1425242235
 21
997.8603689586
 31
0.0
  0
LINE
  5
3E1
330
3D8
100
AcDbEntity
  8
SLD-0_0
100
AcDbLine
 10
1993.1425242235
 20
997.8603689586
 30
0.0
 11
1999.4925242235
 21
997.8603689586
 31
0.0
  0
MTEXT
  5
3E2
330
3D8
100
AcDbEntity
  8
SLD-0_0
100
AcDbMText
 10
1974.8483841072
 20
1014.2315292537
 30
0.0
 40
12.7
 41
0.0
 71
     1
 72
     1
  1
18
  7
SLDTEXTSTYLE0
 73
     1
 44
1.0
  0
ENDBLK
  5
3DA
330
3D8
100
AcDbEntity
  8
0
100
AcDbBlockEnd
  0
BLOCK
  5
3E5
330
3E4
100
AcDbEntity
  8
0
100
AcDbBlockBegin
  2
_D_22
 70
     0
 10
0.0
 20
0.0
 30
0.0
  3
_D_22
  1

  0
SOLID
  5
3E7
330
3E4
100
AcDbEntity
  8
SLD-0_0
100
AcDbTrace
 10
1747.1425242235
 20
735.4258621799
 30
0.0
 11
1743.8405242235
 21
735.9338621799
 31
0.0
 12
1743.8405242235
 22
734.9178621799
 32
0.0
 13
1743.8405242235
 23
734.9178621799
 33
0.0
  0
SOLID
  5
3E8
330
3E4
100
AcDbEntity
  8
SLD-0_0
100
AcDbTrace
 10
1702.1425242235
 20
735.4258621799
 30
0.0
 11
1705.4445242235
 21
734.9178621799
 31
0.0
 12
1705.4445242235
 22
735.9338621799
 32
0.0
 13
1705.4445242235
 23
735.9338621799
 33
0.0
  0
LINE
  5
3E9
330
3E4
100
AcDbEntity
  8
SLD-0_0
100
AcDbLine
 10
1747.1425242235
 20
853.4258621799
 30
0.0
 11
1747.1425242235
 21
734.4258621799
 31
0.0
  0
LINE
  5
3EA
330
3E4
100
AcDbEntity
  8
SLD-0_0
100
AcDbLine
 10
1702.1425242235
 20
758.4258621799
 30
0.0
 11
1702.1425242235
 21
734.4258621799
 31
0.0
  0
LINE
  5
3EB
330
3E4
100
AcDbEntity
  8
SLD-0_0
100
AcDbLine
 10
1747.1425242235
 20
735.4258621799
 30
0.0
 11
1702.1425242235
 21
735.4258621799
 31
0.0
  0
MTEXT
  5
3EC
330
3E4
100
AcDbEntity
  8
SLD-0_0
100
AcDbMText
 10
1714.4673944373
 20
751.797022475
 30
0.0
 40
12.7
 41
0.0
 71
     1
 72
     1
  1
45
  7
SLDTEXTSTYLE0
 73
     1
 44
1.0
  0
ENDBLK
  5
3E6
330
3E4
100
AcDbEntity
  8
0
100
AcDbBlockEnd
  0
BLOCK
  5
3EF
330
3EE
100
AcDbEntity
  8
0
100
AcDbBlockBegin
  2
_D_23
 70
     0
 10
0.0
 20
0.0
 30
0.0
  3
_D_23
  1

  0
SOLID
  5
3F1
330
3EE
100
AcDbEntity
  8
SLD-0_0
100
AcDbTrace
 10
1685.1425242235
 20
804.4258621799
 30
0.0
 11
1684.6345242235
 21
801.1238621799
 31
0.0
 12
1685.6505242235
 22
801.1238621799
 32
0.0
 13
1685.6505242235
 23
801.1238621799
 33
0.0
  0
SOLID
  5
3F2
330
3EE
100
AcDbEntity
  8
SLD-0_0
100
AcDbTrace
 10
1685.1425242235
 20
759.4258621799
 30
0.0
 11
1685.6505242235
 21
762.7278621799
 31
0.0
 12
1684.6345242235
 22
762.7278621799
 32
0.0
 13
1684.6345242235
 23
762.7278621799
 33
0.0
  0
LINE
  5
3F3
330
3EE
100
AcDbEntity
  8
SLD-0_0
100
AcDbLine
 10
1796.1425242235
 20
804.4258621799
 30
0.0
 11
1684.1425242235
 21
804.4258621799
 31
0.0
  0
LINE
  5
3F4
330
3EE
100
AcDbEntity
  8
SLD-0_0
100
AcDbLine
 10
1701.1425242235
 20
759.4258621799
 30
0.0
 11
1684.1425242235
 21
759.4258621799
 31
0.0
  0
LINE
  5
3F5
330
3EE
100
AcDbEntity
  8
SLD-0_0
100
AcDbLine
 10
1685.1425242235
 20
804.4258621799
 30
0.0
 11
1685.1425242235
 21
759.4258621799
 31
0.0
  0
MTEXT
  5
3F6
330
3EE
100
AcDbEntity
  8
SLD-0_0
100
AcDbMText
 10
1668.7713639284
 20
777.3205692747
 30
0.0
 40
12.7
 41
0.0
 71
     1
 72
     1
  1
45
  7
SLDTEXTSTYLE0
 11
-7.044195017643634E-15
 21
1.0
 31
0.0
 73
     1
 44
1.0
  0
ENDBLK
  5
3F0
330
3EE
100
AcDbEntity
  8
0
100
AcDbBlockEnd
  0
BLOCK
  5
3FD
330
3FC
100
AcDbEntity
  8
0
100
AcDbBlockBegin
  2
_D_24
 70
     0
 10
0.0
 20
0.0
 30
0.0
  3
_D_24
  1

  0
SOLID
  5
3FF
330
3FC
100
AcDbEntity
  8
SLD-0_0
100
AcDbTrace
 10
1713.6197799206
 20
684.5970692684
 30
0.0
 11
1713.1117799206
 21
681.2950692684
 31
0.0
 12
1714.1277799206
 22
681.2950692684
 32
0.0
 13
1714.1277799206
 23
681.2950692684
 33
0.0
  0
SOLID
  5
400
330
3FC
100
AcDbEntity
  8
SLD-0_0
100
AcDbTrace
 10
1713.6197799206
 20
599.5970692684
 30
0.0
 11
1714.1277799206
 21
602.8990692684
 31
0.0
 12
1713.1117799206
 22
602.8990692684
 32
0.0
 13
1713.1117799206
 23
602.8990692684
 33
0.0
  0
LINE
  5
401
330
3FC
100
AcDbEntity
  8
SLD-0_0
100
AcDbLine
 10
1722.6197799206
 20
684.5970692684
 30
0.0
 11
1712.6197799206
 21
684.5970692684
 31
0.0
  0
LINE
  5
402
330
3FC
100
AcDbEntity
  8
SLD-0_0
100
AcDbLine
 10
1722.6197799206
 20
599.5970692684
 30
0.0
 11
1712.6197799206
 21
599.5970692684
 31
0.0
  0
LINE
  5
403
330
3FC
100
AcDbEntity
  8
SLD-0_0
100
AcDbLine
 10
1713.6197799206
 20
684.5970692684
 30
0.0
 11
1713.6197799206
 21
599.5970692684
 31
0.0
  0
MTEXT
  5
404
330
3FC
100
AcDbEntity
  8
SLD-0_0
100
AcDbMText
 10
1697.2486196255
 20
638.6335893544
 30
0.0
 40
12.7
 41
0.0
 71
     1
 72
     1
  1
85
  7
SLDTEXTSTYLE0
 11
-7.044195017643634E-15
 21
1.0
 31
0.0
 73
     1
 44
1.0
  0
ENDBLK
  5
3FE
330
3FC
100
AcDbEntity
  8
0
100
AcDbBlockEnd
  0
BLOCK
  5
407
330
406
100
AcDbEntity
  8
0
100
AcDbBlockBegin
  2
_D_25
 70
     0
 10
0.0
 20
0.0
 30
0.0
  3
_D_25
  1

  0
SOLID
  5
409
330
406
100
AcDbEntity
  8
SLD-0_0
100
AcDbTrace
 10
1723.6197799206
 20
575.5970692684
 30
0.0
 11
1726.9217799206
 21
575.0890692684
 31
0.0
 12
1726.9217799206
 22
576.1050692684
 32
0.0
 13
1726.9217799206
 23
576.1050692684
 33
0.0
  0
SOLID
  5
40A
330
406
100
AcDbEntity
  8
SLD-0_0
100
AcDbTrace
 10
2223.6197799206
 20
575.5970692684
 30
0.0
 11
2220.3177799206
 21
576.1050692684
 31
0.0
 12
2220.3177799206
 22
575.0890692684
 32
0.0
 13
2220.3177799206
 23
575.0890692684
 33
0.0
  0
LINE
  5
40B
330
406
100
AcDbEntity
  8
SLD-0_0
100
AcDbLine
 10
1723.6197799206
 20
598.5970692684
 30
0.0
 11
1723.6197799206
 21
574.5970692684
 31
0.0
  0
LINE
  5
40C
330
406
100
AcDbEntity
  8
SLD-0_0
100
AcDbLine
 10
2223.6197799206
 20
598.5970692684
 30
0.0
 11
2223.6197799206
 21
574.5970692684
 31
0.0
  0
LINE
  5
40D
330
406
100
AcDbEntity
  8
SLD-0_0
100
AcDbLine
 10
1723.6197799206
 20
575.5970692684
 30
0.0
 11
2223.6197799206
 21
575.5970692684
 31
0.0
  0
MTEXT
  5
40E
330
406
100
AcDbEntity
  8
SLD-0_0
100
AcDbMText
 10
1950.7276520658
 20
591.9682295635
 30
0.0
 40
12.7
 41
0.0
 71
     1
 72
     1
  1
500
  7
SLDTEXTSTYLE0
 73
     1
 44
1.0
  0
ENDBLK
  5
408
330
406
100
AcDbEntity
  8
0
100
AcDbBlockEnd
  0
BLOCK
  5
41B
330
41A
100
AcDbEntity
  8
0
100
AcDbBlockBegin
  2
_D_26
 70
     0
 10
0.0
 20
0.0
 30
0.0
  3
_D_26
  1

  0
SOLID
  5
41D
330
41A
100
AcDbEntity
  8
SLD-0_0
100
AcDbTrace
 10
2216.8400980536
 20
283.5672242878
 30
0.0
 11
2213.5380980536
 21
284.0752242878
 31
0.0
 12
2213.5380980536
 22
283.0592242878
 32
0.0
 13
2213.5380980536
 23
283.0592242878
 33
0.0
  0
SOLID
  5
41E
330
41A
100
AcDbEntity
  8
SLD-0_0
100
AcDbTrace
 10
1931.8400980536
 20
283.5672242878
 30
0.0
 11
1935.1420980536
 21
283.0592242878
 31
0.0
 12
1935.1420980536
 22
284.0752242878
 32
0.0
 13
1935.1420980536
 23
284.0752242878
 33
0.0
  0
LINE
  5
41F
330
41A
100
AcDbEntity
  8
SLD-0_0
100
AcDbLine
 10
2216.8400980536
 20
306.5672242878
 30
0.0
 11
2216.8400980536
 21
282.5672242878
 31
0.0
  0
LINE
  5
420
330
41A
100
AcDbEntity
  8
SLD-0_0
100
AcDbLine
 10
1931.8400980536
 20
306.5672242878
 30
0.0
 11
1931.8400980536
 21
282.5672242878
 31
0.0
  0
LINE
  5
421
330
41A
100
AcDbEntity
  8
SLD-0_0
100
AcDbLine
 10
2216.8400980536
 20
283.5672242878
 30
0.0
 11
1931.8400980536
 21
283.5672242878
 31
0.0
  0
MTEXT
  5
422
330
41A
100
AcDbEntity
  8
SLD-0_0
100
AcDbMText
 10
2057.0394319675
 20
299.9383845829
 30
0.0
 40
12.7
 41
0.0
 71
     1
 72
     1
  1
285
  7
SLDTEXTSTYLE0
 73
     1
 44
1.0
  0
ENDBLK
  5
41C
330
41A
100
AcDbEntity
  8
0
100
AcDbBlockEnd
  0
BLOCK
  5
428
330
427
100
AcDbEntity
  8
0
100
AcDbBlockBegin
  2
SW_ANGULAR_DIMENSION_0
 70
     0
 10
0.0
 20
0.0
 30
0.0
  3
SW_ANGULAR_DIMENSION_0
  1

  0
ARC
  5
42A
330
427
100
AcDbEntity
  8
CAJETIN
 62
     0
100
AcDbCircle
 10
47.0092353754
 20
6.0981868872
 30
0.0
 40
45.64392346152765
100
AcDbArc
 50
180.0
 51
225.0
  0
SOLID
  5
42B
330
427
100
AcDbEntity
  8
CAJETIN
 62
     0
100
AcDbTrace
 10
1.3653119139
 20
6.0981868872
 30
0.0
 11
0.9768470639
 21
2.7800001745
 31
0.0
 12
1.9921847971
 22
2.8166783334
 32
0.0
 13
1.9921847971
 23
2.8166783334
 33
0.0
  0
SOLID
  5
42C
330
427
100
AcDbEntity
  8
CAJETIN
 62
     0
100
AcDbTrace
 10
14.7341075758
 20
-26.1769409124
 30
0.0
 11
12.8569966916
 21
-23.4132978949
 31
0.0
 12
12.1131091203
 22
-24.1053147164
 32
0.0
 13
12.1131091203
 23
-24.1053147164
 33
0.0
  0
LINE
  5
42D
330
427
100
AcDbEntity
  8
CAJETIN
 62
     0
100
AcDbLine
 10
46.0092353754
 20
6.0981868872
 30
0.0
 11
0.3653119139
 21
6.0981868872
 31
0.0
  0
LINE
  5
42E
330
427
100
AcDbEntity
  8
CAJETIN
 62
     0
100
AcDbLine
 10
28.3021285943
 20
-12.608919894
 30
0.0
 11
14.0270007946
 21
-26.8840476936
 31
0.0
  0
MTEXT
  5
42F
330
427
100
AcDbEntity
  8
CAJETIN
 62
     0
100
AcDbMText
 10
15.0641899348
 20
6.4097637254
 30
0.0
 40
12.7
 41
0.0
 71
     1
 72
     1
  1
45°
  7
SLDTEXTSTYLE0
 11
0.3915277603968672
 21
-0.9201662962957367
 31
0.0
 73
     1
 44
1.0
  0
ENDBLK
  5
429
330
427
100
AcDbEntity
  8
0
100
AcDbBlockEnd
  0
BLOCK
  5
434
330
433
100
AcDbEntity
  8
0
100
AcDbBlockBegin
  2
_D_27
 70
     0
 10
0.0
 20
0.0
 30
0.0
  3
_D_27
  1

  0
SOLID
  5
436
330
433
100
AcDbEntity
  8
CAJETIN
100
AcDbTrace
 10
1818.0362964322
 20
541.6172242878
 30
0.0
 11
1817.5282964322
 21
538.3152242878
 31
0.0
 12
1818.5442964322
 22
538.3152242878
 32
0.0
 13
1818.5442964322
 23
538.3152242878
 33
0.0
  0
SOLID
  5
437
330
433
100
AcDbEntity
  8
CAJETIN
100
AcDbTrace
 10
1818.0362964322
 20
307.5672242878
 30
0.0
 11
1818.5442964322
 21
310.8692242878
 31
0.0
 12
1817.5282964322
 22
310.8692242878
 32
0.0
 13
1817.5282964322
 23
310.8692242878
 33
0.0
  0
LINE
  5
438
330
433
100
AcDbEntity
  8
CAJETIN
100
AcDbLine
 10
1795.0362964322
 20
541.6172242878
 30
0.0
 11
1819.0362964322
 21
541.6172242878
 31
0.0
  0
LINE
  5
439
330
433
100
AcDbEntity
  8
CAJETIN
100
AcDbLine
 10
1795.0362964322
 20
307.5672242878
 30
0.0
 11
1819.0362964322
 21
307.5672242878
 31
0.0
  0
LINE
  5
43A
330
433
100
AcDbEntity
  8
CAJETIN
100
AcDbLine
 10
1818.0362964322
 20
541.6172242878
 30
0.0
 11
1818.0362964322
 21
307.5672242878
 31
0.0
  0
MTEXT
  5
43B
330
433
100
AcDbEntity
  8
CAJETIN
100
AcDbMText
 10
1801.6651361371
 20
395.4929076167
 30
0.0
 40
12.7
 41
0.0
 71
     1
 72
     1
  1
234.1
  7
SLDTEXTSTYLE0
 11
-9.708730276744010E-15
 21
1.0
 31
0.0
 73
     1
 44
1.0
  0
ENDBLK
  5
435
330
433
100
AcDbEntity
  8
0
100
AcDbBlockEnd
  0
BLOCK
  5
43E
330
43D
100
AcDbEntity
  8
0
100
AcDbBlockBegin
  2
_D_28
 70
     0
 10
0.0
 20
0.0
 30
0.0
  3
_D_28
  1

  0
SOLID
  5
440
330
43D
100
AcDbEntity
  8
CAJETIN
100
AcDbTrace
 10
1776.0362964322
 20
284.5477066791
 30
0.0
 11
1772.7342964322
 21
285.0557066791
 31
0.0
 12
1772.7342964322
 22
284.0397066791
 32
0.0
 13
1772.7342964322
 23
284.0397066791
 33
0.0
  0
SOLID
  5
441
330
43D
100
AcDbEntity
  8
CAJETIN
100
AcDbTrace
 10
1794.0362964322
 20
284.5477066791
 30
0.0
 11
1797.3382964322
 21
284.0397066791
 31
0.0
 12
1797.3382964322
 22
285.0557066791
 32
0.0
 13
1797.3382964322
 23
285.0557066791
 33
0.0
  0
LINE
  5
442
330
43D
100
AcDbEntity
  8
CAJETIN
100
AcDbLine
 10
1776.0362964322
 20
324.5672242878
 30
0.0
 11
1776.0362964322
 21
283.5477066791
 31
0.0
  0
LINE
  5
443
330
43D
100
AcDbEntity
  8
CAJETIN
100
AcDbLine
 10
1794.0362964322
 20
306.5672242878
 30
0.0
 11
1794.0362964322
 21
283.5477066791
 31
0.0
  0
LINE
  5
444
330
43D
100
AcDbEntity
  8
CAJETIN
100
AcDbLine
 10
1776.0362964322
 20
284.5477066791
 30
0.0
 11
1769.6862964322
 21
284.5477066791
 31
0.0
  0
LINE
  5
445
330
43D
100
AcDbEntity
  8
CAJETIN
100
AcDbLine
 10
1776.0362964322
 20
284.5477066791
 30
0.0
 11
1794.0362964322
 21
284.5477066791
 31
0.0
  0
LINE
  5
446
330
43D
100
AcDbEntity
  8
CAJETIN
100
AcDbLine
 10
1794.0362964322
 20
284.5477066791
 30
0.0
 11
1800.3862964322
 21
284.5477066791
 31
0.0
  0
MTEXT
  5
447
330
43D
100
AcDbEntity
  8
CAJETIN
100
AcDbMText
 10
1775.016928698
 20
300.9188669742
 30
0.0
 40
12.7
 41
0.0
 71
     1
 72
     1
  1
18
  7
SLDTEXTSTYLE0
 73
     1
 44
1.0
  0
ENDBLK
  5
43F
330
43D
100
AcDbEntity
  8
0
100
AcDbBlockEnd
  0
ENDSEC
  0
SECTION
  2
ENTITIES
  0
LINE
  5
7B
330
1F
100
AcDbEntity
  8
PREDETERMINADO
100
AcDbLine
 10
2326.3868914068
 20
55.3922002647
 30
0.0
 11
2317.6205776215
 21
55.3922002647
 31
0.0
  0
LINE
  5
7C
330
1F
100
AcDbEntity
  8
PREDETERMINADO
100
AcDbLine
 10
2311.9034164572
 20
26.9969664818
 30
0.0
 11
2317.2394335439
 21
26.9969664818
 31
0.0
  0
LINE
  5
7D
330
1F
100
AcDbEntity
  8
PREDETERMINADO
100
AcDbLine
 10
2347.349815676
 20
55.3922002647
 30
0.0
 11
2339.345790046
 21
55.3922002647
 31
0.0
  0
LINE
  5
7E
330
1F
100
AcDbEntity
  8
PREDETERMINADO
100
AcDbLine
 10
2334.2944881428
 20
29.4744029864
 30
0.0
 11
2342.2260222233
 21
29.4744029864
 31
0.0
  0
LINE
  5
7F
330
1F
100
AcDbEntity
  8
PREDETERMINADO
100
AcDbLine
 10
2077.3204038588
 20
136.545363934
 30
0.0
 11
2077.3204038588
 21
95.1623214457
 31
0.0
  0
LINE
  5
80
330
1F
100
AcDbEntity
  8
PREDETERMINADO
100
AcDbLine
 10
2077.3204038588
 20
95.1623214457
 30
0.0
 11
1590.3445052522
 21
95.1623214457
 31
0.0
  0
LINE
  5
81
330
1F
100
AcDbEntity
  8
PREDETERMINADO
100
AcDbLine
 10
1590.3445052522
 20
95.1623214457
 30
0.0
 11
1590.3445052522
 21
90.9233214457
 31
0.0
  0
LINE
  5
82
330
1F
100
AcDbEntity
  8
PREDETERMINADO
100
AcDbLine
 10
1590.3445052522
 20
90.9233214457
 30
0.0
 11
2081.5594038588
 21
90.9233214457
 31
0.0
  0
LINE
  5
83
330
1F
100
AcDbEntity
  8
PREDETERMINADO
100
AcDbLine
 10
2081.5594038588
 20
90.9233214457
 30
0.0
 11
2081.5594038588
 21
136.545363934
 31
0.0
  0
LINE
  5
84
330
1F
100
AcDbEntity
  8
PREDETERMINADO
100
AcDbLine
 10
2081.5594038588
 20
136.545363934
 30
0.0
 11
2077.3204038588
 21
136.545363934
 31
0.0
  0
LINE
  5
85
330
1F
100
AcDbEntity
  8
PREDETERMINADO
100
AcDbLine
 10
2334.2944881428
 20
29.4744029864
 30
0.0
 11
2342.2260222233
 21
29.4744029864
 31
0.0
  0
LINE
  5
86
330
1F
100
AcDbEntity
  8
PREDETERMINADO
100
AcDbLine
 10
2347.349815676
 20
55.3922002647
 30
0.0
 11
2339.345790046
 21
55.3922002647
 31
0.0
  0
LINE
  5
87
330
1F
100
AcDbEntity
  8
PREDETERMINADO
100
AcDbLine
 10
2326.3868914068
 20
55.3922002647
 30
0.0
 11
2317.6205776215
 21
55.3922002647
 31
0.0
  0
LINE
  5
88
330
1F
100
AcDbEntity
  8
PREDETERMINADO
100
AcDbLine
 10
2311.9034164572
 20
26.9969664818
 30
0.0
 11
2317.2394335439
 21
26.9969664818
 31
0.0
  0
LINE
  5
89
330
1F
100
AcDbEntity
  8
PREDETERMINADO
  6
Continuous
 62
   179
370
    15
100
AcDbLine
 10
1590.3445052522
 20
226.4337645885
 30
0.0
 11
1590.3445052522
 21
140.784363934
 31
0.0
  0
LINE
  5
8A
330
1F
100
AcDbEntity
  8
SLD-0_0
100
AcDbLine
 10
1779.091010637
 20
90.9233214457
 30
0.0
 11
1779.091010637
 21
14.4837645885
 31
0.0
  0
LINE
  5
8B
330
1F
100
AcDbEntity
  8
FORMATO
  6
Continuous
 62
   179
100
AcDbLine
 10
1784.8294038588
 20
140.784363934
 30
0.0
 11
1784.8294038588
 21
226.4337645885
 31
0.0
  0
LINE
  5
8C
330
1F
100
AcDbEntity
  8
FORMATO
  6
Continuous
 62
   179
100
AcDbLine
 10
1704.3365697089
 20
140.784363934
 30
0.0
 11
1784.8294038588
 21
140.784363934
 31
0.0
  0
LINE
  5
8D
330
1F
100
AcDbEntity
  8
FORMATO
  6
Continuous
 62
   179
100
AcDbLine
 10
1704.3365697089
 20
140.784363934
 30
0.0
 11
1704.3365697089
 21
226.4337645885
 31
0.0
  0
LINE
  5
8E
330
1F
100
AcDbEntity
  8
FORMATO
  6
Continuous
 62
   179
100
AcDbLine
 10
1590.3445052522
 20
161.979363934
 30
0.0
 11
1869.6094038588
 21
161.979363934
 31
0.0
  0
LINE
  5
8F
330
1F
100
AcDbEntity
  8
FORMATO
  6
Continuous
 62
   179
100
AcDbLine
 10
1590.3445052522
 20
183.174363934
 30
0.0
 11
1869.6094038588
 21
183.174363934
 31
0.0
  0
LINE
  5
90
330
1F
100
AcDbEntity
  8
FORMATO
  6
Continuous
 62
   179
100
AcDbLine
 10
1869.6094038588
 20
140.784363934
 30
0.0
 11
1869.6094038588
 21
226.4337645885
 31
0.0
  0
LINE
  5
91
330
1F
100
AcDbEntity
  8
FORMATO
  6
Continuous
 62
   179
100
AcDbLine
 10
2357.0944038588
 20
204.369363934
 30
0.0
 11
1590.3445052522
 21
204.369363934
 31
0.0
  0
LINE
  5
92
330
1F
100
AcDbEntity
  8
FORMATO
  6
Continuous
 62
   179
100
AcDbLine
 10
2176.5488016567
 20
226.4337645885
 30
0.0
 11
2176.5488016567
 21
178.732888883
 31
0.0
  0
LINE
  5
93
330
1F
100
AcDbEntity
  8
FORMATO
  6
Continuous
 62
   179
100
AcDbLine
 10
2123.9494038588
 20
226.4337645885
 30
0.0
 11
2123.9494038588
 21
178.732888883
 31
0.0
  0
LINE
  5
94
330
1F
100
AcDbEntity
  8
FORMATO
  6
Continuous
 62
   179
100
AcDbLine
 10
2081.5594038588
 20
178.732888883
 30
0.0
 11
2357.0944038588
 21
178.732888883
 31
0.0
  0
LINE
  5
95
330
1F
100
AcDbEntity
  8
FORMATO
  6
Continuous
 62
   179
100
AcDbLine
 10
2245.9156686259
 20
136.545363934
 30
0.0
 11
2245.9156686259
 21
226.4337645885
 31
0.0
  0
LINE
  5
96
330
1F
100
AcDbEntity
  8
PREDETERMINADO
370
    15
100
AcDbLine
 10
1590.3445052522
 20
95.1623214457
 30
0.0
 11
1590.3445052522
 21
14.4837645885
 31
0.0
  0
LINE
  5
97
330
1F
100
AcDbEntity
  8
FORMATO
  6
Continuous
 62
   179
100
AcDbLine
 10
2208.7294038588
 20
81.2084196758
 30
0.0
 11
2357.0944038588
 21
81.2084196758
 31
0.0
  0
LINE
  5
98
330
1F
100
AcDbEntity
  8
FORMATO
  6
Continuous
 62
   179
100
AcDbLine
 10
2208.7294038588
 20
14.4837645885
 30
0.0
 11
2208.7294038588
 21
136.545363934
 31
0.0
  0
LINE
  5
99
330
1F
100
AcDbEntity
  8
FORMATO
  6
Continuous
 62
   179
370
    15
100
AcDbLine
 10
1586.1055052522
 20
140.784363934
 30
0.0
 11
2077.3204038588
 21
140.784363934
 31
0.0
  0
LINE
  5
9A
330
1F
100
AcDbEntity
  8
FORMATO
  6
Continuous
 62
   179
370
    15
100
AcDbLine
 10
2081.5594038588
 20
90.9233214457
 30
0.0
 11
2081.5594038588
 21
136.545363934
 31
0.0
  0
LINE
  5
9B
330
1F
100
AcDbEntity
  8
FORMATO
  6
Continuous
 62
   179
100
AcDbLine
 10
1940.238174456
 20
90.9233214457
 30
0.0
 11
1940.238174456
 21
14.4837645885
 31
0.0
  0
LINE
  5
9C
330
1F
100
AcDbEntity
  8
SLD-0
  6
Continuous
 62
   179
100
AcDbLine
 10
2339.345790046
 20
55.3922002647
 30
0.0
 11
2347.349815676
 21
55.3922002647
 31
0.0
  0
LINE
  5
9D
330
1F
100
AcDbEntity
  8
SLD-0
  6
Continuous
 62
   179
100
AcDbLine
 10
2334.0097729593
 20
29.4744029864
 30
0.0
 11
2342.2260222233
 21
29.4744029864
 31
0.0
  0
LINE
  5
9E
330
1F
100
AcDbEntity
  8
SLD-0
  6
Continuous
 62
   179
100
AcDbLine
 10
2317.6205776215
 20
55.3922002647
 30
0.0
 11
2326.3868914068
 21
55.3922002647
 31
0.0
  0
LINE
  5
9F
330
1F
100
AcDbEntity
  8
FORMATO
  6
Continuous
 62
   179
100
AcDbLine
 10
1873.2879082551
 20
184.541111847
 30
0.0
 11
1879.9792919007
 21
184.541111847
 31
0.0
  0
LINE
  5
A0
330
1F
100
AcDbEntity
  8
FORMATO
  6
Continuous
 62
   179
100
AcDbLine
 10
1873.2879082551
 20
167.585111847
 30
0.0
 11
1879.9792919007
 21
167.585111847
 31
0.0
  0
LINE
  5
A1
330
1F
100
AcDbEntity
  8
FORMATO
  6
Continuous
 62
   179
100
AcDbLine
 10
1873.2879082551
 20
150.629111847
 30
0.0
 11
1879.9792919007
 21
150.629111847
 31
0.0
  0
LINE
  5
A2
330
1F
100
AcDbEntity
  8
FORMATO
  6
Continuous
 62
   179
100
AcDbLine
 10
2084.2217333106
 20
96.2614866588
 30
0.0
 11
2090.9131169562
 21
96.2614866588
 31
0.0
  0
LINE
  5
A3
330
1F
100
AcDbEntity
  8
FORMATO
  6
Continuous
 62
   179
100
AcDbLine
 10
2084.2217333106
 20
74.5987702522
 30
0.0
 11
2090.9131169562
 21
74.5987702522
 31
0.0
  0
LINE
  5
A4
330
1F
100
AcDbEntity
  8
FORMATO
  6
Continuous
 62
   179
100
AcDbLine
 10
2084.2217333106
 20
52.9360538457
 30
0.0
 11
2090.9131169562
 21
52.9360538457
 31
0.0
  0
LINE
  5
A5
330
1F
100
AcDbEntity
  8
FORMATO
  6
Continuous
 62
   179
100
AcDbLine
 10
2084.2217333106
 20
31.2733374392
 30
0.0
 11
2090.9131169562
 21
31.2733374392
 31
0.0
  0
LINE
  5
A6
330
1F
100
AcDbEntity
  8
PREDETERMINADO
100
AcDbLine
 10
2081.5594038588
 20
136.545363934
 30
0.0
 11
2357.4484632186
 21
136.545363934
 31
0.0
  0
LINE
  5
A7
330
1F
100
AcDbEntity
  8
FORMATO
  6
Continuous
 62
   179
370
    15
100
AcDbLine
 10
1590.3445052522
 20
226.4337645885
 30
0.0
 11
2357.0944038588
 21
226.4337645885
 31
0.0
  0
LINE
  5
A8
330
1F
100
AcDbEntity
  8
FORMATO
  6
Continuous
 62
   179
370
    15
100
AcDbLine
 10
2081.5594038588
 20
90.9233214457
 30
0.0
 11
1590.3445052522
 21
90.9233214457
 31
0.0
  0
LINE
  5
A9
330
1F
100
AcDbEntity
  8
PREDETERMINADO
  6
Continuous
 62
   179
100
AcDbLine
 10
1626.4171105113
 20
222.5853035127
 30
0.0
 11
1626.4171105113
 21
206.249343728
 31
0.0
  0
LINE
  5
AA
330
1F
100
AcDbEntity
  8
PREDETERMINADO
  6
Continuous
 62
   179
100
AcDbLine
 10
1610.0213274981
 20
218.8375233363
 30
0.0
 11
1610.0213274981
 21
209.9971239043
 31
0.0
  0
LINE
  5
AB
330
1F
100
AcDbEntity
  8
PREDETERMINADO
  6
CENTER
 62
   179
100
AcDbLine
 10
1646.5151671081
 20
223.6316247871
 30
0.0
 11
1646.5151671081
 21
205.0190596255
 31
0.0
  0
LINE
  5
AC
330
1F
100
AcDbEntity
  8
PREDETERMINADO
  6
Continuous
 62
   179
100
AcDbLine
 10
1626.4171105113
 20
222.5853035127
 30
0.0
 11
1610.0213274981
 21
218.8375233363
 31
0.0
  0
LINE
  5
AD
330
1F
100
AcDbEntity
  8
PREDETERMINADO
  6
Continuous
 62
   179
100
AcDbLine
 10
1610.0213274981
 20
209.9971239043
 30
0.0
 11
1626.4171105113
 21
206.249343728
 31
0.0
  0
LINE
  5
AE
330
1F
100
AcDbEntity
  8
PREDETERMINADO
  6
CENTER
 62
   179
100
AcDbLine
 10
1656.3437064934
 20
214.4173236203
 30
0.0
 11
1608.3304014588
 21
214.4173236203
 31
0.0
  0
LINE
  5
AF
330
1F
100
AcDbEntity
  8
PREDETERMINADO
370
    15
100
AcDbLine
 10
1590.3445052522
 20
14.4837645885
 30
0.0
 11
2357.0944038588
 21
14.4837645885
 31
0.0
  0
LINE
  5
B0
330
1F
100
AcDbEntity
  8
PREDETERMINADO
370
    15
100
AcDbLine
 10
2357.0944038588
 20
14.4837645885
 30
0.0
 11
2357.0944038588
 21
226.4337645885
 31
0.0
  0
LINE
  5
B1
330
1F
100
AcDbEntity
  8
PREDETERMINADO
370
    15
100
AcDbLine
 10
2077.3204038588
 20
136.545363934
 30
0.0
 11
2081.5594038588
 21
136.545363934
 31
0.0
  0
LINE
  5
B2
330
1F
100
AcDbEntity
  8
PREDETERMINADO
100
AcDbLine
 10
2081.5594038588
 20
136.545363934
 30
0.0
 11
2081.5594038588
 21
226.4337645885
 31
0.0
  0
LINE
  5
B3
330
1F
100
AcDbEntity
  8
PREDETERMINADO
100
AcDbLine
 10
2081.5594038588
 20
90.9233214457
 30
0.0
 11
2081.5594038588
 21
14.4837645885
 31
0.0
  0
LINE
  5
B4
330
1F
100
AcDbEntity
  8
PREDETERMINADO
370
    15
100
AcDbLine
 10
1586.1055052522
 20
140.784363934
 30
0.0
 11
1586.1055052522
 21
95.1623214457
 31
0.0
  0
LINE
  5
B5
330
1F
100
AcDbEntity
  8
PREDETERMINADO
370
    15
100
AcDbLine
 10
1586.1055052522
 20
95.1623214457
 30
0.0
 11
2077.3204038588
 21
95.1623214457
 31
0.0
  0
LINE
  5
B6
330
1F
100
AcDbEntity
  8
PREDETERMINADO
370
    15
100
AcDbLine
 10
2077.3204038588
 20
95.1623214457
 30
0.0
 11
2077.3204038588
 21
140.784363934
 31
0.0
  0
LINE
  5
B7
330
1F
100
AcDbEntity
  8
SLD-0
  6
Continuous
 62
   179
100
AcDbLine
 10
2311.9034164572
 20
26.9969664818
 30
0.0
 11
2317.2394335439
 21
26.9969664818
 31
0.0
  0
LINE
  5
B8
330
1F
100
AcDbEntity
  8
NONPLOT
100
AcDbLine
 10
20.2752616314
 20
271.0131637688
 30
0.0
 11
414.1539079938
 21
271.0131637688
 31
0.0
  0
LINE
  5
B9
330
1F
100
AcDbEntity
  8
NONPLOT
100
AcDbLine
 10
20.2752616314
 20
261.0131637688
 30
0.0
 11
414.1539079938
 21
261.0131637688
 31
0.0
  0
LINE
  5
BA
330
1F
100
AcDbEntity
  8
NONPLOT
100
AcDbLine
 10
20.2752616314
 20
15.5413915315
 30
0.0
 11
414.1539079938
 21
15.5413915315
 31
0.0
  0
LINE
  5
BB
330
1F
100
AcDbEntity
  8
NONPLOT
100
AcDbLine
 10
35.2752616314
 20
271.0131637688
 30
0.0
 11
35.2752616314
 21
261.0131637688
 31
0.0
  0
LINE
  5
BC
330
1F
100
AcDbEntity
  8
NONPLOT
100
AcDbLine
 10
399.1539079938
 20
5.5413915315
 30
0.0
 11
399.1539079938
 21
15.5413915315
 31
0.0
  0
LINE
  5
BD
330
1F
100
AcDbEntity
  8
NONPLOT
  6
Continuous
 62
   179
370
    15
100
AcDbLine
 10
414.1539079938
 20
5.5413915315
 30
0.0
 11
414.1539079938
 21
291.0131637688
 31
0.0
  0
LINE
  5
BE
330
1F
100
AcDbEntity
  8
NONPLOT
  6
Continuous
 62
   179
370
    15
100
AcDbLine
 10
414.1539079938
 20
291.0131637688
 30
0.0
 11
20.2752616314
 21
291.0131637688
 31
0.0
  0
LINE
  5
BF
330
1F
100
AcDbEntity
  8
NONPLOT
  6
Continuous
 62
     7
370
    15
100
AcDbLine
 10
20.2752616314
 20
291.0131637688
 30
0.0
 11
20.2752616314
 21
5.5413915315
 31
0.0
  0
LINE
  5
C0
330
1F
100
AcDbEntity
  8
NONPLOT
  6
Continuous
 62
     7
100
AcDbLine
 10
-0.0123065099
 20
140.7183915315
 30
0.0
 11
20.2752616314
 21
140.7183915315
 31
0.0
  0
LINE
  5
C1
330
1F
100
AcDbEntity
  8
NONPLOT
  6
Continuous
 62
   179
100
AcDbLine
 10
244.5621101288
 20
5.5413915315
 30
0.0
 11
244.5621101288
 21
2.7153915315
 31
0.0
  0
LINE
  5
C2
330
1F
100
AcDbEntity
  8
NONPLOT
  6
Continuous
 62
   179
100
AcDbLine
 10
246.359907498
 20
293.8391637688
 30
0.0
 11
246.359907498
 21
291.0131637688
 31
0.0
  0
LINE
  5
C3
330
1F
100
AcDbEntity
  8
NONPLOT
  6
Continuous
 62
   179
370
    15
100
AcDbLine
 10
20.2752616314
 20
5.5413915315
 30
0.0
 11
414.1539079938
 21
5.5413915315
 31
0.0
  0
LINE
  5
C4
330
1F
100
AcDbEntity
  8
NONPLOT
100
AcDbLine
 10
414.1539079938
 20
5.5413915315
 30
0.0
 11
294.1539079938
 21
5.5413915315
 31
0.0
  0
LINE
  5
C5
330
1F
100
AcDbEntity
  8
NONPLOT
100
AcDbLine
 10
414.1539079938
 20
5.5413915315
 30
0.0
 11
414.1539079938
 21
105.5413915315
 31
0.0
  0
LINE
  5
C6
330
1F
100
AcDbEntity
  8
NONPLOT
100
AcDbLine
 10
414.1539079938
 20
105.5413915315
 30
0.0
 11
294.1539079938
 21
105.5413915315
 31
0.0
  0
LINE
  5
C7
330
1F
100
AcDbEntity
  8
NONPLOT
100
AcDbLine
 10
294.1539079938
 20
5.5413915315
 30
0.0
 11
294.1539079938
 21
105.5413915315
 31
0.0
  0
LINE
  5
C8
330
1F
100
AcDbEntity
  8
NONPLOT
100
AcDbLine
 10
399.1539079938
 20
261.0131637688
 30
0.0
 11
399.1539079938
 21
271.0131637688
 31
0.0
  0
LINE
  5
C9
330
1F
100
AcDbEntity
  8
NONPLOT
100
AcDbLine
 10
35.2752616314
 20
15.5413915315
 30
0.0
 11
35.2752616314
 21
5.5413915315
 31
0.0
  0
ARC
  5
CA
330
1F
100
AcDbEntity
  8
PREDETERMINADO
100
AcDbCircle
 10
2244.247166479
 20
55.3922002647
 30
0.0
 40
73.3734111425301
100
AcDbArc
 50
337.2322750577
 51
0.0
  0
ARC
  5
CB
330
1F
100
AcDbEntity
  8
PREDETERMINADO
100
AcDbCircle
 10
2277.7413933749
 20
55.3922002647
 30
0.0
 40
48.64549803190766
100
AcDbArc
 50
324.2875534854
 51
0.0
  0
ARC
  5
CC
330
1F
100
AcDbEntity
  8
PREDETERMINADO
100
AcDbCircle
 10
2270.3291404731
 20
55.3922002647
 30
0.0
 40
69.01664957284493
100
AcDbArc
 50
337.9429486592
 51
0.0
  0
ARC
  5
CD
330
1F
100
AcDbEntity
  8
PREDETERMINADO
100
AcDbCircle
 10
2279.2376365319
 20
55.3922002647
 30
0.0
 40
68.11217914413874
100
AcDbArc
 50
337.634330245
 51
0.0
  0
ARC
  5
CE
330
1F
100
AcDbEntity
  8
PREDETERMINADO
100
AcDbCircle
 10
2279.2376365319
 20
55.3922002647
 30
0.0
 40
68.11217914413874
100
AcDbArc
 50
337.634330245
 51
0.0
  0
ARC
  5
CF
330
1F
100
AcDbEntity
  8
PREDETERMINADO
100
AcDbCircle
 10
2270.3291404731
 20
55.3922002647
 30
0.0
 40
69.01664957284493
100
AcDbArc
 50
337.9429486592
 51
0.0
  0
ARC
  5
D0
330
1F
100
AcDbEntity
  8
PREDETERMINADO
100
AcDbCircle
 10
2277.7413933749
 20
55.3922002647
 30
0.0
 40
48.64549803190766
100
AcDbArc
 50
324.2875534854
 51
0.0
  0
ARC
  5
D1
330
1F
100
AcDbEntity
  8
PREDETERMINADO
100
AcDbCircle
 10
2244.247166479
 20
55.3922002647
 30
0.0
 40
73.3734111425301
100
AcDbArc
 50
337.2322750577
 51
0.0
  0
CIRCLE
  5
D2
330
1F
100
AcDbEntity
  8
PREDETERMINADO
  6
Continuous
 62
   179
100
AcDbCircle
 10
1646.5151671081
 20
214.4173236203
 30
0.0
 40
8.16797989235628
  0
CIRCLE
  5
D3
330
1F
100
AcDbEntity
  8
PREDETERMINADO
  6
Continuous
 62
   179
100
AcDbCircle
 10
1646.5039427456
 20
214.4173236203
 30
0.0
 40
4.420199715999228
  0
ARC
  5
D4
330
1F
100
AcDbEntity
  8
SLD-0
  6
Continuous
 62
   179
100
AcDbCircle
 10
2270.3291404731
 20
55.3922002647
 30
0.0
 40
69.01664957284493
100
AcDbArc
 50
337.9429486592
 51
0.0
  0
ARC
  5
D5
330
1F
100
AcDbEntity
  8
SLD-0
  6
Continuous
 62
   179
100
AcDbCircle
 10
2279.2376365319
 20
55.3922002647
 30
0.0
 40
68.11217914413874
100
AcDbArc
 50
337.634330245
 51
0.0
  0
ARC
  5
D6
330
1F
100
AcDbEntity
  8
SLD-0
  6
Continuous
 62
   179
100
AcDbCircle
 10
2277.7413933749
 20
55.3922002647
 30
0.0
 40
48.64549803190766
100
AcDbArc
 50
324.2875534854
 51
0.0
  0
ARC
  5
D7
330
1F
100
AcDbEntity
  8
SLD-0
  6
Continuous
 62
   179
100
AcDbCircle
 10
2244.247166479
 20
55.3922002647
 30
0.0
 40
73.3734111425301
100
AcDbArc
 50
337.2322750577
 51
0.0
  0
HATCH
  5
D8
330
1F
100
AcDbEntity
  8
0
  6
Continuous
 62
   179
100
AcDbHatch
 10
0.0
 20
0.0
 30
0.0
210
0.0
220
0.0
230
1.0
  2
ANSI31
 70
     0
 71
     0
 91
        1
 92
        0
 93
        4
 72
     1
 10
2311.903416457192
 20
26.99696648181871
 11
2317.2394335439
 21
26.99696648181871
 72
     2
 10
2277.74139337492
 20
55.39220026465463
 40
48.64549803190743
 50
324.2875534853728
 51
360.0000000000008
 73
     1
 72
     1
 10
2326.386891406828
 20
55.39220026465463
 11
2317.620577621549
 21
55.39220026465463
 72
     2
 10
2244.247166479021
 20
55.39220026465463
 40
73.37341114252966
 50
0.0
 51
22.76772494225697
 73
     0
 97
        0
 75
     0
 76
     1
 52
90.0
 41
0.03125
 77
     0
 78
     1
 53
135.0000000000002
 43
0.0
 44
0.0
 45
-0.0701582509458525
 46
-0.070158250945853
 79
     0
 98
        1
 10
0.0
 20
0.0
  0
HATCH
  5
D9
330
1F
100
AcDbEntity
  8
0
  6
Continuous
 62
   179
100
AcDbHatch
 10
0.0
 20
0.0
 30
0.0
210
0.0
220
0.0
230
1.0
  2
ANSI31
 70
     0
 71
     0
 91
        1
 92
        0
 93
        4
 72
     1
 10
2334.294488142801
 20
29.47440298636239
 11
2342.226022223261
 21
29.47440298636239
 72
     2
 10
2279.237636531893
 20
55.39220026465463
 40
68.11217914413834
 50
337.6343302449529
 51
360.0000000000008
 73
     1
 72
     1
 10
2347.349815676032
 20
55.39220026465463
 11
2339.345790045973
 21
55.39220026465463
 72
     2
 10
2270.329140473128
 20
55.39220026465463
 40
69.01664957284461
 50
0.0
 51
22.05705134075574
 73
     0
 97
        0
 75
     0
 76
     1
 52
90.0
 41
0.03125
 77
     0
 78
     1
 53
135.0000000000002
 43
0.0
 44
0.0
 45
-0.0701582509458525
 46
-0.070158250945853
 79
     0
 98
        1
 10
0.0
 20
0.0
  0
HATCH
  5
DA
330
1F
100
AcDbEntity
  8
0
  6
Continuous
 62
   179
100
AcDbHatch
 10
0.0
 20
0.0
 30
0.0
210
0.0
220
0.0
230
1.0
  2
ANSI31
 70
     0
 71
     0
 91
        1
 92
        0
 93
        6
 72
     1
 10
2081.559403858756
 20
90.92332144566029
 11
2081.559403858756
 21
136.5453639339958
 72
     1
 10
2081.559403858756
 20
136.5453639339958
 11
2077.320403858754
 21
136.5453639339958
 72
     1
 10
2077.320403858754
 20
136.5453639339958
 11
2077.320403858754
 21
95.16232144565994
 72
     1
 10
2077.320403858754
 20
95.16232144565994
 11
1590.344505252188
 21
95.16232144565994
 72
     1
 10
1590.344505252188
 20
95.16232144565994
 11
1590.344505252188
 21
90.92332144566029
 72
     1
 10
1590.344505252188
 20
90.92332144566029
 11
2081.559403858756
 21
90.92332144566029
 97
        0
 75
     0
 76
     1
 52
0.0
 41
0.0625
 77
     0
 78
     1
 53
45.0
 43
0.0
 44
0.0
 45
-0.1403165018917055
 46
0.1403165018917055
 79
     0
 98
        1
 10
0.0
 20
0.0
  0
INSERT
  5
E1
330
1F
100
AcDbEntity
  8
SLD-0_0
100
AcDbBlockReference
  2
SW_NOTE_0
 10
865.5059952228
 20
860.1719484384
 30
0.0
  0
INSERT
  5
E7
330
1F
100
AcDbEntity
  8
SLD-0_0
100
AcDbBlockReference
  2
SW_NOTE_1
 10
1570.7037079833
 20
1606.9853829999
 30
0.0
  0
INSERT
  5
ED
330
1F
100
AcDbEntity
  8
SLD-0_0
100
AcDbBlockReference
  2
SW_NOTE_2
 10
938.5984636837
 20
1613.6424730232
 30
0.0
  0
INSERT
  5
F3
330
1F
100
AcDbEntity
  8
SLD-0_0
100
AcDbBlockReference
  2
SW_NOTE_3
 10
48.6868482558
 20
1620.0118903025
 30
0.0
  0
INSERT
  5
F9
330
1F
100
AcDbEntity
  8
CAJETIN
100
AcDbBlockReference
  2
SW_NOTE_4
 10
1802.119971782
 20
119.2180786386
 30
0.0
  0
MTEXT
  5
FA
330
1F
100
AcDbEntity
  8
CAJETIN
100
AcDbMText
 10
2090.3194290674
 20
197.209304663
 30
0.0
 40
9.525
 41
0.0
 71
     1
 72
     1
  1
mm
  7
SLDTEXTSTYLE0
 73
     1
 44
1.0
  0
MTEXT
  5
FB
330
1F
100
AcDbEntity
  8
CAJETIN
100
AcDbMText
 10
1796.8324786344
 20
157.6869082218
 30
0.0
 40
9.525
 41
0.0
 71
     1
 72
     1
  1
11/06/2020
  7
SLDTEXTSTYLE0
 73
     1
 44
1.0
  0
MTEXT
  5
FC
330
1F
100
AcDbEntity
  8
CAJETIN
100
AcDbMText
 10
1796.8324786344
 20
178.9631223165
 30
0.0
 40
9.525
 41
0.0
 71
     1
 72
     1
  1
11/06/2020
  7
SLDTEXTSTYLE0
 73
     1
 44
1.0
  0
MTEXT
  5
FD
330
1F
100
AcDbEntity
  8
CAJETIN
100
AcDbMText
 10
1717.8612127376
 20
157.6869082218
 30
0.0
 40
9.525
 41
0.0
 71
     1
 72
     1
  1
J. Serrano
  7
SLDTEXTSTYLE0
 73
     1
 44
1.0
  0
MTEXT
  5
FE
330
1F
100
AcDbEntity
  8
CAJETIN
100
AcDbMText
 10
1717.8612127376
 20
178.9631223165
 30
0.0
 40
9.525
 41
0.0
 71
     1
 72
     1
  1
R. Climent
  7
SLDTEXTSTYLE0
 73
     1
 44
1.0
  0
MTEXT
  5
FF
330
1F
100
AcDbEntity
  8
CAJETIN
100
AcDbMText
 10
1796.8324786344
 20
199.8145515303
 30
0.0
 40
9.525
 41
0.0
 71
     1
 72
     1
  1
11/06/2020
  7
SLDTEXTSTYLE0
 73
     1
 44
1.0
  0
MTEXT
  5
100
330
1F
100
AcDbEntity
  8
CAJETIN
100
AcDbMText
 10
2108.162165289
 20
131.4581188801
 30
0.0
 40
9.525
 41
0.0
 71
     1
 72
     1
  1
MATERIAL
  7
SLDTEXTSTYLE0
 73
     1
 44
1.0
  0
MTEXT
  5
101
330
1F
100
AcDbEntity
  8
CAJETIN
100
AcDbMText
 10
1825.994358571
 20
86.1058371253
 30
0.0
 40
9.525
 41
0.0
 71
     1
 72
     1
  1
SIGNED
  7
SLDTEXTSTYLE0
 73
     1
 44
1.0
  0
MTEXT
  5
102
330
1F
100
AcDbEntity
  8
CAJETIN
100
AcDbMText
 10
2093.7198006162
 20
173.7432764092
 30
0.0
 40
9.525
 41
0.0
 71
     1
 72
     1
  1
DRAWING NUMBER
  7
SLDTEXTSTYLE0
 73
     1
 44
1.0
  0
MTEXT
  5
103
330
1F
100
AcDbEntity
  8
CAJETIN
100
AcDbMText
 10
2278.9369929611
 20
222.8754447289
 30
0.0
 40
9.525
 41
0.0
 71
     1
 72
     1
  1
SCALE
  7
SLDTEXTSTYLE0
 73
     1
 44
1.0
  0
MTEXT
  5
104
330
1F
100
AcDbEntity
  8
CAJETIN
100
AcDbMText
 10
2191.6536353937
 20
221.9191953056
 30
0.0
 40
9.525
 41
0.0
 71
     1
 72
     1
  1
DATE
  7
SLDTEXTSTYLE0
 73
     1
 44
1.0
  0
MTEXT
  5
105
330
1F
100
AcDbEntity
  8
CAJETIN
100
AcDbMText
 10
2128.3508383559
 20
221.9191953056
 30
0.0
 40
9.525
 41
0.0
 71
     1
 72
     1
  1
LEVEL
  7
SLDTEXTSTYLE0
 73
     1
 44
1.0
  0
MTEXT
  5
106
330
1F
100
AcDbEntity
  8
CAJETIN
100
AcDbMText
 10
2084.758804305
 20
221.9191953056
 30
0.0
 40
9.525
 41
0.0
 71
     1
 72
     1
  1
UNIT
  7
SLDTEXTSTYLE0
 73
     1
 44
1.0
  0
MTEXT
  5
107
330
1F
100
AcDbEntity
  8
CAJETIN
100
AcDbMText
 10
1940.5355176722
 20
222.8754447289
 30
0.0
 40
9.525
 41
0.0
 71
     1
 72
     1
  1
NOTES
  7
SLDTEXTSTYLE0
 73
     1
 44
1.0
  0
MTEXT
  5
108
330
1F
100
AcDbEntity
  8
CAJETIN
100
AcDbMText
 10
1951.329047588
 20
86.1058371253
 30
0.0
 40
9.525
 41
0.0
 71
     1
 72
     1
  1
PART NUMBER
  7
SLDTEXTSTYLE0
 73
     1
 44
1.0
  0
MTEXT
  5
109
330
1F
100
AcDbEntity
  8
CAJETIN
100
AcDbMText
 10
1595.4464510851
 20
85.6517916921
 30
0.0
 40
9.525
 41
0.0
 71
     1
 72
     1
  1
MODEL CODE:
  7
SLDTEXTSTYLE0
 73
     1
 44
1.0
  0
MTEXT
  5
10A
330
1F
100
AcDbEntity
  8
CAJETIN
100
AcDbMText
 10
1589.9606861945
 20
135.9232403208
 30
0.0
 40
9.525
 41
0.0
 71
     1
 72
     1
  1
TITLE:
  7
SLDTEXTSTYLE0
 73
     1
 44
1.0
  0
MTEXT
  5
10B
330
1F
100
AcDbEntity
  8
CAJETIN
100
AcDbMText
 10
1595.4464510851
 20
180.0350302131
 30
0.0
 40
9.525
 41
0.0
 71
     1
 72
     1
  1
DRAWN BY
  7
SLDTEXTSTYLE0
 73
     1
 44
1.0
  0
MTEXT
  5
10C
330
1F
100
AcDbEntity
  8
CAJETIN
100
AcDbMText
 10
1595.4464510851
 20
158.7912354645
 30
0.0
 40
9.525
 41
0.0
 71
     1
 72
     1
  1
REVISED BY
  7
SLDTEXTSTYLE0
 73
     1
 44
1.0
  0
MTEXT
  5
10D
330
1F
100
AcDbEntity
  8
CAJETIN
100
AcDbMText
 10
1595.4464510851
 20
200.0397542023
 30
0.0
 40
9.525
 41
0.0
 71
     1
 72
     1
  1
DESIGNED BY
  7
SLDTEXTSTYLE0
 73
     1
 44
1.0
  0
MTEXT
  5
10E
330
1F
100
AcDbEntity
  8
CAJETIN
100
AcDbMText
 10
1814.6758722664
 20
222.8754447289
 30
0.0
 40
9.525
 41
0.0
 71
     1
 72
     1
  1
DATE
  7
SLDTEXTSTYLE0
 73
     1
 44
1.0
  0
MTEXT
  5
10F
330
1F
100
AcDbEntity
  8
CAJETIN
100
AcDbMText
 10
1655.2569581168
 20
222.0051188788
 30
0.0
 40
9.525
 41
0.0
 71
     1
 72
     1
  1
CAD
  7
SLDTEXTSTYLE0
 73
     1
 44
1.0
  0
MTEXT
  5
110
330
1F
100
AcDbEntity
  8
CAJETIN
100
AcDbMText
 10
2273.3823078248
 20
173.7432764092
 30
0.0
 40
9.525
 41
0.0
 71
     1
 72
     1
  1
WEIGHT
  7
SLDTEXTSTYLE0
 73
     1
 44
1.0
  0
MTEXT
  5
111
330
1F
100
AcDbEntity
  8
CAJETIN
100
AcDbMText
 10
1729.4653405198
 20
222.8754447289
 30
0.0
 40
9.525
 41
0.0
 71
     1
 72
     1
  1
NAME
  7
SLDTEXTSTYLE0
 73
     1
 44
1.0
  0
MTEXT
  5
112
330
1F
100
AcDbEntity
  8
CAJETIN
100
AcDbMText
 10
2301.4725805261
 20
198.1253663996
 30
0.0
 40
9.525
 41
0.0
 71
     2
 72
     1
  1
1:1
  7
SLDTEXTSTYLE0
 73
     1
 44
1.0
  0
MTEXT
  5
113
330
1F
100
AcDbEntity
  8
CAJETIN
100
AcDbMText
 10
2128.6519649744
 20
155.5580237844
 30
0.0
 40
9.525
 41
0.0
 71
     1
 72
     1
  1
S-18LEX1000
  7
SLDTEXTSTYLE0
 73
     1
 44
1.0
  0
MTEXT
  5
114
330
1F
100
AcDbEntity
  8
CAJETIN
100
AcDbMText
 10
2145.4897415184
 20
197.209304663
 30
0.0
 40
9.525
 41
0.0
 71
     1
 72
     1
  1
01
  7
SLDTEXTSTYLE0
 73
     1
 44
1.0
  0
MTEXT
  5
116
330
1F
100
AcDbEntity
  8
PREDETERMINADO
100
AcDbMText
 10
2222.3941530168
 20
58.810923323
 30
0.0
 40
19.05
 41
0.0
 71
     1
 72
     1
  1
beyma
  7
SLDTEXTSTYLE1
 73
     1
 44
1.0
  0
MTEXT
  5
117
330
1F
100
AcDbEntity
  8
CAJETIN
100
AcDbMText
 10
1716.4862139092
 20
199.8145515303
 30
0.0
 40
9.525
 41
0.0
 71
     1
 72
     1
  1
R&D Dep.
  7
SLDTEXTSTYLE0
 73
     1
 44
1.0
  0
MTEXT
  5
118
330
1F
100
AcDbEntity
  8
CAJETIN
100
AcDbMText
 10
2311.9854193863
 20
155.5580237844
 30
0.0
 40
9.525
 41
0.0
 71
     1
 72
     1
  1
g.
  7
SLDTEXTSTYLE0
 73
     1
 44
1.0
  0
INSERT
  5
11E
330
1F
100
AcDbEntity
  8
CAJETIN
100
AcDbBlockReference
  2
SW_NOTE_5
 10
2101.2267675061
 20
99.3857912542
 30
0.0
  0
INSERT
  5
124
330
1F
100
AcDbEntity
  8
SLD-0_0
100
AcDbBlockReference
  2
SW_NOTE_6
 10
1714.0946915019
 20
510.7840134382
 30
0.0
  0
INSERT
  5
12A
330
1F
100
AcDbEntity
  8
SLD-0_0
100
AcDbBlockReference
  2
SW_NOTE_7
 10
1624.0826355314
 20
681.636393824
 30
0.0
  0
INSERT
  5
130
330
1F
100
AcDbEntity
  8
SLD-0_0
100
AcDbBlockReference
  2
SW_NOTE_8
 10
1610.5879491905
 20
959.0751583099
 30
0.0
  0
INSERT
  5
15E
330
1F
100
AcDbEntity
  8
CAJETIN
100
AcDbBlockReference
  2
SW_TABLEANNOTATION_0
 10
843.8791069525
 20
242.8003272886
 30
0.0
  0
LINE
  5
15F
330
1F
100
AcDbEntity
  8
0
  6
Continuous
 62
     7
100
AcDbLine
 10
788.2523557339
 20
311.0389604646
 30
0.0
 11
782.1905600786
 21
536.3462034212
 31
0.0
  0
ARC
  5
160
330
1F
100
AcDbEntity
  8
0
  6
Continuous
 62
     7
100
AcDbCircle
 10
453.9706742791
 20
62.1939920834
 30
0.0
 40
5.000000000000008
100
AcDbArc
 50
253.7188644571
 51
301.752392528
  0
LINE
  5
161
330
1F
100
AcDbEntity
  8
0
  6
Continuous
 62
     7
100
AcDbLine
 10
217.8669092087
 20
125.9423004253
 30
0.0
 11
452.5689208751
 21
57.3945038405
 31
0.0
  0
LINE
  5
162
330
1F
100
AcDbEntity
  8
0
  6
Continuous
 62
     7
100
AcDbLine
 10
456.601921438
 20
57.942340829
 30
0.0
 11
685.4816251223
 21
199.5906167579
 31
0.0
  0
LINE
  5
163
330
1F
100
AcDbEntity
  8
0
  6
Continuous
 62
     7
100
AcDbLine
 10
214.1734825408
 20
134.2122303409
 30
0.0
 11
214.2704712713
 21
130.6073144536
 31
0.0
  0
ARC
  5
164
330
1F
100
AcDbEntity
  8
0
  6
Continuous
 62
     7
100
AcDbCircle
 10
219.2686626128
 20
130.7417886683
 30
0.0
 40
4.99999999999998
100
AcDbArc
 50
181.5411468226
 51
253.7188644571
  0
LINE
  5
165
330
1F
100
AcDbEntity
  8
0
  6
Continuous
 62
     7
100
AcDbLine
 10
687.8485693049
 20
203.976742227
 30
0.0
 11
687.7515805744
 21
207.5816581143
 31
0.0
  0
ARC
  5
166
330
1F
100
AcDbEntity
  8
0
  6
Continuous
 62
     7
100
AcDbCircle
 10
682.8503779635
 20
203.8422680123
 30
0.0
 40
4.999999999999954
100
AcDbArc
 50
301.752392528
 51
1.5411468226
  0
ARC
  5
167
330
1F
100
AcDbEntity
  8
0
  6
Continuous
 62
     7
100
AcDbCircle
 10
205.4334023542
 20
644.9762699486
 30
0.0
 40
4.999999999999977
100
AcDbArc
 50
121.752392528
 51
181.5411468226
  0
LINE
  5
168
330
1F
100
AcDbEntity
  8
0
  6
Continuous
 62
     7
100
AcDbLine
 10
200.4352110127
 20
644.8417957339
 30
0.0
 11
200.5321997432
 21
641.2368798466
 31
0.0
  0
LINE
  5
169
330
1F
100
AcDbEntity
  8
0
  6
Continuous
 62
     7
100
AcDbLine
 10
431.6818588797
 20
790.8761971318
 30
0.0
 11
202.8021551953
 21
649.227921203
 31
0.0
  0
ARC
  5
16A
330
1F
100
AcDbEntity
  8
0
  6
Continuous
 62
     7
100
AcDbCircle
 10
669.0151177049
 20
718.0767492926
 30
0.0
 40
5.000000000000036
100
AcDbArc
 50
1.5411468226
 51
73.7188644571
  0
LINE
  5
16B
330
1F
100
AcDbEntity
  8
0
  6
Continuous
 62
     7
100
AcDbLine
 10
674.1102977768
 20
714.6063076199
 30
0.0
 11
674.0133090463
 21
718.2112235072
 31
0.0
  0
LINE
  5
16C
330
1F
100
AcDbEntity
  8
0
  6
Continuous
 62
     7
100
AcDbLine
 10
670.4168711089
 20
722.8762375355
 30
0.0
 11
435.7148594426
 21
791.4240341204
 31
0.0
  0
ARC
  5
16D
330
1F
100
AcDbEntity
  8
0
  6
Continuous
 62
     7
100
AcDbCircle
 10
434.3131060385
 20
786.6245458774
 30
0.0
 40
4.999999999999936
100
AcDbArc
 50
73.7188644571
 51
121.752392528
  0
LINE
  5
16E
330
1F
100
AcDbEntity
  8
0
  6
Continuous
 62
     7
100
AcDbLine
 10
74.7779960148
 20
531.2711941668
 30
0.0
 11
80.8397916701
 21
305.9639512101
 31
0.0
  0
LINE
  5
16F
330
1F
100
AcDbEntity
  8
0
  6
Continuous
 62
     7
100
AcDbLine
 10
776.8894547862
 20
538.9732195935
 30
0.0
 11
542.1410407509
 21
393.6929365896
 31
0.0
  0
LINE
  5
170
330
1F
100
AcDbEntity
  8
0
  6
Continuous
 62
     7
100
AcDbLine
 10
780.1267239126
 20
538.0277327441
 30
0.0
 11
776.8894547862
 21
538.9732195935
 31
0.0
  0
LWPOLYLINE
  5
171
330
1F
100
AcDbEntity
  8
0
  6
Continuous
 62
     7
100
AcDbPolyline
 90
        9
 70
   128
 43
0.0
 10
781.2389551452
 20
535.0298706447
 10
781.7336654181
 20
535.4068644405
 10
782.0538562064
 20
535.8147887379
 10
782.1872227576
 20
536.2379672349
 10
782.1286398699
 20
536.6601374192
 10
781.8803588509
 20
537.0650755273
 10
781.4519210009
 20
537.4372200149
 10
780.8597909461
 20
537.7622695779
 10
780.1267239126
 20
538.0277327441
  0
LINE
  5
172
330
1F
100
AcDbEntity
  8
0
  6
Continuous
 62
     7
100
AcDbLine
 10
781.2389551452
 20
535.0298706447
 30
0.0
 11
552.3592514609
 21
393.3815947159
 31
0.0
  0
ARC
  5
173
330
1F
100
AcDbEntity
  8
0
  6
Continuous
 62
     7
100
AcDbCircle
 10
548.0509603506
 20
402.0674412568
 30
0.0
 40
9.695633162508122
100
AcDbArc
 50
253.9989439313
 51
296.3820003181
  0
LINE
  5
174
330
1F
100
AcDbEntity
  8
0
  6
Continuous
 62
     7
100
AcDbLine
 10
545.3783098774
 20
392.7474497402
 30
0.0
 11
542.1410407509
 21
393.6929365896
 31
0.0
  0
ARC
  5
175
330
1F
100
AcDbEntity
  8
0
  6
Continuous
 62
     7
100
AcDbCircle
 10
554.112756006
 20
176.7601983001
 30
0.0
 40
9.695633162507818
100
AcDbArc
 50
253.9989439313
 51
296.3820003181
  0
LINE
  5
176
330
1F
100
AcDbEntity
  8
0
  6
Continuous
 62
     7
100
AcDbLine
 10
542.1410407509
 20
393.6929365896
 30
0.0
 11
548.2028364063
 21
168.385693633
 31
0.0
  0
LINE
  5
177
330
1F
100
AcDbEntity
  8
0
  6
Continuous
 62
     7
100
AcDbLine
 10
551.4401055327
 20
167.4402067835
 30
0.0
 11
548.2028364063
 21
168.385693633
 31
0.0
  0
LINE
  5
178
330
1F
100
AcDbEntity
  8
0
  6
Continuous
 62
     7
100
AcDbLine
 10
558.4210471162
 20
168.0743517593
 30
0.0
 11
787.3007508005
 21
309.7226276881
 31
0.0
  0
ARC
  5
179
330
1F
100
AcDbEntity
  8
0
  6
Continuous
 62
     7
100
AcDbCircle
 10
786.6874183058
 20
311.1681528818
 30
0.0
 40
1.570261072125199
100
AcDbArc
 50
292.991383272
 51
355.2806848959
  0
ARC
  5
17A
330
1F
100
AcDbEntity
  8
0
  6
Continuous
 62
     7
100
AcDbCircle
 10
448.218829058
 20
268.9505401051
 30
0.0
 40
9.242840996506901
100
AcDbArc
 50
80.7724234808
 51
117.1244356431
  0
LINE
  5
17B
330
1F
100
AcDbEntity
  8
0
  6
Continuous
 62
     7
100
AcDbLine
 10
685.6877444084
 20
209.2631874371
 30
0.0
 11
644.4407343411
 21
221.309916972
 31
0.0
  0
LINE
  5
17C
330
1F
100
AcDbEntity
  8
0
  6
Continuous
 62
     7
100
AcDbLine
 10
546.0054445362
 20
250.0592326442
 30
0.0
 11
475.906645984
 21
270.5325049008
 31
0.0
  0
LWPOLYLINE
  5
17D
330
1F
100
AcDbEntity
  8
0
  6
Continuous
 62
     7
100
AcDbPolyline
 90
        9
 70
   128
 43
0.0
 10
686.799975641
 20
206.2653253378
 10
687.294685914
 20
206.6423191336
 10
687.6148767022
 20
207.0502434309
 10
687.7482432534
 20
207.4734219279
 10
687.6896603657
 20
207.8955921122
 10
687.4413793467
 20
208.3005302203
 10
687.0129414967
 20
208.6726747079
 10
686.4208114419
 20
208.997724271
 10
685.6877444084
 20
209.2631874371
  0
LINE
  5
17E
330
1F
100
AcDbEntity
  8
0
  6
Continuous
 62
     7
100
AcDbLine
 10
457.9202719567
 20
64.6170494089
 30
0.0
 11
686.799975641
 21
206.2653253378
 31
0.0
  0
ARC
  5
17F
330
1F
100
AcDbEntity
  8
0
  6
Continuous
 62
     7
100
AcDbCircle
 10
453.6119808464
 20
73.3028959498
 30
0.0
 40
9.695633162508031
100
AcDbArc
 50
253.9989439313
 51
296.3820003181
  0
LINE
  5
180
330
1F
100
AcDbEntity
  8
0
  6
Continuous
 62
     7
100
AcDbLine
 10
216.2373187068
 20
132.5307010181
 30
0.0
 11
450.9393303732
 21
63.9829044332
 31
0.0
  0
LWPOLYLINE
  5
181
330
1F
100
AcDbEntity
  8
0
  6
Continuous
 62
     7
100
AcDbPolyline
 90
        9
 70
   128
 43
0.0
 10
215.1250874742
 20
135.5285631174
 10
214.6303772013
 20
135.1515693216
 10
214.310186413
 20
134.7436450242
 10
214.1768198618
 20
134.3204665273
 10
214.2354027495
 20
133.898296343
 10
214.4836837685
 20
133.4933582349
 10
214.9121216186
 20
133.1212137473
 10
215.5042516733
 20
132.7961641842
 10
216.2373187068
 20
132.5307010181
  0
LINE
  5
182
330
1F
100
AcDbEntity
  8
0
  6
Continuous
 62
     7
100
AcDbLine
 10
444.0047911586
 20
277.1768390462
 30
0.0
 11
397.6377331645
 21
248.4813552657
 31
0.0
  0
LINE
  5
183
330
1F
100
AcDbEntity
  8
0
  6
Continuous
 62
     7
100
AcDbLine
 10
308.3164191081
 20
193.2024907089
 30
0.0
 11
215.1250874742
 21
135.5285631174
 31
0.0
  0
ARC
  5
184
330
1F
100
AcDbEntity
  8
0
  6
Continuous
 62
     7
100
AcDbCircle
 10
439.9706980488
 20
580.3275454555
 30
0.0
 40
9.695633162507407
100
AcDbArc
 50
253.9989439313
 51
296.3820003181
  0
LINE
  5
185
330
1F
100
AcDbEntity
  8
0
  6
Continuous
 62
     7
100
AcDbLine
 10
202.5960359092
 20
639.5553505237
 30
0.0
 11
437.2980475756
 21
571.0075539389
 31
0.0
  0
LINE
  5
186
330
1F
100
AcDbEntity
  8
0
  6
Continuous
 62
     7
100
AcDbLine
 10
444.2789891591
 20
571.6416989146
 30
0.0
 11
673.1586928434
 21
713.2899748434
 31
0.0
  0
LWPOLYLINE
  5
187
330
1F
100
AcDbEntity
  8
0
  6
Continuous
 62
     7
100
AcDbPolyline
 90
        6
 70
   128
 43
0.0
 10
202.5960359092
 20
639.5553505237
 10
201.8629688757
 20
639.8208136899
 10
201.270838821
 20
640.145863253
 10
200.8424009709
 20
640.5180077405
 10
200.5941199519
 20
640.9229458487
 10
200.5321997432
 20
641.2368798466
  0
ARC
  5
188
330
1F
100
AcDbEntity
  8
0
  6
Continuous
 62
     7
100
AcDbCircle
 10
672.5453603487
 20
714.7355000371
 30
0.0
 40
1.570261072125086
100
AcDbArc
 50
292.991383272
 51
355.2806848959
  0
LINE
  5
189
330
1F
100
AcDbEntity
  8
0
  6
Continuous
 62
     7
100
AcDbLine
 10
86.1408969625
 20
303.3369350378
 30
0.0
 11
163.0769498085
 21
350.950852161
 31
0.0
  0
LINE
  5
18A
330
1F
100
AcDbEntity
  8
0
  6
Continuous
 62
     7
100
AcDbLine
 10
200.2829071325
 20
373.9767457828
 30
0.0
 11
264.7420627495
 21
413.8690040914
 31
0.0
  0
LINE
  5
18B
330
1F
100
AcDbEntity
  8
0
  6
Continuous
 62
     7
100
AcDbLine
 10
287.1455244525
 20
427.7339806445
 30
0.0
 11
320.8893109978
 21
448.6172180417
 31
0.0
  0
LINE
  5
18C
330
1F
100
AcDbEntity
  8
0
  6
Continuous
 62
     7
100
AcDbLine
 10
80.0791013072
 20
528.6441779945
 30
0.0
 11
86.1408969625
 21
303.3369350378
 31
0.0
  0
LINE
  5
18D
330
1F
100
AcDbEntity
  8
0
  6
Continuous
 62
     7
100
AcDbLine
 10
241.1148539753
 20
628.3054251961
 30
0.0
 11
80.0791013072
 21
528.6441779945
 31
0.0
  0
LINE
  5
18E
330
1F
100
AcDbEntity
  8
0
  6
Continuous
 62
     7
100
AcDbLine
 10
320.8893109978
 20
448.6172180417
 30
0.0
 11
319.8319807052
 21
487.9164928219
 31
0.0
  0
LINE
  5
18F
330
1F
100
AcDbEntity
  8
0
  6
Continuous
 62
     7
100
AcDbLine
 10
319.3211075061
 20
506.9048320092
 30
0.0
 11
316.6484062029
 21
606.2448619455
 31
0.0
  0
LINE
  5
190
330
1F
100
AcDbEntity
  8
0
  6
Continuous
 62
     7
100
AcDbLine
 10
80.0791013072
 20
528.6441779945
 30
0.0
 11
76.8418321808
 21
529.5896648439
 31
0.0
  0
LWPOLYLINE
  5
191
330
1F
100
AcDbEntity
  8
0
  6
Continuous
 62
     7
100
AcDbPolyline
 90
        9
 70
   128
 43
0.0
 10
75.7296009482
 20
532.5875269433
 10
75.2348906752
 20
532.2105331475
 10
74.9146998869
 20
531.8026088501
 10
74.7813333358
 20
531.3794303531
 10
74.8399162234
 20
530.9572601689
 10
75.0881972425
 20
530.5523220607
 10
75.5166350925
 20
530.1801775732
 10
76.1087651472
 20
529.8551280101
 10
76.8418321808
 20
529.5896648439
  0
LINE
  5
192
330
1F
100
AcDbEntity
  8
0
  6
Continuous
 62
     7
100
AcDbLine
 10
233.8309984408
 20
630.4327706074
 30
0.0
 11
75.7296009482
 21
532.5875269433
 31
0.0
  0
LINE
  5
193
330
1F
100
AcDbEntity
  8
0
  6
Continuous
 62
     7
100
AcDbLine
 10
86.1408969625
 20
303.3369350378
 30
0.0
 11
82.9036278361
 21
304.2824218873
 31
0.0
  0
LWPOLYLINE
  5
194
330
1F
100
AcDbEntity
  8
0
  6
Continuous
 62
     7
100
AcDbPolyline
 90
        6
 70
   128
 43
0.0
 10
82.9036278361
 20
304.2824218873
 10
82.1705608026
 20
304.5478850534
 10
81.5784307478
 20
304.8729346165
 10
81.1499928978
 20
305.2450791041
 10
80.9017118788
 20
305.6500172122
 10
80.8397916701
 20
305.9639512101
  0
LINE
  5
195
330
1F
100
AcDbEntity
  8
0
  6
Continuous
 62
     7
100
AcDbLine
 10
442.9795619632
 20
351.3374207108
 30
0.0
 11
442.6709457126
 21
362.8081928236
 31
0.0
  0
LINE
  5
196
330
1F
100
AcDbEntity
  8
0
  6
Continuous
 62
     7
100
AcDbLine
 10
442.9795619632
 20
351.3374207108
 30
0.0
 11
374.0027935161
 21
445.4729343341
 31
0.0
  0
LINE
  5
197
330
1F
100
AcDbEntity
  8
0
  6
Continuous
 62
     7
100
AcDbLine
 10
374.0027935161
 20
445.4729343341
 30
0.0
 11
384.3037207994
 21
442.4644136017
 31
0.0
  0
LINE
  5
198
330
1F
100
AcDbEntity
  8
0
  6
Continuous
 62
     7
100
AcDbLine
 10
442.6709457126
 20
362.8081928236
 30
0.0
 11
384.3037207994
 21
442.4644136017
 31
0.0
  0
LINE
  5
199
330
1F
100
AcDbEntity
  8
0
  6
Continuous
 62
     7
100
AcDbLine
 10
526.3000682126
 20
414.5642936438
 30
0.0
 11
442.6709457126
 21
362.8081928236
 31
0.0
  0
LINE
  5
19A
330
1F
100
AcDbEntity
  8
0
  6
Continuous
 62
     7
100
AcDbLine
 10
526.6086844632
 20
403.0935215309
 30
0.0
 11
526.3000682126
 21
414.5642936438
 31
0.0
  0
LINE
  5
19B
330
1F
100
AcDbEntity
  8
0
  6
Continuous
 62
     7
100
AcDbLine
 10
526.6086844632
 20
403.0935215309
 30
0.0
 11
442.9795619632
 21
351.3374207108
 31
0.0
  0
LINE
  5
19C
330
1F
100
AcDbEntity
  8
0
  6
Continuous
 62
     7
100
AcDbLine
 10
467.9328432994
 20
494.2205144218
 30
0.0
 11
384.3037207994
 21
442.4644136017
 31
0.0
  0
LINE
  5
19D
330
1F
100
AcDbEntity
  8
0
  6
Continuous
 62
     7
100
AcDbLine
 10
467.9328432994
 20
494.2205144218
 30
0.0
 11
526.3000682126
 21
414.5642936438
 31
0.0
  0
LINE
  5
19E
330
1F
100
AcDbEntity
  8
0
  6
Continuous
 62
     7
100
AcDbLine
 10
457.6319160162
 20
497.2290351543
 30
0.0
 11
467.9328432994
 21
494.2205144218
 31
0.0
  0
LINE
  5
19F
330
1F
100
AcDbEntity
  8
0
  6
Continuous
 62
     7
100
AcDbLine
 10
374.0027935161
 20
445.4729343341
 30
0.0
 11
457.6319160162
 21
497.2290351543
 31
0.0
  0
LINE
  5
1A0
330
1F
100
AcDbEntity
  8
0
  6
Continuous
 62
     7
100
AcDbLine
 10
353.0441836882
 20
527.7752522488
 30
0.0
 11
269.4150611882
 21
476.0191514287
 31
0.0
  0
LINE
  5
1A1
330
1F
100
AcDbEntity
  8
0
  6
Continuous
 62
     7
100
AcDbLine
 10
363.3451109715
 20
524.7667315164
 30
0.0
 11
353.0441836882
 21
527.7752522488
 31
0.0
  0
LINE
  5
1A2
330
1F
100
AcDbEntity
  8
0
  6
Continuous
 62
     7
100
AcDbLine
 10
363.3451109715
 20
524.7667315164
 30
0.0
 11
279.7159884714
 21
473.0106306962
 31
0.0
  0
LINE
  5
1A3
330
1F
100
AcDbEntity
  8
0
  6
Continuous
 62
     7
100
AcDbLine
 10
279.7159884714
 20
473.0106306962
 30
0.0
 11
269.4150611882
 21
476.0191514287
 31
0.0
  0
LINE
  5
1A4
330
1F
100
AcDbEntity
  8
0
  6
Continuous
 62
     7
100
AcDbLine
 10
279.7159884714
 20
473.0106306962
 30
0.0
 11
241.8678317568
 21
440.9579238341
 31
0.0
  0
LINE
  5
1A5
330
1F
100
AcDbEntity
  8
0
  6
Continuous
 62
     7
100
AcDbLine
 10
298.3812110497
 20
469.7503444169
 30
0.0
 11
363.3451109715
 21
524.7667315164
 31
0.0
  0
LINE
  5
1A6
330
1F
100
AcDbEntity
  8
0
  6
Continuous
 62
     7
100
AcDbLine
 10
248.6546517764
 20
438.975744155
 30
0.0
 11
298.3812110497
 21
469.7503444169
 31
0.0
  0
LINE
  5
1A7
330
1F
100
AcDbEntity
  8
0
  6
Continuous
 62
     7
100
AcDbLine
 10
269.4150611882
 20
476.0191514287
 30
0.0
 11
228.2592182161
 21
441.1652434723
 31
0.0
  0
LINE
  5
1A8
330
1F
100
AcDbEntity
  8
0
  6
Continuous
 62
     7
100
AcDbLine
 10
445.0284890932
 20
275.182078477
 30
0.0
 11
528.6576115932
 21
326.9381792971
 31
0.0
  0
LINE
  5
1A9
330
1F
100
AcDbEntity
  8
0
  6
Continuous
 62
     7
100
AcDbLine
 10
528.6576115932
 20
326.9381792971
 30
0.0
 11
528.9662278439
 21
315.4674071843
 31
0.0
  0
LINE
  5
1AA
330
1F
100
AcDbEntity
  8
0
  6
Continuous
 62
     7
100
AcDbLine
 10
528.9662278439
 20
315.4674071843
 30
0.0
 11
445.3371053438
 21
263.7113063641
 31
0.0
  0
LINE
  5
1AB
330
1F
100
AcDbEntity
  8
0
  6
Continuous
 62
     7
100
AcDbLine
 10
445.0284890932
 20
275.182078477
 30
0.0
 11
445.3371053438
 21
263.7113063641
 31
0.0
  0
LINE
  5
1AC
330
1F
100
AcDbEntity
  8
0
  6
Continuous
 62
     7
100
AcDbLine
 10
380.0645891715
 20
220.1656913775
 30
0.0
 11
390.3655164547
 21
217.157170645
 31
0.0
  0
LINE
  5
1AD
330
1F
100
AcDbEntity
  8
0
  6
Continuous
 62
     7
100
AcDbLine
 10
380.0645891715
 20
220.1656913775
 30
0.0
 11
445.0284890932
 21
275.182078477
 31
0.0
  0
LINE
  5
1AE
330
1F
100
AcDbEntity
  8
0
  6
Continuous
 62
     7
100
AcDbLine
 10
390.3655164547
 20
217.157170645
 30
0.0
 11
445.3371053438
 21
263.7113063641
 31
0.0
  0
LINE
  5
1AF
330
1F
100
AcDbEntity
  8
0
  6
Continuous
 62
     7
100
AcDbLine
 10
473.9946389548
 20
268.9132714652
 30
0.0
 11
390.3655164547
 21
217.157170645
 31
0.0
  0
LINE
  5
1B0
330
1F
100
AcDbEntity
  8
0
  6
Continuous
 62
     7
100
AcDbLine
 10
528.9662278439
 20
315.4674071843
 30
0.0
 11
473.9946389548
 21
268.9132714652
 31
0.0
  0
LINE
  5
1B1
330
1F
100
AcDbEntity
  8
0
  6
Continuous
 62
     7
100
AcDbLine
 10
216.8010156797
 20
341.8389013629
 30
0.0
 11
285.7777841267
 21
247.7033877396
 31
0.0
  0
LINE
  5
1B2
330
1F
100
AcDbEntity
  8
0
  6
Continuous
 62
     7
100
AcDbLine
 10
300.4301381798
 20
393.5950021831
 30
0.0
 11
216.8010156797
 21
341.8389013629
 31
0.0
  0
LINE
  5
1B3
330
1F
100
AcDbEntity
  8
0
  6
Continuous
 62
     7
100
AcDbLine
 10
363.435364337
 20
307.6091049194
 30
0.0
 11
300.4301381798
 21
393.5950021831
 31
0.0
  0
LINE
  5
1B4
330
1F
100
AcDbEntity
  8
0
  6
Continuous
 62
     7
100
AcDbLine
 10
285.7777841267
 20
247.7033877396
 30
0.0
 11
364.9366979204
 21
296.6929813242
 31
0.0
  0
LINE
  5
1B5
330
1F
100
AcDbEntity
  8
0
  6
Continuous
 62
     7
100
AcDbLine
 10
216.8010156797
 20
341.8389013629
 30
0.0
 11
217.1096319303
 21
330.3681292501
 31
0.0
  0
LINE
  5
1B6
330
1F
100
AcDbEntity
  8
0
  6
Continuous
 62
     7
100
AcDbLine
 10
285.7777841267
 20
247.7033877396
 30
0.0
 11
275.4768568435
 21
250.711908472
 31
0.0
  0
LINE
  5
1B7
330
1F
100
AcDbEntity
  8
0
  6
Continuous
 62
     7
100
AcDbLine
 10
217.1096319303
 20
330.3681292501
 30
0.0
 11
275.4768568435
 21
250.711908472
 31
0.0
  0
LINE
  5
1B8
330
1F
100
AcDbEntity
  8
0
  6
Continuous
 62
     7
100
AcDbLine
 10
558.417200561
 20
605.8650516203
 30
0.0
 11
565.7010560955
 21
603.7377062091
 31
0.0
  0
LINE
  5
1B9
330
1F
100
AcDbEntity
  8
0
  6
Continuous
 62
     7
100
AcDbLine
 10
558.417200561
 20
605.8650516203
 30
0.0
 11
583.3592195522
 21
621.3010816895
 31
0.0
  0
LINE
  5
1BA
330
1F
100
AcDbEntity
  8
0
  6
Continuous
 62
     7
100
AcDbLine
 10
583.3592195522
 20
621.3010816895
 30
0.0
 11
590.6430750867
 21
619.1737362782
 31
0.0
  0
LINE
  5
1BB
330
1F
100
AcDbEntity
  8
0
  6
Continuous
 62
     7
100
AcDbLine
 10
565.7010560955
 20
603.7377062091
 30
0.0
 11
590.6430750867
 21
619.1737362782
 31
0.0
  0
LINE
  5
1BC
330
1F
100
AcDbEntity
  8
0
  6
Continuous
 62
     7
100
AcDbLine
 10
590.6430750867
 20
619.1737362782
 30
0.0
 11
594.3951019272
 21
479.7169035194
 31
0.0
  0
LINE
  5
1BD
330
1F
100
AcDbEntity
  8
0
  6
Continuous
 62
     7
100
AcDbLine
 10
594.9395138484
 20
459.4819837057
 30
0.0
 11
595.6367518094
 21
433.5667645857
 31
0.0
  0
LINE
  5
1BE
330
1F
100
AcDbEntity
  8
0
  6
Continuous
 62
     7
100
AcDbLine
 10
570.8738033644
 20
411.4749689034
 30
0.0
 11
570.7223554742
 21
417.1040445982
 31
0.0
  0
LINE
  5
1BF
330
1F
100
AcDbEntity
  8
0
  6
Continuous
 62
     7
100
AcDbLine
 10
570.177943553
 20
437.3389644119
 30
0.0
 11
569.3856573243
 21
466.7869755242
 31
0.0
  0
LINE
  5
1C0
330
1F
100
AcDbEntity
  8
0
  6
Continuous
 62
     7
100
AcDbLine
 10
568.8369514114
 20
487.1814961328
 30
0.0
 11
565.7010560955
 21
603.7377062091
 31
0.0
  0
LINE
  5
1C1
330
1F
100
AcDbEntity
  8
0
  6
Continuous
 62
     7
100
AcDbLine
 10
563.7655400745
 20
407.0758316113
 30
0.0
 11
563.4384999398
 21
419.2313900094
 31
0.0
  0
LINE
  5
1C2
330
1F
100
AcDbEntity
  8
0
  6
Continuous
 62
     7
100
AcDbLine
 10
562.8940880185
 20
439.4663098231
 30
0.0
 11
562.1353251686
 21
467.6683105985
 31
0.0
  0
LINE
  5
1C3
330
1F
100
AcDbEntity
  8
0
  6
Continuous
 62
     7
100
AcDbLine
 10
561.553095877
 20
489.308841544
 30
0.0
 11
558.417200561
 21
605.8650516203
 31
0.0
  0
LINE
  5
1C4
330
1F
100
AcDbEntity
  8
0
  6
Continuous
 62
     7
100
AcDbLine
 10
374.7094903018
 20
482.3994945882
 30
0.0
 11
374.9277149454
 21
474.2884338418
 31
0.0
  0
LINE
  5
1C5
330
1F
100
AcDbEntity
  8
0
  6
Continuous
 62
     7
100
AcDbLine
 10
374.7094903018
 20
482.3994945882
 30
0.0
 11
414.7661540391
 21
470.7004212899
 31
0.0
  0
LINE
  5
1C6
330
1F
100
AcDbEntity
  8
0
  6
Continuous
 62
     7
100
AcDbLine
 10
504.335265396
 20
444.5405891607
 30
0.0
 11
585.8387564494
 21
420.736427083
 31
0.0
  0
LINE
  5
1C7
330
1F
100
AcDbEntity
  8
0
  6
Continuous
 62
     7
100
AcDbLine
 10
374.9277149454
 20
474.2884338418
 30
0.0
 11
405.9320610111
 21
465.2332084848
 31
0.0
  0
LINE
  5
1C8
330
1F
100
AcDbEntity
  8
0
  6
Continuous
 62
     7
100
AcDbLine
 10
511.8373455741
 20
434.302183003
 30
0.0
 11
577.0046634214
 21
415.2692142779
 31
0.0
  0
LINE
  5
1C9
330
1F
100
AcDbEntity
  8
0
  6
Continuous
 62
     7
100
AcDbLine
 10
559.9553238109
 20
489.7754918032
 30
0.0
 11
653.3289254845
 21
462.5045084466
 31
0.0
  0
LINE
  5
1CA
330
1F
100
AcDbEntity
  8
0
  6
Continuous
 62
     7
100
AcDbLine
 10
374.7094903018
 20
482.3994945882
 30
0.0
 11
442.1996593369
 21
524.1675759518
 31
0.0
  0
LINE
  5
1CB
330
1F
100
AcDbEntity
  8
0
  6
Continuous
 62
     7
100
AcDbLine
 10
442.1996593369
 20
524.1675759518
 30
0.0
 11
552.6714682764
 21
491.9028372145
 31
0.0
  0
LINE
  5
1CC
330
1F
100
AcDbEntity
  8
0
  6
Continuous
 62
     7
100
AcDbLine
 10
527.7294492852
 20
476.4668071453
 30
0.0
 11
552.6714682764
 21
491.9028372145
 31
0.0
  0
LINE
  5
1CD
330
1F
100
AcDbEntity
  8
0
  6
Continuous
 62
     7
100
AcDbLine
 10
527.7294492852
 20
476.4668071453
 30
0.0
 11
535.0133048196
 21
474.3394617341
 31
0.0
  0
LINE
  5
1CE
330
1F
100
AcDbEntity
  8
0
  6
Continuous
 62
     7
100
AcDbLine
 10
535.0133048196
 20
474.3394617341
 30
0.0
 11
559.9553238109
 21
489.7754918032
 31
0.0
  0
LINE
  5
1CF
330
1F
100
AcDbEntity
  8
0
  6
Continuous
 62
     7
100
AcDbLine
 10
432.5329240064
 20
501.597178817
 30
0.0
 11
420.7955033046
 21
494.3331646668
 31
0.0
  0
LWPOLYLINE
  5
1D0
330
1F
100
AcDbEntity
  8
0
  6
Continuous
 62
     7
100
AcDbPolyline
 90
       19
 70
   128
 43
0.0
 10
426.3566594676
 20
479.34385417
 10
424.6490737845
 20
479.8934351825
 10
423.0661449329
 20
480.507937969
 10
421.6199199573
 20
481.1826857921
 10
420.3214055029
 20
481.9125434135
 10
419.1804840489
 20
482.691956176
 10
418.2058386965
 20
483.5149922779
 10
417.4048870851
 20
484.3753879174
 10
416.7837249404
 20
485.2665949643
 10
416.3470796811
 20
486.1818307947
 10
416.0982744415
 20
487.1141299115
 10
416.0392027796
 20
488.0563969552
 10
416.1703142664
 20
489.0014607049
 10
416.4906110644
 20
489.9421286547
 10
416.9976555214
 20
490.8712417535
 10
417.6875887232
 20
491.7817288896
 10
418.5551598613
 20
492.6666607062
 10
419.5937661955
 20
493.5193023378
 10
420.7955033046
 20
494.3331646668
  0
LINE
  5
1D1
330
1F
100
AcDbEntity
  8
0
  6
Continuous
 62
     7
100
AcDbLine
 10
427.9707523286
 20
478.8724372089
 30
0.0
 11
426.3566594676
 21
479.34385417
 31
0.0
  0
LWPOLYLINE
  5
1D2
330
1F
100
AcDbEntity
  8
0
  6
Continuous
 62
     7
100
AcDbPolyline
 90
       11
 70
   128
 43
0.0
 10
507.5947817571
 20
468.982298516
 10
506.2390598182
 20
468.2134094735
 10
504.7396709121
 20
467.4953454272
 10
503.1080262936
 20
466.8335712782
 10
501.3565437636
 20
466.2331235274
 10
499.4985531617
 20
465.6985719446
 10
497.5481949182
 20
465.2339847901
 10
495.520312437
 20
464.8428978529
 10
493.4303391283
 20
464.5282875405
 10
491.294180951
 20
464.2925482275
 10
489.9403640089
 20
464.1859199895
  0
LINE
  5
1D3
330
1F
100
AcDbEntity
  8
0
  6
Continuous
 62
     7
100
AcDbLine
 10
519.3322024589
 20
476.2463126662
 30
0.0
 11
507.5947817571
 21
468.982298516
 31
0.0
  0
LWPOLYLINE
  5
1D4
330
1F
100
AcDbEntity
  8
0
  6
Continuous
 62
     7
100
AcDbPolyline
 90
       19
 70
   128
 43
0.0
 10
513.7710462959
 20
491.235623163
 10
515.4786319791
 20
490.6860421505
 10
517.0615608306
 20
490.071539364
 10
518.5077858063
 20
489.3967915409
 10
519.8063002606
 20
488.6669339195
 10
520.9472217146
 20
487.887521157
 10
521.9218670671
 20
487.0644850551
 10
522.7228186784
 20
486.2040894156
 10
523.3439808232
 20
485.3128823687
 10
523.7806260824
 20
484.3976465383
 10
524.029431322
 20
483.4653474215
 10
524.088502984
 20
482.5230803778
 10
523.9573914971
 20
481.5780166281
 10
523.6370946992
 20
480.6373486783
 10
523.1300502421
 20
479.7082355795
 10
522.4401170403
 20
478.7977484433
 10
521.5725459022
 20
477.9128166267
 10
520.533939568
 20
477.0601749951
 10
519.3322024589
 20
476.2463126662
  0
LINE
  5
1D5
330
1F
100
AcDbEntity
  8
0
  6
Continuous
 62
     7
100
AcDbLine
 10
513.7710462959
 20
491.235623163
 30
0.0
 11
467.4376319238
 21
504.7679036957
 31
0.0
  0
LWPOLYLINE
  5
1D6
330
1F
100
AcDbEntity
  8
0
  6
Continuous
 62
     7
100
AcDbPolyline
 90
       19
 70
   128
 43
0.0
 10
467.4376319238
 20
504.7679036957
 10
465.6183851671
 20
505.2483802909
 10
463.7013229033
 20
505.6560957519
 10
461.7010351337
 20
505.9879471178
 10
459.6327452559
 20
506.2414087992
 10
457.512194205
 20
506.4145517998
 10
455.3555206548
 20
506.5060583969
 10
453.1791381932
 20
506.5152321698
 10
450.999610405
 20
506.4420033007
 10
448.8335248125
 20
506.2869291055
 10
446.6973666352
 20
506.0511897925
 10
444.6073933265
 20
505.7365794801
 10
442.5795108453
 20
505.3454925428
 10
440.6291526019
 20
504.8809053884
 10
438.7711619999
 20
504.3463538056
 10
437.0196794699
 20
503.7459060548
 10
435.3880348515
 20
503.0841319058
 10
433.8886459453
 20
502.3660678595
 10
432.5329240064
 20
501.597178817
  0
LINE
  5
1D7
330
1F
100
AcDbEntity
  8
0
  6
Continuous
 62
     7
100
AcDbLine
 10
537.5418412951
 20
470.9279491381
 30
0.0
 11
525.8044205933
 21
463.6639349879
 31
0.0
  0
LWPOLYLINE
  5
1D8
330
1F
100
AcDbEntity
  8
0
  6
Continuous
 62
     7
100
AcDbPolyline
 90
       19
 70
   128
 43
0.0
 10
525.8044205933
 20
463.6639349879
 10
524.6026834842
 20
462.8500726589
 10
523.5640771499
 20
461.9974310273
 10
522.6965060118
 20
461.1124992107
 10
522.0065728101
 20
460.2020120746
 10
521.499528353
 20
459.2728989758
 10
521.179231555
 20
458.332231026
 10
521.0481200682
 20
457.3871672763
 10
521.1071917301
 20
456.4449002325
 10
521.3559969698
 20
455.5126011158
 10
521.792642229
 20
454.5973652854
 10
522.4138043738
 20
453.7061582385
 10
523.2147559851
 20
452.845762599
 10
524.1894013376
 20
452.0227264971
 10
525.3303227916
 20
451.2433137346
 10
526.6288372459
 20
450.5134561131
 10
528.0750622215
 20
449.83870829
 10
529.6579910731
 20
449.2242055036
 10
531.3655767563
 20
448.6746244911
  0
LINE
  5
1D9
330
1F
100
AcDbEntity
  8
0
  6
Continuous
 62
     7
100
AcDbLine
 10
531.3655767563
 20
448.6746244911
 30
0.0
 11
577.6989911284
 21
435.1423439584
 31
0.0
  0
LWPOLYLINE
  5
1DA
330
1F
100
AcDbEntity
  8
0
  6
Continuous
 62
     7
100
AcDbPolyline
 90
       19
 70
   128
 43
0.0
 10
577.6989911284
 20
435.1423439584
 10
579.518237885
 20
434.6618673631
 10
581.4353001489
 20
434.2541519022
 10
583.4355879185
 20
433.9223005363
 10
585.5038777962
 20
433.6688388549
 10
587.6244288471
 20
433.4956958542
 10
589.7811023974
 20
433.4041892572
 10
591.957484859
 20
433.3950154843
 10
594.1370126472
 20
433.4682443534
 10
596.3030982397
 20
433.6233185485
 10
598.439256417
 20
433.8590578616
 10
600.5292297257
 20
434.173668174
 10
602.5571122068
 20
434.5647551112
 10
604.5074704503
 20
435.0293422657
 10
606.3654610522
 20
435.5638938485
 10
608.1169435822
 20
436.1643415993
 10
609.7485882007
 20
436.8261157483
 10
611.2479771069
 20
437.5441797946
 10
612.6036990458
 20
438.3130688371
  0
LINE
  5
1DB
330
1F
100
AcDbEntity
  8
0
  6
Continuous
 62
     7
100
AcDbLine
 10
624.3411197475
 20
445.5770829873
 30
0.0
 11
612.6036990458
 21
438.3130688371
 31
0.0
  0
LWPOLYLINE
  5
1DC
330
1F
100
AcDbEntity
  8
0
  6
Continuous
 62
     7
100
AcDbPolyline
 90
       19
 70
   128
 43
0.0
 10
618.7799635845
 20
460.5663934841
 10
620.4875492677
 20
460.0168124716
 10
622.0704781193
 20
459.4023096851
 10
623.5167030949
 20
458.727561862
 10
624.8152175492
 20
457.9977042406
 10
625.9561390032
 20
457.2182914781
 10
626.9307843557
 20
456.3952553762
 10
627.731735967
 20
455.5348597367
 10
628.3528981118
 20
454.6436526898
 10
628.7895433711
 20
453.7284168593
 10
629.0383486107
 20
452.7961177426
 10
629.0974202726
 20
451.8538506988
 10
628.9663087858
 20
450.9087869492
 10
628.6460119878
 20
449.9681189994
 10
628.1389675307
 20
449.0390059006
 10
627.449034329
 20
448.1285187644
 10
626.5814631909
 20
447.2435869478
 10
625.5428568566
 20
446.3909453162
 10
624.3411197475
 20
445.5770829873
  0
LINE
  5
1DD
330
1F
100
AcDbEntity
  8
0
  6
Continuous
 62
     7
100
AcDbLine
 10
572.4465492125
 20
474.0986740168
 30
0.0
 11
618.7799635845
 21
460.5663934841
 31
0.0
  0
LWPOLYLINE
  5
1DE
330
1F
100
AcDbEntity
  8
0
  6
Continuous
 62
     7
100
AcDbPolyline
 90
       19
 70
   128
 43
0.0
 10
572.4465492125
 20
474.0986740168
 10
570.6273024558
 20
474.579150612
 10
568.7102401919
 20
474.986866073
 10
566.7099524223
 20
475.3187174389
 10
564.6416625446
 20
475.5721791203
 10
562.5211114937
 20
475.7453221209
 10
560.3644379434
 20
475.8368287179
 10
558.1880554819
 20
475.8460024909
 10
556.0085276936
 20
475.7727736218
 10
553.8424421012
 20
475.6176994266
 10
551.7062839238
 20
475.3819601136
 10
549.6163106152
 20
475.0673498012
 10
547.588428134
 20
474.6762628639
 10
545.6380698905
 20
474.2116757095
 10
543.7800792886
 20
473.6771241267
 10
542.0285967586
 20
473.0766763758
 10
540.3969521401
 20
472.4149022269
 10
538.897563234
 20
471.6968381806
 10
537.5418412951
 20
470.9279491381
  0
LWPOLYLINE
  5
1DF
330
1F
100
AcDbEntity
  8
0
  6
Continuous
 62
     7
100
AcDbPolyline
 90
        8
 70
   128
 43
0.0
 10
618.9981882281
 20
452.4553327376
 10
620.7057739113
 20
451.9057517251
 10
622.2887027629
 20
451.2912489387
 10
623.7349277385
 20
450.6165011156
 10
625.0334421928
 20
449.8866434942
 10
626.1743636468
 20
449.1072307317
 10
627.1490089993
 20
448.2841946298
 10
627.3838172966
 20
448.0541307285
  0
ARC
  5
1E0
330
1F
100
AcDbEntity
  8
0
  6
Continuous
 62
     7
100
AcDbCircle
 10
532.9862572982
 20
443.891794071
 30
0.0
 40
13.58207214243181
100
AcDbArc
 50
120.8442544546
 51
137.4535368177
  0
LINE
  5
1E1
330
1F
100
AcDbEntity
  8
0
  6
Continuous
 62
     7
100
AcDbLine
 10
572.6647738561
 20
465.9876132703
 30
0.0
 11
618.9981882281
 21
452.4553327376
 31
0.0
  0
LINE
  5
1E2
330
1F
100
AcDbEntity
  8
0
  6
Continuous
 62
     7
100
AcDbLine
 10
537.7600659386
 20
462.8168883916
 30
0.0
 11
526.0226452369
 21
455.5528742414
 31
0.0
  0
LWPOLYLINE
  5
1E3
330
1F
100
AcDbEntity
  8
0
  6
Continuous
 62
     7
100
AcDbPolyline
 90
       19
 70
   128
 43
0.0
 10
572.6647738561
 20
465.9876132703
 10
570.8455270994
 20
466.4680898656
 10
568.9284648355
 20
466.8758053266
 10
566.9281770659
 20
467.2076566924
 10
564.8598871882
 20
467.4611183739
 10
562.7393361373
 20
467.6342613745
 10
560.582662587
 20
467.7257679715
 10
558.4062801255
 20
467.7349417445
 10
556.2267523372
 20
467.6617128754
 10
554.0606667448
 20
467.5066386802
 10
551.9245085674
 20
467.2708993671
 10
549.8345352587
 20
466.9562890548
 10
547.8066527776
 20
466.5652021175
 10
545.8562945341
 20
466.1006149631
 10
543.9983039322
 20
465.5660633803
 10
542.2468214022
 20
464.9656156294
 10
540.6151767837
 20
464.3038414804
 10
539.1157878776
 20
463.5857774342
 10
537.7600659386
 20
462.8168883916
  0
LINE
  5
1E4
330
1F
100
AcDbEntity
  8
0
  6
Continuous
 62
     7
100
AcDbLine
 10
552.6714682764
 20
491.9028372145
 30
0.0
 11
552.8470605209
 21
485.3763545112
 31
0.0
  0
LWPOLYLINE
  5
1E5
330
1F
100
AcDbEntity
  8
0
  6
Continuous
 62
     7
100
AcDbPolyline
 90
        8
 70
   128
 43
0.0
 10
513.9892709395
 20
483.1245624165
 10
515.6968566226
 20
482.574981404
 10
517.2797854742
 20
481.9604786176
 10
518.7260104498
 20
481.2857307945
 10
520.0245249042
 20
480.5558731731
 10
521.1654463582
 20
479.7764604106
 10
522.1400917107
 20
478.9534243087
 10
522.374900008
 20
478.7233604074
  0
ARC
  5
1E6
330
1F
100
AcDbEntity
  8
0
  6
Continuous
 62
     7
100
AcDbCircle
 10
427.9773400096
 20
474.5610237499
 30
0.0
 40
13.58207214242358
100
AcDbArc
 50
120.8442544546
 51
137.4535368177
  0
LINE
  5
1E7
330
1F
100
AcDbEntity
  8
0
  6
Continuous
 62
     7
100
AcDbLine
 10
513.9892709395
 20
483.1245624165
 30
0.0
 11
467.6558565674
 21
496.6568429492
 31
0.0
  0
LINE
  5
1E8
330
1F
100
AcDbEntity
  8
0
  6
Continuous
 62
     7
100
AcDbLine
 10
432.75114865
 20
493.4861180705
 30
0.0
 11
421.0137279482
 21
486.2221039203
 31
0.0
  0
LWPOLYLINE
  5
1E9
330
1F
100
AcDbEntity
  8
0
  6
Continuous
 62
     7
100
AcDbPolyline
 90
       19
 70
   128
 43
0.0
 10
467.6558565674
 20
496.6568429492
 10
465.8366098107
 20
497.1373195445
 10
463.9195475469
 20
497.5450350055
 10
461.9192597772
 20
497.8768863713
 10
459.8509698995
 20
498.1303480528
 10
457.7304188486
 20
498.3034910534
 10
455.5737452984
 20
498.3949976504
 10
453.3973628368
 20
498.4041714234
 10
451.2178350485
 20
498.3309425543
 10
449.0517494561
 20
498.1758683591
 10
446.9155912788
 20
497.940129046
 10
444.8256179701
 20
497.6255187337
 10
442.7977354889
 20
497.2344317964
 10
440.8473772455
 20
496.769844642
 10
438.9893866435
 20
496.2352930592
 10
437.2379041135
 20
495.6348453083
 10
435.6062594951
 20
494.9730711593
 10
434.1068705889
 20
494.2550071131
 10
432.75114865
 20
493.4861180705
  0
LINE
  5
1EA
330
1F
100
AcDbEntity
  8
0
  6
Continuous
 62
     7
100
AcDbLine
 10
327.4615491705
 20
187.6109047153
 30
0.0
 11
233.1747441257
 21
215.1486010774
 31
0.0
  0
LINE
  5
1EB
330
1F
100
AcDbEntity
  8
0
  6
Continuous
 62
     7
100
AcDbLine
 10
164.1979756787
 20
309.2841147007
 30
0.0
 11
233.1747441257
 21
215.1486010774
 31
0.0
  0
LINE
  5
1EC
330
1F
100
AcDbEntity
  8
0
  6
Continuous
 62
     7
100
AcDbLine
 10
162.1490485487
 20
385.4394569345
 30
0.0
 11
164.1979756787
 21
309.2841147007
 31
0.0
  0
LINE
  5
1ED
330
1F
100
AcDbEntity
  8
0
  6
Continuous
 62
     7
100
AcDbLine
 10
162.1490485487
 20
385.4394569345
 30
0.0
 11
227.1129484704
 21
440.455844034
 31
0.0
  0
LINE
  5
1EE
330
1F
100
AcDbEntity
  8
0
  6
Continuous
 62
     7
100
AcDbLine
 10
321.3997535152
 20
412.9181476719
 30
0.0
 11
227.1129484704
 21
440.455844034
 31
0.0
  0
LINE
  5
1EF
330
1F
100
AcDbEntity
  8
0
  6
Continuous
 62
     7
100
AcDbLine
 10
321.3997535152
 20
412.9181476719
 30
0.0
 11
390.3765219622
 21
318.7826340485
 31
0.0
  0
LINE
  5
1F0
330
1F
100
AcDbEntity
  8
0
  6
Continuous
 62
     7
100
AcDbLine
 10
390.3765219622
 20
318.7826340485
 30
0.0
 11
392.4254490922
 21
242.6272918148
 31
0.0
  0
LINE
  5
1F1
330
1F
100
AcDbEntity
  8
0
  6
Continuous
 62
     7
100
AcDbLine
 10
392.4254490922
 20
242.6272918148
 30
0.0
 11
327.4615491705
 21
187.6109047153
 31
0.0
  0
LWPOLYLINE
  5
1F2
330
1F
100
AcDbEntity
  8
0
  6
Continuous
 62
     7
100
AcDbPolyline
 90
      162
 70
   128
 43
0.0
 10
370.7633948462
 20
286.7324415969
 10
370.5829539751
 20
290.814489766
 10
370.2604391342
 20
294.9318964665
 10
369.7963414606
 20
299.078391567
 10
369.1913676984
 20
303.2476606394
 10
368.4464391229
 20
307.4333545748
 10
367.5626901373
 20
311.6290992516
 10
366.5414665457
 20
315.8285052428
 10
365.3843235031
 20
320.0251775459
 10
364.0930231474
 20
324.212725321
 10
362.6695319163
 20
328.3847716238
 10
361.1160175518
 20
332.5349631159
 10
359.4348458003
 20
336.6569797401
 10
357.6285768089
 20
340.7445443452
 10
355.6999612274
 20
344.7914322445
 10
353.6519360192
 20
348.7914806952
 10
351.4876199888
 20
352.7385982833
 10
349.2103090326
 20
356.6267742
 10
346.8234711195
 20
360.4500873945
 10
344.3307410099
 20
364.2027155916
 10
341.7359147207
 20
367.8789441576
 10
339.0429437442
 20
371.4731748026
 10
336.2559290309
 20
374.9799341064
 10
333.3791147447
 20
378.3938818529
 10
330.4168817991
 20
381.7098191629
 10
327.3737411863
 20
384.9226964108
 10
324.2543271075
 20
388.0276209145
 10
321.0633899157
 20
391.0198643862
 10
317.8057888819
 20
393.8948701327
 10
314.4864847953
 20
396.6482599943
 10
311.1105324082
 20
399.2758410126
 10
307.6830727395
 20
401.7736118151
 10
304.2093252448
 20
404.1377687088
 10
300.6945798686
 20
406.3647114728
 10
297.1441889882
 20
408.4510488405
 10
293.5635592633
 20
410.3936036644
 10
289.9581434025
 20
412.1894177538
 10
286.3334318593
 20
413.8357563801
 10
282.6949444715
 20
415.3301124411
 10
279.0482220552
 20
416.6702102791
 10
275.3988179672
 20
417.8540091461
 10
271.7522896479
 20
418.8797063118
 10
268.1141901584
 20
419.7457398084
 10
264.4900597241
 20
420.4507908098
 10
260.8854172979
 20
420.9937856397
 10
257.3057521556
 20
421.3738974065
 10
253.7565155367
 20
421.5905472627
 10
250.2431123433
 20
421.6434052863
 10
246.7708929087
 20
421.5323909833
 10
243.3451448504
 20
421.25767341
 10
239.9710850177
 20
420.8196709161
 10
236.6538515471
 20
420.2190505072
 10
233.398496038
 20
419.4567268289
 10
230.2099758599
 20
418.5338607746
 10
227.0931466031
 20
417.451857717
 10
224.0527546844
 20
416.2123653682
 10
221.0934301191
 20
414.8172712708
 10
218.2196794705
 20
413.2686999228
 10
215.4358789867
 20
411.569009543
 10
212.7462679367
 20
409.7207884795
 10
210.1549421544
 20
407.726851268
 10
207.6658478017
 20
405.5902343461
 10
205.2827753586
 20
403.3141914289
 10
203.0093538513
 20
400.9021885544
 10
200.8490453258
 20
398.3578988049
 10
198.8051395756
 20
395.6851967142
 10
196.8807491321
 20
392.8881523667
 10
195.0788045245
 20
389.9710251994
 10
193.4020498171
 20
386.938257516
 10
191.8530384309
 20
383.7944677213
 10
190.4341292546
 20
380.5444432886
 10
189.1474830528
 20
377.1931334691
 10
187.9950591755
 20
373.7456417548
 10
186.9786125742
 20
370.2072181068
 10
186.0996911294
 20
366.5832509608
 10
185.3596332934
 20
362.8792590209
 10
184.7595660523
 20
359.1008828559
 10
184.3004032094
 20
355.2538763095
 10
183.9828439942
 20
351.3440977379
 10
183.8073719968
 20
347.3775010892
 10
183.7742544321
 20
343.3601268356
 10
183.8835417329
 20
339.2980927755
 10
184.1350674724
 20
335.1975847167
 10
184.5284486186
 20
331.0648470566
 10
185.0630861168
 20
326.906173273
 10
185.7381658023
 20
322.7278963401
 10
186.5526596401
 20
318.5363790844
 10
187.5053272904
 20
314.3380044953
 10
188.5947179975
 20
310.1391660047
 10
189.8191727992
 20
305.9462577512
 10
191.1768270526
 20
301.7656648423
 10
192.6656132744
 20
297.6037536314
 10
194.2832642887
 20
293.4668620229
 10
196.0273166797
 20
289.3612898201
 10
197.8951145435
 20
285.2932891325
 10
199.883813532
 20
281.269054854
 10
201.9903851846
 20
277.2947152296
 10
204.2116215402
 20
273.3763225229
 10
206.5441400222
 20
269.5198437998
 10
208.9843885898
 20
265.7311518412
 10
211.5286511468
 20
262.0160162
 10
214.1730532012
 20
258.380094415
 10
216.9135677647
 20
254.8289233953
 10
219.7460214857
 20
251.3679109885
 10
222.6661010044
 20
248.0023277458
 10
225.6693595214
 20
244.7372988951
 10
228.7512235694
 20
241.5777965369
 10
231.9069999778
 20
238.5286320722
 10
235.1318830196
 20
235.5944488753
 10
238.42096173
 20
232.7797152234
 10
241.7692273846
 20
230.0887174914
 10
245.171581127
 20
227.5255536252
 10
248.6228417338
 20
225.0941269003
 10
252.1177535044
 20
222.7981399787
 10
255.6509942646
 20
220.6410892697
 10
259.2171834716
 20
218.6262596057
 10
262.8108904074
 20
216.75671924
 10
266.4266424492
 20
215.0353151741
 10
270.058933403
 20
213.4646688226
 10
273.7022318889
 20
212.0471720206
 10
277.3509897642
 20
210.7849833821
 10
280.9996505726
 20
209.6800250121
 10
284.6426580054
 20
208.73397958
 10
288.2744643634
 20
207.9482877568
 10
291.8895390044
 20
207.3241460217
 10
295.4823767662
 20
206.8625048396
 10
299.0475063494
 20
206.5640672137
 10
302.5794986498
 20
206.4292876155
 10
306.0729750257
 20
206.458371292
 10
309.5226154888
 20
206.6512739535
 10
312.9231668057
 20
207.0077018411
 10
316.2694504978
 20
207.527112174
 10
319.5563707268
 20
208.2087139759
 10
322.7789220556
 20
209.0514692796
 10
325.9321970699
 20
210.0540947079
 10
329.0113938521
 20
211.2150634276
 10
332.0118232933
 20
212.5326074748
 10
334.9289162346
 20
214.0047204474
 10
337.7582304244
 20
215.62916056
 10
340.495457284
 20
217.4034540584
 10
343.1364284684
 20
219.3248989861
 10
345.6771222141
 20
221.3905692996
 10
348.1136694637
 20
223.5973193237
 10
350.4423597575
 20
225.941788542
 10
352.6596468844
 20
228.4204067148
 10
354.7621542818
 20
231.0293993153
 10
356.7466801778
 20
233.7647932782
 10
358.6102024667
 20
236.6224230497
 10
360.3498833116
 20
239.5979369311
 10
361.9630734655
 20
242.6868037054
 10
363.4473163058
 20
245.8843195382
 10
364.8003515756
 20
249.1856151402
 10
366.0201188252
 20
252.5856631828
 10
367.1047605505
 20
256.0792859537
 10
368.0526250209
 20
259.6611632416
 10
368.8622687952
 20
263.3258404383
 10
369.5324589195
 20
267.0677368449
 10
370.0621748048
 20
270.8811541704
 10
370.4506097812
 20
274.7602852093
 10
370.6971723263
 20
278.6992226849
 10
370.8014869659
 20
282.691968245
 10
370.7633948462
 20
286.7324415969
  0
LINE
  5
1F3
330
1F
100
AcDbEntity
  8
0
  6
Continuous
 62
     7
100
AcDbLine
 10
390.3765219622
 20
318.7826340485
 30
0.0
 11
395.658361278
 21
322.0514404161
 31
0.0
  0
LINE
  5
1F4
330
1F
100
AcDbEntity
  8
0
  6
Continuous
 62
     7
100
AcDbLine
 10
321.3997535152
 20
412.9181476719
 30
0.0
 11
326.681592831
 21
416.1869540395
 31
0.0
  0
LINE
  5
1F5
330
1F
100
AcDbEntity
  8
0
  6
Continuous
 62
     7
100
AcDbLine
 10
326.681592831
 20
416.1869540395
 30
0.0
 11
395.658361278
 21
322.0514404161
 31
0.0
  0
LWPOLYLINE
  5
1F6
330
1F
100
AcDbEntity
  8
0
  6
Continuous
 62
     7
100
AcDbPolyline
 90
       82
 70
   128
 43
0.0
 10
217.2422661606
 20
412.6952873092
 10
216.9030565744
 20
412.4770113118
 10
214.2134455244
 20
410.6287902482
 10
211.6221197422
 20
408.6348530368
 10
209.1330253894
 20
406.4982361149
 10
206.7499529463
 20
404.2221931977
 10
204.476531439
 20
401.8101903231
 10
202.3162229135
 20
399.2659005737
 10
200.2723171634
 20
396.593198483
 10
198.3479267199
 20
393.7961541354
 10
196.5459821122
 20
390.8790269682
 10
194.8692274049
 20
387.8462592848
 10
193.3202160186
 20
384.7024694901
 10
191.9013068423
 20
381.4524450574
 10
190.6146606405
 20
378.1011352379
 10
189.4622367632
 20
374.6536435235
 10
188.4457901619
 20
371.1152198756
 10
187.5668687171
 20
367.4912527296
 10
186.8268108811
 20
363.7872607897
 10
186.22674364
 20
360.0088846247
 10
185.7675807972
 20
356.1618780782
 10
185.4500215819
 20
352.2520995067
 10
185.2745495845
 20
348.2855028579
 10
185.2414320199
 20
344.2681286043
 10
185.3507193206
 20
340.2060945442
 10
185.6022450601
 20
336.1055864855
 10
185.9956262063
 20
331.9728488254
 10
186.5302637045
 20
327.8141750418
 10
187.20534339
 20
323.6358981089
 10
188.0198372278
 20
319.4443808531
 10
188.9725048781
 20
315.246006264
 10
190.0618955853
 20
311.0471677735
 10
191.2863503869
 20
306.85425952
 10
192.6440046403
 20
302.6736666111
 10
194.1327908621
 20
298.5117554002
 10
195.7504418764
 20
294.3748637916
 10
197.4944942675
 20
290.2692915889
 10
199.3622921313
 20
286.2012909013
 10
201.3509911197
 20
282.1770566228
 10
203.4575627723
 20
278.2027169983
 10
205.6787991279
 20
274.2843242917
 10
208.01131761
 20
270.4278455686
 10
210.4515661775
 20
266.63915361
 10
212.9958287346
 20
262.9240179688
 10
215.6402307889
 20
259.2880961838
 10
218.3807453524
 20
255.7369251641
 10
221.2131990734
 20
252.2759127573
 10
224.1332785921
 20
248.9103295146
 10
227.1365371092
 20
245.6453006639
 10
230.2184011572
 20
242.4857983057
 10
233.3741775655
 20
239.4366338409
 10
236.5990606074
 20
236.5024506441
 10
239.8881393177
 20
233.6877169922
 10
243.2364049723
 20
230.9967192602
 10
246.6387587147
 20
228.4335553939
 10
250.0900193216
 20
226.0021286691
 10
253.5849310921
 20
223.7061417474
 10
257.1181718524
 20
221.5490910384
 10
260.6843610593
 20
219.5342613745
 10
264.2780679951
 20
217.6647210088
 10
267.8938200369
 20
215.9433169429
 10
271.5261109907
 20
214.3726705913
 10
275.1694094766
 20
212.9551737894
 10
278.8181673519
 20
211.6929851509
 10
282.4668281603
 20
210.5880267809
 10
286.1098355932
 20
209.6419813487
 10
289.7416419511
 20
208.8562895256
 10
293.3567165922
 20
208.2321477905
 10
296.9495543539
 20
207.7705066083
 10
300.5146839371
 20
207.4720689825
 10
304.0466762375
 20
207.3372893843
 10
307.5401526134
 20
207.3663730607
 10
310.9897930765
 20
207.5592757223
 10
314.3903443934
 20
207.9157036099
 10
317.7366280855
 20
208.4351139428
 10
321.0235483145
 20
209.1167157446
 10
324.2460996433
 20
209.9594710484
 10
327.3993746576
 20
210.9620964767
 10
330.4785714398
 20
212.1230651964
 10
333.4790008811
 20
213.4406092436
 10
336.3960938223
 20
214.9127222162
 10
338.7994090671
 20
216.2794632083
  0
LWPOLYLINE
  5
1F7
330
1F
100
AcDbEntity
  8
0
  6
Continuous
 62
     7
100
AcDbPolyline
 90
       22
 70
   128
 43
0.0
 10
243.8384472481
 20
416.2148455138
 10
243.7779489497
 20
415.6790503151
 10
243.5718122672
 20
415.2349684654
 10
243.2383533495
 20
414.9220585859
 10
242.8072014847
 20
414.7681240924
 10
242.3166664081
 20
414.7868427404
 10
241.810334314
 20
414.9765512958
 10
241.3331950309
 20
415.3203933209
 10
240.9276444779
 20
415.7878169428
 10
240.6297176016
 20
416.3372895215
 10
240.4658865122
 20
416.9199880071
 10
240.450708321
 20
417.484137082
 10
240.5855316769
 20
417.9796096252
 10
240.8583769331
 20
418.3623807267
 10
241.2450005912
 20
418.5984394946
 10
241.7110494425
 20
418.6668110714
 10
242.2151130013
 20
418.5614203423
 10
242.7124030084
 20
418.2916317363
 10
243.1587330644
 20
417.8814171548
 10
243.5144447851
 20
417.3672259637
 10
243.747931623
 20
416.7947463068
 10
243.8384472481
 20
416.2148455138
  0
LWPOLYLINE
  5
1F8
330
1F
100
AcDbEntity
  8
0
  6
Continuous
 62
     7
100
AcDbPolyline
 90
       22
 70
   128
 43
0.0
 10
312.1300127493
 20
396.2693993406
 10
312.0695144509
 20
395.7336041419
 10
311.8633777684
 20
395.2895222922
 10
311.5299188507
 20
394.9766124126
 10
311.0987669859
 20
394.8226779192
 10
310.6082319093
 20
394.8413965672
 10
310.1018998152
 20
395.0311051226
 10
309.6247605321
 20
395.3749471476
 10
309.2192099791
 20
395.8423707696
 10
308.9212831028
 20
396.3918433483
 10
308.7574520134
 20
396.9745418339
 10
308.7422738222
 20
397.5386909088
 10
308.8770971781
 20
398.0341634519
 10
309.1499424343
 20
398.4169345535
 10
309.5365660924
 20
398.6529933214
 10
310.0026149437
 20
398.7213648981
 10
310.5066785025
 20
398.6159741691
 10
311.0039685096
 20
398.3461855631
 10
311.4502985656
 20
397.9359709816
 10
311.8060102863
 20
397.4217797905
 10
312.0394971242
 20
396.8493001335
 10
312.1300127493
 20
396.2693993406
  0
LWPOLYLINE
  5
1F9
330
1F
100
AcDbEntity
  8
0
  6
Continuous
 62
     7
100
AcDbPolyline
 90
       22
 70
   128
 43
0.0
 10
361.8661953073
 20
328.3923271584
 10
361.805697009
 20
327.8565319598
 10
361.5995603265
 20
327.41245011
 10
361.2661014088
 20
327.0995402305
 10
360.834949544
 20
326.9456057371
 10
360.3444144674
 20
326.9643243851
 10
359.8380823733
 20
327.1540329404
 10
359.3609430901
 20
327.4978749655
 10
358.9553925372
 20
327.9652985874
 10
358.6574656608
 20
328.5147711662
 10
358.4936345714
 20
329.0974696518
 10
358.4784563802
 20
329.6616187267
 10
358.6132797362
 20
330.1570912698
 10
358.8861249923
 20
330.5398623714
 10
359.2727486504
 20
330.7759211393
 10
359.7387975017
 20
330.844292716
 10
360.2428610606
 20
330.738901987
 10
360.7401510677
 20
330.4691133809
 10
361.1864811237
 20
330.0588987995
 10
361.5421928444
 20
329.5447076083
 10
361.7756796823
 20
328.9722279514
 10
361.8661953073
 20
328.3923271584
  0
LWPOLYLINE
  5
1FA
330
1F
100
AcDbEntity
  8
0
  6
Continuous
 62
     7
100
AcDbPolyline
 90
       22
 70
   128
 43
0.0
 10
363.9122137204
 20
252.3450972775
 10
363.8517154221
 20
251.8093020788
 10
363.6455787396
 20
251.3652202291
 10
363.3121198219
 20
251.0523103496
 10
362.8809679571
 20
250.8983758561
 10
362.3904328805
 20
250.9170945041
 10
361.8841007864
 20
251.1068030595
 10
361.4069615032
 20
251.4506450846
 10
361.0014109503
 20
251.9180687065
 10
360.7034840739
 20
252.4675412852
 10
360.5396529845
 20
253.0502397708
 10
360.5244747933
 20
253.6143888457
 10
360.6592981493
 20
254.1098613888
 10
360.9321434054
 20
254.4926324904
 10
361.3187670635
 20
254.7286912583
 10
361.7848159148
 20
254.7970628351
 10
362.2888794737
 20
254.691672106
 10
362.7861694808
 20
254.4218835
 10
363.2324995368
 20
254.0116689185
 10
363.5882112574
 20
253.4974777274
 10
363.8216980954
 20
252.9249980705
 10
363.9122137204
 20
252.3450972775
  0
LWPOLYLINE
  5
1FB
330
1F
100
AcDbEntity
  8
0
  6
Continuous
 62
     7
100
AcDbPolyline
 90
       22
 70
   128
 43
0.0
 10
317.069538151
 20
212.6751455811
 10
317.0090398527
 20
212.1393503824
 10
316.8029031702
 20
211.6952685327
 10
316.4694442525
 20
211.3823586532
 10
316.0382923877
 20
211.2284241597
 10
315.5477573111
 20
211.2471428077
 10
315.0414252169
 20
211.4368513631
 10
314.5642859338
 20
211.7806933882
 10
314.1587353809
 20
212.2481170101
 10
313.8608085045
 20
212.7975895888
 10
313.6969774151
 20
213.3802880744
 10
313.6817992239
 20
213.9444371493
 10
313.8166225798
 20
214.4399096925
 10
314.089467836
 20
214.822680794
 10
314.4760914941
 20
215.0587395619
 10
314.9421403454
 20
215.1271111387
 10
315.4462039042
 20
215.0217204096
 10
315.9434939114
 20
214.7519318036
 10
316.3898239674
 20
214.3417172221
 10
316.745535688
 20
213.827526031
 10
316.979022526
 20
213.2550463741
 10
317.069538151
 20
212.6751455811
  0
LWPOLYLINE
  5
1FC
330
1F
100
AcDbEntity
  8
0
  6
Continuous
 62
     7
100
AcDbPolyline
 90
       22
 70
   128
 43
0.0
 10
248.7779726498
 20
232.6205917543
 10
248.7174743515
 20
232.0847965556
 10
248.511337669
 20
231.6407147059
 10
248.1778787513
 20
231.3278048264
 10
247.7467268865
 20
231.173870333
 10
247.2561918099
 20
231.1925889809
 10
246.7498597157
 20
231.3822975363
 10
246.2727204326
 20
231.7261395614
 10
245.8671698797
 20
232.1935631833
 10
245.5692430033
 20
232.7430357621
 10
245.4054119139
 20
233.3257342477
 10
245.3902337227
 20
233.8898833225
 10
245.5250570786
 20
234.3853558657
 10
245.7979023348
 20
234.7681269672
 10
246.1845259929
 20
235.0041857351
 10
246.6505748442
 20
235.0725573119
 10
247.154638403
 20
234.9671665828
 10
247.6519284102
 20
234.6973779768
 10
248.0982584662
 20
234.2871633953
 10
248.4539701868
 20
233.7729722042
 10
248.6874570248
 20
233.2004925473
 10
248.7779726498
 20
232.6205917543
  0
LWPOLYLINE
  5
1FD
330
1F
100
AcDbEntity
  8
0
  6
Continuous
 62
     7
100
AcDbPolyline
 90
       22
 70
   128
 43
0.0
 10
199.0417900918
 20
300.4976639365
 10
198.9812917934
 20
299.9618687378
 10
198.7751551109
 20
299.5177868881
 10
198.4416961932
 20
299.2048770085
 10
198.0105443284
 20
299.0509425151
 10
197.5200092518
 20
299.0696611631
 10
197.0136771577
 20
299.2593697184
 10
196.5365378745
 20
299.6032117435
 10
196.1309873216
 20
300.0706353655
 10
195.8330604453
 20
300.6201079442
 10
195.6692293559
 20
301.2028064298
 10
195.6540511647
 20
301.7669555047
 10
195.7888745206
 20
302.2624280478
 10
196.0617197768
 20
302.6451991494
 10
196.4483434348
 20
302.8812579173
 10
196.9143922861
 20
302.949629494
 10
197.418455845
 20
302.844238765
 10
197.9157458521
 20
302.5744501589
 10
198.3620759081
 20
302.1642355775
 10
198.7177876288
 20
301.6500443864
 10
198.9512744667
 20
301.0775647294
 10
199.0417900918
 20
300.4976639365
  0
LWPOLYLINE
  5
1FE
330
1F
100
AcDbEntity
  8
0
  6
Continuous
 62
     7
100
AcDbPolyline
 90
       22
 70
   128
 43
0.0
 10
196.9957716787
 20
376.5448938174
 10
196.9352733803
 20
376.0090986187
 10
196.7291366978
 20
375.565016769
 10
196.3956777801
 20
375.2521068895
 10
195.9645259153
 20
375.098172396
 10
195.4739908387
 20
375.116891044
 10
194.9676587446
 20
375.3065995994
 10
194.4905194615
 20
375.6504416245
 10
194.0849689085
 20
376.1178652464
 10
193.7870420322
 20
376.6673378251
 10
193.6232109428
 20
377.2500363107
 10
193.6080327516
 20
377.8141853856
 10
193.7428561075
 20
378.3096579288
 10
194.0157013637
 20
378.6924290303
 10
194.4023250217
 20
378.9284877982
 10
194.868373873
 20
378.996859375
 10
195.3724374319
 20
378.8914686459
 10
195.869727439
 20
378.6216800399
 10
196.316057495
 20
378.2114654584
 10
196.6717692157
 20
377.6972742673
 10
196.9052560536
 20
377.1247946104
 10
196.9957716787
 20
376.5448938174
  0
LWPOLYLINE
  5
1FF
330
1F
100
AcDbEntity
  8
0
  6
Continuous
 62
     7
100
AcDbPolyline
 90
      156
 70
   128
 43
0.0
 10
365.3513755402
 20
289.6496029207
 10
365.1750947322
 20
293.5783224034
 10
364.856824993
 20
297.5421413272
 10
364.397089239
 20
301.5345471482
 10
363.7966428149
 20
305.548980354
 10
363.0564722525
 20
309.5788452414
 10
362.1777936502
 20
313.617520753
 10
361.1620506745
 20
317.6583713556
 10
360.0109121885
 20
321.6947579421
 10
358.7262695098
 20
325.7200487401
 10
357.3102333028
 20
329.7276302073
 10
355.7651301114
 20
333.7109178979
 10
354.093498536
 20
337.6633672807
 10
352.298085063
 20
341.5784844917
 10
350.3818395518
 20
345.4498370037
 10
348.347910389
 20
349.2710641945
 10
346.1996393147
 20
353.0358877981
 10
343.9405559327
 20
356.738122219
 10
341.5743719111
 20
360.3716846958
 10
339.1049748839
 20
363.930605295
 10
336.5364220641
 20
367.4090367194
 10
333.8729335771
 20
370.8012639151
 10
331.1188855276
 20
374.101713462
 10
328.2788028092
 20
377.3049627299
 10
325.3573516705
 20
380.4057487889
 10
322.3593320479
 20
383.3989770555
 10
319.2896696799
 20
386.2797296636
 10
316.1534080136
 20
389.0432735441
 10
312.9556999187
 20
391.6850682018
 10
309.7017992212
 20
394.200773175
 10
306.3970520715
 20
396.5862551669
 10
303.0468881604
 20
398.837594837
 10
299.6568117984
 20
400.9510932401
 10
296.2323928721
 20
402.9232779038
 10
292.7792576928
 20
404.750908534
 10
289.3030797526
 20
406.4309823382
 10
285.8095704025
 20
407.9607389597
 10
282.3044694695
 20
409.3376650124
 10
278.793535825
 20
410.5594982103
 10
275.2825379238
 20
411.6242310847
 10
271.7772443263
 20
412.5301142823
 10
268.2834142206
 20
413.2756594394
 10
264.8067879605
 20
413.8596416273
 10
261.3530776337
 20
414.2811013647
 10
257.9279576772
 20
414.5393461944
 10
254.5370555542
 20
414.6339518208
 10
251.1859425079
 20
414.5647628072
 10
247.8801244083
 20
414.3318928309
 10
244.6250327058
 20
413.9357244966
 10
241.4260155075
 20
413.376908708
 10
238.2883287904
 20
412.6563635978
 10
235.2171277653
 20
411.7752730197
 10
232.2174584076
 20
410.7350846034
 10
229.2942491661
 20
409.5375073756
 10
226.452302866
 20
408.1845089526
 10
223.6962888175
 20
406.6783123073
 10
221.0307351445
 20
405.0213921166
 10
218.4600213447
 20
403.2164706963
 10
215.9883710941
 20
401.2665135274
 10
213.6198453075
 20
399.1747243845
 10
211.3583354667
 20
396.9445400716
 10
209.2075572263
 20
394.5796247756
 10
207.1710443094
 20
392.0838640463
 10
205.2521427013
 20
389.4613584119
 10
203.4540051523
 20
386.7164166424
 10
201.7795859977
 20
383.8535486697
 10
200.2316363038
 20
380.8774581785
 10
198.8126993479
 20
377.7930348777
 10
197.5251064396
 20
374.6053464667
 10
196.3709730907
 20
371.319630309
 10
195.3521955393
 20
367.9412848278
 10
194.4704476342
 20
364.4758606358
 10
193.727178085
 20
360.9290514158
 10
193.1236080815
 20
357.3066845661
 10
192.6607292876
 20
353.6147116259
 10
192.339302212
 20
349.8591984971
 10
192.1598549586
 20
346.0463154778
 10
192.1226823587
 20
342.1823271249
 10
192.2278454868
 20
338.273581961
 10
192.4751715602
 20
334.3265020443
 10
192.8642542227
 20
330.3475724166
 10
193.3944542126
 20
326.3433304489
 10
194.0649004126
 20
322.3203551001
 10
194.8744912815
 20
318.2852561084
 10
195.8218966636
 20
314.2446631306
 10
196.9055599743
 20
310.2052148505
 10
198.1237007576
 20
306.1735480709
 10
199.4743176114
 20
302.1562868099
 10
200.9551914758
 20
298.1600314171
 10
202.5638892789
 20
294.1913477295
 10
204.2977679345
 20
290.2567562842
 10
206.1539786844
 20
286.3627216045
 10
208.1294717793
 20
282.5156415791
 10
210.2210014892
 20
278.7218369505
 10
212.4251314363
 20
274.9875409297
 10
214.7382402409
 20
271.3188889553
 10
217.1565274713
 20
267.7219086127
 10
219.6760198878
 20
264.2025097313
 10
222.2925779712
 20
260.7664746742
 10
225.0019027233
 20
257.419448838
 10
227.7995427306
 20
254.1669313773
 10
230.680901478
 20
251.0142661697
 10
233.6412449007
 20
247.966633036
 10
236.6757091621
 20
245.0290392293
 10
239.7793086455
 20
242.2063112086
 10
242.946944145
 20
239.5030867087
 10
246.1734112439
 20
236.9238071201
 10
249.4534088651
 20
234.4727101926
 10
252.7815479812
 20
232.153823072
 10
256.1523604683
 20
229.9709556837
 10
259.5603080905
 20
227.9276944731
 10
262.9997915986
 20
226.027396513
 10
266.4651599304
 20
224.273183988
 10
269.9507194947
 20
222.6679390646
 10
273.4507435263
 20
221.214299156
 10
276.9594814951
 20
219.9146525889
 10
280.4711685535
 20
218.771134679
 10
283.9800350092
 20
217.7856242233
 10
287.4803158036
 20
216.9597404129
 10
290.9662599847
 20
216.2948401727
 10
294.4321401553
 20
215.7920159321
 10
297.8722618833
 20
215.45209383
 10
301.2809730579
 20
215.2756323575
 10
304.6526731755
 20
215.2629214403
 10
307.9818225416
 20
215.4139819624
 10
311.2629513727
 20
215.7285657319
 10
314.4906687825
 20
216.2061558884
 10
317.65967164
 20
216.8459677525
 10
320.7647532818
 20
217.646950115
 10
323.8008120668
 20
218.6077869639
 10
326.7628597584
 20
219.726899647
 10
329.6460297201
 20
221.0024494649
 10
332.4455849112
 20
222.4323406927
 10
335.1569256698
 20
224.0142240229
 10
337.7755972703
 20
225.7455004252
 10
340.297297242
 20
227.6233254171
 10
342.7178824386
 20
229.6446137371
 10
345.0333758448
 20
231.8060444137
 10
347.2399731111
 20
234.1040662221
 10
349.3340488041
 20
236.5349035184
 10
351.3121623627
 20
239.0945624433
 10
353.1710637518
 20
241.778837484
 10
354.907698801
 20
244.5833183836
 10
356.5192142237
 20
247.5033973874
 10
358.0029623042
 20
250.5342768132
 10
359.3565052483
 20
253.6709769341
 10
360.5776191885
 20
256.90834416
 10
361.6642978378
 20
260.241059505
 10
362.6147557861
 20
263.6636473267
 10
363.4274314334
 20
267.1704843221
 10
364.1009895558
 20
270.7558087674
 10
364.634323499
 20
274.4137299839
 10
365.0265569968
 20
278.1382380166
 10
365.2770456106
 20
281.9232135086
 10
365.3853777883
 20
285.7624377551
 10
365.3513755402
 20
289.6496029207
  0
LWPOLYLINE
  5
200
330
1F
100
AcDbEntity
  8
0
  6
Continuous
 62
     7
100
AcDbPolyline
 90
       78
 70
   128
 43
0.0
 10
224.3766995076
 20
407.0689308775
 10
222.2746830728
 20
405.5772752951
 10
219.8030328221
 20
403.6273181262
 10
217.4345070356
 20
401.5355289833
 10
215.1729971948
 20
399.3053446704
 10
213.0222189544
 20
396.9404293745
 10
210.9857060375
 20
394.4446686451
 10
209.0668044294
 20
391.8221630108
 10
207.2686668804
 20
389.0772212412
 10
205.5942477258
 20
386.2143532685
 10
204.0462980319
 20
383.2382627774
 10
202.627361076
 20
380.1538394765
 10
201.3397681677
 20
376.9661510655
 10
200.1856348188
 20
373.6804349078
 10
199.1668572674
 20
370.3020894266
 10
198.2851093623
 20
366.8366652346
 10
197.5418398131
 20
363.2898560146
 10
196.9382698095
 20
359.6674891649
 10
196.4753910157
 20
355.9755162247
 10
196.1539639401
 20
352.2200030959
 10
195.9745166867
 20
348.4071200766
 10
195.9373440868
 20
344.5431317237
 10
196.0425072149
 20
340.6343865599
 10
196.2898332882
 20
336.6873066431
 10
196.6789159507
 20
332.7083770154
 10
197.2091159406
 20
328.7041350477
 10
197.8795621407
 20
324.681159699
 10
198.6891530096
 20
320.6460607072
 10
199.6365583917
 20
316.6054677294
 10
200.7202217023
 20
312.5660194493
 10
201.9383624856
 20
308.5343526698
 10
203.2889793395
 20
304.5170914087
 10
204.7698532039
 20
300.5208360159
 10
206.378551007
 20
296.5521523283
 10
208.1124296626
 20
292.617560883
 10
209.9686404125
 20
288.7235262033
 10
211.9441335074
 20
284.876446178
 10
214.0356632173
 20
281.0826415494
 10
216.2397931644
 20
277.3483455286
 10
218.552901969
 20
273.6796935541
 10
220.9711891993
 20
270.0827132115
 10
223.4906816159
 20
266.5633143301
 10
226.1072396993
 20
263.127279273
 10
228.8165644513
 20
259.7802534368
 10
231.6142044587
 20
256.5277359761
 10
234.4955632061
 20
253.3750707685
 10
237.4559066288
 20
250.3274376348
 10
240.4903708902
 20
247.3898438281
 10
243.5939703736
 20
244.5671158074
 10
246.7616058731
 20
241.8638913075
 10
249.9880729719
 20
239.2846117189
 10
253.2680705931
 20
236.8335147915
 10
256.5962097092
 20
234.5146276708
 10
259.9670221964
 20
232.3317602825
 10
263.3749698185
 20
230.2884990719
 10
266.8144533267
 20
228.3882011118
 10
270.2798216584
 20
226.6339885868
 10
273.7653812228
 20
225.0287436634
 10
277.2654052544
 20
223.5751037549
 10
280.7741432231
 20
222.2754571877
 10
284.2858302816
 20
221.1319392778
 10
287.7946967373
 20
220.1464288221
 10
291.2949775317
 20
219.3205450117
 10
294.7809217128
 20
218.6556447715
 10
298.2468018834
 20
218.1528205309
 10
301.6869236114
 20
217.8128984288
 10
305.095634786
 20
217.6364369563
 10
308.4673349036
 20
217.6237260391
 10
311.7964842697
 20
217.7747865613
 10
315.0776131007
 20
218.0893703307
 10
318.3053305106
 20
218.5669604872
 10
321.4743333681
 20
219.2067723513
 10
324.5794150098
 20
220.0077547138
 10
327.6154737948
 20
220.9685915628
 10
330.5775214865
 20
222.0877042458
 10
333.4606914482
 20
223.3632540637
 10
336.2602466393
 20
224.7931452915
 10
336.9468150368
 20
225.174626008
  0
LINE
  5
201
330
1F
100
AcDbEntity
  8
0
  6
Continuous
 62
     7
100
AcDbLine
 10
392.4254490922
 20
242.6272918148
 30
0.0
 11
397.707288408
 21
245.8960981824
 31
0.0
  0
LINE
  5
202
330
1F
100
AcDbEntity
  8
0
  6
Continuous
 62
     7
100
AcDbLine
 10
395.658361278
 20
322.0514404161
 30
0.0
 11
397.707288408
 21
245.8960981824
 31
0.0
  0
LINE
  5
203
330
1F
100
AcDbEntity
  8
0
  6
Continuous
 62
     7
100
AcDbLine
 10
227.1129484704
 20
440.455844034
 30
0.0
 11
232.3947877862
 21
443.7246504016
 31
0.0
  0
LINE
  5
204
330
1F
100
AcDbEntity
  8
0
  6
Continuous
 62
     7
100
AcDbLine
 10
326.681592831
 20
416.1869540395
 30
0.0
 11
232.3947877862
 21
443.7246504016
 31
0.0
  0
LINE
  5
205
330
1F
100
AcDbEntity
  8
0
  6
Continuous
 62
     7
100
AcDbLine
 10
327.4615491705
 20
187.6109047153
 30
0.0
 11
332.7433884863
 21
190.8797110828
 31
0.0
  0
LINE
  5
206
330
1F
100
AcDbEntity
  8
0
  6
Continuous
 62
     7
100
AcDbLine
 10
397.707288408
 20
245.8960981824
 30
0.0
 11
332.7433884863
 21
190.8797110828
 31
0.0
  0
LINE
  5
207
330
1F
100
AcDbEntity
  8
0
  6
Continuous
 62
     7
100
AcDbLine
 10
769.746391848
 20
629.383426688
 30
0.0
 11
775.0282311637
 21
632.6522330555
 31
0.0
  0
LINE
  5
208
330
1F
100
AcDbEntity
  8
0
  6
Continuous
 62
     7
100
AcDbLine
 10
769.746391848
 20
629.383426688
 30
0.0
 11
612.0165006384
 21
675.4505073287
 31
0.0
  0
LINE
  5
209
330
1F
100
AcDbEntity
  8
0
  6
Continuous
 62
     7
100
AcDbLine
 10
775.0282311637
 20
632.6522330555
 30
0.0
 11
617.2983399542
 21
678.7193136963
 31
0.0
  0
LINE
  5
20A
330
1F
100
AcDbEntity
  8
0
  6
Continuous
 62
     7
100
AcDbLine
 10
557.8805124865
 20
467.7248155909
 30
0.0
 11
562.1674912917
 21
466.4727472809
 31
0.0
  0
LINE
  5
20B
330
1F
100
AcDbEntity
  8
0
  6
Continuous
 62
     7
100
AcDbLine
 10
595.009497342
 20
456.8808092562
 30
0.0
 11
626.9169366007
 21
447.5618237038
 31
0.0
  0
LINE
  5
20C
330
1F
100
AcDbEntity
  8
0
  6
Continuous
 62
     7
100
AcDbLine
 10
543.2184069311
 20
632.8729820874
 30
0.0
 11
546.966318675
 21
493.5691008804
 31
0.0
  0
LINE
  5
20D
330
1F
100
AcDbEntity
  8
0
  6
Continuous
 62
     7
100
AcDbLine
 10
772.2559900752
 20
536.105677049
 30
0.0
 11
769.746391848
 21
629.383426688
 31
0.0
  0
LINE
  5
20E
330
1F
100
AcDbEntity
  8
0
  6
Continuous
 62
     7
100
AcDbLine
 10
777.5538458984
 20
538.7791754672
 30
0.0
 11
775.0282311637
 21
632.6522330555
 31
0.0
  0
LINE
  5
20F
330
1F
100
AcDbEntity
  8
0
  6
Continuous
 62
     8
370
     0
100
AcDbLine
 10
552.3592514609
 20
393.3815947159
 30
0.0
 11
558.4210471162
 21
168.0743517593
 31
0.0
  0
LINE
  5
210
330
1F
100
AcDbEntity
  8
0
  6
Continuous
 62
     8
370
     0
100
AcDbLine
 10
551.4401055327
 20
167.4402067835
 30
0.0
 11
545.3783098774
 21
392.7474497402
 31
0.0
  0
LINE
  5
211
330
1F
100
AcDbEntity
  8
0
  6
Continuous
 62
     8
370
     0
100
AcDbLine
 10
787.3007508005
 20
309.7226276881
 30
0.0
 11
781.2389551452
 21
535.0298706447
 31
0.0
  0
LINE
  5
212
330
1F
100
AcDbEntity
  8
0
  6
Continuous
 62
     8
370
     0
100
AcDbLine
 10
457.9202719567
 20
64.6170494089
 30
0.0
 11
458.0172606871
 21
61.0121335216
 31
0.0
  0
ARC
  5
213
330
1F
100
AcDbEntity
  8
0
  6
Continuous
 62
     8
370
     0
100
AcDbCircle
 10
453.7089695769
 20
69.6979800625
 30
0.0
 40
9.695633162508093
100
AcDbArc
 50
253.9989439313
 51
296.3820003181
  0
LINE
  5
214
330
1F
100
AcDbEntity
  8
0
  6
Continuous
 62
     8
370
     0
100
AcDbLine
 10
451.0363191037
 20
60.3779885459
 30
0.0
 11
450.9393303732
 21
63.9829044332
 31
0.0
  0
LWPOLYLINE
  5
215
330
1F
100
AcDbEntity
  8
0
  6
Continuous
 62
     8
370
     0
100
AcDbPolyline
 90
        7
 70
   128
 43
0.0
 10
452.5689208751
 20
57.3945038405
 10
452.4412378682
 20
57.4383520559
 10
451.9814985724
 20
57.7235580805
 10
451.5982021835
 20
58.1805603767
 10
451.3060785668
 20
58.7917966027
 10
451.1163538689
 20
59.533777293
 10
451.0363191037
 20
60.3779885459
  0
ARC
  5
216
330
1F
100
AcDbEntity
  8
0
  6
Continuous
 62
     8
370
     0
100
AcDbCircle
 10
454.6560422963
 20
60.7006656263
 30
0.0
 40
3.375618657492762
100
AcDbArc
 50
305.2013181856
 51
5.294204577
  0
LINE
  5
217
330
1F
100
AcDbEntity
  8
0
  6
Continuous
 62
     8
370
     0
100
AcDbLine
 10
216.3343074373
 20
128.9257851307
 30
0.0
 11
451.0363191037
 21
60.3779885459
 31
0.0
  0
LINE
  5
218
330
1F
100
AcDbEntity
  8
0
  6
Continuous
 62
     8
370
     0
100
AcDbLine
 10
216.2373187068
 20
132.5307010181
 30
0.0
 11
216.3343074373
 21
128.9257851307
 31
0.0
  0
LINE
  5
219
330
1F
100
AcDbEntity
  8
0
  6
Continuous
 62
     8
370
     0
100
AcDbLine
 10
686.8969643715
 20
202.6604094505
 30
0.0
 11
686.799975641
 21
206.2653253378
 31
0.0
  0
LINE
  5
21A
330
1F
100
AcDbEntity
  8
0
  6
Continuous
 62
     8
370
     0
100
AcDbLine
 10
458.0172606871
 20
61.0121335216
 30
0.0
 11
686.8969643715
 21
202.6604094505
 31
0.0
  0
LWPOLYLINE
  5
21B
330
1F
100
AcDbEntity
  8
0
  6
Continuous
 62
     8
370
     0
100
AcDbPolyline
 90
        7
 70
   128
 43
0.0
 10
216.3343074373
 20
128.9257851307
 10
216.4143422025
 20
128.0815738779
 10
216.6040669004
 20
127.3395931876
 10
216.8961905172
 20
126.7283569616
 10
217.2794869061
 20
126.2713546653
 10
217.7392262018
 20
125.9861486408
 10
217.8669092087
 20
125.9423004253
  0
ARC
  5
21C
330
1F
100
AcDbEntity
  8
0
  6
Continuous
 62
     8
370
     0
100
AcDbCircle
 10
683.5357459807
 20
202.3489415551
 30
0.0
 40
3.375618657492959
100
AcDbArc
 50
305.2013181856
 51
5.294204577
  0
LWPOLYLINE
  5
21D
330
1F
100
AcDbEntity
  8
0
  6
Continuous
 62
     8
370
     0
100
AcDbPolyline
 90
        6
 70
   128
 43
0.0
 10
216.3343074373
 20
128.9257851307
 10
215.6012404038
 20
129.1912482969
 10
215.0091103491
 20
129.51629786
 10
214.580672499
 20
129.8884423476
 10
214.33239148
 20
130.2933804557
 10
214.2704712713
 20
130.6073144536
  0
ARC
  5
21E
330
1F
100
AcDbEntity
  8
0
  6
Continuous
 62
     8
370
     0
100
AcDbCircle
 10
686.2836318768
 20
204.1059346441
 30
0.0
 40
1.570261072123293
100
AcDbArc
 50
292.991383272
 51
355.2806848959
  0
ARC
  5
21F
330
1F
100
AcDbEntity
  8
0
  6
Continuous
 62
     8
370
     0
100
AcDbCircle
 10
437.8765792059
 20
574.9973511671
 30
0.0
 40
6.310346199290878
100
AcDbArc
 50
2.2638172959
 51
70.1995623262
  0
ARC
  5
220
330
1F
100
AcDbEntity
  8
0
  6
Continuous
 62
     8
370
     0
100
AcDbCircle
 10
439.8737093184
 20
583.9324613428
 30
0.0
 40
9.695633162507992
100
AcDbArc
 50
253.9989439313
 51
296.3820003181
  0
LWPOLYLINE
  5
221
330
1F
100
AcDbEntity
  8
0
  6
Continuous
 62
     8
370
     0
100
AcDbPolyline
 90
        9
 70
   128
 43
0.0
 10
440.0141781074
 20
580.9346182229
 10
439.4440433254
 20
580.493749198
 10
438.9004775315
 20
579.8966539027
 10
438.4043696543
 20
579.1662783742
 10
437.9747848413
 20
578.3306905346
 10
437.628231796
 20
577.4220015558
 10
437.3780283575
 20
576.4751318458
 10
437.2337897037
 20
575.5264690766
 10
437.2010588451
 20
574.6124698262
  0
LINE
  5
222
330
1F
100
AcDbEntity
  8
0
  6
Continuous
 62
     8
370
     0
100
AcDbLine
 10
437.2980475756
 20
571.0075539389
 30
0.0
 11
437.2010588451
 21
574.6124698262
 31
0.0
  0
LINE
  5
223
330
1F
100
AcDbEntity
  8
0
  6
Continuous
 62
     8
370
     0
100
AcDbLine
 10
444.1820004286
 20
575.2466148019
 30
0.0
 11
444.2789891591
 21
571.6416989146
 31
0.0
  0
LINE
  5
224
330
1F
100
AcDbEntity
  8
0
  6
Continuous
 62
     8
370
     0
100
AcDbLine
 10
205.3121664411
 20
649.4824148077
 30
0.0
 11
440.0141781074
 21
580.9346182229
 31
0.0
  0
LINE
  5
225
330
1F
100
AcDbEntity
  8
0
  6
Continuous
 62
     8
370
     0
100
AcDbLine
 10
437.2010588451
 20
574.6124698262
 30
0.0
 11
202.4990471787
 21
643.160266411
 31
0.0
  0
LWPOLYLINE
  5
226
330
1F
100
AcDbEntity
  8
0
  6
Continuous
 62
     8
370
     0
100
AcDbPolyline
 90
        9
 70
   128
 43
0.0
 10
202.4990471787
 20
643.160266411
 10
202.5317780373
 20
644.0742656614
 10
202.6760166911
 20
645.0229284307
 10
202.9262201296
 20
645.9697981407
 10
203.2727731749
 20
646.8784871194
 10
203.7023579879
 20
647.7140749591
 10
204.1984658651
 20
648.4444504875
 10
204.7420316591
 20
649.0415457829
 10
205.3121664411
 20
649.4824148077
  0
LINE
  5
227
330
1F
100
AcDbEntity
  8
0
  6
Continuous
 62
     8
370
     0
100
AcDbLine
 10
440.0141781074
 20
580.9346182229
 30
0.0
 11
668.8938817918
 21
722.5828941517
 31
0.0
  0
ARC
  5
228
330
1F
100
AcDbEntity
  8
0
  6
Continuous
 62
     8
370
     0
100
AcDbCircle
 10
666.7562828903
 20
716.645627096
 30
0.0
 40
6.310346199290823
100
AcDbArc
 50
2.2638172959
 51
70.1995623262
  0
LINE
  5
229
330
1F
100
AcDbEntity
  8
0
  6
Continuous
 62
     8
370
     0
100
AcDbLine
 10
673.0617041129
 20
716.8948907308
 30
0.0
 11
444.1820004286
 21
575.2466148019
 31
0.0
  0
LINE
  5
22A
330
1F
100
AcDbEntity
  8
0
  6
Continuous
 62
     8
370
     0
100
AcDbLine
 10
202.4990471787
 20
643.160266411
 30
0.0
 11
202.5960359092
 21
639.5553505237
 31
0.0
  0
LINE
  5
22B
330
1F
100
AcDbEntity
  8
0
  6
Continuous
 62
     8
370
     0
100
AcDbLine
 10
673.1586928434
 20
713.2899748434
 30
0.0
 11
673.0617041129
 21
716.8948907308
 31
0.0
  0
LINE
  5
22C
330
1F
100
AcDbEntity
  8
0
  6
Continuous
 62
     8
370
     0
100
AcDbLine
 10
434.1918701254
 20
791.1306907365
 30
0.0
 11
205.3121664411
 21
649.4824148077
 31
0.0
  0
LINE
  5
22D
330
1F
100
AcDbEntity
  8
0
  6
Continuous
 62
     8
370
     0
100
AcDbLine
 10
668.8938817918
 20
722.5828941517
 30
0.0
 11
434.1918701254
 21
791.1306907365
 31
0.0
  0
ARC
  5
22E
330
1F
100
AcDbEntity
  8
0
  6
Continuous
 62
     8
370
     0
100
AcDbCircle
 10
204.3363543389
 20
646.6015472316
 30
0.0
 40
3.041645483950817
100
AcDbArc
 50
71.2876488297
 51
120.2913819379
  0
LWPOLYLINE
  5
22F
330
1F
100
AcDbEntity
  8
0
  6
Continuous
 62
     8
370
     0
100
AcDbPolyline
 90
        6
 70
   128
 43
0.0
 10
200.4352110127
 20
644.8417957339
 10
200.4971312214
 20
644.527861736
 10
200.7454122405
 20
644.1229236279
 10
201.1738500905
 20
643.7507791403
 10
201.7659801452
 20
643.4257295772
 10
202.4990471787
 20
643.160266411
  0
ARC
  5
230
330
1F
100
AcDbEntity
  8
0
  6
Continuous
 62
     8
370
     0
100
AcDbCircle
 10
433.2160580233
 20
788.2498231604
 30
0.0
 40
3.041645483950849
100
AcDbArc
 50
71.2876488297
 51
120.2913819379
  0
ARC
  5
231
330
1F
100
AcDbEntity
  8
0
  6
Continuous
 62
     8
370
     0
100
AcDbCircle
 10
669.9763828957
 20
721.0629545821
 30
0.0
 40
1.86601847126236
100
AcDbArc
 50
76.3460153994
 51
125.45847315
  0
ARC
  5
232
330
1F
100
AcDbEntity
  8
0
  6
Continuous
 62
     8
370
     0
100
AcDbCircle
 10
672.4483716182
 20
718.3404159244
 30
0.0
 40
1.570261072125095
100
AcDbArc
 50
292.991383272
 51
355.2806848959
  0
ARC
  5
233
330
1F
100
AcDbEntity
  8
0
  6
Continuous
 62
     8
370
     0
100
AcDbCircle
 10
435.2743712293
 20
789.610751167
 30
0.0
 40
1.866018471261309
100
AcDbArc
 50
76.3460153994
 51
125.45847315
  0
LINE
  5
234
330
1F
100
AcDbEntity
  8
0
  6
Continuous
 62
     8
370
     0
100
AcDbLine
 10
76.8418321808
 20
529.5896648439
 30
0.0
 11
82.9036278361
 21
304.2824218873
 31
0.0
  0
LINE
  5
235
330
1F
100
AcDbEntity
  8
0
  6
Continuous
 62
     8
370
     0
100
AcDbLine
 10
618.7799635845
 20
460.5663934841
 30
0.0
 11
618.9981882281
 21
452.4553327376
 31
0.0
  0
LINE
  5
236
330
1F
100
AcDbEntity
  8
0
  6
Continuous
 62
     8
370
     0
100
AcDbLine
 10
525.8044205933
 20
463.6639349879
 30
0.0
 11
526.0226452369
 21
455.5528742414
 31
0.0
  0
LINE
  5
237
330
1F
100
AcDbEntity
  8
0
  6
Continuous
 62
     8
370
     0
100
AcDbLine
 10
572.4465492125
 20
474.0986740168
 30
0.0
 11
572.6647738561
 21
465.9876132703
 31
0.0
  0
LINE
  5
238
330
1F
100
AcDbEntity
  8
0
  6
Continuous
 62
     8
370
     0
100
AcDbLine
 10
537.5418412951
 20
470.9279491381
 30
0.0
 11
537.7600659386
 21
462.8168883916
 31
0.0
  0
LINE
  5
239
330
1F
100
AcDbEntity
  8
0
  6
Continuous
 62
     8
370
     0
100
AcDbLine
 10
513.7710462959
 20
491.235623163
 30
0.0
 11
513.9892709395
 21
483.1245624165
 31
0.0
  0
LINE
  5
23A
330
1F
100
AcDbEntity
  8
0
  6
Continuous
 62
     8
370
     0
100
AcDbLine
 10
420.7955033046
 20
494.3331646668
 30
0.0
 11
421.0137279482
 21
486.2221039203
 31
0.0
  0
LINE
  5
23B
330
1F
100
AcDbEntity
  8
0
  6
Continuous
 62
     8
370
     0
100
AcDbLine
 10
467.4376319238
 20
504.7679036957
 30
0.0
 11
467.6558565674
 21
496.6568429492
 31
0.0
  0
LINE
  5
23C
330
1F
100
AcDbEntity
  8
0
  6
Continuous
 62
     8
370
     0
100
AcDbLine
 10
432.5329240064
 20
501.597178817
 30
0.0
 11
432.75114865
 21
493.4861180705
 31
0.0
  0
INSERT
  5
242
330
1F
100
AcDbEntity
  8
SLD-0_0
100
AcDbBlockReference
  2
SW_NOTE_9
 10
311.0463474033
 20
805.781242291
 30
0.0
  0
LEADER
  5
24C
330
1F
100
AcDbEntity
  8
SLD-0_0
100
AcDbLeader
  3
SLDDIMSTYLE0
 76
     2
 10
445.4640321088
 20
711.5611740254
 30
0.0
 10
311.0463474033
 20
805.781242291
 30
0.0
  0
INSERT
  5
252
330
1F
100
AcDbEntity
  8
SLD-0_0
100
AcDbBlockReference
  2
SW_NOTE_10
 10
490.2551931743
 20
544.2276486879
 30
0.0
  0
LEADER
  5
253
330
1F
100
AcDbEntity
  8
SLD-0_0
100
AcDbLeader
  3
SLDDIMSTYLE0
 76
     2
 10
450.2365245558
 20
518.7463307394
 30
0.0
 10
490.2551931743
 20
544.2276486879
 30
0.0
  0
INSERT
  5
259
330
1F
100
AcDbEntity
  8
SLD-0_0
100
AcDbBlockReference
  2
SW_NOTE_11
 10
696.1182402627
 20
681.6517485603
 30
0.0
  0
LEADER
  5
25A
330
1F
100
AcDbEntity
  8
SLD-0_0
100
AcDbLeader
  3
SLDDIMSTYLE0
 76
     2
 10
584.2882390314
 20
554.5033676315
 30
0.0
 10
696.1182402627
 20
681.6517485603
 30
0.0
  0
INSERT
  5
260
330
1F
100
AcDbEntity
  8
SLD-0_0
100
AcDbBlockReference
  2
SW_NOTE_12
 10
802.6455410536
 20
604.3801070961
 30
0.0
  0
LEADER
  5
261
330
1F
100
AcDbEntity
  8
SLD-0_0
100
AcDbLeader
  3
SLDDIMSTYLE0
 76
     2
 10
723.1640308715
 20
514.5969016357
 30
0.0
 10
802.6455410536
 20
604.3801070961
 30
0.0
  0
INSERT
  5
267
330
1F
100
AcDbEntity
  8
SLD-0_0
100
AcDbBlockReference
  2
SW_NOTE_13
 10
825.6446282784
 20
368.5949175666
 30
0.0
  0
LEADER
  5
268
330
1F
100
AcDbEntity
  8
SLD-0_0
100
AcDbLeader
  3
SLDDIMSTYLE0
 76
     2
 10
697.2759812019
 20
340.2214797338
 30
0.0
 10
825.6446282784
 20
368.5949175666
 30
0.0
  0
INSERT
  5
26E
102
{ACAD_REACTORS
330
26F
102
}
330
1F
100
AcDbEntity
  8
SLD-0_0
100
AcDbBlockReference
  2
SW_NOTE_14
 10
127.55910068
 20
217.881908694
 30
0.0
  0
LEADER
  5
26F
330
1F
100
AcDbEntity
  8
SLD-0_0
100
AcDbLeader
  3
SLDDIMSTYLE0
 73
     2
 76
     2
 10
222.4660112062
 20
243.2071783239
 30
0.0
 10
127.55910068
 20
217.881908694
 30
0.0
340
26E
  0
INSERT
  5
275
330
1F
100
AcDbEntity
  8
SLD-0_0
100
AcDbBlockReference
  2
SW_NOTE_15
 10
267.3592248425
 20
84.0968548828
 30
0.0
  0
LEADER
  5
276
330
1F
100
AcDbEntity
  8
SLD-0_0
100
AcDbLeader
  3
SLDDIMSTYLE0
 76
     2
 10
443.1630838035
 20
147.0830267409
 30
0.0
 10
267.3592248425
 20
84.0968548828
 30
0.0
  0
INSERT
  5
27C
330
1F
100
AcDbEntity
  8
SLD-0_0
100
AcDbBlockReference
  2
SW_NOTE_16
 10
94.0749470062
 20
582.8009051607
 30
0.0
  0
LEADER
  5
27D
330
1F
100
AcDbEntity
  8
SLD-0_0
100
AcDbLeader
  3
SLDDIMSTYLE0
 76
     2
 10
157.1978623152
 20
482.3354573464
 30
0.0
 10
94.0749470062
 20
582.8009051607
 30
0.0
  0
INSERT
  5
283
330
1F
100
AcDbEntity
  8
SLD-0_0
100
AcDbBlockReference
  2
SW_NOTE_17
 10
462.4526687931
 20
312.451803789
 30
0.0
  0
LEADER
  5
284
330
1F
100
AcDbEntity
  8
SLD-0_0
100
AcDbLeader
  3
SLDDIMSTYLE0
 76
     2
 10
454.3611003824
 20
273.5519353373
 30
0.0
 10
462.4526687931
 20
312.451803789
 30
0.0
  0
LINE
  5
285
330
1F
100
AcDbEntity
  8
0
  6
Continuous
 62
     7
100
AcDbLine
 10
77.4135801889
 20
1604.0106181236
 30
0.0
 11
77.4135801889
 21
1004.0106181236
 31
0.0
  0
LINE
  5
286
330
1F
100
AcDbEntity
  8
0
  6
Continuous
 62
     7
100
AcDbLine
 10
877.4135801889
 20
1604.0106181236
 30
0.0
 11
77.4135801889
 21
1604.0106181236
 31
0.0
  0
LINE
  5
287
330
1F
100
AcDbEntity
  8
0
  6
Continuous
 62
     7
100
AcDbLine
 10
877.4135801889
 20
1004.0106181236
 30
0.0
 11
877.4135801889
 21
1604.0106181236
 31
0.0
  0
LINE
  5
288
330
1F
100
AcDbEntity
  8
0
  6
Continuous
 62
     7
100
AcDbLine
 10
77.4135801889
 20
1004.0106181236
 30
0.0
 11
877.4135801889
 21
1004.0106181236
 31
0.0
  0
DIMENSION
  5
289
330
1F
100
AcDbEntity
  8
SLD-0_0
100
AcDbDimension
  2
_D
 10
77.4135801889
 20
966.0106181236
 30
0.0
 11
461.263025613
 21
966.0106181236
 31
0.0
 70
   160
  1
<>
 71
     2
 42
-1.0
  3
SLDDIMSTYLE1
100
AcDbAlignedDimension
 13
877.4135801889
 23
1004.0106181236
 33
0.0
 14
77.4135801889
 24
1004.0106181236
 34
0.0
 50
0.0
100
AcDbRotatedDimension
  0
DIMENSION
  5
294
330
1F
100
AcDbEntity
  8
SLD-0_0
100
AcDbDimension
  2
_D_1
 10
901.4135801889
 20
1604.0106181236
 30
0.0
 11
901.4135801889
 21
1292.2070712133
 31
0.0
 70
   160
  1
<>
 71
     2
 42
-1.0
  3
SLDDIMSTYLE1
100
AcDbAlignedDimension
 13
877.4135801889
 23
1004.0106181236
 33
0.0
 14
877.4135801889
 24
1604.0106181236
 34
0.0
 50
90.0
100
AcDbRotatedDimension
  0
LINE
  5
29E
330
1F
100
AcDbEntity
  8
0
  6
Continuous
 62
     7
100
AcDbLine
 10
1540.6975930614
 20
1554.0106181236
 30
0.0
 11
2340.6975930614
 21
1554.0106181236
 31
0.0
  0
LINE
  5
29F
330
1F
100
AcDbEntity
  8
0
  6
Continuous
 62
     7
100
AcDbLine
 10
1540.6975930614
 20
1054.0106181236
 30
0.0
 11
1540.6975930614
 21
1554.0106181236
 31
0.0
  0
LINE
  5
2A0
330
1F
100
AcDbEntity
  8
0
  6
Continuous
 62
     7
100
AcDbLine
 10
2340.6975930614
 20
1054.0106181236
 30
0.0
 11
1540.6975930614
 21
1054.0106181236
 31
0.0
  0
LINE
  5
2A1
330
1F
100
AcDbEntity
  8
0
  6
Continuous
 62
     7
100
AcDbLine
 10
2340.6975930614
 20
1554.0106181236
 30
0.0
 11
2340.6975930614
 21
1054.0106181236
 31
0.0
  0
DIMENSION
  5
2A2
330
1F
100
AcDbEntity
  8
SLD-0_0
100
AcDbDimension
  2
_D_2
 10
2340.6975930614
 20
1030.0106181236
 30
0.0
 11
1937.3096114576
 21
1030.0106181236
 31
0.0
 70
   160
  1
<>
 71
     2
 42
-1.0
  3
SLDDIMSTYLE1
100
AcDbAlignedDimension
 13
1540.6975930614
 23
1054.0106181236
 33
0.0
 14
2340.6975930614
 24
1054.0106181236
 34
0.0
 50
0.0
100
AcDbRotatedDimension
  0
DIMENSION
  5
2AC
330
1F
100
AcDbEntity
  8
SLD-0_0
100
AcDbDimension
  2
_D_3
 10
2364.6975930614
 20
1054.0106181236
 30
0.0
 11
2364.6975930614
 21
1313.3614560687
 31
0.0
 70
   160
  1
<>
 71
     2
 42
-1.0
  3
SLDDIMSTYLE1
100
AcDbAlignedDimension
 13
2340.6975930614
 23
1554.0106181236
 33
0.0
 14
2340.6975930614
 24
1054.0106181236
 34
0.0
 50
90.0
100
AcDbRotatedDimension
  0
LINE
  5
2B6
330
1F
100
AcDbEntity
  8
0
  6
Continuous
 62
     7
100
AcDbLine
 10
1496.4770020808
 20
1054.0106181236
 30
0.0
 11
932.4770020808
 21
1054.0106181236
 31
0.0
  0
LINE
  5
2B7
330
1F
100
AcDbEntity
  8
0
  6
Continuous
 62
     7
100
AcDbLine
 10
1496.4770020808
 20
1554.0106181236
 30
0.0
 11
1496.4770020808
 21
1054.0106181236
 31
0.0
  0
LINE
  5
2B8
330
1F
100
AcDbEntity
  8
0
  6
Continuous
 62
     7
100
AcDbLine
 10
932.4770020808
 20
1554.0106181236
 30
0.0
 11
1496.4770020808
 21
1554.0106181236
 31
0.0
  0
LINE
  5
2B9
330
1F
100
AcDbEntity
  8
0
  6
Continuous
 62
     7
100
AcDbLine
 10
932.4770020808
 20
1054.0106181236
 30
0.0
 11
932.4770020808
 21
1554.0106181236
 31
0.0
  0
DIMENSION
  5
2BA
330
1F
100
AcDbEntity
  8
SLD-0_0
100
AcDbDimension
  2
_D_4
 10
1520.5924443777
 20
1054.0106181236
 30
0.0
 11
1520.5924443777
 21
1334.4476777379
 31
0.0
 70
   160
  1
<>
 71
     2
 42
-1.0
  3
SLDDIMSTYLE1
100
AcDbAlignedDimension
 13
1496.4770020808
 23
1554.0106181236
 33
0.0
 14
1496.4770020808
 24
1054.0106181236
 34
0.0
 50
90.0
100
AcDbRotatedDimension
  0
DIMENSION
  5
2C4
330
1F
100
AcDbEntity
  8
SLD-0_0
100
AcDbDimension
  2
_D_5
 10
932.4770020808
 20
1030.0106181236
 30
0.0
 11
1236.0004627768
 21
1030.0106181236
 31
0.0
 70
   160
  1
<>
 71
     2
 42
-1.0
  3
SLDDIMSTYLE1
100
AcDbAlignedDimension
 13
1496.4770020808
 23
1054.0106181236
 33
0.0
 14
932.4770020808
 24
1054.0106181236
 34
0.0
100
AcDbRotatedDimension
  0
LINE
  5
2CE
330
1F
100
AcDbEntity
  8
0
  6
Continuous
 62
     7
100
AcDbLine
 10
1478.8808200609
 20
517.5633802764
 30
0.0
 11
1313.3824779242
 21
352.0650381397
 31
0.0
  0
CIRCLE
  5
2CF
330
1F
100
AcDbEntity
  8
0
  6
Continuous
 62
     7
100
AcDbCircle
 10
1196.8808200609
 20
602.0650381397
 30
0.0
 40
231.0000000000002
  0
LINE
  5
2D0
330
1F
100
AcDbEntity
  8
0
  6
Continuous
 62
     7
100
AcDbLine
 10
1313.3824779242
 20
352.0650381397
 30
0.0
 11
1080.3791621976
 21
352.0650381397
 31
0.0
  0
LINE
  5
2D1
330
1F
100
AcDbEntity
  8
0
  6
Continuous
 62
     7
100
AcDbLine
 10
914.8808200609
 20
517.5633802764
 30
0.0
 11
1080.3791621976
 21
352.0650381397
 31
0.0
  0
LINE
  5
2D2
330
1F
100
AcDbEntity
  8
0
  6
Continuous
 62
     7
100
AcDbLine
 10
914.8808200609
 20
686.566696003
 30
0.0
 11
914.8808200609
 21
517.5633802764
 31
0.0
  0
LINE
  5
2D3
330
1F
100
AcDbEntity
  8
0
  6
Continuous
 62
     7
100
AcDbLine
 10
914.8808200609
 20
686.566696003
 30
0.0
 11
1080.3791621976
 21
852.0650381397
 31
0.0
  0
LINE
  5
2D4
330
1F
100
AcDbEntity
  8
0
  6
Continuous
 62
     7
100
AcDbLine
 10
1313.3824779242
 20
852.0650381397
 30
0.0
 11
1080.3791621976
 21
852.0650381397
 31
0.0
  0
LINE
  5
2D5
330
1F
100
AcDbEntity
  8
0
  6
Continuous
 62
     7
100
AcDbLine
 10
1313.3824779242
 20
852.0650381397
 30
0.0
 11
1478.8808200609
 21
686.566696003
 31
0.0
  0
LINE
  5
2D6
330
1F
100
AcDbEntity
  8
0
  6
Continuous
 62
     7
100
AcDbLine
 10
1478.8808200609
 20
686.566696003
 30
0.0
 11
1478.8808200609
 21
517.5633802764
 31
0.0
  0
CIRCLE
  5
2D7
330
1F
100
AcDbEntity
  8
0
  6
Continuous
 62
     7
100
AcDbCircle
 10
1196.8808200609
 20
602.0650381397
 30
0.0
 40
214.0
  0
CIRCLE
  5
2D8
330
1F
100
AcDbEntity
  8
0
  6
Continuous
 62
     7
100
AcDbCircle
 10
993.1653831422
 20
517.6833413032
 30
0.0
 40
4.199999999999932
  0
CIRCLE
  5
2D9
330
1F
100
AcDbEntity
  8
0
  6
Continuous
 62
     7
100
AcDbCircle
 10
1112.4991232244
 20
398.3496012209
 30
0.0
 40
4.200000000000045
  0
CIRCLE
  5
2DA
330
1F
100
AcDbEntity
  8
0
  6
Continuous
 62
     7
100
AcDbCircle
 10
1281.2625168974
 20
398.3496012209
 30
0.0
 40
4.199999999999818
  0
CIRCLE
  5
2DB
330
1F
100
AcDbEntity
  8
0
  6
Continuous
 62
     7
100
AcDbCircle
 10
1400.5962569796
 20
517.6833413032
 30
0.0
 40
4.199999999999818
  0
CIRCLE
  5
2DC
330
1F
100
AcDbEntity
  8
0
  6
Continuous
 62
     7
100
AcDbCircle
 10
1400.5962569796
 20
686.4467349762
 30
0.0
 40
4.200000000000045
  0
CIRCLE
  5
2DD
330
1F
100
AcDbEntity
  8
0
  6
Continuous
 62
     7
100
AcDbCircle
 10
1281.2625168974
 20
805.7804750584
 30
0.0
 40
4.200000000000045
  0
CIRCLE
  5
2DE
330
1F
100
AcDbEntity
  8
0
  6
Continuous
 62
     7
100
AcDbCircle
 10
1112.4991232244
 20
805.7804750584
 30
0.0
 40
4.199999999999818
  0
CIRCLE
  5
2DF
330
1F
100
AcDbEntity
  8
0
  6
Continuous
 62
     7
100
AcDbCircle
 10
993.1653831422
 20
686.4467349762
 30
0.0
 40
4.200000000000045
  0
DIMENSION
  5
2E0
330
1F
100
AcDbEntity
  8
SLD-0_0
100
AcDbDimension
  2
_D_6
 10
1478.8808200609
 20
862.0650381397
 30
0.0
 11
1192.6814836679
 21
862.0650381397
 31
0.0
 70
   160
  1
<>
 71
     2
 42
-1.0
  3
SLDDIMSTYLE1
100
AcDbAlignedDimension
 13
914.8808200609
 23
686.566696003
 33
0.0
 14
1478.8808200609
 24
686.566696003
 34
0.0
100
AcDbRotatedDimension
  0
DIMENSION
  5
2EA
330
1F
100
AcDbEntity
  8
SLD-0_0
100
AcDbDimension
  2
_D_7
 10
883.8808200609
 20
352.0650381397
 30
0.0
 11
883.8808200609
 21
600.3927100649
 31
0.0
 70
   160
  1
<>
 71
     2
 42
-1.0
  3
SLDDIMSTYLE1
100
AcDbAlignedDimension
 13
1080.3791621976
 23
852.0650381397
 33
0.0
 14
1080.3791621976
 24
352.0650381397
 34
0.0
 50
90.0
100
AcDbRotatedDimension
  0
DIMENSION
  5
2F4
330
1F
100
AcDbEntity
  8
SLD-0_0
100
AcDbDimension
  2
_D_8
 10
1389.9330404206
 20
509.7241467957
 30
0.0
 11
1317.1477639372
 21
544.5388728248
 31
0.0
 70
   163
  1
<>
 71
     1
 42
-1.0
  3
SLDDIMSTYLE2
100
AcDbDiametricDimension
 15
1003.8285997012
 25
694.4059294836
 35
0.0
 40
0.0
  0
DIMENSION
  5
2FE
330
1F
100
AcDbEntity
  8
SLD-0_0
100
AcDbDimension
  2
_D_9
 10
1283.32523521
 20
809.4390530831
 30
0.0
 11
1235.0053534586
 21
781.9673926597
 31
0.0
 70
   163
  1
<>
 71
     1
 42
-1.0
  3
SLDDIMSTYLE3
100
AcDbDiametricDimension
 15
1279.1997985848
 25
802.1218970337
 35
0.0
 40
0.0
  0
DIMENSION
  5
30C
330
1F
100
AcDbEntity
  8
SLD-0_0
100
AcDbDimension
  2
_D_10
 10
1080.3791621976
 20
328.0650381397
 30
0.0
 11
1204.7923110781
 21
328.0650381397
 31
0.0
 70
   160
  1
<>
 71
     2
 42
-1.0
  3
SLDDIMSTYLE1
100
AcDbAlignedDimension
 13
1313.3824779242
 23
352.0650381397
 33
0.0
 14
1080.3791621976
 24
352.0650381397
 34
0.0
100
AcDbRotatedDimension
  0
DIMENSION
  5
316
330
1F
100
AcDbEntity
  8
SLD-0_0
100
AcDbDimension
  2
_D_11
 10
904.8808200609
 20
517.5633802764
 30
0.0
 11
904.8808200609
 21
600.3927100649
 31
0.0
 70
   160
  1
<>
 71
     2
 42
-1.0
  3
SLDDIMSTYLE1
100
AcDbAlignedDimension
 13
914.8808200609
 23
686.566696003
 33
0.0
 14
914.8808200609
 24
517.5633802764
 34
0.0
 50
90.0
100
AcDbRotatedDimension
  0
DIMENSION
  5
320
330
1F
100
AcDbEntity
  8
SLD-0_0
100
AcDbDimension
  2
_D_12
 10
1080.3791621976
 20
352.0650381397
 30
0.0
 11
945.5363732593
 21
408.454489778
 31
0.0
 70
   162
  1
<>
 71
     1
 42
-1.0
  3
SLDDIMSTYLE4
100
AcDb2LineAngularDimension
 13
1080.3791621976
 23
352.0650381397
 33
0.0
 14
1313.3824779242
 24
352.0650381397
 34
0.0
 15
914.8808200609
 25
517.5633802764
 35
0.0
 16
945.3461863977
 26
407.9975280836
 36
0.0
  0
DIMENSION
  5
32A
330
1F
100
AcDbEntity
  8
SLD-0_0
 62
     7
100
AcDbDimension
  2
_D_13
 10
1397.4182792414
 20
676.7693048547
 30
0.0
 11
1303.3900380513
 21
641.7418861421
 31
0.0
 70
   163
  1
<>
 71
     1
 42
-1.0
  3
SLDDIMSTYLE2
100
AcDbDiametricDimension
 15
996.3433608804
 25
527.3607714247
 35
0.0
 40
0.0
  0
DIMENSION
  5
333
330
1F
100
AcDbEntity
  8
SLD-0_0
 62
     7
100
AcDbDimension
  2
_D_14
 10
1339.259620925
 20
783.9696204473
 30
0.0
 11
1282.0336215184
 21
710.8571075502
 31
0.0
 70
   163
  1
<> 5mm Depth
 71
     1
 42
-1.0
  3
SLDDIMSTYLE5
100
AcDbDiametricDimension
 15
1054.5020191968
 25
420.1604558321
 35
0.0
 40
0.0
  0
INSERT
  5
382
330
1F
100
AcDbEntity
  8
SLD-0_0
100
AcDbBlockReference
  2
SW_CENTERMARKSYMBOL_0
 10
1281.2625168974
 20
805.7804750584
 30
0.0
  0
LINE
  5
383
330
1F
100
AcDbEntity
  8
0
  6
Continuous
 62
     7
100
AcDbLine
 10
1993.1425242235
 20
989.4258621799
 30
0.0
 11
2266.1425242235
 21
989.4258621799
 31
0.0
  0
LINE
  5
384
330
1F
100
AcDbEntity
  8
0
  6
Continuous
 62
     7
100
AcDbLine
 10
2006.6425242235
 20
894.4258621799
 30
0.0
 11
2006.6425242235
 21
854.4258621799
 31
0.0
  0
LINE
  5
385
330
1F
100
AcDbEntity
  8
0
  6
Continuous
 62
     7
100
AcDbLine
 10
1747.1425242235
 20
894.4258621799
 30
0.0
 11
1747.1425242235
 21
854.4258621799
 31
0.0
  0
ARC
  5
386
330
1F
100
AcDbEntity
  8
0
  6
Continuous
 62
     7
100
AcDbCircle
 10
2056.6425242235
 20
854.4258621799
 30
0.0
 40
50.00000000000045
100
AcDbArc
 50
180.0
 51
270.0
  0
LINE
  5
387
330
1F
100
AcDbEntity
  8
0
  6
Continuous
 62
     7
100
AcDbLine
 10
2056.6425242235
 20
804.4258621799
 30
0.0
 11
2171.1425242235
 21
804.4258621799
 31
0.0
  0
ARC
  5
388
330
1F
100
AcDbEntity
  8
0
  6
Continuous
 62
     7
100
AcDbCircle
 10
2171.1425242235
 20
854.4258621799
 30
0.0
 40
50.00000000000011
100
AcDbArc
 50
270.0
 51
0.0
  0
LINE
  5
389
330
1F
100
AcDbEntity
  8
0
  6
Continuous
 62
     7
100
AcDbLine
 10
2221.1425242235
 20
894.4258621799
 30
0.0
 11
2221.1425242235
 21
854.4258621799
 31
0.0
  0
ARC
  5
38A
330
1F
100
AcDbEntity
  8
0
  6
Continuous
 62
     7
100
AcDbCircle
 10
2171.1425242235
 20
894.4258621799
 30
0.0
 40
50.0
100
AcDbArc
 50
0.0
 51
90.0
  0
LINE
  5
38B
330
1F
100
AcDbEntity
  8
0
  6
Continuous
 62
     7
100
AcDbLine
 10
2056.6425242235
 20
944.4258621799
 30
0.0
 11
2171.1425242235
 21
944.4258621799
 31
0.0
  0
ARC
  5
38C
330
1F
100
AcDbEntity
  8
0
  6
Continuous
 62
     7
100
AcDbCircle
 10
2056.6425242235
 20
894.4258621799
 30
0.0
 40
50.00000000000045
100
AcDbArc
 50
90.0
 51
180.0
  0
ARC
  5
38D
330
1F
100
AcDbEntity
  8
0
  6
Continuous
 62
     7
100
AcDbCircle
 10
1797.1425242235
 20
854.4258621799
 30
0.0
 40
50.00000000000011
100
AcDbArc
 50
180.0
 51
270.0
  0
LINE
  5
38E
330
1F
100
AcDbEntity
  8
0
  6
Continuous
 62
     7
100
AcDbLine
 10
1911.6425242235
 20
804.4258621799
 30
0.0
 11
1797.1425242235
 21
804.4258621799
 31
0.0
  0
ARC
  5
38F
330
1F
100
AcDbEntity
  8
0
  6
Continuous
 62
     7
100
AcDbCircle
 10
1911.6425242235
 20
854.4258621799
 30
0.0
 40
50.00000000000011
100
AcDbArc
 50
270.0
 51
0.0
  0
LINE
  5
390
330
1F
100
AcDbEntity
  8
0
  6
Continuous
 62
     7
100
AcDbLine
 10
1961.6425242235
 20
894.4258621799
 30
0.0
 11
1961.6425242235
 21
854.4258621799
 31
0.0
  0
ARC
  5
391
330
1F
100
AcDbEntity
  8
0
  6
Continuous
 62
     7
100
AcDbCircle
 10
1911.6425242235
 20
894.4258621799
 30
0.0
 40
50.0
100
AcDbArc
 50
0.0
 51
90.0
  0
LINE
  5
392
330
1F
100
AcDbEntity
  8
0
  6
Continuous
 62
     7
100
AcDbLine
 10
1911.6425242235
 20
944.4258621799
 30
0.0
 11
1797.1425242235
 21
944.4258621799
 31
0.0
  0
ARC
  5
393
330
1F
100
AcDbEntity
  8
0
  6
Continuous
 62
     7
100
AcDbCircle
 10
1797.1425242235
 20
894.4258621799
 30
0.0
 40
50.0
100
AcDbArc
 50
90.0
 51
180.0
  0
LINE
  5
394
330
1F
100
AcDbEntity
  8
0
  6
Continuous
 62
     7
100
AcDbLine
 10
2266.1425242235
 20
759.4258621799
 30
0.0
 11
2266.1425242235
 21
989.4258621799
 31
0.0
  0
LINE
  5
395
330
1F
100
AcDbEntity
  8
0
  6
Continuous
 62
     7
100
AcDbLine
 10
1702.1425242235
 20
759.4258621799
 30
0.0
 11
2266.1425242235
 21
759.4258621799
 31
0.0
  0
LINE
  5
396
330
1F
100
AcDbEntity
  8
0
  6
Continuous
 62
     7
100
AcDbLine
 10
1702.1425242235
 20
759.4258621799
 30
0.0
 11
1702.1425242235
 21
989.4258621799
 31
0.0
  0
LINE
  5
397
330
1F
100
AcDbEntity
  8
0
  6
Continuous
 62
     7
100
AcDbLine
 10
1702.1425242235
 20
989.4258621799
 30
0.0
 11
1975.1425242235
 21
989.4258621799
 31
0.0
  0
LINE
  5
398
330
1F
100
AcDbEntity
  8
0
  6
Continuous
 62
     7
100
AcDbLine
 10
1975.1425242235
 20
904.4258621799
 30
0.0
 11
1975.1425242235
 21
989.4258621799
 31
0.0
  0
LINE
  5
399
330
1F
100
AcDbEntity
  8
0
  6
Continuous
 62
     7
100
AcDbLine
 10
1975.1425242235
 20
904.4258621799
 30
0.0
 11
1993.1425242235
 21
904.4258621799
 31
0.0
  0
LINE
  5
39A
330
1F
100
AcDbEntity
  8
0
  6
Continuous
 62
     7
100
AcDbLine
 10
1993.1425242235
 20
904.4258621799
 30
0.0
 11
1993.1425242235
 21
989.4258621799
 31
0.0
  0
DIMENSION
  5
39B
330
1F
100
AcDbEntity
  8
SLD-0_0
100
AcDbDimension
  2
_D_15
 10
2266.1425242235
 20
711.8798168999
 30
0.0
 11
1977.7764819736
 21
711.8798168999
 31
0.0
 70
   160
  1
<>
 71
     2
 42
-1.0
  3
SLDDIMSTYLE1
100
AcDbAlignedDimension
 13
1702.1425242235
 23
759.4258621799
 33
0.0
 14
2266.1425242235
 24
759.4258621799
 34
0.0
100
AcDbRotatedDimension
  0
DIMENSION
  5
3A5
330
1F
100
AcDbEntity
  8
SLD-0_0
100
AcDbDimension
  2
_D_16
 10
1961.6425242235
 20
735.4258621799
 30
0.0
 11
1845.4274738405
 21
735.4258621799
 31
0.0
 70
   160
  1
<>
 71
     2
 42
-1.0
  3
SLDDIMSTYLE6
100
AcDbAlignedDimension
 13
1747.1425242235
 23
854.4258621799
 33
0.0
 14
1961.6425242235
 24
854.4258621799
 34
0.0
100
AcDbRotatedDimension
  0
DIMENSION
  5
3B0
330
1F
100
AcDbEntity
  8
SLD-0_0
100
AcDbDimension
  2
_D_17
 10
1685.1425242235
 20
804.4258621799
 30
0.0
 11
1685.1425242235
 21
870.1777535688
 31
0.0
 70
   160
  1
<>
 71
     2
 42
-1.0
  3
SLDDIMSTYLE1
100
AcDbAlignedDimension
 13
1797.1425242235
 23
944.4258621799
 33
0.0
 14
1797.1425242235
 24
804.4258621799
 34
0.0
 50
90.0
100
AcDbRotatedDimension
  0
DIMENSION
  5
3BA
330
1F
100
AcDbEntity
  8
SLD-0_0
100
AcDbDimension
  2
_D_18
 10
1664.1425242235
 20
989.4258621799
 30
0.0
 11
1664.1425242235
 21
870.1777535688
 31
0.0
 70
   160
  1
<>
 71
     2
 42
-1.0
  3
SLDDIMSTYLE1
100
AcDbAlignedDimension
 13
1702.1425242235
 23
759.4258621799
 33
0.0
 14
1702.1425242235
 24
989.4258621799
 34
0.0
 50
90.0
100
AcDbRotatedDimension
  0
DIMENSION
  5
3C4
330
1F
100
AcDbEntity
  8
SLD-0_0
100
AcDbDimension
  2
_D_19
 10
1911.6425242235
 20
854.4258621799
 30
0.0
 11
1974.2712404704
 21
799.2546449748
 31
0.0
 70
   164
  1
<>
 71
     1
 42
-1.0
  3
SLDDIMSTYLE7
100
AcDbRadialDimension
 15
1949.160973359
 25
821.3749019145
 35
0.0
 40
0.0
  0
DIMENSION
  5
3CD
330
1F
100
AcDbEntity
  8
SLD-0_0
100
AcDbDimension
  2
_D_20
 10
2022.2615367592
 20
989.4258621799
 30
0.0
 11
2022.2615367592
 21
947.6317301244
 31
0.0
 70
   160
  1
<>
 71
     2
 42
-1.0
  3
SLDDIMSTYLE1
100
AcDbAlignedDimension
 13
1993.1425242235
 23
904.4258621799
 33
0.0
 14
1993.1425242235
 24
989.4258621799
 34
0.0
 50
90.0
100
AcDbRotatedDimension
  0
DIMENSION
  5
3D6
330
1F
100
AcDbEntity
  8
SLD-0_0
100
AcDbDimension
  2
_D_21
 10
1993.1425242235
 20
997.8603689586
 30
0.0
 11
1984.2557917114
 21
997.8603689586
 31
0.0
 70
   160
  1
<>
 71
     2
 42
-1.0
  3
SLDDIMSTYLE8
100
AcDbAlignedDimension
 13
1975.1425242235
 23
989.4258621799
 33
0.0
 14
1993.1425242235
 24
989.4258621799
 34
0.0
100
AcDbRotatedDimension
  0
DIMENSION
  5
3E3
330
1F
100
AcDbEntity
  8
SLD-0_0
100
AcDbDimension
  2
_D_22
 10
1702.1425242235
 20
735.4258621799
 30
0.0
 11
1723.8748020415
 21
735.4258621799
 31
0.0
 70
   160
  1
<>
 71
     2
 42
-1.0
  3
SLDDIMSTYLE1
100
AcDbAlignedDimension
 13
1747.1425242235
 23
854.4258621799
 33
0.0
 14
1702.1425242235
 24
759.4258621799
 34
0.0
100
AcDbRotatedDimension
  0
DIMENSION
  5
3ED
330
1F
100
AcDbEntity
  8
SLD-0_0
100
AcDbDimension
  2
_D_23
 10
1685.1425242235
 20
759.4258621799
 30
0.0
 11
1685.1425242235
 21
786.7279768789
 31
0.0
 70
   160
  1
<>
 71
     2
 42
-1.0
  3
SLDDIMSTYLE1
100
AcDbAlignedDimension
 13
1797.1425242235
 23
804.4258621799
 33
0.0
 14
1702.1425242235
 24
759.4258621799
 34
0.0
 50
90.0
100
AcDbRotatedDimension
  0
LINE
  5
3F7
330
1F
100
AcDbEntity
  8
0
  6
Continuous
 62
     7
100
AcDbLine
 10
2223.6197799206
 20
599.5970692684
 30
0.0
 11
2223.6197799206
 21
684.5970692684
 31
0.0
  0
LINE
  5
3F8
330
1F
100
AcDbEntity
  8
0
  6
Continuous
 62
     7
100
AcDbLine
 10
1723.6197799206
 20
684.5970692684
 30
0.0
 11
1723.6197799206
 21
599.5970692684
 31
0.0
  0
LINE
  5
3F9
330
1F
100
AcDbEntity
  8
0
  6
Continuous
 62
     7
100
AcDbLine
 10
2223.6197799206
 20
684.5970692684
 30
0.0
 11
1723.6197799206
 21
684.5970692684
 31
0.0
  0
LINE
  5
3FA
330
1F
100
AcDbEntity
  8
0
  6
Continuous
 62
     7
100
AcDbLine
 10
1723.6197799206
 20
599.5970692684
 30
0.0
 11
2223.6197799206
 21
599.5970692684
 31
0.0
  0
DIMENSION
  5
3FB
330
1F
100
AcDbEntity
  8
SLD-0_0
100
AcDbDimension
  2
_D_24
 10
1713.6197799206
 20
599.5970692684
 30
0.0
 11
1713.6197799206
 21
648.0409969586
 31
0.0
 70
   160
  1
<>
 71
     2
 42
-1.0
  3
SLDDIMSTYLE1
100
AcDbAlignedDimension
 13
1723.6197799206
 23
684.5970692684
 33
0.0
 14
1723.6197799206
 24
599.5970692684
 34
0.0
 50
90.0
100
AcDbRotatedDimension
  0
DIMENSION
  5
405
330
1F
100
AcDbEntity
  8
SLD-0_0
100
AcDbDimension
  2
_D_25
 10
2223.6197799206
 20
575.5970692684
 30
0.0
 11
1964.8387630063
 21
575.5970692684
 31
0.0
 70
   160
  1
<>
 71
     2
 42
-1.0
  3
SLDDIMSTYLE1
100
AcDbAlignedDimension
 13
1723.6197799206
 23
599.5970692684
 33
0.0
 14
2223.6197799206
 24
599.5970692684
 34
0.0
100
AcDbRotatedDimension
  0
LINE
  5
40F
330
1F
100
AcDbEntity
  8
0
  6
Continuous
 62
     7
100
AcDbLine
 10
1931.8400980536
 20
541.6172242878
 30
0.0
 11
2216.8400980536
 21
541.6172242878
 31
0.0
  0
LINE
  5
410
330
1F
100
AcDbEntity
  8
0
  6
Continuous
 62
     7
100
AcDbLine
 10
2216.8400980536
 20
541.6172242878
 30
0.0
 11
2216.8400980536
 21
523.6172242878
 31
0.0
  0
LINE
  5
411
330
1F
100
AcDbEntity
  8
0
  6
Continuous
 62
     7
100
AcDbLine
 10
2216.8400980536
 20
523.6172242878
 30
0.0
 11
1931.8400980536
 21
523.6172242878
 31
0.0
  0
LINE
  5
412
330
1F
100
AcDbEntity
  8
0
  6
Continuous
 62
     7
100
AcDbLine
 10
1931.8400980536
 20
541.6172242878
 30
0.0
 11
1931.8400980536
 21
523.6172242878
 31
0.0
  0
LINE
  5
413
330
1F
100
AcDbEntity
  8
0
  6
Continuous
 62
     7
100
AcDbLine
 10
2216.8400980536
 20
325.5672242878
 30
0.0
 11
1931.8400980536
 21
325.5672242878
 31
0.0
  0
LINE
  5
414
330
1F
100
AcDbEntity
  8
0
  6
Continuous
 62
     7
100
AcDbLine
 10
2216.8400980536
 20
523.6172242878
 30
0.0
 11
2216.8400980536
 21
325.5672242878
 31
0.0
  0
LINE
  5
415
330
1F
100
AcDbEntity
  8
0
  6
Continuous
 62
     7
100
AcDbLine
 10
1931.8400980536
 20
325.5672242878
 30
0.0
 11
1931.8400980536
 21
523.6172242878
 31
0.0
  0
LINE
  5
416
330
1F
100
AcDbEntity
  8
0
  6
Continuous
 62
     7
100
AcDbLine
 10
2216.8400980536
 20
307.5672242878
 30
0.0
 11
2216.8400980536
 21
325.5672242878
 31
0.0
  0
LINE
  5
417
330
1F
100
AcDbEntity
  8
0
  6
Continuous
 62
     7
100
AcDbLine
 10
2216.8400980536
 20
307.5672242878
 30
0.0
 11
1931.8400980536
 21
307.5672242878
 31
0.0
  0
LINE
  5
418
330
1F
100
AcDbEntity
  8
0
  6
Continuous
 62
     7
100
AcDbLine
 10
1931.8400980536
 20
307.5672242878
 30
0.0
 11
1931.8400980536
 21
325.5672242878
 31
0.0
  0
DIMENSION
  5
419
330
1F
100
AcDbEntity
  8
SLD-0_0
100
AcDbDimension
  2
_D_26
 10
1931.8400980536
 20
283.5672242878
 30
0.0
 11
2071.150542908
 21
283.5672242878
 31
0.0
 70
   160
  1
<>
 71
     2
 42
-1.0
  3
SLDDIMSTYLE1
100
AcDbAlignedDimension
 13
2216.8400980536
 23
307.5672242878
 33
0.0
 14
1931.8400980536
 24
307.5672242878
 34
0.0
100
AcDbRotatedDimension
  0
LINE
  5
423
330
1F
100
AcDbEntity
  8
0
  6
Continuous
 62
     7
100
AcDbLine
 10
1794.0362964322
 20
307.5672242878
 30
0.0
 11
1776.0362964322
 21
325.5672242878
 31
0.0
  0
LINE
  5
424
330
1F
100
AcDbEntity
  8
0
  6
Continuous
 62
     7
100
AcDbLine
 10
1776.0362964322
 20
523.6172242878
 30
0.0
 11
1776.0362964322
 21
325.5672242878
 31
0.0
  0
LINE
  5
425
330
1F
100
AcDbEntity
  8
0
  6
Continuous
 62
     7
100
AcDbLine
 10
1794.0362964322
 20
541.6172242878
 30
0.0
 11
1776.0362964322
 21
523.6172242878
 31
0.0
  0
LINE
  5
426
330
1F
100
AcDbEntity
  8
0
  6
Continuous
 62
     7
100
AcDbLine
 10
1794.0362964322
 20
541.6172242878
 30
0.0
 11
1794.0362964322
 21
307.5672242878
 31
0.0
  0
INSERT
  5
430
330
1F
100
AcDbEntity
  8
CAJETIN
100
AcDbBlockReference
  2
SW_ANGULAR_DIMENSION_0
 10
1747.0270610567
 20
535.5190374006
 30
0.0
  0
DIMENSION
  5
431
330
1F
100
AcDbEntity
  8
CAJETIN
100
AcDbDimension
  2
_D_27
 10
1818.0362964322
 20
307.5672242878
 30
0.0
 11
1818.0362964322
 21
416.6595749589
 31
0.0
 70
   160
  1
<>
 71
     2
 42
-1.0
  3
SLDDIMSTYLE9
100
AcDbAlignedDimension
 13
1794.0362964322
 23
541.6172242878
 33
0.0
 14
1794.0362964322
 24
307.5672242878
 34
0.0
 50
90.0
100
AcDbRotatedDimension
  0
DIMENSION
  5
43C
330
1F
100
AcDbEntity
  8
CAJETIN
100
AcDbDimension
  2
_D_28
 10
1794.0362964322
 20
284.5477066791
 30
0.0
 11
1784.4243363021
 21
284.5477066791
 31
0.0
 70
   160
  1
<>
 71
     2
 42
-1.0
  3
SLDDIMSTYLE8
100
AcDbAlignedDimension
 13
1776.0362964322
 23
325.5672242878
 33
0.0
 14
1794.0362964322
 24
307.5672242878
 34
0.0
100
AcDbRotatedDimension
  0
ENDSEC
  0
SECTION
  2
OBJECTS
  0
DICTIONARY
  5
C
330
0
100
AcDbDictionary
281
     1
  3
ACAD_GROUP
350
D
  3
ACAD_LAYOUT
350
1A
  3
ACAD_MLINESTYLE
350
17
  3
ACAD_PLOTSETTINGS
350
19
  3
ACAD_PLOTSTYLENAME
350
E
  3
ACAD_SCALELIST
350
47
  0
DICTIONARY
  5
D
102
{ACAD_REACTORS
330
C
102
}
330
C
100
AcDbDictionary
281
     1
  0
DICTIONARY
  5
1A
102
{ACAD_REACTORS
330
C
102
}
330
C
100
AcDbDictionary
281
     1
  3
Layout1
350
1E
  3
Layout2
350
26
  3
Model
350
22
  0
DICTIONARY
  5
17
102
{ACAD_REACTORS
330
C
102
}
330
C
100
AcDbDictionary
281
     1
  3
Standard
350
18
  0
DICTIONARY
  5
19
102
{ACAD_REACTORS
330
C
102
}
330
C
100
AcDbDictionary
281
     1
  0
ACDBDICTIONARYWDFLT
  5
E
102
{ACAD_REACTORS
330
C
102
}
330
C
100
AcDbDictionary
281
     1
  3
Normal
350
F
100
AcDbDictionaryWithDefault
340
F
  0
DICTIONARY
  5
47
102
{ACAD_REACTORS
330
C
102
}
330
C
100
AcDbDictionary
281
     1
  3
A0
350
48
  3
A1
350
49
  3
A2
350
4A
  3
A3
350
4B
  3
A4
350
4C
  3
A5
350
4D
  3
A6
350
4E
  3
A7
350
4F
  3
A8
350
50
  3
A9
350
51
  3
B0
350
52
  3
B1
350
53
  3
B2
350
54
  3
B3
350
55
  3
B4
350
56
  3
B5
350
57
  3
B6
350
58
  3
B7
350
59
  3
B8
350
5A
  3
B9
350
5B
  3
C0
350
5C
  3
C1
350
5D
  3
C2
350
5E
  3
C3
350
5F
  3
C4
350
60
  3
C5
350
61
  3
C6
350
62
  3
C7
350
63
  3
C8
350
64
  3
C9
350
65
  3
D0
350
66
  3
D1
350
67
  3
D2
350
68
  0
LAYOUT
  5
1E
102
{ACAD_REACTORS
330
1A
102
}
330
1A
100
AcDbPlotSettings
  1

  2
none_device
  4

  6

 40
0.0
 41
0.0
 42
0.0
 43
0.0
 44
0.0
 45
0.0
 46
0.0
 47
0.0
 48
0.0
 49
0.0
140
0.0
141
0.0
142
1.0
143
1.0
 70
   688
 72
     1
 73
     0
 74
     5
  7

 75
    16
147
1.0
148
0.0
149
0.0
100
AcDbLayout
  1
Layout1
 70
     1
 71
     1
 10
0.0
 20
0.0
 11
420.0
 21
297.0
 12
0.0
 22
0.0
 32
0.0
 14
1.0000000000E+20
 24
1.0000000000E+20
 34
1.0000000000E+20
 15
-1.0000000000E+20
 25
-1.0000000000E+20
 35
-1.0000000000E+20
146
0.0
 13
0.0
 23
0.0
 33
0.0
 16
1.0
 26
0.0
 36
0.0
 17
0.0
 27
1.0
 37
0.0
 76
     0
330
1B
  0
LAYOUT
  5
26
102
{ACAD_REACTORS
330
1A
102
}
330
1A
100
AcDbPlotSettings
  1

  2
none_device
  4

  6

 40
0.0
 41
0.0
 42
0.0
 43
0.0
 44
0.0
 45
0.0
 46
0.0
 47
0.0
 48
0.0
 49
0.0
140
0.0
141
0.0
142
1.0
143
1.0
 70
   688
 72
     1
 73
     0
 74
     5
  7

 75
    16
147
1.0
148
0.0
149
0.0
100
AcDbLayout
  1
Layout2
 70
     1
 71
     2
 10
0.0
 20
0.0
 11
0.0
 21
0.0
 12
0.0
 22
0.0
 32
0.0
 14
0.0
 24
0.0
 34
0.0
 15
0.0
 25
0.0
 35
0.0
146
0.0
 13
0.0
 23
0.0
 33
0.0
 16
1.0
 26
0.0
 36
0.0
 17
0.0
 27
1.0
 37
0.0
 76
     0
330
23
  0
LAYOUT
  5
22
102
{ACAD_REACTORS
330
1A
102
}
330
1A
100
AcDbPlotSettings
  1

  2
none_device
  4
Letter_(8.50_x_11.00_Inches)
  6

 40
6.35
 41
6.35
 42
6.35000508
 43
6.35000508
 44
215.9
 45
279.4
 46
0.0
 47
0.0
 48
0.0
 49
0.0
140
0.0
141
0.0
142
1.0
143
1.0
 70
  1712
 72
     1
 73
     0
 74
     0
  7

 75
     0
147
1.0
148
0.0
149
0.0
100
AcDbLayout
  1
Model
 70
     1
 71
     0
 10
0.0
 20
0.0
 11
2378.0
 21
1682.0
 12
0.0
 22
0.0
 32
0.0
 14
0.0
 24
0.0
 34
0.0
 15
2378.0
 25
1682.0
 35
0.0
146
0.0
 13
0.0
 23
0.0
 33
0.0
 16
1.0
 26
0.0
 36
0.0
 17
0.0
 27
1.0
 37
0.0
 76
     0
330
1F
331
29
  0
MLINESTYLE
  5
18
102
{ACAD_REACTORS
330
17
102
}
330
17
100
AcDbMlineStyle
  2
Standard
 70
     0
  3

 62
   256
 51
90.0
 52
90.0
 71
     2
 49
0.5
 62
   256
  6
BYLAYER
 49
-0.5
 62
   256
  6
BYLAYER
  0
ACDBPLACEHOLDER
  5
F
102
{ACAD_REACTORS
330
E
102
}
330
E
  0
SCALE
  5
48
102
{ACAD_REACTORS
330
47
102
}
330
47
100
AcDbScale
 70
     0
300
1:1
140
1.0
141
1.0
290
     1
  0
SCALE
  5
49
102
{ACAD_REACTORS
330
47
102
}
330
47
100
AcDbScale
 70
     0
300
1:2
140
1.0
141
2.0
290
     0
  0
SCALE
  5
4A
102
{ACAD_REACTORS
330
47
102
}
330
47
100
AcDbScale
 70
     0
300
1:4
140
1.0
141
4.0
290
     0
  0
SCALE
  5
4B
102
{ACAD_REACTORS
330
47
102
}
330
47
100
AcDbScale
 70
     0
300
1:5
140
1.0
141
5.0
290
     0
  0
SCALE
  5
4C
102
{ACAD_REACTORS
330
47
102
}
330
47
100
AcDbScale
 70
     0
300
1:8
140
1.0
141
8.0
290
     0
  0
SCALE
  5
4D
102
{ACAD_REACTORS
330
47
102
}
330
47
100
AcDbScale
 70
     0
300
1:10
140
1.0
141
10.0
290
     0
  0
SCALE
  5
4E
102
{ACAD_REACTORS
330
47
102
}
330
47
100
AcDbScale
 70
     0
300
1:16
140
1.0
141
16.0
290
     0
  0
SCALE
  5
4F
102
{ACAD_REACTORS
330
47
102
}
330
47
100
AcDbScale
 70
     0
300
1:20
140
1.0
141
20.0
290
     0
  0
SCALE
  5
50
102
{ACAD_REACTORS
330
47
102
}
330
47
100
AcDbScale
 70
     0
300
1:30
140
1.0
141
30.0
290
     0
  0
SCALE
  5
51
102
{ACAD_REACTORS
330
47
102
}
330
47
100
AcDbScale
 70
     0
300
1:40
140
1.0
141
40.0
290
     0
  0
SCALE
  5
52
102
{ACAD_REACTORS
330
47
102
}
330
47
100
AcDbScale
 70
     0
300
1:50
140
1.0
141
50.0
290
     0
  0
SCALE
  5
53
102
{ACAD_REACTORS
330
47
102
}
330
47
100
AcDbScale
 70
     0
300
1:100
140
1.0
141
100.0
290
     0
  0
SCALE
  5
54
102
{ACAD_REACTORS
330
47
102
}
330
47
100
AcDbScale
 70
     0
300
2:1
140
2.0
141
1.0
290
     0
  0
SCALE
  5
55
102
{ACAD_REACTORS
330
47
102
}
330
47
100
AcDbScale
 70
     0
300
4:1
140
4.0
141
1.0
290
     0
  0
SCALE
  5
56
102
{ACAD_REACTORS
330
47
102
}
330
47
100
AcDbScale
 70
     0
300
8:1
140
8.0
141
1.0
290
     0
  0
SCALE
  5
57
102
{ACAD_REACTORS
330
47
102
}
330
47
100
AcDbScale
 70
     0
300
10:1
140
10.0
141
1.0
290
     0
  0
SCALE
  5
58
102
{ACAD_REACTORS
330
47
102
}
330
47
100
AcDbScale
 70
     0
300
100:1
140
100.0
141
1.0
290
     0
  0
SCALE
  5
59
102
{ACAD_REACTORS
330
47
102
}
330
47
100
AcDbScale
 70
     0
300
1/128" = 1'-0"
140
0.0078125
141
12.0
290
     0
  0
SCALE
  5
5A
102
{ACAD_REACTORS
330
47
102
}
330
47
100
AcDbScale
 70
     0
300
1/64" = 1'-0"
140
0.015625
141
12.0
290
     0
  0
SCALE
  5
5B
102
{ACAD_REACTORS
330
47
102
}
330
47
100
AcDbScale
 70
     0
300
1/32" = 1'-0"
140
0.03125
141
12.0
290
     0
  0
SCALE
  5
5C
102
{ACAD_REACTORS
330
47
102
}
330
47
100
AcDbScale
 70
     0
300
1/16" = 1'-0"
140
0.0625
141
12.0
290
     0
  0
SCALE
  5
5D
102
{ACAD_REACTORS
330
47
102
}
330
47
100
AcDbScale
 70
     0
300
3/32" = 1'-0"
140
0.09375
141
12.0
290
     0
  0
SCALE
  5
5E
102
{ACAD_REACTORS
330
47
102
}
330
47
100
AcDbScale
 70
     0
300
1/8" = 1'-0"
140
0.125
141
12.0
290
     0
  0
SCALE
  5
5F
102
{ACAD_REACTORS
330
47
102
}
330
47
100
AcDbScale
 70
     0
300
3/16" = 1'-0"
140
0.1875
141
12.0
290
     0
  0
SCALE
  5
60
102
{ACAD_REACTORS
330
47
102
}
330
47
100
AcDbScale
 70
     0
300
1/4" = 1'-0"
140
0.25
141
12.0
290
     0
  0
SCALE
  5
61
102
{ACAD_REACTORS
330
47
102
}
330
47
100
AcDbScale
 70
     0
300
3/8" = 1'-0"
140
0.375
141
12.0
290
     0
  0
SCALE
  5
62
102
{ACAD_REACTORS
330
47
102
}
330
47
100
AcDbScale
 70
     0
300
1/2" = 1'-0"
140
0.5
141
12.0
290
     0
  0
SCALE
  5
63
102
{ACAD_REACTORS
330
47
102
}
330
47
100
AcDbScale
 70
     0
300
3/4" = 1'-0"
140
0.75
141
12.0
290
     0
  0
SCALE
  5
64
102
{ACAD_REACTORS
330
47
102
}
330
47
100
AcDbScale
 70
     0
300
1" = 1'-0"
140
1.0
141
12.0
290
     0
  0
SCALE
  5
65
102
{ACAD_REACTORS
330
47
102
}
330
47
100
AcDbScale
 70
     0
300
1-1/2" = 1'-0"
140
1.5
141
12.0
290
     0
  0
SCALE
  5
66
102
{ACAD_REACTORS
330
47
102
}
330
47
100
AcDbScale
 70
     0
300
3" = 1'-0"
140
3.0
141
12.0
290
     0
  0
SCALE
  5
67
102
{ACAD_REACTORS
330
47
102
}
330
47
100
AcDbScale
 70
     0
300
6" = 1'-0"
140
6.0
141
12.0
290
     0
  0
SCALE
  5
68
102
{ACAD_REACTORS
330
47
102
}
330
47
100
AcDbScale
 70
     0
300
1'-0" = 1'-0"
140
12.0
141
12.0
290
     0
  0
ENDSEC
  0
EOF
