  0
SECTION
  2
HEADER
  9
$ACADVER
  1
AC1015
  9
$ACADMAINTVER
 70
     6
  9
$DWGCODEPAGE
  3
ANSI_1252
  9
$INSBASE
 10
0.0
 20
0.0
 30
0.0
  9
$EXTMIN
 10
0.0
 20
0.0
 30
0.0
  9
$EXTMAX
 10
3000.0
 20
2000.0
 30
0.0
  9
$LIMMIN
 10
0.0
 20
0.0
  9
$LIMMAX
 10
3000.0
 20
2000.0
  9
$ORTHOMODE
 70
     0
  9
$REGENMODE
 70
     1
  9
$FILLMODE
 70
     1
  9
$QTEXTMODE
 70
     0
  9
$MIRRTEXT
 70
     1
  9
$LTSCALE
 40
1.0
  9
$ATTMODE
 70
     1
  9
$TEXTSIZE
 40
2.5
  9
$TRACEWID
 40
1.0
  9
$TEXTSTYLE
  7
Standard
  9
$CLAYER
  8
0
  9
$CELTYPE
  6
ByLayer
  9
$CECOLOR
 62
   256
  9
$CELTSCALE
 40
1.0
  9
$DISPSILH
 70
     0
  9
$DIMSCALE
 40
1.0
  9
$DIMASZ
 40
18.4918945313
  9
$DIMEXO
 40
1.0
  9
$DIMDLI
 40
3.75
  9
$DIMRND
 40
0.0
  9
$DIMDLE
 40
0.0
  9
$DIMEXE
 40
1.0
  9
$DIMTP
 40
0.0
  9
$DIMTM
 40
0.0
  9
$DIMTXT
 40
16.9333333333
  9
$DIMCEN
 40
2.5
  9
$DIMTSZ
 40
0.0
  9
$DIMTOL
 70
     0
  9
$DIMLIM
 70
     0
  9
$DIMTIH
 70
     1
  9
$DIMTOH
 70
     1
  9
$DIMSE1
 70
     0
  9
$DIMSE2
 70
     0
  9
$DIMTAD
 70
     1
  9
$DIMZIN
 70
     0
  9
$DIMBLK
  1

  9
$DIMASO
 70
     1
  9
$DIMSHO
 70
     1
  9
$DIMPOST
  1

  9
$DIMAPOST
  1

  9
$DIMALT
 70
     0
  9
$DIMALTD
 70
     3
  9
$DIMALTF
 40
0.0393700787
  9
$DIMLFAC
 40
1.0
  9
$DIMTOFL
 70
     1
  9
$DIMTVP
 40
0.0
  9
$DIMTIX
 70
     0
  9
$DIMSOXD
 70
     0
  9
$DIMSAH
 70
     0
  9
$DIMBLK1
  1

  9
$DIMBLK2
  1

  9
$DIMSTYLE
  2
ISO-25
  9
$DIMCLRD
 70
     0
  9
$DIMCLRE
 70
     0
  9
$DIMCLRT
 70
     0
  9
$DIMTFAC
 40
1.0
  9
$DIMGAP
 40
1.524
  9
$DIMJUST
 70
     0
  9
$DIMSD1
 70
     0
  9
$DIMSD2
 70
     0
  9
$DIMTOLJ
 70
     0
  9
$DIMTZIN
 70
     0
  9
$DIMALTZ
 70
     0
  9
$DIMALTTZ
 70
     0
  9
$DIMUPT
 70
     0
  9
$DIMDEC
 70
     2
  9
$DIMTDEC
 70
     2
  9
$DIMALTU
 70
     2
  9
$DIMALTTD
 70
     3
  9
$DIMTXSTY
  7
Standard
  9
$DIMAUNIT
 70
     0
  9
$DIMADEC
 70
     2
  9
$DIMALTRND
 40
0.0
  9
$DIMAZIN
 70
     0
  9
$DIMDSEP
 70
    44
  9
$DIMATFIT
 70
     3
  9
$DIMFRAC
 70
     0
  9
$DIMLDRBLK
  1

  9
$DIMLUNIT
 70
     2
  9
$DIMLWD
 70
    -2
  9
$DIMLWE
 70
    -2
  9
$DIMTMOVE
 70
     0
  9
$LUNITS
 70
     2
  9
$LUPREC
 70
     2
  9
$SKETCHINC
 40
1.0
  9
$FILLETRAD
 40
10.0
  9
$AUNITS
 70
     0
  9
$AUPREC
 70
     2
  9
$MENU
  1
.
  9
$ELEVATION
 40
0.0
  9
$PELEVATION
 40
0.0
  9
$THICKNESS
 40
0.0
  9
$LIMCHECK
 70
     0
  9
$CHAMFERA
 40
0.0
  9
$CHAMFERB
 40
0.0
  9
$CHAMFERC
 40
0.0
  9
$CHAMFERD
 40
0.0
  9
$SKPOLY
 70
     0
  9
$TDCREATE
 40
2459254.441559271
  9
$TDUCREATE
 40
2459254.399892604
  9
$TDUPDATE
 40
2459254.441590058
  9
$TDUUPDATE
 40
2459254.399923391
  9
$TDINDWG
 40
0.0000000116
  9
$TDUSRTIMER
 40
0.0000000116
  9
$USRTIMER
 70
     1
  9
$ANGBASE
 50
0.0
  9
$ANGDIR
 70
     0
  9
$PDMODE
 70
     0
  9
$PDSIZE
 40
-1.0
  9
$PLINEWID
 40
0.0
  9
$SPLFRAME
 70
     0
  9
$SPLINETYPE
 70
     6
  9
$SPLINESEGS
 70
     8
  9
$HANDSEED
  5
42C
  9
$SURFTAB1
 70
     6
  9
$SURFTAB2
 70
     6
  9
$SURFTYPE
 70
     6
  9
$SURFU
 70
     6
  9
$SURFV
 70
     6
  9
$UCSBASE
  2

  9
$UCSNAME
  2

  9
$UCSORG
 10
0.0
 20
0.0
 30
0.0
  9
$UCSXDIR
 10
1.0
 20
0.0
 30
0.0
  9
$UCSYDIR
 10
0.0
 20
1.0
 30
0.0
  9
$UCSORTHOREF
  2

  9
$UCSORTHOVIEW
 70
     0
  9
$UCSORGTOP
 10
0.0
 20
0.0
 30
0.0
  9
$UCSORGBOTTOM
 10
0.0
 20
0.0
 30
0.0
  9
$UCSORGLEFT
 10
0.0
 20
0.0
 30
0.0
  9
$UCSORGRIGHT
 10
0.0
 20
0.0
 30
0.0
  9
$UCSORGFRONT
 10
0.0
 20
0.0
 30
0.0
  9
$UCSORGBACK
 10
0.0
 20
0.0
 30
0.0
  9
$PUCSBASE
  2

  9
$PUCSNAME
  2

  9
$PUCSORG
 10
0.0
 20
0.0
 30
0.0
  9
$PUCSXDIR
 10
1.0
 20
0.0
 30
0.0
  9
$PUCSYDIR
 10
0.0
 20
1.0
 30
0.0
  9
$PUCSORTHOREF
  2

  9
$PUCSORTHOVIEW
 70
     0
  9
$PUCSORGTOP
 10
0.0
 20
0.0
 30
0.0
  9
$PUCSORGBOTTOM
 10
0.0
 20
0.0
 30
0.0
  9
$PUCSORGLEFT
 10
0.0
 20
0.0
 30
0.0
  9
$PUCSORGRIGHT
 10
0.0
 20
0.0
 30
0.0
  9
$PUCSORGFRONT
 10
0.0
 20
0.0
 30
0.0
  9
$PUCSORGBACK
 10
0.0
 20
0.0
 30
0.0
  9
$USERI1
 70
     0
  9
$USERI2
 70
     0
  9
$USERI3
 70
     0
  9
$USERI4
 70
     0
  9
$USERI5
 70
     0
  9
$USERR1
 40
0.0
  9
$USERR2
 40
0.0
  9
$USERR3
 40
0.0
  9
$USERR4
 40
0.0
  9
$USERR5
 40
0.0
  9
$WORLDVIEW
 70
     1
  9
$SHADEDGE
 70
     3
  9
$SHADEDIF
 70
    70
  9
$TILEMODE
 70
     1
  9
$MAXACTVP
 70
    64
  9
$PINSBASE
 10
0.0
 20
0.0
 30
0.0
  9
$PLIMCHECK
 70
     0
  9
$PEXTMIN
 10
1.0000000000E+20
 20
1.0000000000E+20
 30
1.0000000000E+20
  9
$PEXTMAX
 10
-1.0000000000E+20
 20
-1.0000000000E+20
 30
-1.0000000000E+20
  9
$PLIMMIN
 10
0.0
 20
0.0
  9
$PLIMMAX
 10
420.0
 20
297.0
  9
$UNITMODE
 70
     0
  9
$VISRETAIN
 70
     1
  9
$PLINEGEN
 70
     0
  9
$PSLTSCALE
 70
     1
  9
$TREEDEPTH
 70
  3020
  9
$CMLSTYLE
  2
Standard
  9
$CMLJUST
 70
     0
  9
$CMLSCALE
 40
20.0
  9
$PROXYGRAPHICS
 70
     1
  9
$MEASUREMENT
 70
     1
  9
$CELWEIGHT
370
    -1
  9
$ENDCAPS
280
     0
  9
$JOINSTYLE
280
     0
  9
$LWDISPLAY
290
     1
  9
$INSUNITS
 70
     4
  9
$HYPERLINKBASE
  1

  9
$STYLESHEET
  1

  9
$XEDIT
290
     1
  9
$CEPSNTYPE
380
     0
  9
$PSTYLEMODE
290
     1
  9
$FINGERPRINTGUID
  2
{98621C5B-3A26-4C41-ABF1-D3EDF748682C}
  9
$VERSIONGUID
  2
{FAEB1C32-E019-11D5-929B-00C0DF256EC4}
  9
$EXTNAMES
290
     1
  9
$PSVPSCALE
 40
0.0
  9
$OLESTARTUP
290
     0
  0
ENDSEC
  0
SECTION
  2
CLASSES
  0
CLASS
  1
ACDBDICTIONARYWDFLT
  2
AcDbDictionaryWithDefault
  3
ObjectDBX Classes
 90
        0
280
     0
281
     0
  0
CLASS
  1
VISUALSTYLE
  2
AcDbVisualStyle
  3
ObjectDBX Classes
 90
     4095
280
     0
281
     0
  0
CLASS
  1
MATERIAL
  2
AcDbMaterial
  3
ObjectDBX Classes
 90
     1153
280
     0
281
     0
  0
CLASS
  1
SCALE
  2
AcDbScale
  3
ObjectDBX Classes
 90
     1153
280
     0
281
     0
  0
CLASS
  1
TABLESTYLE
  2
AcDbTableStyle
  3
ObjectDBX Classes
 90
     4095
280
     0
281
     0
  0
CLASS
  1
MLEADERSTYLE
  2
AcDbMLeaderStyle
  3
ACDB_MLEADERSTYLE_CLASS
 90
     4095
280
     0
281
     0
  0
CLASS
  1
SUN
  2
AcDbSun
  3
SCENEOE
 90
     1153
280
     0
281
     0
  0
CLASS
  1
ACDBPLACEHOLDER
  2
AcDbPlaceHolder
  3
ObjectDBX Classes
 90
        0
280
     0
281
     0
  0
CLASS
  1
LAYOUT
  2
AcDbLayout
  3
ObjectDBX Classes
 90
        0
280
     0
281
     0
  0
ENDSEC
  0
SECTION
  2
TABLES
  0
TABLE
  2
VPORT
  5
8
330
0
100
AcDbSymbolTable
 70
     1
  0
VPORT
  5
29
330
8
100
AcDbSymbolTableRecord
100
AcDbViewportTableRecord
  2
*Active
 70
     0
 10
0.0
 20
0.0
 11
1.0
 21
1.0
 12
1500.0
 22
1000.0
 13
0.0
 23
0.0
 14
10.0
 24
10.0
 15
10.0
 25
10.0
 16
0.0
 26
0.0
 36
1.0
 17
0.0
 27
0.0
 37
0.0
 40
2000.0
 41
1.5
 42
50.0
 43
0.0
 44
0.0
 50
0.0
 51
0.0
 71
     0
 72
  2000
 73
     1
 74
     3
 75
     0
 76
     0
 77
     0
 78
     0
281
     0
 65
     1
110
0.0
120
0.0
130
0.0
111
1.0
121
0.0
131
0.0
112
0.0
122
1.0
132
0.0
 79
     0
146
0.0
  0
ENDTAB
  0
TABLE
  2
LTYPE
  5
5
330
0
100
AcDbSymbolTable
 70
     6
  0
LTYPE
  5
14
330
5
100
AcDbSymbolTableRecord
100
AcDbLinetypeTableRecord
  2
ByBlock
 70
     0
  3

 72
    65
 73
     0
 40
0.0
  0
LTYPE
  5
15
330
5
100
AcDbSymbolTableRecord
100
AcDbLinetypeTableRecord
  2
ByLayer
 70
     0
  3

 72
    65
 73
     0
 40
0.0
  0
LTYPE
  5
16
330
5
100
AcDbSymbolTableRecord
100
AcDbLinetypeTableRecord
  2
Continuous
 70
     0
  3
Solid line
 72
    65
 73
     0
 40
0.0
  0
LTYPE
  5
6E
330
5
100
AcDbSymbolTableRecord
100
AcDbLinetypeTableRecord
  2
HIDDEN
 70
     0
  3
Hidden __ __ __ __ __ __ __ __ __ __ __ __ __ __
 72
    65
 73
     2
 40
1.905
 49
1.27
 74
     0
 49
-0.635
 74
     0
  0
LTYPE
  5
6F
330
5
100
AcDbSymbolTableRecord
100
AcDbLinetypeTableRecord
  2
PHANTOM
 70
     0
  3
Phantom ______  __  __  ______  __  __  ______
 72
    65
 73
     6
 40
12.7
 49
6.35
 74
     0
 49
-1.27
 74
     0
 49
1.27
 74
     0
 49
-1.27
 74
     0
 49
1.27
 74
     0
 49
-1.27
 74
     0
  0
LTYPE
  5
70
330
5
100
AcDbSymbolTableRecord
100
AcDbLinetypeTableRecord
  2
CENTER
 70
     0
  3
Center ____ _ ____ _ ____ _ ____ _ ____ _ ____
 72
    65
 73
     4
 40
10.16
 49
6.35
 74
     0
 49
-1.27
 74
     0
 49
1.27
 74
     0
 49
-1.27
 74
     0
  0
LTYPE
  5
71
330
5
100
AcDbSymbolTableRecord
100
AcDbLinetypeTableRecord
  2
CENTERX2
 70
     0
  3
Center (2x) ________  __  ________  __  _____
 72
    65
 73
     4
 40
20.32
 49
12.7
 74
     0
 49
-2.54
 74
     0
 49
2.54
 74
     0
 49
-2.54
 74
     0
  0
LTYPE
  5
72
330
5
100
AcDbSymbolTableRecord
100
AcDbLinetypeTableRecord
  2
DOT2
 70
     0
  3
Dot (.5x) ........................................
 72
    65
 73
     2
 40
0.635
 49
0.0
 74
     0
 49
-0.635
 74
     0
  0
ENDTAB
  0
TABLE
  2
LAYER
  5
2
330
0
100
AcDbSymbolTable
 70
     8
  0
LAYER
  5
10
330
2
100
AcDbSymbolTableRecord
100
AcDbLayerTableRecord
  2
0
 70
     0
 62
     7
  6
Continuous
370
    -3
390
F
  0
LAYER
  5
73
330
2
100
AcDbSymbolTableRecord
100
AcDbLayerTableRecord
  2
SLD-0_0
 70
     0
 62
   179
  6
Continuous
370
    -3
390
F
  0
LAYER
  5
74
330
2
100
AcDbSymbolTableRecord
100
AcDbLayerTableRecord
  2
SLD-0
 70
     0
 62
   179
  6
Continuous
370
    -3
390
F
  0
LAYER
  5
75
330
2
100
AcDbSymbolTableRecord
100
AcDbLayerTableRecord
  2
PREDETERMINADO
 70
     0
 62
   179
  6
Continuous
370
    -3
390
F
  0
LAYER
  5
76
330
2
100
AcDbSymbolTableRecord
100
AcDbLayerTableRecord
  2
CAJETIN
 70
     0
 62
   179
  6
Continuous
370
    -3
390
F
  0
LAYER
  5
77
330
2
100
AcDbSymbolTableRecord
100
AcDbLayerTableRecord
  2
FORMATO
 70
     0
 62
   179
  6
Continuous
370
    -3
390
F
  0
LAYER
  5
78
330
2
100
AcDbSymbolTableRecord
100
AcDbLayerTableRecord
  2
NONPLOT
 70
     0
 62
    -1
  6
DOT2
290
     0
370
    -3
390
F
  0
LAYER
  5
79
330
2
100
AcDbSymbolTableRecord
100
AcDbLayerTableRecord
  2
TEXTOS
 70
     0
 62
   142
  6
Continuous
370
    -3
390
F
  0
ENDTAB
  0
TABLE
  2
STYLE
  5
3
330
0
100
AcDbSymbolTable
 70
     5
  0
STYLE
  5
11
330
3
100
AcDbSymbolTableRecord
100
AcDbTextStyleTableRecord
  2
Standard
 70
     0
 40
0.0
 41
1.0
 50
0.0
 71
     0
 42
2.5
  3
txt
  4

  0
STYLE
  5
CB
330
3
100
AcDbSymbolTableRecord
100
AcDbTextStyleTableRecord
  2
SLDTEXTSTYLE0
 70
     0
 40
0.0
 41
0.605
 50
0.0
 71
     0
 42
2.5
  3
TXT
  4

  0
STYLE
  5
D1
330
3
100
AcDbSymbolTableRecord
100
AcDbTextStyleTableRecord
  2
SLDTEXTSTYLE1
 70
     0
 40
0.0
 41
0.5636394322
 50
0.0
 71
     0
 42
2.5
  3
TXT
  4

  0
STYLE
  5
10A
330
3
100
AcDbSymbolTableRecord
100
AcDbTextStyleTableRecord
  2
SLDTEXTSTYLE2
 70
     0
 40
0.0
 41
0.575
 50
0.0
 71
     0
 42
2.5
  3
TXT
  4

  0
STYLE
  5
11D
330
3
100
AcDbSymbolTableRecord
100
AcDbTextStyleTableRecord
  2
SLDTEXTSTYLE3
 70
     0
 40
0.0
 41
0.5726923077
 50
0.0
 71
     0
 42
2.5
  3
TXT
  4

  0
ENDTAB
  0
TABLE
  2
VIEW
  5
6
330
0
100
AcDbSymbolTable
 70
     0
  0
ENDTAB
  0
TABLE
  2
UCS
  5
7
330
0
100
AcDbSymbolTable
 70
     0
  0
ENDTAB
  0
TABLE
  2
APPID
  5
9
330
0
100
AcDbSymbolTable
 70
     1
  0
APPID
  5
12
330
9
100
AcDbSymbolTableRecord
100
AcDbRegAppTableRecord
  2
ACAD
 70
     0
  0
ENDTAB
  0
TABLE
  2
DIMSTYLE
  5
A
330
0
100
AcDbSymbolTable
 70
    10
100
AcDbDimStyleTable
  0
DIMSTYLE
105
27
330
A
100
AcDbSymbolTableRecord
100
AcDbDimStyleTableRecord
  2
ISO-25
 70
     0
 41
2.5
 42
0.625
 43
3.75
 44
1.25
 73
     0
 74
     0
 77
     1
 78
     8
140
2.5
141
2.5
143
0.0393700787
147
0.625
171
     3
172
     1
178
     0
271
     2
272
     2
274
     3
278
    44
283
     0
284
     8
340
11
  0
DIMSTYLE
105
1F5
330
A
100
AcDbSymbolTableRecord
100
AcDbDimStyleTableRecord
  2
SLDDIMSTYLE0
 70
     0
 41
5.6898137019
 44
0.0
 45
0.000000001
146
5.6898137019
147
0.0
173
     1
178
     0
271
     0
272
     0
276
     2
340
11
341
1F6
343
1F6
344
1F6
  0
DIMSTYLE
105
266
102
{ACAD_REACTORS
330
265
330
270
330
27E
330
288
330
296
330
2A0
330
2BC
330
2C6
330
2E8
330
2F2
330
366
330
388
330
392
330
39C
330
3A6
330
3B9
330
3F1
102
}
330
A
100
AcDbSymbolTableRecord
100
AcDbDimStyleTableRecord
  2
SLDDIMSTYLE1
 70
     0
 41
18.4918945313
 44
0.0
 45
0.000000001
 73
     0
 74
     0
 77
     1
 78
    12
 79
     3
140
12.3279296875
147
3.0819824219
173
     1
178
     0
271
     2
272
     2
276
     2
284
    12
340
CB
  0
DIMSTYLE
105
2D1
102
{ACAD_REACTORS
330
2D0
102
}
330
A
100
AcDbSymbolTableRecord
100
AcDbDimStyleTableRecord
  2
SLDDIMSTYLE2
 70
     0
 41
18.4918945313
 44
0.0
 45
0.000000001
 73
     0
 74
     0
 77
     1
 78
    12
 79
     3
140
12.3279296875
141
0.0
147
3.0819824219
172
     1
173
     1
178
     0
271
     2
272
     2
276
     2
284
    12
340
CB
  0
DIMSTYLE
105
2DB
102
{ACAD_REACTORS
330
2DA
102
}
330
A
100
AcDbSymbolTableRecord
100
AcDbDimStyleTableRecord
  2
SLDDIMSTYLE3
 70
     0
 41
18.4918945313
 44
0.0
 45
0.000000001
 78
     4
 79
     1
140
12.3279296875
141
0.0
147
3.0819824219
172
     1
173
     1
178
     0
271
     2
272
     2
276
     2
284
    12
340
CB
341
2DC
343
2DC
  0
DIMSTYLE
105
2FD
102
{ACAD_REACTORS
330
2FC
102
}
330
A
100
AcDbSymbolTableRecord
100
AcDbDimStyleTableRecord
  2
SLDDIMSTYLE4
 70
     0
 41
18.4918945313
 44
0.0
 73
     0
 74
     0
 77
     1
 78
    12
 79
     3
140
12.3279296875
147
3.0819824219
173
     1
178
     0
179
     2
272
     2
276
     2
284
    12
340
CB
  0
DIMSTYLE
105
307
102
{ACAD_REACTORS
330
306
102
}
330
A
100
AcDbSymbolTableRecord
100
AcDbDimStyleTableRecord
  2
SLDDIMSTYLE5
 70
     0
 41
18.4918945313
 44
0.0
 45
0.000000001
 73
     0
 74
     0
 77
     1
 78
     4
 79
     1
140
12.3279296875
141
0.0
147
3.0819824219
172
     1
173
     1
178
     0
271
     2
272
     2
276
     2
284
    12
340
CB
  0
DIMSTYLE
105
35A
102
{ACAD_REACTORS
330
359
330
3C3
330
3CF
330
3DB
102
}
330
A
100
AcDbSymbolTableRecord
100
AcDbDimStyleTableRecord
  2
SLDDIMSTYLE6
 70
     0
 41
18.4918945313
 44
0.0
 45
0.000000001
 73
     0
 74
     0
 77
     1
 78
    12
 79
     3
140
12.3279296875
147
3.0819824219
172
     1
173
     1
178
     0
271
     2
272
     2
276
     2
284
    12
289
     0
340
CB
  0
DIMSTYLE
105
3B1
102
{ACAD_REACTORS
330
3B0
102
}
330
A
100
AcDbSymbolTableRecord
100
AcDbDimStyleTableRecord
  2
SLDDIMSTYLE7
 70
     0
 41
18.4918945313
 44
0.0
 45
0.000000001
 73
     0
 74
     0
 77
     1
 78
    12
 79
     3
140
12.3279296875
141
0.0
147
3.0819824219
173
     1
178
     0
271
     2
272
     2
276
     2
284
    12
340
CB
  0
DIMSTYLE
105
3FC
102
{ACAD_REACTORS
330
3FB
330
422
102
}
330
A
100
AcDbSymbolTableRecord
100
AcDbDimStyleTableRecord
  2
SLDDIMSTYLE8
 70
     0
 41
18.4918945313
 44
0.0
 45
0.000000001
 73
     0
 74
     0
 77
     1
 78
    12
 79
     3
140
12.3279296875
147
3.0819824219
173
     1
178
     0
271
     0
272
     2
276
     2
284
    12
340
CB
  0
ENDTAB
  0
TABLE
  2
BLOCK_RECORD
  5
1
330
0
100
AcDbSymbolTable
 70
    53
  0
BLOCK_RECORD
  5
1F
330
1
100
AcDbSymbolTableRecord
100
AcDbBlockTableRecord
  2
*Model_Space
340
22
  0
BLOCK_RECORD
  5
1B
330
1
100
AcDbSymbolTableRecord
100
AcDbBlockTableRecord
  2
*Paper_Space
340
1E
  0
BLOCK_RECORD
  5
23
330
1
100
AcDbSymbolTableRecord
100
AcDbBlockTableRecord
  2
*Paper_Space0
340
26
  0
BLOCK_RECORD
  5
C8
330
1
100
AcDbSymbolTableRecord
100
AcDbBlockTableRecord
  2
SW_NOTE_0
340
0
102
{BLKREFS
331
CE
102
}
  0
BLOCK_RECORD
  5
EE
330
1
100
AcDbSymbolTableRecord
100
AcDbBlockTableRecord
  2
SW_NOTE_1
340
0
102
{BLKREFS
331
F3
102
}
  0
BLOCK_RECORD
  5
F4
330
1
100
AcDbSymbolTableRecord
100
AcDbBlockTableRecord
  2
SW_TABLEANNOTATION_0
340
0
102
{BLKREFS
331
120
102
}
  0
BLOCK_RECORD
  5
1EF
330
1
100
AcDbSymbolTableRecord
100
AcDbBlockTableRecord
  2
SW_NOTE_2
340
0
102
{BLKREFS
331
1F4
102
}
  0
BLOCK_RECORD
  5
1F6
330
1
100
AcDbSymbolTableRecord
100
AcDbBlockTableRecord
  2
_DOT
340
0
  0
BLOCK_RECORD
  5
1FF
330
1
100
AcDbSymbolTableRecord
100
AcDbBlockTableRecord
  2
SW_NOTE_3
340
0
102
{BLKREFS
331
204
102
}
  0
BLOCK_RECORD
  5
206
330
1
100
AcDbSymbolTableRecord
100
AcDbBlockTableRecord
  2
SW_NOTE_4
340
0
102
{BLKREFS
331
20B
102
}
  0
BLOCK_RECORD
  5
20D
330
1
100
AcDbSymbolTableRecord
100
AcDbBlockTableRecord
  2
SW_NOTE_5
340
0
102
{BLKREFS
331
212
102
}
  0
BLOCK_RECORD
  5
214
330
1
100
AcDbSymbolTableRecord
100
AcDbBlockTableRecord
  2
SW_NOTE_6
340
0
102
{BLKREFS
331
219
102
}
  0
BLOCK_RECORD
  5
21B
330
1
100
AcDbSymbolTableRecord
100
AcDbBlockTableRecord
  2
SW_NOTE_7
340
0
102
{BLKREFS
331
220
102
}
  0
BLOCK_RECORD
  5
222
330
1
100
AcDbSymbolTableRecord
100
AcDbBlockTableRecord
  2
SW_NOTE_8
340
0
102
{BLKREFS
331
227
102
}
  0
BLOCK_RECORD
  5
229
330
1
100
AcDbSymbolTableRecord
100
AcDbBlockTableRecord
  2
SW_NOTE_9
340
0
102
{BLKREFS
331
22E
102
}
  0
BLOCK_RECORD
  5
230
330
1
100
AcDbSymbolTableRecord
100
AcDbBlockTableRecord
  2
SW_NOTE_10
340
0
102
{BLKREFS
331
235
102
}
  0
BLOCK_RECORD
  5
237
330
1
100
AcDbSymbolTableRecord
100
AcDbBlockTableRecord
  2
SW_NOTE_11
340
0
102
{BLKREFS
331
23C
102
}
  0
BLOCK_RECORD
  5
23D
330
1
100
AcDbSymbolTableRecord
100
AcDbBlockTableRecord
  2
SW_NOTE_12
340
0
102
{BLKREFS
331
242
102
}
  0
BLOCK_RECORD
  5
243
330
1
100
AcDbSymbolTableRecord
100
AcDbBlockTableRecord
  2
SW_NOTE_13
340
0
102
{BLKREFS
331
248
102
}
  0
BLOCK_RECORD
  5
249
330
1
100
AcDbSymbolTableRecord
100
AcDbBlockTableRecord
  2
SW_NOTE_14
340
0
102
{BLKREFS
331
24E
102
}
  0
BLOCK_RECORD
  5
24F
330
1
100
AcDbSymbolTableRecord
100
AcDbBlockTableRecord
  2
SW_NOTE_15
340
0
102
{BLKREFS
331
254
102
}
  0
BLOCK_RECORD
  5
255
330
1
100
AcDbSymbolTableRecord
100
AcDbBlockTableRecord
  2
SW_NOTE_16
340
0
102
{BLKREFS
331
25A
102
}
  0
BLOCK_RECORD
  5
25B
330
1
100
AcDbSymbolTableRecord
100
AcDbBlockTableRecord
  2
SW_NOTE_17
340
0
102
{BLKREFS
331
260
102
}
  0
BLOCK_RECORD
  5
267
330
1
100
AcDbSymbolTableRecord
100
AcDbBlockTableRecord
  2
_D
340
0
  0
BLOCK_RECORD
  5
271
330
1
100
AcDbSymbolTableRecord
100
AcDbBlockTableRecord
  2
_D_1
340
0
  0
BLOCK_RECORD
  5
27F
330
1
100
AcDbSymbolTableRecord
100
AcDbBlockTableRecord
  2
_D_2
340
0
  0
BLOCK_RECORD
  5
289
330
1
100
AcDbSymbolTableRecord
100
AcDbBlockTableRecord
  2
_D_3
340
0
  0
BLOCK_RECORD
  5
297
330
1
100
AcDbSymbolTableRecord
100
AcDbBlockTableRecord
  2
_D_4
340
0
  0
BLOCK_RECORD
  5
2A1
330
1
100
AcDbSymbolTableRecord
100
AcDbBlockTableRecord
  2
_D_5
340
0
  0
BLOCK_RECORD
  5
2BD
330
1
100
AcDbSymbolTableRecord
100
AcDbBlockTableRecord
  2
_D_6
340
0
  0
BLOCK_RECORD
  5
2C7
330
1
100
AcDbSymbolTableRecord
100
AcDbBlockTableRecord
  2
_D_7
340
0
  0
BLOCK_RECORD
  5
2D2
330
1
100
AcDbSymbolTableRecord
100
AcDbBlockTableRecord
  2
_D_8
340
0
  0
BLOCK_RECORD
  5
2DC
330
1
100
AcDbSymbolTableRecord
100
AcDbBlockTableRecord
  2
_NONE
340
0
  0
BLOCK_RECORD
  5
2DF
330
1
100
AcDbSymbolTableRecord
100
AcDbBlockTableRecord
  2
_D_9
340
0
  0
BLOCK_RECORD
  5
2E9
330
1
100
AcDbSymbolTableRecord
100
AcDbBlockTableRecord
  2
_D_10
340
0
  0
BLOCK_RECORD
  5
2F3
330
1
100
AcDbSymbolTableRecord
100
AcDbBlockTableRecord
  2
_D_11
340
0
  0
BLOCK_RECORD
  5
2FE
330
1
100
AcDbSymbolTableRecord
100
AcDbBlockTableRecord
  2
_D_12
340
0
  0
BLOCK_RECORD
  5
308
330
1
100
AcDbSymbolTableRecord
100
AcDbBlockTableRecord
  2
_D_13
340
0
  0
BLOCK_RECORD
  5
311
330
1
100
AcDbSymbolTableRecord
100
AcDbBlockTableRecord
  2
SW_CENTERMARKSYMBOL_0
340
0
102
{BLKREFS
331
354
102
}
  0
BLOCK_RECORD
  5
35B
330
1
100
AcDbSymbolTableRecord
100
AcDbBlockTableRecord
  2
_D_14
340
0
  0
BLOCK_RECORD
  5
367
330
1
100
AcDbSymbolTableRecord
100
AcDbBlockTableRecord
  2
_D_15
340
0
  0
BLOCK_RECORD
  5
389
330
1
100
AcDbSymbolTableRecord
100
AcDbBlockTableRecord
  2
_D_16
340
0
  0
BLOCK_RECORD
  5
393
330
1
100
AcDbSymbolTableRecord
100
AcDbBlockTableRecord
  2
_D_17
340
0
  0
BLOCK_RECORD
  5
39D
330
1
100
AcDbSymbolTableRecord
100
AcDbBlockTableRecord
  2
_D_18
340
0
  0
BLOCK_RECORD
  5
3A7
330
1
100
AcDbSymbolTableRecord
100
AcDbBlockTableRecord
  2
_D_19
340
0
  0
BLOCK_RECORD
  5
3B2
330
1
100
AcDbSymbolTableRecord
100
AcDbBlockTableRecord
  2
_D_20
340
0
  0
BLOCK_RECORD
  5
3BA
330
1
100
AcDbSymbolTableRecord
100
AcDbBlockTableRecord
  2
_D_21
340
0
  0
BLOCK_RECORD
  5
3C4
330
1
100
AcDbSymbolTableRecord
100
AcDbBlockTableRecord
  2
_D_22
340
0
  0
BLOCK_RECORD
  5
3D0
330
1
100
AcDbSymbolTableRecord
100
AcDbBlockTableRecord
  2
_D_23
340
0
  0
BLOCK_RECORD
  5
3DC
330
1
100
AcDbSymbolTableRecord
100
AcDbBlockTableRecord
  2
_D_24
340
0
  0
BLOCK_RECORD
  5
3F2
330
1
100
AcDbSymbolTableRecord
100
AcDbBlockTableRecord
  2
_D_25
340
0
  0
BLOCK_RECORD
  5
3FD
330
1
100
AcDbSymbolTableRecord
100
AcDbBlockTableRecord
  2
_D_26
340
0
  0
BLOCK_RECORD
  5
40A
330
1
100
AcDbSymbolTableRecord
100
AcDbBlockTableRecord
  2
SW_ANGULAR_DIMENSION_0
340
0
102
{BLKREFS
331
415
102
}
  0
BLOCK_RECORD
  5
416
330
1
100
AcDbSymbolTableRecord
100
AcDbBlockTableRecord
  2
SW_ANGULAR_DIMENSION_1
340
0
102
{BLKREFS
331
421
102
}
  0
BLOCK_RECORD
  5
423
330
1
100
AcDbSymbolTableRecord
100
AcDbBlockTableRecord
  2
_D_27
340
0
  0
ENDTAB
  0
ENDSEC
  0
SECTION
  2
BLOCKS
  0
BLOCK
  5
20
330
1F
100
AcDbEntity
  8
0
100
AcDbBlockBegin
  2
*Model_Space
 70
     0
 10
0.0
 20
0.0
 30
0.0
  3
*Model_Space
  1

  0
ENDBLK
  5
21
330
1F
100
AcDbEntity
  8
0
100
AcDbBlockEnd
  0
BLOCK
  5
1C
330
1B
100
AcDbEntity
 67
     1
  8
0
100
AcDbBlockBegin
  2
*Paper_Space
 70
     0
 10
0.0
 20
0.0
 30
0.0
  3
*Paper_Space
  1

  0
ENDBLK
  5
1D
330
1B
100
AcDbEntity
 67
     1
  8
0
100
AcDbBlockEnd
  0
BLOCK
  5
24
330
23
100
AcDbEntity
  8
0
100
AcDbBlockBegin
  2
*Paper_Space0
 70
     0
 10
0.0
 20
0.0
 30
0.0
  3
*Paper_Space0
  1

  0
ENDBLK
  5
25
330
23
100
AcDbEntity
  8
0
100
AcDbBlockEnd
  0
BLOCK
  5
C9
330
C8
100
AcDbEntity
  8
0
100
AcDbBlockBegin
  2
SW_NOTE_0
 70
     0
 10
0.0
 20
0.0
 30
0.0
  3
SW_NOTE_0
  1

  0
MTEXT
  5
CC
330
C8
100
AcDbEntity
  8
CAJETIN
 62
     0
100
AcDbMText
 10
0.0
 20
12.2400402414
 30
0.0
 40
9.525
 41
0.0
 71
     1
 72
     1
  1
Birch Plywood
  7
SLDTEXTSTYLE0
 73
     1
 44
1.0
  0
MTEXT
  5
CD
330
C8
100
AcDbEntity
  8
CAJETIN
 62
     0
100
AcDbMText
 10
0.0
 20
-0.4599596051
 30
0.0
 40
9.525
 41
0.0
 71
     1
 72
     1
  1
18mm
  7
SLDTEXTSTYLE0
 73
     1
 44
1.0
  0
ENDBLK
  5
CA
330
C8
100
AcDbEntity
  8
0
100
AcDbBlockEnd
  0
BLOCK
  5
EF
330
EE
100
AcDbEntity
  8
0
100
AcDbBlockBegin
  2
SW_NOTE_1
 70
     0
 10
0.0
 20
0.0
 30
0.0
  3
SW_NOTE_1
  1

  0
MTEXT
  5
F1
330
EE
100
AcDbEntity
  8
CAJETIN
 62
     0
100
AcDbMText
 10
40.18359375
 20
12.2400402414
 30
0.0
 40
9.525
 41
0.0
 71
     2
 72
     1
  1
S-21LEX1600
  7
SLDTEXTSTYLE0
 73
     1
 44
1.0
  0
MTEXT
  5
F2
330
EE
100
AcDbEntity
  8
CAJETIN
 62
     0
100
AcDbMText
 10
42.5593521595
 20
-0.4599596051
 30
0.0
 40
9.525
 41
0.0
 71
     2
 72
     1
  1
DIRECT RADIATION SUBWOOFER
  7
SLDTEXTSTYLE0
 73
     1
 44
1.0
  0
ENDBLK
  5
F0
330
EE
100
AcDbEntity
  8
0
100
AcDbBlockEnd
  0
BLOCK
  5
F5
330
F4
100
AcDbEntity
  8
0
100
AcDbBlockBegin
  2
SW_TABLEANNOTATION_0
 70
     0
 10
0.0
 20
0.0
 30
0.0
  3
SW_TABLEANNOTATION_0
  1

  0
LINE
  5
F7
330
F4
100
AcDbEntity
  8
SLD-0_0
 62
     0
100
AcDbLine
 10
0.0
 20
0.0
 30
0.0
 11
0.0
 21
-206.4757822588
 31
0.0
  0
LINE
  5
F8
330
F4
100
AcDbEntity
  8
SLD-0_0
 62
     0
100
AcDbLine
 10
0.0
 20
-206.4757822588
 30
0.0
 11
409.1127426894
 21
-206.4757822588
 31
0.0
  0
LINE
  5
F9
330
F4
100
AcDbEntity
  8
SLD-0_0
 62
     0
100
AcDbLine
 10
409.1127426894
 20
-206.4757822588
 30
0.0
 11
409.1127426894
 21
0.0
 31
0.0
  0
LINE
  5
FA
330
F4
100
AcDbEntity
  8
SLD-0_0
 62
     0
100
AcDbLine
 10
409.1127426894
 20
0.0
 30
0.0
 11
0.0
 21
0.0
 31
0.0
  0
LINE
  5
FB
330
F4
100
AcDbEntity
  8
SLD-0_0
 62
     0
100
AcDbLine
 10
91.3558155085
 20
0.0
 30
0.0
 11
91.3558155085
 21
-51.8926890285
 31
0.0
  0
LINE
  5
FC
330
F4
100
AcDbEntity
  8
SLD-0_0
 62
     0
100
AcDbLine
 10
331.3334914061
 20
0.0
 30
0.0
 11
331.3334914061
 21
-51.8926890285
 31
0.0
  0
LINE
  5
FD
330
F4
100
AcDbEntity
  8
SLD-0_0
 62
     0
100
AcDbLine
 10
91.3558155085
 20
-51.8926890285
 30
0.0
 11
91.3558155085
 21
-206.4757822588
 31
0.0
  0
LINE
  5
FE
330
F4
100
AcDbEntity
  8
SLD-0_0
 62
     0
100
AcDbLine
 10
331.3334914061
 20
-51.8926890285
 30
0.0
 11
331.3334914061
 21
-206.4757822588
 31
0.0
  0
LINE
  5
FF
330
F4
100
AcDbEntity
  8
SLD-0_0
 62
     0
100
AcDbLine
 10
0.0
 20
-73.9759880614
 30
0.0
 11
409.1127426894
 21
-73.9759880614
 31
0.0
  0
LINE
  5
100
330
F4
100
AcDbEntity
  8
SLD-0_0
 62
     0
100
AcDbLine
 10
0.0
 20
-96.0592870943
 30
0.0
 11
409.1127426894
 21
-96.0592870943
 31
0.0
  0
LINE
  5
101
330
F4
100
AcDbEntity
  8
SLD-0_0
 62
     0
100
AcDbLine
 10
0.0
 20
-118.1425861272
 30
0.0
 11
409.1127426894
 21
-118.1425861272
 31
0.0
  0
LINE
  5
102
330
F4
100
AcDbEntity
  8
SLD-0_0
 62
     0
100
AcDbLine
 10
0.0
 20
-140.2258851601
 30
0.0
 11
409.1127426894
 21
-140.2258851601
 31
0.0
  0
LINE
  5
103
330
F4
100
AcDbEntity
  8
SLD-0_0
 62
     0
100
AcDbLine
 10
0.0
 20
-162.309184193
 30
0.0
 11
409.1127426894
 21
-162.309184193
 31
0.0
  0
LINE
  5
104
330
F4
100
AcDbEntity
  8
SLD-0_0
 62
     0
100
AcDbLine
 10
0.0
 20
-184.3924832259
 30
0.0
 11
409.1127426894
 21
-184.3924832259
 31
0.0
  0
LINE
  5
105
330
F4
100
AcDbEntity
  8
SLD-0_0
 62
     0
100
AcDbLine
 10
0.0
 20
-51.8926890285
 30
0.0
 11
409.1127426894
 21
-51.8926890285
 31
0.0
  0
MTEXT
  5
106
330
F4
100
AcDbEntity
  8
SLD-0_0
 62
     0
100
AcDbMText
 10
8.0482810629
 20
-19.6126926726
 30
0.0
 40
12.7
 41
0.0
 71
     1
 72
     1
  1
ITEM NO.
  7
SLDTEXTSTYLE0
 73
     1
 44
1.0
  0
MTEXT
  5
107
330
F4
100
AcDbEntity
  8
SLD-0_0
 62
     0
100
AcDbMText
 10
153.4891032576
 20
-19.6126926726
 30
0.0
 40
12.7
 41
0.0
 71
     1
 72
     1
  1
DESCRIPTION
  7
SLDTEXTSTYLE0
 73
     1
 44
1.0
  0
MTEXT
  5
108
330
F4
100
AcDbEntity
  8
SLD-0_0
 62
     0
100
AcDbMText
 10
350.467561731
 20
-19.6126926726
 30
0.0
 40
12.7
 41
0.0
 71
     1
 72
     1
  1
QTY.
  7
SLDTEXTSTYLE0
 73
     1
 44
1.0
  0
MTEXT
  5
109
330
F4
100
AcDbEntity
  8
SLD-0_0
 62
     0
100
AcDbMText
 10
40.9742039522
 20
-56.6006867033
 30
0.0
 40
12.7
 41
0.0
 71
     1
 72
     1
  1
1
  7
SLDTEXTSTYLE0
 73
     1
 44
1.0
  0
MTEXT
  5
10B
330
F4
100
AcDbEntity
  8
SLD-0_0
 62
     0
100
AcDbMText
 10
155.8409498035
 20
-56.6006867033
 30
0.0
 40
12.7
 41
0.0
 71
     1
 72
     1
  1
838 x 694 x 18
  7
SLDTEXTSTYLE2
 73
     1
 44
1.0
  0
MTEXT
  5
10C
330
F4
100
AcDbEntity
  8
SLD-0_0
 62
     0
100
AcDbMText
 10
365.5194132457
 20
-56.6006867033
 30
0.0
 40
12.7
 41
0.0
 71
     1
 72
     1
  1
2
  7
SLDTEXTSTYLE0
 73
     1
 44
1.0
  0
MTEXT
  5
10D
330
F4
100
AcDbEntity
  8
SLD-0_0
 62
     0
100
AcDbMText
 10
40.9742039522
 20
-78.6839857362
 30
0.0
 40
12.7
 41
0.0
 71
     1
 72
     1
  1
2
  7
SLDTEXTSTYLE0
 73
     1
 44
1.0
  0
MTEXT
  5
10E
330
F4
100
AcDbEntity
  8
SLD-0_0
 62
     0
100
AcDbMText
 10
155.8409498035
 20
-78.6839857362
 30
0.0
 40
12.7
 41
0.0
 71
     1
 72
     1
  1
838 x 664 x 18
  7
SLDTEXTSTYLE2
 73
     1
 44
1.0
  0
MTEXT
  5
10F
330
F4
100
AcDbEntity
  8
SLD-0_0
 62
     0
100
AcDbMText
 10
365.5194132457
 20
-78.6839857362
 30
0.0
 40
12.7
 41
0.0
 71
     1
 72
     1
  1
2
  7
SLDTEXTSTYLE0
 73
     1
 44
1.0
  0
MTEXT
  5
110
330
F4
100
AcDbEntity
  8
SLD-0_0
 62
     0
100
AcDbMText
 10
40.9742039522
 20
-100.7672847691
 30
0.0
 40
12.7
 41
0.0
 71
     1
 72
     1
  1
3
  7
SLDTEXTSTYLE0
 73
     1
 44
1.0
  0
MTEXT
  5
111
330
F4
100
AcDbEntity
  8
SLD-0_0
 62
     0
100
AcDbMText
 10
155.8409498035
 20
-100.7672847691
 30
0.0
 40
12.7
 41
0.0
 71
     1
 72
     1
  1
664 x 658 x 18
  7
SLDTEXTSTYLE2
 73
     1
 44
1.0
  0
MTEXT
  5
112
330
F4
100
AcDbEntity
  8
SLD-0_0
 62
     0
100
AcDbMText
 10
365.5194132457
 20
-100.7672847691
 30
0.0
 40
12.7
 41
0.0
 71
     1
 72
     1
  1
1
  7
SLDTEXTSTYLE0
 73
     1
 44
1.0
  0
MTEXT
  5
113
330
F4
100
AcDbEntity
  8
SLD-0_0
 62
     0
100
AcDbMText
 10
40.9742039522
 20
-122.850583802
 30
0.0
 40
12.7
 41
0.0
 71
     1
 72
     1
  1
4
  7
SLDTEXTSTYLE0
 73
     1
 44
1.0
  0
MTEXT
  5
114
330
F4
100
AcDbEntity
  8
SLD-0_0
 62
     0
100
AcDbMText
 10
155.8409498035
 20
-122.850583802
 30
0.0
 40
12.7
 41
0.0
 71
     1
 72
     1
  1
664 x 658 x 18
  7
SLDTEXTSTYLE2
 73
     1
 44
1.0
  0
MTEXT
  5
115
330
F4
100
AcDbEntity
  8
SLD-0_0
 62
     0
100
AcDbMText
 10
365.5194132457
 20
-122.850583802
 30
0.0
 40
12.7
 41
0.0
 71
     1
 72
     1
  1
1
  7
SLDTEXTSTYLE0
 73
     1
 44
1.0
  0
MTEXT
  5
116
330
F4
100
AcDbEntity
  8
SLD-0_0
 62
     0
100
AcDbMText
 10
40.9742039522
 20
-144.9338828349
 30
0.0
 40
12.7
 41
0.0
 71
     1
 72
     1
  1
5
  7
SLDTEXTSTYLE0
 73
     1
 44
1.0
  0
MTEXT
  5
117
330
F4
100
AcDbEntity
  8
SLD-0_0
 62
     0
100
AcDbMText
 10
155.8409498035
 20
-144.9338828349
 30
0.0
 40
12.7
 41
0.0
 71
     1
 72
     1
  1
347 x 269 x 18
  7
SLDTEXTSTYLE2
 73
     1
 44
1.0
  0
MTEXT
  5
118
330
F4
100
AcDbEntity
  8
SLD-0_0
 62
     0
100
AcDbMText
 10
365.5194132457
 20
-144.9338828349
 30
0.0
 40
12.7
 41
0.0
 71
     1
 72
     1
  1
4
  7
SLDTEXTSTYLE0
 73
     1
 44
1.0
  0
MTEXT
  5
119
330
F4
100
AcDbEntity
  8
SLD-0_0
 62
     0
100
AcDbMText
 10
40.9742039522
 20
-167.0171818678
 30
0.0
 40
12.7
 41
0.0
 71
     1
 72
     1
  1
6
  7
SLDTEXTSTYLE0
 73
     1
 44
1.0
  0
MTEXT
  5
11A
330
F4
100
AcDbEntity
  8
SLD-0_0
 62
     0
100
AcDbMText
 10
155.8409498035
 20
-167.0171818678
 30
0.0
 40
12.7
 41
0.0
 71
     1
 72
     1
  1
658 x 221 x 18
  7
SLDTEXTSTYLE2
 73
     1
 44
1.0
  0
MTEXT
  5
11B
330
F4
100
AcDbEntity
  8
SLD-0_0
 62
     0
100
AcDbMText
 10
365.5194132457
 20
-167.0171818678
 30
0.0
 40
12.7
 41
0.0
 71
     1
 72
     1
  1
1
  7
SLDTEXTSTYLE0
 73
     1
 44
1.0
  0
MTEXT
  5
11C
330
F4
100
AcDbEntity
  8
SLD-0_0
 62
     0
100
AcDbMText
 10
40.9742039522
 20
-189.1004809007
 30
0.0
 40
12.7
 41
0.0
 71
     1
 72
     1
  1
7
  7
SLDTEXTSTYLE0
 73
     1
 44
1.0
  0
MTEXT
  5
11E
330
F4
100
AcDbEntity
  8
SLD-0_0
 62
     0
100
AcDbMText
 10
160.5446540712
 20
-189.1004809007
 30
0.0
 40
12.7
 41
0.0
 71
     1
 72
     1
  1
664 x 85 x 18
  7
SLDTEXTSTYLE3
 73
     1
 44
1.0
  0
MTEXT
  5
11F
330
F4
100
AcDbEntity
  8
SLD-0_0
 62
     0
100
AcDbMText
 10
365.5194132457
 20
-189.1004809007
 30
0.0
 40
12.7
 41
0.0
 71
     1
 72
     1
  1
1
  7
SLDTEXTSTYLE0
 73
     1
 44
1.0
  0
ENDBLK
  5
F6
330
F4
100
AcDbEntity
  8
0
100
AcDbBlockEnd
  0
BLOCK
  5
1F0
330
1EF
100
AcDbEntity
  8
0
100
AcDbBlockBegin
  2
SW_NOTE_2
 70
     0
 10
0.0
 20
0.0
 30
0.0
  3
SW_NOTE_2
  1

  0
CIRCLE
  5
1F2
330
1EF
100
AcDbEntity
  8
SLD-0_0
 62
     0
100
AcDbCircle
 10
-11.8522963716
 20
6.7944660758
 30
0.0
 40
13.6616872506892
  0
MTEXT
  5
1F3
330
1EF
100
AcDbEntity
  8
SLD-0_0
 62
     0
100
AcDbMText
 10
-11.8081991067
 20
12.159773644
 30
0.0
 40
9.525
 41
0.0
 71
     2
 72
     1
  1
1
  7
SLDTEXTSTYLE0
 73
     1
 44
1.0
  0
ENDBLK
  5
1F1
330
1EF
100
AcDbEntity
  8
0
100
AcDbBlockEnd
  0
BLOCK
  5
1F7
330
1F6
100
AcDbEntity
  8
0
100
AcDbBlockBegin
  2
_DOT
 70
     0
 10
0.0
 20
0.0
 30
0.0
  3
_DOT
  1

  0
POLYLINE
  5
1F9
330
1F6
100
AcDbEntity
  8
0
  6
ByBlock
 62
     0
100
AcDb2dPolyline
 66
     1
 10
0.0
 20
0.0
 30
0.0
 70
     1
 40
0.5
 41
0.5
  0
VERTEX
  5
1FB
330
1F9
100
AcDbEntity
  8
0
  6
ByBlock
 62
     0
100
AcDbVertex
100
AcDb2dVertex
 10
-0.25
 20
0.0
 30
0.0
 42
1.0
  0
VERTEX
  5
1FC
330
1F9
100
AcDbEntity
  8
0
  6
ByBlock
 62
     0
100
AcDbVertex
100
AcDb2dVertex
 10
0.25
 20
0.0
 30
0.0
 42
1.0
  0
SEQEND
  5
1FD
330
1F9
100
AcDbEntity
  8
0
  6
ByBlock
 62
     0
  0
LINE
  5
1FA
330
1F6
100
AcDbEntity
  8
0
  6
ByBlock
 62
     0
370
    -2
100
AcDbLine
 10
-0.5
 20
0.0
 30
0.0
 11
-1.0
 21
0.0
 31
0.0
  0
ENDBLK
  5
1F8
330
1F6
100
AcDbEntity
  8
0
100
AcDbBlockEnd
  0
BLOCK
  5
200
330
1FF
100
AcDbEntity
  8
0
100
AcDbBlockBegin
  2
SW_NOTE_3
 70
     0
 10
0.0
 20
0.0
 30
0.0
  3
SW_NOTE_3
  1

  0
CIRCLE
  5
202
330
1FF
100
AcDbEntity
  8
SLD-0_0
 62
     0
100
AcDbCircle
 10
-12.3613361461
 20
5.8171356541
 30
0.0
 40
13.66168725068921
  0
MTEXT
  5
203
330
1FF
100
AcDbEntity
  8
SLD-0_0
 62
     0
100
AcDbMText
 10
-12.3172388813
 20
11.1824432223
 30
0.0
 40
9.525
 41
0.0
 71
     2
 72
     1
  1
6
  7
SLDTEXTSTYLE0
 73
     1
 44
1.0
  0
ENDBLK
  5
201
330
1FF
100
AcDbEntity
  8
0
100
AcDbBlockEnd
  0
BLOCK
  5
207
330
206
100
AcDbEntity
  8
0
100
AcDbBlockBegin
  2
SW_NOTE_4
 70
     0
 10
0.0
 20
0.0
 30
0.0
  3
SW_NOTE_4
  1

  0
CIRCLE
  5
209
330
206
100
AcDbEntity
  8
SLD-0_0
 62
     0
100
AcDbCircle
 10
11.1035418513
 20
7.9594633545
 30
0.0
 40
13.6616872506891
  0
MTEXT
  5
20A
330
206
100
AcDbEntity
  8
SLD-0_0
 62
     0
100
AcDbMText
 10
11.1476391162
 20
13.3247709227
 30
0.0
 40
9.525
 41
0.0
 71
     2
 72
     1
  1
7
  7
SLDTEXTSTYLE0
 73
     1
 44
1.0
  0
ENDBLK
  5
208
330
206
100
AcDbEntity
  8
0
100
AcDbBlockEnd
  0
BLOCK
  5
20E
330
20D
100
AcDbEntity
  8
0
100
AcDbBlockBegin
  2
SW_NOTE_5
 70
     0
 10
0.0
 20
0.0
 30
0.0
  3
SW_NOTE_5
  1

  0
CIRCLE
  5
210
330
20D
100
AcDbEntity
  8
SLD-0_0
 62
     0
100
AcDbCircle
 10
8.9064182032
 20
10.3594118233
 30
0.0
 40
13.6616872506892
  0
MTEXT
  5
211
330
20D
100
AcDbEntity
  8
SLD-0_0
 62
     0
100
AcDbMText
 10
8.950515468
 20
15.7247193916
 30
0.0
 40
9.525
 41
0.0
 71
     2
 72
     1
  1
3
  7
SLDTEXTSTYLE0
 73
     1
 44
1.0
  0
ENDBLK
  5
20F
330
20D
100
AcDbEntity
  8
0
100
AcDbBlockEnd
  0
BLOCK
  5
215
330
214
100
AcDbEntity
  8
0
100
AcDbBlockBegin
  2
SW_NOTE_6
 70
     0
 10
0.0
 20
0.0
 30
0.0
  3
SW_NOTE_6
  1

  0
CIRCLE
  5
217
330
214
100
AcDbEntity
  8
SLD-0_0
 62
     0
100
AcDbCircle
 10
13.57424313
 20
-1.5432504607
 30
0.0
 40
13.6616872506893
  0
MTEXT
  5
218
330
214
100
AcDbEntity
  8
SLD-0_0
 62
     0
100
AcDbMText
 10
13.6183403948
 20
3.8220571075
 30
0.0
 40
9.525
 41
0.0
 71
     2
 72
     1
  1
2
  7
SLDTEXTSTYLE0
 73
     1
 44
1.0
  0
ENDBLK
  5
216
330
214
100
AcDbEntity
  8
0
100
AcDbBlockEnd
  0
BLOCK
  5
21C
330
21B
100
AcDbEntity
  8
0
100
AcDbBlockBegin
  2
SW_NOTE_7
 70
     0
 10
0.0
 20
0.0
 30
0.0
  3
SW_NOTE_7
  1

  0
CIRCLE
  5
21E
330
21B
100
AcDbEntity
  8
SLD-0_0
 62
     0
100
AcDbCircle
 10
-13.1916663808
 20
-3.552694278
 30
0.0
 40
13.66168725068918
  0
MTEXT
  5
21F
330
21B
100
AcDbEntity
  8
SLD-0_0
 62
     0
100
AcDbMText
 10
-13.147569116
 20
1.8126132902
 30
0.0
 40
9.525
 41
0.0
 71
     2
 72
     1
  1
4
  7
SLDTEXTSTYLE0
 73
     1
 44
1.0
  0
ENDBLK
  5
21D
330
21B
100
AcDbEntity
  8
0
100
AcDbBlockEnd
  0
BLOCK
  5
223
330
222
100
AcDbEntity
  8
0
100
AcDbBlockBegin
  2
SW_NOTE_8
 70
     0
 10
0.0
 20
0.0
 30
0.0
  3
SW_NOTE_8
  1

  0
CIRCLE
  5
225
330
222
100
AcDbEntity
  8
SLD-0_0
 62
     0
100
AcDbCircle
 10
13.1557503575
 20
-3.6834672616
 30
0.0
 40
13.6616872506891
  0
MTEXT
  5
226
330
222
100
AcDbEntity
  8
SLD-0_0
 62
     0
100
AcDbMText
 10
13.1998476223
 20
1.6818403066
 30
0.0
 40
9.525
 41
0.0
 71
     2
 72
     1
  1
1
  7
SLDTEXTSTYLE0
 73
     1
 44
1.0
  0
ENDBLK
  5
224
330
222
100
AcDbEntity
  8
0
100
AcDbBlockEnd
  0
BLOCK
  5
22A
330
229
100
AcDbEntity
  8
0
100
AcDbBlockBegin
  2
SW_NOTE_9
 70
     0
 10
0.0
 20
0.0
 30
0.0
  3
SW_NOTE_9
  1

  0
CIRCLE
  5
22C
330
229
100
AcDbEntity
  8
SLD-0_0
 62
     0
100
AcDbCircle
 10
-0.9775198882
 20
13.6266706647
 30
0.0
 40
13.6616872506892
  0
MTEXT
  5
22D
330
229
100
AcDbEntity
  8
SLD-0_0
 62
     0
100
AcDbMText
 10
-0.9334226233
 20
18.9919782329
 30
0.0
 40
9.525
 41
0.0
 71
     2
 72
     1
  1
2
  7
SLDTEXTSTYLE0
 73
     1
 44
1.0
  0
ENDBLK
  5
22B
330
229
100
AcDbEntity
  8
0
100
AcDbBlockEnd
  0
BLOCK
  5
231
330
230
100
AcDbEntity
  8
0
100
AcDbBlockBegin
  2
SW_NOTE_10
 70
     0
 10
0.0
 20
0.0
 30
0.0
  3
SW_NOTE_10
  1

  0
CIRCLE
  5
233
330
230
100
AcDbEntity
  8
SLD-0_0
 62
     0
100
AcDbCircle
 10
8.0201634417
 20
-11.0597774347
 30
0.0
 40
13.6616872506892
  0
MTEXT
  5
234
330
230
100
AcDbEntity
  8
SLD-0_0
 62
     0
100
AcDbMText
 10
8.0642607065
 20
-5.6944698665
 30
0.0
 40
9.525
 41
0.0
 71
     2
 72
     1
  1
5
  7
SLDTEXTSTYLE0
 73
     1
 44
1.0
  0
ENDBLK
  5
232
330
230
100
AcDbEntity
  8
0
100
AcDbBlockEnd
  0
BLOCK
  5
238
330
237
100
AcDbEntity
  8
0
100
AcDbBlockBegin
  2
SW_NOTE_11
 70
     0
 10
0.0
 20
0.0
 30
0.0
  3
SW_NOTE_11
  1

  0
CIRCLE
  5
23A
330
237
100
AcDbEntity
  8
SLD-0_0
 62
     0
100
AcDbCircle
 10
4.6482613867
 20
9.6018135841
 30
0.0
 40
10.12556669663632
  0
MTEXT
  5
23B
330
237
100
AcDbEntity
  8
SLD-0_0
 62
     0
100
AcDbMText
 10
0.0
 20
16.3200536553
 30
0.0
 40
12.7
 41
0.0
 71
     1
 72
     1
  1
5
  7
SLDTEXTSTYLE0
 73
     1
 44
1.0
  0
ENDBLK
  5
239
330
237
100
AcDbEntity
  8
0
100
AcDbBlockEnd
  0
BLOCK
  5
23E
330
23D
100
AcDbEntity
  8
0
100
AcDbBlockBegin
  2
SW_NOTE_12
 70
     0
 10
0.0
 20
0.0
 30
0.0
  3
SW_NOTE_12
  1

  0
CIRCLE
  5
240
330
23D
100
AcDbEntity
  8
SLD-0_0
 62
     0
100
AcDbCircle
 10
4.6674068728
 20
9.6267357691
 30
0.0
 40
10.10394225800688
  0
MTEXT
  5
241
330
23D
100
AcDbEntity
  8
SLD-0_0
 62
     0
100
AcDbMText
 10
0.0
 20
16.3200536553
 30
0.0
 40
12.7
 41
0.0
 71
     1
 72
     1
  1
7
  7
SLDTEXTSTYLE0
 73
     1
 44
1.0
  0
ENDBLK
  5
23F
330
23D
100
AcDbEntity
  8
0
100
AcDbBlockEnd
  0
BLOCK
  5
244
330
243
100
AcDbEntity
  8
0
100
AcDbBlockBegin
  2
SW_NOTE_13
 70
     0
 10
0.0
 20
0.0
 30
0.0
  3
SW_NOTE_13
  1

  0
CIRCLE
  5
246
330
243
100
AcDbEntity
  8
SLD-0_0
 62
     0
100
AcDbCircle
 10
4.679371493
 20
9.6082081219
 30
0.0
 40
10.14935229367263
  0
MTEXT
  5
247
330
243
100
AcDbEntity
  8
SLD-0_0
 62
     0
100
AcDbMText
 10
0.0
 20
16.3200536553
 30
0.0
 40
12.7
 41
0.0
 71
     1
 72
     1
  1
6
  7
SLDTEXTSTYLE0
 73
     1
 44
1.0
  0
ENDBLK
  5
245
330
243
100
AcDbEntity
  8
0
100
AcDbBlockEnd
  0
BLOCK
  5
24A
330
249
100
AcDbEntity
  8
0
100
AcDbBlockBegin
  2
SW_NOTE_14
 70
     0
 10
0.0
 20
0.0
 30
0.0
  3
SW_NOTE_14
  1

  0
CIRCLE
  5
24C
330
249
100
AcDbEntity
  8
SLD-0_0
 62
     0
100
AcDbCircle
 10
4.6653898765
 20
9.6299667657
 30
0.0
 40
10.12556669663642
  0
MTEXT
  5
24D
330
249
100
AcDbEntity
  8
SLD-0_0
 62
     0
100
AcDbMText
 10
0.0
 20
16.3200536553
 30
0.0
 40
12.7
 41
0.0
 71
     1
 72
     1
  1
4
  7
SLDTEXTSTYLE0
 73
     1
 44
1.0
  0
ENDBLK
  5
24B
330
249
100
AcDbEntity
  8
0
100
AcDbBlockEnd
  0
BLOCK
  5
250
330
24F
100
AcDbEntity
  8
0
100
AcDbBlockBegin
  2
SW_NOTE_15
 70
     0
 10
0.0
 20
0.0
 30
0.0
  3
SW_NOTE_15
  1

  0
CIRCLE
  5
252
330
24F
100
AcDbEntity
  8
SLD-0_0
 62
     0
100
AcDbCircle
 10
4.6623968532
 20
9.6288064664
 30
0.0
 40
10.08004950881153
  0
MTEXT
  5
253
330
24F
100
AcDbEntity
  8
SLD-0_0
 62
     0
100
AcDbMText
 10
0.0
 20
16.3200536553
 30
0.0
 40
12.7
 41
0.0
 71
     1
 72
     1
  1
3
  7
SLDTEXTSTYLE0
 73
     1
 44
1.0
  0
ENDBLK
  5
251
330
24F
100
AcDbEntity
  8
0
100
AcDbBlockEnd
  0
BLOCK
  5
256
330
255
100
AcDbEntity
  8
0
100
AcDbBlockBegin
  2
SW_NOTE_16
 70
     0
 10
0.0
 20
0.0
 30
0.0
  3
SW_NOTE_16
  1

  0
CIRCLE
  5
258
330
255
100
AcDbEntity
  8
SLD-0_0
 62
     0
100
AcDbCircle
 10
4.6361497263
 20
9.6413871904
 30
0.0
 40
10.10394225800668
  0
MTEXT
  5
259
330
255
100
AcDbEntity
  8
SLD-0_0
 62
     0
100
AcDbMText
 10
0.0
 20
16.3200536553
 30
0.0
 40
12.7
 41
0.0
 71
     1
 72
     1
  1
2
  7
SLDTEXTSTYLE0
 73
     1
 44
1.0
  0
ENDBLK
  5
257
330
255
100
AcDbEntity
  8
0
100
AcDbBlockEnd
  0
BLOCK
  5
25C
330
25B
100
AcDbEntity
  8
0
100
AcDbBlockBegin
  2
SW_NOTE_17
 70
     0
 10
0.0
 20
0.0
 30
0.0
  3
SW_NOTE_17
  1

  0
CIRCLE
  5
25E
330
25B
100
AcDbEntity
  8
SLD-0_0
 62
     0
100
AcDbCircle
 10
4.6581394115
 20
9.6413871904
 30
0.0
 40
10.10394225800669
  0
MTEXT
  5
25F
330
25B
100
AcDbEntity
  8
SLD-0_0
 62
     0
100
AcDbMText
 10
0.0
 20
16.3200536553
 30
0.0
 40
12.7
 41
0.0
 71
     1
 72
     1
  1
1
  7
SLDTEXTSTYLE0
 73
     1
 44
1.0
  0
ENDBLK
  5
25D
330
25B
100
AcDbEntity
  8
0
100
AcDbBlockEnd
  0
BLOCK
  5
268
330
267
100
AcDbEntity
  8
0
100
AcDbBlockBegin
  2
_D
 70
     0
 10
0.0
 20
0.0
 30
0.0
  3
_D
  1

  0
SOLID
  5
26A
330
267
100
AcDbEntity
  8
SLD-0_0
100
AcDbTrace
 10
999.9106947631
 20
1864.7174502343
 30
0.0
 11
981.4188002319
 21
1867.5623570853
 31
0.0
 12
981.4188002319
 22
1861.8725433834
 32
0.0
 13
981.4188002319
 23
1861.8725433834
 33
0.0
  0
SOLID
  5
26B
330
267
100
AcDbEntity
  8
SLD-0_0
100
AcDbTrace
 10
161.9106947631
 20
1864.7174502343
 30
0.0
 11
180.4025892944
 21
1861.8725433834
 31
0.0
 12
180.4025892944
 22
1867.5623570853
 32
0.0
 13
180.4025892944
 23
1867.5623570853
 33
0.0
  0
LINE
  5
26C
330
267
100
AcDbEntity
  8
SLD-0_0
100
AcDbLine
 10
999.9106947631
 20
1841.7174502343
 30
0.0
 11
999.9106947631
 21
1865.7174502343
 31
0.0
  0
LINE
  5
26D
330
267
100
AcDbEntity
  8
SLD-0_0
100
AcDbLine
 10
161.9106947631
 20
1841.7174502343
 30
0.0
 11
161.9106947631
 21
1865.7174502343
 31
0.0
  0
LINE
  5
26E
330
267
100
AcDbEntity
  8
SLD-0_0
100
AcDbLine
 10
999.9106947631
 20
1864.7174502343
 30
0.0
 11
161.9106947631
 21
1864.7174502343
 31
0.0
  0
MTEXT
  5
26F
330
267
100
AcDbEntity
  8
SLD-0_0
100
AcDbMText
 10
568.6938341617
 20
1881.0886105294
 30
0.0
 40
12.7
 41
0.0
 71
     1
 72
     1
  1
838
  7
SLDTEXTSTYLE0
 73
     1
 44
1.0
  0
ENDBLK
  5
269
330
267
100
AcDbEntity
  8
0
100
AcDbBlockEnd
  0
BLOCK
  5
272
330
271
100
AcDbEntity
  8
0
100
AcDbBlockBegin
  2
_D_1
 70
     0
 10
0.0
 20
0.0
 30
0.0
  3
_D_1
  1

  0
SOLID
  5
274
330
271
100
AcDbEntity
  8
SLD-0_0
100
AcDbTrace
 10
1044.9106947631
 20
1146.7174502343
 30
0.0
 11
1047.7556016141
 21
1165.2093447656
 31
0.0
 12
1042.0657879122
 22
1165.2093447656
 32
0.0
 13
1042.0657879122
 23
1165.2093447656
 33
0.0
  0
SOLID
  5
275
330
271
100
AcDbEntity
  8
SLD-0_0
100
AcDbTrace
 10
1044.9106947631
 20
1840.7174502343
 30
0.0
 11
1042.0657879122
 21
1822.2255557031
 31
0.0
 12
1047.7556016141
 22
1822.2255557031
 32
0.0
 13
1047.7556016141
 23
1822.2255557031
 33
0.0
  0
LINE
  5
276
330
271
100
AcDbEntity
  8
SLD-0_0
100
AcDbLine
 10
1000.9106947631
 20
1146.7174502343
 30
0.0
 11
1045.9106947631
 21
1146.7174502343
 31
0.0
  0
LINE
  5
277
330
271
100
AcDbEntity
  8
SLD-0_0
100
AcDbLine
 10
1000.9106947631
 20
1840.7174502343
 30
0.0
 11
1045.9106947631
 21
1840.7174502343
 31
0.0
  0
LINE
  5
278
330
271
100
AcDbEntity
  8
SLD-0_0
100
AcDbLine
 10
1044.9106947631
 20
1146.7174502343
 30
0.0
 11
1044.9106947631
 21
1840.7174502343
 31
0.0
  0
MTEXT
  5
279
330
271
100
AcDbEntity
  8
SLD-0_0
100
AcDbMText
 10
1028.539534468
 20
1476.435007222
 30
0.0
 40
12.7
 41
0.0
 71
     1
 72
     1
  1
694
  7
SLDTEXTSTYLE0
 11
-3.713525943768165E-15
 21
1.0
 31
0.0
 73
     1
 44
1.0
  0
ENDBLK
  5
273
330
271
100
AcDbEntity
  8
0
100
AcDbBlockEnd
  0
BLOCK
  5
280
330
27F
100
AcDbEntity
  8
0
100
AcDbBlockBegin
  2
_D_2
 70
     0
 10
0.0
 20
0.0
 30
0.0
  3
_D_2
  1

  0
SOLID
  5
282
330
27F
100
AcDbEntity
  8
SLD-0_0
100
AcDbTrace
 10
2208.5056576373
 20
1856.7174502343
 30
0.0
 11
2226.9975521686
 21
1853.8725433834
 31
0.0
 12
2226.9975521686
 22
1859.5623570853
 32
0.0
 13
2226.9975521686
 23
1859.5623570853
 33
0.0
  0
SOLID
  5
283
330
27F
100
AcDbEntity
  8
SLD-0_0
100
AcDbTrace
 10
2866.5056576373
 20
1856.7174502343
 30
0.0
 11
2848.0137631061
 21
1859.5623570853
 31
0.0
 12
2848.0137631061
 22
1853.8725433834
 32
0.0
 13
2848.0137631061
 23
1853.8725433834
 33
0.0
  0
LINE
  5
284
330
27F
100
AcDbEntity
  8
SLD-0_0
100
AcDbLine
 10
2208.5056576373
 20
1826.7174502343
 30
0.0
 11
2208.5056576373
 21
1857.7174502343
 31
0.0
  0
LINE
  5
285
330
27F
100
AcDbEntity
  8
SLD-0_0
100
AcDbLine
 10
2866.5056576373
 20
1826.7174502343
 30
0.0
 11
2866.5056576373
 21
1857.7174502343
 31
0.0
  0
LINE
  5
286
330
27F
100
AcDbEntity
  8
SLD-0_0
100
AcDbLine
 10
2208.5056576373
 20
1856.7174502343
 30
0.0
 11
2866.5056576373
 21
1856.7174502343
 31
0.0
  0
MTEXT
  5
287
330
27F
100
AcDbEntity
  8
SLD-0_0
100
AcDbMText
 10
2502.4840335482
 20
1873.0886105294
 30
0.0
 40
12.7
 41
0.0
 71
     1
 72
     1
  1
658
  7
SLDTEXTSTYLE0
 73
     1
 44
1.0
  0
ENDBLK
  5
281
330
27F
100
AcDbEntity
  8
0
100
AcDbBlockEnd
  0
BLOCK
  5
28A
330
289
100
AcDbEntity
  8
0
100
AcDbBlockBegin
  2
_D_3
 70
     0
 10
0.0
 20
0.0
 30
0.0
  3
_D_3
  1

  0
SOLID
  5
28C
330
289
100
AcDbEntity
  8
SLD-0_0
100
AcDbTrace
 10
2904.5056576373
 20
1825.7174502343
 30
0.0
 11
2901.6607507864
 21
1807.2255557031
 31
0.0
 12
2907.3505644883
 22
1807.2255557031
 32
0.0
 13
2907.3505644883
 23
1807.2255557031
 33
0.0
  0
SOLID
  5
28D
330
289
100
AcDbEntity
  8
SLD-0_0
100
AcDbTrace
 10
2904.5056576373
 20
1161.7174502343
 30
0.0
 11
2907.3505644883
 21
1180.2093447656
 31
0.0
 12
2901.6607507864
 22
1180.2093447656
 32
0.0
 13
2901.6607507864
 23
1180.2093447656
 33
0.0
  0
LINE
  5
28E
330
289
100
AcDbEntity
  8
SLD-0_0
100
AcDbLine
 10
2867.5056576373
 20
1825.7174502343
 30
0.0
 11
2905.5056576373
 21
1825.7174502343
 31
0.0
  0
LINE
  5
28F
330
289
100
AcDbEntity
  8
SLD-0_0
100
AcDbLine
 10
2867.5056576373
 20
1161.7174502343
 30
0.0
 11
2905.5056576373
 21
1161.7174502343
 31
0.0
  0
LINE
  5
290
330
289
100
AcDbEntity
  8
SLD-0_0
100
AcDbLine
 10
2904.5056576373
 20
1825.7174502343
 30
0.0
 11
2904.5056576373
 21
1161.7174502343
 31
0.0
  0
MTEXT
  5
291
330
289
100
AcDbEntity
  8
SLD-0_0
100
AcDbMText
 10
2888.1344973422
 20
1473.2469844068
 30
0.0
 40
12.7
 41
0.0
 71
     1
 72
     1
  1
664
  7
SLDTEXTSTYLE0
 11
-7.044195017643634E-15
 21
1.0
 31
0.0
 73
     1
 44
1.0
  0
ENDBLK
  5
28B
330
289
100
AcDbEntity
  8
0
100
AcDbBlockEnd
  0
BLOCK
  5
298
330
297
100
AcDbEntity
  8
0
100
AcDbBlockBegin
  2
_D_4
 70
     0
 10
0.0
 20
0.0
 30
0.0
  3
_D_4
  1

  0
SOLID
  5
29A
330
297
100
AcDbEntity
  8
SLD-0_0
100
AcDbTrace
 10
1201.9897868887
 20
1849.7174502343
 30
0.0
 11
1220.48168142
 21
1846.8725433834
 31
0.0
 12
1220.48168142
 22
1852.5623570853
 32
0.0
 13
1220.48168142
 23
1852.5623570853
 33
0.0
  0
SOLID
  5
29B
330
297
100
AcDbEntity
  8
SLD-0_0
100
AcDbTrace
 10
2039.9897868887
 20
1849.7174502343
 30
0.0
 11
2021.4978923575
 21
1852.5623570853
 31
0.0
 12
2021.4978923575
 22
1846.8725433834
 32
0.0
 13
2021.4978923575
 23
1846.8725433834
 33
0.0
  0
LINE
  5
29C
330
297
100
AcDbEntity
  8
SLD-0_0
100
AcDbLine
 10
1201.9897868887
 20
1826.7174502343
 30
0.0
 11
1201.9897868887
 21
1850.7174502343
 31
0.0
  0
LINE
  5
29D
330
297
100
AcDbEntity
  8
SLD-0_0
100
AcDbLine
 10
2039.9897868887
 20
1826.7174502343
 30
0.0
 11
2039.9897868887
 21
1850.7174502343
 31
0.0
  0
LINE
  5
29E
330
297
100
AcDbEntity
  8
SLD-0_0
100
AcDbLine
 10
1201.9897868887
 20
1849.7174502343
 30
0.0
 11
2039.9897868887
 21
1849.7174502343
 31
0.0
  0
MTEXT
  5
29F
330
297
100
AcDbEntity
  8
SLD-0_0
100
AcDbMText
 10
1612.5712348458
 20
1866.0886105294
 30
0.0
 40
12.7
 41
0.0
 71
     1
 72
     1
  1
838
  7
SLDTEXTSTYLE0
 73
     1
 44
1.0
  0
ENDBLK
  5
299
330
297
100
AcDbEntity
  8
0
100
AcDbBlockEnd
  0
BLOCK
  5
2A2
330
2A1
100
AcDbEntity
  8
0
100
AcDbBlockBegin
  2
_D_5
 70
     0
 10
0.0
 20
0.0
 30
0.0
  3
_D_5
  1

  0
SOLID
  5
2A4
330
2A1
100
AcDbEntity
  8
SLD-0_0
100
AcDbTrace
 10
2084.9897868887
 20
1825.7174502343
 30
0.0
 11
2082.1448800377
 21
1807.2255557031
 31
0.0
 12
2087.8346937397
 22
1807.2255557031
 32
0.0
 13
2087.8346937397
 23
1807.2255557031
 33
0.0
  0
SOLID
  5
2A5
330
2A1
100
AcDbEntity
  8
SLD-0_0
100
AcDbTrace
 10
2084.9897868887
 20
1161.7174502343
 30
0.0
 11
2087.8346937397
 21
1180.2093447656
 31
0.0
 12
2082.1448800377
 22
1180.2093447656
 32
0.0
 13
2082.1448800377
 23
1180.2093447656
 33
0.0
  0
LINE
  5
2A6
330
2A1
100
AcDbEntity
  8
SLD-0_0
100
AcDbLine
 10
2040.9897868887
 20
1825.7174502343
 30
0.0
 11
2085.9897868887
 21
1825.7174502343
 31
0.0
  0
LINE
  5
2A7
330
2A1
100
AcDbEntity
  8
SLD-0_0
100
AcDbLine
 10
2040.9897868887
 20
1161.7174502343
 30
0.0
 11
2085.9897868887
 21
1161.7174502343
 31
0.0
  0
LINE
  5
2A8
330
2A1
100
AcDbEntity
  8
SLD-0_0
100
AcDbLine
 10
2084.9897868887
 20
1825.7174502343
 30
0.0
 11
2084.9897868887
 21
1161.7174502343
 31
0.0
  0
MTEXT
  5
2A9
330
2A1
100
AcDbEntity
  8
SLD-0_0
100
AcDbMText
 10
2068.6186265936
 20
1497.0401833925
 30
0.0
 40
12.7
 41
0.0
 71
     1
 72
     1
  1
664
  7
SLDTEXTSTYLE0
 11
6.123233995736766E-17
 21
1.0
 31
0.0
 73
     1
 44
1.0
  0
ENDBLK
  5
2A3
330
2A1
100
AcDbEntity
  8
0
100
AcDbBlockEnd
  0
BLOCK
  5
2BE
330
2BD
100
AcDbEntity
  8
0
100
AcDbBlockBegin
  2
_D_6
 70
     0
 10
0.0
 20
0.0
 30
0.0
  3
_D_6
  1

  0
SOLID
  5
2C0
330
2BD
100
AcDbEntity
  8
SLD-0_0
100
AcDbTrace
 10
1138.1421401864
 20
273.4737658297
 30
0.0
 11
1156.6340347177
 21
270.6288589787
 31
0.0
 12
1156.6340347177
 22
276.3186726806
 32
0.0
 13
1156.6340347177
 23
276.3186726806
 33
0.0
  0
SOLID
  5
2C1
330
2BD
100
AcDbEntity
  8
SLD-0_0
100
AcDbTrace
 10
1796.1421401864
 20
273.4737658297
 30
0.0
 11
1777.6502456552
 21
276.3186726806
 31
0.0
 12
1777.6502456552
 22
270.6288589787
 32
0.0
 13
1777.6502456552
 23
270.6288589787
 33
0.0
  0
LINE
  5
2C2
330
2BD
100
AcDbEntity
  8
SLD-0_0
100
AcDbLine
 10
1138.1421401864
 20
542.4737658297
 30
0.0
 11
1138.1421401864
 21
272.4737658297
 31
0.0
  0
LINE
  5
2C3
330
2BD
100
AcDbEntity
  8
SLD-0_0
100
AcDbLine
 10
1796.1421401864
 20
542.4737658297
 30
0.0
 11
1796.1421401864
 21
272.4737658297
 31
0.0
  0
LINE
  5
2C4
330
2BD
100
AcDbEntity
  8
SLD-0_0
100
AcDbLine
 10
1138.1421401864
 20
273.4737658297
 30
0.0
 11
1796.1421401864
 21
273.4737658297
 31
0.0
  0
MTEXT
  5
2C5
330
2BD
100
AcDbEntity
  8
SLD-0_0
100
AcDbMText
 10
1453.0310292459
 20
289.8449261248
 30
0.0
 40
12.7
 41
0.0
 71
     1
 72
     1
  1
658
  7
SLDTEXTSTYLE0
 73
     1
 44
1.0
  0
ENDBLK
  5
2BF
330
2BD
100
AcDbEntity
  8
0
100
AcDbBlockEnd
  0
BLOCK
  5
2C8
330
2C7
100
AcDbEntity
  8
0
100
AcDbBlockBegin
  2
_D_7
 70
     0
 10
0.0
 20
0.0
 30
0.0
  3
_D_7
  1

  0
SOLID
  5
2CA
330
2C7
100
AcDbEntity
  8
SLD-0_0
100
AcDbTrace
 10
1841.1421401864
 20
1017.4737658297
 30
0.0
 11
1838.2972333355
 21
998.9818712984
 31
0.0
 12
1843.9870470374
 22
998.9818712984
 32
0.0
 13
1843.9870470374
 23
998.9818712984
 33
0.0
  0
SOLID
  5
2CB
330
2C7
100
AcDbEntity
  8
SLD-0_0
100
AcDbTrace
 10
1841.1421401864
 20
353.4737658297
 30
0.0
 11
1843.9870470374
 21
371.9656603609
 31
0.0
 12
1838.2972333355
 22
371.9656603609
 32
0.0
 13
1838.2972333355
 23
371.9656603609
 33
0.0
  0
LINE
  5
2CC
330
2C7
100
AcDbEntity
  8
SLD-0_0
100
AcDbLine
 10
1607.1421401864
 20
1017.4737658297
 30
0.0
 11
1842.1421401864
 21
1017.4737658297
 31
0.0
  0
LINE
  5
2CD
330
2C7
100
AcDbEntity
  8
SLD-0_0
100
AcDbLine
 10
1607.1421401864
 20
353.4737658297
 30
0.0
 11
1842.1421401864
 21
353.4737658297
 31
0.0
  0
LINE
  5
2CE
330
2C7
100
AcDbEntity
  8
SLD-0_0
100
AcDbLine
 10
1841.1421401864
 20
1017.4737658297
 30
0.0
 11
1841.1421401864
 21
353.4737658297
 31
0.0
  0
MTEXT
  5
2CF
330
2C7
100
AcDbEntity
  8
SLD-0_0
100
AcDbMText
 10
1824.7709798913
 20
678.4458654456
 30
0.0
 40
12.7
 41
0.0
 71
     1
 72
     1
  1
664
  7
SLDTEXTSTYLE0
 11
-7.044195017643634E-15
 21
1.0
 31
0.0
 73
     1
 44
1.0
  0
ENDBLK
  5
2C9
330
2C7
100
AcDbEntity
  8
0
100
AcDbBlockEnd
  0
BLOCK
  5
2D3
330
2D2
100
AcDbEntity
  8
0
100
AcDbBlockBegin
  2
_D_8
 70
     0
 10
0.0
 20
0.0
 30
0.0
  3
_D_8
  1

  0
SOLID
  5
2D5
330
2D2
100
AcDbEntity
  8
SLD-0_0
100
AcDbTrace
 10
1243.4180717322
 20
792.4856399105
 30
0.0
 11
1258.8722776365
 21
781.9399688453
 31
0.0
 12
1261.3274293599
 22
787.0728247733
 32
0.0
 13
1261.3274293599
 23
787.0728247733
 33
0.0
  0
SOLID
  5
2D6
330
2D2
100
AcDbEntity
  8
SLD-0_0
100
AcDbTrace
 10
1690.8662086407
 20
578.4618917488
 30
0.0
 11
1675.4120027364
 21
589.007562814
 31
0.0
 12
1672.956851013
 22
583.874706886
 32
0.0
 13
1672.956851013
 23
583.874706886
 33
0.0
  0
LINE
  5
2D7
330
2D2
100
AcDbEntity
  8
SLD-0_0
100
AcDbLine
 10
1690.8662086407
 20
578.4618917488
 30
0.0
 11
1243.4180717322
 21
792.4856399105
 31
0.0
  0
MTEXT
  5
2D8
330
2D2
100
AcDbEntity
  8
SLD-0_0
100
AcDbMText
 10
1592.4222143318
 20
643.6722317369
 30
0.0
 40
12.7
 41
0.0
 71
     1
 72
     1
  1
%%c
  7
SLDTEXTSTYLE0
 11
0.9021131792508805
 21
-0.4314994922614263
 31
0.0
 73
     1
 44
1.0
  0
MTEXT
  5
2D9
330
2D2
100
AcDbEntity
  8
SLD-0_0
100
AcDbMText
 10
1608.6474300426
 20
635.9113736737
 30
0.0
 40
12.7
 41
0.0
 71
     1
 72
     1
  1
496
  7
SLDTEXTSTYLE0
 11
0.9021131792508805
 21
-0.4314994922614263
 31
0.0
 73
     1
 44
1.0
  0
ENDBLK
  5
2D4
330
2D2
100
AcDbEntity
  8
0
100
AcDbBlockEnd
  0
BLOCK
  5
2DD
330
2DC
100
AcDbEntity
  8
0
100
AcDbBlockBegin
  2
_NONE
 70
     0
 10
0.0
 20
0.0
 30
0.0
  3
_NONE
  1

  0
ENDBLK
  5
2DE
330
2DC
100
AcDbEntity
  8
0
100
AcDbBlockEnd
  0
BLOCK
  5
2E0
330
2DF
100
AcDbEntity
  8
0
100
AcDbBlockBegin
  2
_D_9
 70
     0
 10
0.0
 20
0.0
 30
0.0
  3
_D_9
  1

  0
SOLID
  5
2E2
330
2DF
100
AcDbEntity
  8
SLD-0_0
100
AcDbTrace
 10
1566.5487498403
 20
922.6760749532
 30
0.0
 11
1561.2229761226
 21
904.7406409564
 31
0.0
 12
1566.8602521779
 22
903.9692145902
 32
0.0
 13
1566.8602521779
 23
903.9692145902
 33
0.0
  0
LINE
  5
2E3
330
2DF
100
AcDbEntity
  8
SLD-0_0
100
AcDbLine
 10
1566.5487498403
 20
922.6760749532
 30
0.0
 11
1563.2408529715
 21
898.5032846135
 31
0.0
  0
LINE
  5
2E4
330
2DF
100
AcDbEntity
  8
SLD-0_0
100
AcDbLine
 10
1567.6876239433
 20
930.9985124433
 30
0.0
 11
1566.5487498403
 21
922.6760749532
 31
0.0
  0
LINE
  5
2E5
330
2DF
100
AcDbEntity
  8
SLD-0_0
100
AcDbLine
 10
1563.2408529715
 20
898.5032846135
 30
0.0
 11
1510.7416358547
 21
898.5032846135
 31
0.0
  0
MTEXT
  5
2E6
330
2DF
100
AcDbEntity
  8
SLD-0_0
100
AcDbMText
 10
1510.7416358547
 20
914.87444584
 30
0.0
 40
12.7
 41
0.0
 71
     1
 72
     1
  1
%%c
  7
SLDTEXTSTYLE0
 73
     1
 44
1.0
  0
MTEXT
  5
2E7
330
2DF
100
AcDbEntity
  8
SLD-0_0
100
AcDbMText
 10
1528.7274230973
 20
914.87444584
 30
0.0
 40
12.7
 41
0.0
 71
     1
 72
     1
  1
8.40
  7
SLDTEXTSTYLE0
 73
     1
 44
1.0
  0
ENDBLK
  5
2E1
330
2DF
100
AcDbEntity
  8
0
100
AcDbBlockEnd
  0
BLOCK
  5
2EA
330
2E9
100
AcDbEntity
  8
0
100
AcDbBlockBegin
  2
_D_10
 70
     0
 10
0.0
 20
0.0
 30
0.0
  3
_D_10
  1

  0
SOLID
  5
2EC
330
2E9
100
AcDbEntity
  8
SLD-0_0
100
AcDbTrace
 10
1606.1421401864
 20
308.4737658297
 30
0.0
 11
1587.6502456552
 21
311.3186726806
 31
0.0
 12
1587.6502456552
 22
305.6288589787
 32
0.0
 13
1587.6502456552
 23
305.6288589787
 33
0.0
  0
SOLID
  5
2ED
330
2E9
100
AcDbEntity
  8
SLD-0_0
100
AcDbTrace
 10
1328.1421401864
 20
308.4737658297
 30
0.0
 11
1346.6340347177
 21
305.6288589787
 31
0.0
 12
1346.6340347177
 22
311.3186726806
 32
0.0
 13
1346.6340347177
 23
311.3186726806
 33
0.0
  0
LINE
  5
2EE
330
2E9
100
AcDbEntity
  8
SLD-0_0
100
AcDbLine
 10
1606.1421401864
 20
352.4737658297
 30
0.0
 11
1606.1421401864
 21
307.4737658297
 31
0.0
  0
LINE
  5
2EF
330
2E9
100
AcDbEntity
  8
SLD-0_0
100
AcDbLine
 10
1328.1421401864
 20
352.4737658297
 30
0.0
 11
1328.1421401864
 21
307.4737658297
 31
0.0
  0
LINE
  5
2F0
330
2E9
100
AcDbEntity
  8
SLD-0_0
100
AcDbLine
 10
1606.1421401864
 20
308.4737658297
 30
0.0
 11
1328.1421401864
 21
308.4737658297
 31
0.0
  0
MTEXT
  5
2F1
330
2E9
100
AcDbEntity
  8
SLD-0_0
100
AcDbMText
 10
1453.0310292459
 20
324.8449261248
 30
0.0
 40
12.7
 41
0.0
 71
     1
 72
     1
  1
278
  7
SLDTEXTSTYLE0
 73
     1
 44
1.0
  0
ENDBLK
  5
2EB
330
2E9
100
AcDbEntity
  8
0
100
AcDbBlockEnd
  0
BLOCK
  5
2F4
330
2F3
100
AcDbEntity
  8
0
100
AcDbBlockBegin
  2
_D_11
 70
     0
 10
0.0
 20
0.0
 30
0.0
  3
_D_11
  1

  0
SOLID
  5
2F6
330
2F3
100
AcDbEntity
  8
SLD-0_0
100
AcDbTrace
 10
1100.1421401864
 20
827.4737658297
 30
0.0
 11
1097.2972333355
 21
808.9818712984
 31
0.0
 12
1102.9870470374
 22
808.9818712984
 32
0.0
 13
1102.9870470374
 23
808.9818712984
 33
0.0
  0
SOLID
  5
2F7
330
2F3
100
AcDbEntity
  8
SLD-0_0
100
AcDbTrace
 10
1100.1421401864
 20
543.4737658297
 30
0.0
 11
1102.9870470374
 21
561.9656603609
 31
0.0
 12
1097.2972333355
 22
561.9656603609
 32
0.0
 13
1097.2972333355
 23
561.9656603609
 33
0.0
  0
LINE
  5
2F8
330
2F3
100
AcDbEntity
  8
SLD-0_0
100
AcDbLine
 10
1137.1421401864
 20
827.4737658297
 30
0.0
 11
1099.1421401864
 21
827.4737658297
 31
0.0
  0
LINE
  5
2F9
330
2F3
100
AcDbEntity
  8
SLD-0_0
100
AcDbLine
 10
1137.1421401864
 20
543.4737658297
 30
0.0
 11
1099.1421401864
 21
543.4737658297
 31
0.0
  0
LINE
  5
2FA
330
2F3
100
AcDbEntity
  8
SLD-0_0
100
AcDbLine
 10
1100.1421401864
 20
827.4737658297
 30
0.0
 11
1100.1421401864
 21
543.4737658297
 31
0.0
  0
MTEXT
  5
2FB
330
2F3
100
AcDbEntity
  8
SLD-0_0
100
AcDbMText
 10
1083.7709798913
 20
678.4458654456
 30
0.0
 40
12.7
 41
0.0
 71
     1
 72
     1
  1
284
  7
SLDTEXTSTYLE0
 11
-7.044195017643634E-15
 21
1.0
 31
0.0
 73
     1
 44
1.0
  0
ENDBLK
  5
2F5
330
2F3
100
AcDbEntity
  8
0
100
AcDbBlockEnd
  0
BLOCK
  5
2FF
330
2FE
100
AcDbEntity
  8
0
100
AcDbBlockBegin
  2
_D_12
 70
     0
 10
0.0
 20
0.0
 30
0.0
  3
_D_12
  1

  0
ARC
  5
301
330
2FE
100
AcDbEntity
  8
SLD-0_0
100
AcDbCircle
 10
1328.1421401864
 20
353.4737658297
 30
0.0
 40
146.1586397881547
100
AcDbArc
 50
135.0
 51
180.0
  0
SOLID
  5
302
330
2FE
100
AcDbEntity
  8
SLD-0_0
100
AcDbTrace
 10
1224.7923748632
 20
456.8235311529
 30
0.0
 11
1210.4305904017
 21
444.8325843418
 31
0.0
 12
1214.6989343894
 22
441.070242044
 32
0.0
 13
1214.6989343894
 23
441.070242044
 33
0.0
  0
SOLID
  5
303
330
2FE
100
AcDbEntity
  8
SLD-0_0
100
AcDbTrace
 10
1181.9835003983
 20
353.4737658297
 30
0.0
 11
1185.9856177486
 21
371.7501635891
 31
0.0
 12
1180.3070650186
 22
372.1079608153
 32
0.0
 13
1180.3070650186
 23
372.1079608153
 33
0.0
  0
LINE
  5
304
330
2FE
100
AcDbEntity
  8
SLD-0_0
100
AcDbLine
 10
1327.1421401864
 20
353.4737658297
 30
0.0
 11
1180.9835003983
 21
353.4737658297
 31
0.0
  0
MTEXT
  5
305
330
2FE
100
AcDbEntity
  8
SLD-0_0
100
AcDbMText
 10
1173.2595932999
 20
404.3758377913
 30
0.0
 40
12.7
 41
0.0
 71
     1
 72
     1
  1
45°
  7
SLDTEXTSTYLE0
 11
0.3858099098354738
 21
0.9225782966625345
 31
0.0
 73
     1
 44
1.0
  0
ENDBLK
  5
300
330
2FE
100
AcDbEntity
  8
0
100
AcDbBlockEnd
  0
BLOCK
  5
309
330
308
100
AcDbEntity
  8
0
100
AcDbBlockBegin
  2
_D_13
 70
     0
 10
0.0
 20
0.0
 30
0.0
  3
_D_13
  1

  0
ARC
  5
30B
330
308
100
AcDbEntity
  8
SLD-0_0
100
AcDbCircle
 10
1467.1421401864
 20
685.4737658297
 30
0.0
 40
261.2499999999999
100
AcDbArc
 50
156.2499091941
 51
213.9252920374
  0
SOLID
  5
30C
330
308
100
AcDbEntity
  8
SLD-0_0
100
AcDbTrace
 10
1684.4750267806
 20
830.4495531345
 30
0.0
 11
1673.1669835841
 21
825.1861779501
 31
0.0
 12
1675.2719538452
 22
822.0306216221
 32
0.0
 13
1675.2719538452
 23
822.0306216221
 33
0.0
  0
SOLID
  5
30D
330
308
100
AcDbEntity
  8
SLD-0_0
100
AcDbTrace
 10
1249.8092535923
 20
540.4979785248
 30
0.0
 11
1261.1172967888
 21
545.7613537093
 31
0.0
 12
1259.0123265277
 22
548.9169100372
 32
0.0
 13
1259.0123265277
 23
548.9169100372
 33
0.0
  0
LINE
  5
30E
330
308
100
AcDbEntity
  8
SLD-0_0
100
AcDbLine
 10
1249.8092535923
 20
540.4979785248
 30
0.0
 11
1684.4750267806
 21
830.4495531345
 31
0.0
  0
MTEXT
  5
30F
330
308
100
AcDbEntity
  8
SLD-0_0
100
AcDbMText
 10
1317.4965179869
 20
605.2935266037
 30
0.0
 40
12.7
 41
0.0
 71
     1
 72
     1
  1
%%c
  7
SLDTEXTSTYLE0
 11
0.831896216628176
 21
0.5549312432722876
 31
0.0
 73
     1
 44
1.0
  0
MTEXT
  5
310
330
308
100
AcDbEntity
  8
SLD-0_0
100
AcDbMText
 10
1332.4588263471
 20
615.2744018795
 30
0.0
 40
12.7
 41
0.0
 71
     1
 72
     1
  1
522.50
  7
SLDTEXTSTYLE0
 11
0.831896216628176
 21
0.5549312432722876
 31
0.0
 73
     1
 44
1.0
  0
ENDBLK
  5
30A
330
308
100
AcDbEntity
  8
0
100
AcDbBlockEnd
  0
BLOCK
  5
312
330
311
100
AcDbEntity
  8
0
100
AcDbBlockBegin
  2
SW_CENTERMARKSYMBOL_0
 70
     0
 10
0.0
 20
0.0
 30
0.0
  3
SW_CENTERMARKSYMBOL_0
  1

  0
ARC
  5
314
330
311
100
AcDbEntity
  8
SLD-0_0
 62
     0
100
AcDbCircle
 10
-99.9760467054
 20
-241.3635278686
 30
0.0
 40
261.2500000000001
100
AcDbArc
 50
67.5
 51
68.0482849714
  0
ARC
  5
315
330
311
100
AcDbEntity
  8
SLD-0_0
 62
     0
100
AcDbCircle
 10
-99.9760467054
 20
-241.3635278686
 30
0.0
 40
261.2500000000001
100
AcDbArc
 50
66.9517150286
 51
67.5
  0
ARC
  5
316
330
311
100
AcDbEntity
  8
SLD-0_0
 62
     0
100
AcDbCircle
 10
-99.9760467054
 20
-241.3635278686
 30
0.0
 40
261.2500000000001
100
AcDbArc
 50
112.5
 51
113.0482849714
  0
ARC
  5
317
330
311
100
AcDbEntity
  8
SLD-0_0
 62
     0
100
AcDbCircle
 10
-99.9760467054
 20
-241.3635278686
 30
0.0
 40
261.25
100
AcDbArc
 50
111.9517150286
 51
112.5
  0
ARC
  5
318
330
311
100
AcDbEntity
  8
SLD-0_0
 62
     0
100
AcDbCircle
 10
-99.9760467054
 20
-241.3635278686
 30
0.0
 40
261.2500000000001
100
AcDbArc
 50
22.5
 51
23.0482849714
  0
ARC
  5
319
330
311
100
AcDbEntity
  8
SLD-0_0
 62
     0
100
AcDbCircle
 10
-99.9760467054
 20
-241.3635278686
 30
0.0
 40
261.2500000000001
100
AcDbArc
 50
21.9517150286
 51
22.5
  0
ARC
  5
31A
330
311
100
AcDbEntity
  8
SLD-0_0
 62
     0
100
AcDbCircle
 10
-99.9760467054
 20
-241.3635278686
 30
0.0
 40
261.2500000000001
100
AcDbArc
 50
337.5
 51
338.0482849714
  0
ARC
  5
31B
330
311
100
AcDbEntity
  8
SLD-0_0
 62
     0
100
AcDbCircle
 10
-99.9760467054
 20
-241.3635278686
 30
0.0
 40
261.2500000000001
100
AcDbArc
 50
336.9517150286
 51
337.5
  0
ARC
  5
31C
330
311
100
AcDbEntity
  8
SLD-0_0
 62
     0
100
AcDbCircle
 10
-99.9760467054
 20
-241.3635278686
 30
0.0
 40
261.2500000000001
100
AcDbArc
 50
292.5
 51
293.0482849714
  0
ARC
  5
31D
330
311
100
AcDbEntity
  8
SLD-0_0
 62
     0
100
AcDbCircle
 10
-99.9760467054
 20
-241.3635278686
 30
0.0
 40
261.2500000000001
100
AcDbArc
 50
291.9517150286
 51
292.5
  0
ARC
  5
31E
330
311
100
AcDbEntity
  8
SLD-0_0
 62
     0
100
AcDbCircle
 10
-99.9760467054
 20
-241.3635278686
 30
0.0
 40
261.2500000000001
100
AcDbArc
 50
247.5
 51
248.0482849714
  0
ARC
  5
31F
330
311
100
AcDbEntity
  8
SLD-0_0
 62
     0
100
AcDbCircle
 10
-99.9760467054
 20
-241.3635278686
 30
0.0
 40
261.2500000000001
100
AcDbArc
 50
246.9517150286
 51
247.5
  0
ARC
  5
320
330
311
100
AcDbEntity
  8
SLD-0_0
 62
     0
100
AcDbCircle
 10
-99.9760467054
 20
-241.3635278686
 30
0.0
 40
261.25
100
AcDbArc
 50
202.5
 51
203.0482849714
  0
ARC
  5
321
330
311
100
AcDbEntity
  8
SLD-0_0
 62
     0
100
AcDbCircle
 10
-99.9760467054
 20
-241.3635278686
 30
0.0
 40
261.2500000000001
100
AcDbArc
 50
201.9517150286
 51
202.5
  0
ARC
  5
322
330
311
100
AcDbEntity
  8
SLD-0_0
 62
     0
100
AcDbCircle
 10
-99.9760467054
 20
-241.3635278686
 30
0.0
 40
261.2500000000001
100
AcDbArc
 50
157.5
 51
158.0482849714
  0
ARC
  5
323
330
311
100
AcDbEntity
  8
SLD-0_0
 62
     0
100
AcDbCircle
 10
-99.9760467054
 20
-241.3635278686
 30
0.0
 40
261.2500000000001
100
AcDbArc
 50
156.9517150286
 51
157.5
  0
ARC
  5
324
330
311
100
AcDbEntity
  8
SLD-0_0
 62
     0
100
AcDbCircle
 10
-99.9760467054
 20
-241.3635278686
 30
0.0
 40
261.2500000000001
100
AcDbArc
 50
23.5965699428
 51
66.4034300572
  0
ARC
  5
325
330
311
100
AcDbEntity
  8
SLD-0_0
 62
     0
100
AcDbCircle
 10
-99.9760467054
 20
-241.3635278686
 30
0.0
 40
261.2500000000002
100
AcDbArc
 50
68.5965699428
 51
111.4034300572
  0
ARC
  5
326
330
311
100
AcDbEntity
  8
SLD-0_0
 62
     0
100
AcDbCircle
 10
-99.9760467054
 20
-241.3635278686
 30
0.0
 40
261.2500000000001
100
AcDbArc
 50
113.5965699428
 51
156.4034300572
  0
ARC
  5
327
330
311
100
AcDbEntity
  8
SLD-0_0
 62
     0
100
AcDbCircle
 10
-99.9760467054
 20
-241.3635278686
 30
0.0
 40
261.2500000000001
100
AcDbArc
 50
158.5965699428
 51
201.4034300572
  0
ARC
  5
328
330
311
100
AcDbEntity
  8
SLD-0_0
 62
     0
100
AcDbCircle
 10
-99.9760467054
 20
-241.3635278686
 30
0.0
 40
261.2500000000001
100
AcDbArc
 50
203.5965699428
 51
246.4034300572
  0
ARC
  5
329
330
311
100
AcDbEntity
  8
SLD-0_0
 62
     0
100
AcDbCircle
 10
-99.9760467054
 20
-241.3635278686
 30
0.0
 40
261.2500000000001
100
AcDbArc
 50
248.5965699428
 51
291.4034300572
  0
ARC
  5
32A
330
311
100
AcDbEntity
  8
SLD-0_0
 62
     0
100
AcDbCircle
 10
-99.9760467054
 20
-241.3635278686
 30
0.0
 40
261.2500000000001
100
AcDbArc
 50
293.5965699428
 51
336.4034300572
  0
ARC
  5
32B
330
311
100
AcDbEntity
  8
SLD-0_0
 62
     0
100
AcDbCircle
 10
-99.9760467054
 20
-241.3635278686
 30
0.0
 40
261.2500000000001
100
AcDbArc
 50
338.5965699428
 51
21.4034300572
  0
LINE
  5
32C
330
311
100
AcDbEntity
  8
SLD-0_0
 62
     0
100
AcDbLine
 10
0.0
 20
0.0
 30
0.0
 11
0.9567085809
 21
2.3096988313
 31
0.0
  0
LINE
  5
32D
330
311
100
AcDbEntity
  8
SLD-0_0
 62
     0
100
AcDbLine
 10
0.0
 20
0.0
 30
0.0
 11
-0.9567085809
 21
-2.3096988313
 31
0.0
  0
LINE
  5
32E
330
311
100
AcDbEntity
  8
SLD-0_0
 62
     0
100
AcDbLine
 10
1.9134171618
 20
4.6193976626
 30
0.0
 11
2.5639789968
 21
6.1899928678
 31
0.0
  0
LINE
  5
32F
330
311
100
AcDbEntity
  8
SLD-0_0
 62
     0
100
AcDbLine
 10
-1.9134171618
 20
-4.6193976626
 30
0.0
 11
-2.5639789968
 21
-6.1899928678
 31
0.0
  0
LINE
  5
330
330
311
100
AcDbEntity
  8
SLD-0_0
 62
     0
100
AcDbLine
 10
-99.9760467054
 20
-241.3635278686
 30
0.0
 11
-99.9760467054
 21
-238.8635278686
 31
0.0
  0
LINE
  5
331
330
311
100
AcDbEntity
  8
SLD-0_0
 62
     0
100
AcDbLine
 10
-99.9760467054
 20
-241.3635278686
 30
0.0
 11
-102.4760467054
 21
-241.3635278686
 31
0.0
  0
LINE
  5
332
330
311
100
AcDbEntity
  8
SLD-0_0
 62
     0
100
AcDbLine
 10
-99.9760467054
 20
-241.3635278686
 30
0.0
 11
-99.9760467054
 21
-243.8635278686
 31
0.0
  0
LINE
  5
333
330
311
100
AcDbEntity
  8
SLD-0_0
 62
     0
100
AcDbLine
 10
-99.9760467054
 20
-241.3635278686
 30
0.0
 11
-97.4760467054
 21
-241.3635278686
 31
0.0
  0
LINE
  5
334
330
311
100
AcDbEntity
  8
SLD-0_0
 62
     0
100
AcDbLine
 10
-99.9760467054
 20
-236.3635278686
 30
0.0
 11
-99.9760467054
 21
106.6237299901
 31
0.0
  0
LINE
  5
335
330
311
100
AcDbEntity
  8
SLD-0_0
 62
     0
100
AcDbLine
 10
-104.9760467054
 20
-241.3635278686
 30
0.0
 11
-445.4907692826
 21
-241.3635278686
 31
0.0
  0
LINE
  5
336
330
311
100
AcDbEntity
  8
SLD-0_0
 62
     0
100
AcDbLine
 10
-99.9760467054
 20
-246.3635278686
 30
0.0
 11
-99.9760467054
 21
-592.1710155796
 31
0.0
  0
LINE
  5
337
330
311
100
AcDbEntity
  8
SLD-0_0
 62
     0
100
AcDbLine
 10
-94.9760467054
 20
-241.3635278686
 30
0.0
 11
247.9286320904
 21
-241.3635278686
 31
0.0
  0
LINE
  5
338
330
311
100
AcDbEntity
  8
SLD-0_0
 62
     0
100
AcDbLine
 10
-199.9520934108
 20
0.0
 30
0.0
 11
-200.9088019917
 21
2.3096988313
 31
0.0
  0
LINE
  5
339
330
311
100
AcDbEntity
  8
SLD-0_0
 62
     0
100
AcDbLine
 10
-199.9520934108
 20
0.0
 30
0.0
 11
-198.9953848298
 21
-2.3096988313
 31
0.0
  0
LINE
  5
33A
330
311
100
AcDbEntity
  8
SLD-0_0
 62
     0
100
AcDbLine
 10
-201.8655105726
 20
4.6193976626
 30
0.0
 11
-202.5160724076
 21
6.1899928678
 31
0.0
  0
LINE
  5
33B
330
311
100
AcDbEntity
  8
SLD-0_0
 62
     0
100
AcDbLine
 10
-198.0386762489
 20
-4.6193976626
 30
0.0
 11
-197.3881144139
 21
-6.1899928678
 31
0.0
  0
LINE
  5
33C
330
311
100
AcDbEntity
  8
SLD-0_0
 62
     0
100
AcDbLine
 10
141.3874811632
 20
-141.3874811632
 30
0.0
 11
143.6971799945
 21
-140.4307725823
 31
0.0
  0
LINE
  5
33D
330
311
100
AcDbEntity
  8
SLD-0_0
 62
     0
100
AcDbLine
 10
141.3874811632
 20
-141.3874811632
 30
0.0
 11
139.0777823319
 21
-142.3441897441
 31
0.0
  0
LINE
  5
33E
330
311
100
AcDbEntity
  8
SLD-0_0
 62
     0
100
AcDbLine
 10
146.0068788257
 20
-139.4740640014
 30
0.0
 11
147.577474031
 21
-138.8235021663
 31
0.0
  0
LINE
  5
33F
330
311
100
AcDbEntity
  8
SLD-0_0
 62
     0
100
AcDbLine
 10
136.7680835006
 20
-143.300898325
 30
0.0
 11
135.1974882954
 21
-143.95146016
 31
0.0
  0
LINE
  5
340
330
311
100
AcDbEntity
  8
SLD-0_0
 62
     0
100
AcDbLine
 10
141.3874811632
 20
-341.339574574
 30
0.0
 11
143.6971799945
 21
-342.2962831549
 31
0.0
  0
LINE
  5
341
330
311
100
AcDbEntity
  8
SLD-0_0
 62
     0
100
AcDbLine
 10
141.3874811632
 20
-341.339574574
 30
0.0
 11
139.0777823319
 21
-340.382865993
 31
0.0
  0
LINE
  5
342
330
311
100
AcDbEntity
  8
SLD-0_0
 62
     0
100
AcDbLine
 10
146.0068788257
 20
-343.2529917358
 30
0.0
 11
147.577474031
 21
-343.9035535708
 31
0.0
  0
LINE
  5
343
330
311
100
AcDbEntity
  8
SLD-0_0
 62
     0
100
AcDbLine
 10
136.7680835006
 20
-339.4261574121
 30
0.0
 11
135.1974882954
 21
-338.7755955771
 31
0.0
  0
LINE
  5
344
330
311
100
AcDbEntity
  8
SLD-0_0
 62
     0
100
AcDbLine
 10
0.0
 20
-482.7270557371
 30
0.0
 11
0.9567085809
 21
-485.0367545684
 31
0.0
  0
LINE
  5
345
330
311
100
AcDbEntity
  8
SLD-0_0
 62
     0
100
AcDbLine
 10
0.0
 20
-482.7270557371
 30
0.0
 11
-0.9567085809
 21
-480.4173569059
 31
0.0
  0
LINE
  5
346
330
311
100
AcDbEntity
  8
SLD-0_0
 62
     0
100
AcDbLine
 10
1.9134171618
 20
-487.3464533997
 30
0.0
 11
2.5639789968
 21
-488.917048605
 31
0.0
  0
LINE
  5
347
330
311
100
AcDbEntity
  8
SLD-0_0
 62
     0
100
AcDbLine
 10
-1.9134171618
 20
-478.1076580746
 30
0.0
 11
-2.5639789969
 21
-476.5370628693
 31
0.0
  0
LINE
  5
348
330
311
100
AcDbEntity
  8
SLD-0_0
 62
     0
100
AcDbLine
 10
-199.9520934108
 20
-482.7270557371
 30
0.0
 11
-200.9088019917
 21
-485.0367545684
 31
0.0
  0
LINE
  5
349
330
311
100
AcDbEntity
  8
SLD-0_0
 62
     0
100
AcDbLine
 10
-199.9520934108
 20
-482.7270557371
 30
0.0
 11
-198.9953848299
 21
-480.4173569059
 31
0.0
  0
LINE
  5
34A
330
311
100
AcDbEntity
  8
SLD-0_0
 62
     0
100
AcDbLine
 10
-201.8655105726
 20
-487.3464533997
 30
0.0
 11
-202.5160724076
 21
-488.917048605
 31
0.0
  0
LINE
  5
34B
330
311
100
AcDbEntity
  8
SLD-0_0
 62
     0
100
AcDbLine
 10
-198.0386762489
 20
-478.1076580746
 30
0.0
 11
-197.3881144139
 21
-476.5370628693
 31
0.0
  0
LINE
  5
34C
330
311
100
AcDbEntity
  8
SLD-0_0
 62
     0
100
AcDbLine
 10
-341.339574574
 20
-341.3395745739
 30
0.0
 11
-343.6492734052
 21
-342.2962831549
 31
0.0
  0
LINE
  5
34D
330
311
100
AcDbEntity
  8
SLD-0_0
 62
     0
100
AcDbLine
 10
-341.339574574
 20
-341.3395745739
 30
0.0
 11
-339.0298757427
 21
-340.382865993
 31
0.0
  0
LINE
  5
34E
330
311
100
AcDbEntity
  8
SLD-0_0
 62
     0
100
AcDbLine
 10
-345.9589722365
 20
-343.2529917358
 30
0.0
 11
-347.5295674418
 21
-343.9035535708
 31
0.0
  0
LINE
  5
34F
330
311
100
AcDbEntity
  8
SLD-0_0
 62
     0
100
AcDbLine
 10
-336.7201769114
 20
-339.4261574121
 30
0.0
 11
-335.1495817061
 21
-338.7755955771
 31
0.0
  0
LINE
  5
350
330
311
100
AcDbEntity
  8
SLD-0_0
 62
     0
100
AcDbLine
 10
-341.339574574
 20
-141.3874811632
 30
0.0
 11
-343.6492734052
 21
-140.4307725823
 31
0.0
  0
LINE
  5
351
330
311
100
AcDbEntity
  8
SLD-0_0
 62
     0
100
AcDbLine
 10
-341.339574574
 20
-141.3874811632
 30
0.0
 11
-339.0298757427
 21
-142.3441897441
 31
0.0
  0
LINE
  5
352
330
311
100
AcDbEntity
  8
SLD-0_0
 62
     0
100
AcDbLine
 10
-345.9589722365
 20
-139.4740640014
 30
0.0
 11
-347.5295674418
 21
-138.8235021663
 31
0.0
  0
LINE
  5
353
330
311
100
AcDbEntity
  8
SLD-0_0
 62
     0
100
AcDbLine
 10
-336.7201769114
 20
-143.300898325
 30
0.0
 11
-335.1495817061
 21
-143.95146016
 31
0.0
  0
ENDBLK
  5
313
330
311
100
AcDbEntity
  8
0
100
AcDbBlockEnd
  0
BLOCK
  5
35C
330
35B
100
AcDbEntity
  8
0
100
AcDbBlockBegin
  2
_D_14
 70
     0
 10
0.0
 20
0.0
 30
0.0
  3
_D_14
  1

  0
SOLID
  5
35E
330
35B
100
AcDbEntity
  8
SLD-0_0
100
AcDbTrace
 10
2836.9766958731
 20
714.4307292386
 30
0.0
 11
2839.8216027241
 21
732.9226237699
 31
0.0
 12
2834.1317890222
 22
732.9226237699
 32
0.0
 13
2834.1317890222
 23
732.9226237699
 33
0.0
  0
SOLID
  5
35F
330
35B
100
AcDbEntity
  8
SLD-0_0
100
AcDbTrace
 10
2836.9766958731
 20
629.4307292386
 30
0.0
 11
2834.1317890222
 21
610.9388347074
 31
0.0
 12
2839.8216027241
 22
610.9388347074
 32
0.0
 13
2839.8216027241
 23
610.9388347074
 33
0.0
  0
LINE
  5
360
330
35B
100
AcDbEntity
  8
SLD-0_0
100
AcDbLine
 10
2799.9766958731
 20
714.4307292386
 30
0.0
 11
2837.9766958731
 21
714.4307292386
 31
0.0
  0
LINE
  5
361
330
35B
100
AcDbEntity
  8
SLD-0_0
100
AcDbLine
 10
2799.9766958731
 20
629.4307292386
 30
0.0
 11
2837.9766958731
 21
629.4307292386
 31
0.0
  0
LINE
  5
362
330
35B
100
AcDbEntity
  8
SLD-0_0
100
AcDbLine
 10
2836.9766958731
 20
714.4307292386
 30
0.0
 11
2836.9766958731
 21
749.9920648757
 31
0.0
  0
LINE
  5
363
330
35B
100
AcDbEntity
  8
SLD-0_0
100
AcDbLine
 10
2836.9766958731
 20
714.4307292386
 30
0.0
 11
2836.9766958731
 21
629.4307292386
 31
0.0
  0
LINE
  5
364
330
35B
100
AcDbEntity
  8
SLD-0_0
100
AcDbLine
 10
2836.9766958731
 20
629.4307292386
 30
0.0
 11
2836.9766958731
 21
593.8693936016
 31
0.0
  0
MTEXT
  5
365
330
35B
100
AcDbEntity
  8
SLD-0_0
100
AcDbMText
 10
2820.605535578
 20
663.0350675372
 30
0.0
 40
12.7
 41
0.0
 71
     1
 72
     1
  1
85
  7
SLDTEXTSTYLE0
 11
-7.044195017643634E-15
 21
1.0
 31
0.0
 73
     1
 44
1.0
  0
ENDBLK
  5
35D
330
35B
100
AcDbEntity
  8
0
100
AcDbBlockEnd
  0
BLOCK
  5
368
330
367
100
AcDbEntity
  8
0
100
AcDbBlockBegin
  2
_D_15
 70
     0
 10
0.0
 20
0.0
 30
0.0
  3
_D_15
  1

  0
SOLID
  5
36A
330
367
100
AcDbEntity
  8
SLD-0_0
100
AcDbTrace
 10
2134.9766958731
 20
591.4307292386
 30
0.0
 11
2153.4685904044
 21
588.5858223877
 31
0.0
 12
2153.4685904044
 22
594.2756360896
 32
0.0
 13
2153.4685904044
 23
594.2756360896
 33
0.0
  0
SOLID
  5
36B
330
367
100
AcDbEntity
  8
SLD-0_0
100
AcDbTrace
 10
2798.9766958731
 20
591.4307292386
 30
0.0
 11
2780.4848013419
 21
594.2756360896
 31
0.0
 12
2780.4848013419
 22
588.5858223877
 32
0.0
 13
2780.4848013419
 23
588.5858223877
 33
0.0
  0
LINE
  5
36C
330
367
100
AcDbEntity
  8
SLD-0_0
100
AcDbLine
 10
2134.9766958731
 20
628.4307292386
 30
0.0
 11
2134.9766958731
 21
590.4307292386
 31
0.0
  0
LINE
  5
36D
330
367
100
AcDbEntity
  8
SLD-0_0
100
AcDbLine
 10
2798.9766958731
 20
628.4307292386
 30
0.0
 11
2798.9766958731
 21
590.4307292386
 31
0.0
  0
LINE
  5
36E
330
367
100
AcDbEntity
  8
SLD-0_0
100
AcDbLine
 10
2134.9766958731
 20
591.4307292386
 30
0.0
 11
2798.9766958731
 21
591.4307292386
 31
0.0
  0
MTEXT
  5
36F
330
367
100
AcDbEntity
  8
SLD-0_0
100
AcDbMText
 10
2427.8977697385
 20
607.8018895337
 30
0.0
 40
12.7
 41
0.0
 71
     1
 72
     1
  1
664
  7
SLDTEXTSTYLE0
 73
     1
 44
1.0
  0
ENDBLK
  5
369
330
367
100
AcDbEntity
  8
0
100
AcDbBlockEnd
  0
BLOCK
  5
38A
330
389
100
AcDbEntity
  8
0
100
AcDbBlockBegin
  2
_D_16
 70
     0
 10
0.0
 20
0.0
 30
0.0
  3
_D_16
  1

  0
SOLID
  5
38C
330
389
100
AcDbEntity
  8
SLD-0_0
100
AcDbTrace
 10
2130.7451225448
 20
743.8930048678
 30
0.0
 11
2149.237017076
 21
741.0480980168
 31
0.0
 12
2149.237017076
 22
746.7379117187
 32
0.0
 13
2149.237017076
 23
746.7379117187
 33
0.0
  0
SOLID
  5
38D
330
389
100
AcDbEntity
  8
SLD-0_0
100
AcDbTrace
 10
2788.7451225448
 20
743.8930048678
 30
0.0
 11
2770.2532280135
 21
746.7379117187
 31
0.0
 12
2770.2532280135
 22
741.0480980168
 32
0.0
 13
2770.2532280135
 23
741.0480980168
 33
0.0
  0
LINE
  5
38E
330
389
100
AcDbEntity
  8
SLD-0_0
100
AcDbLine
 10
2130.7451225448
 20
801.8930048678
 30
0.0
 11
2130.7451225448
 21
742.8930048678
 31
0.0
  0
LINE
  5
38F
330
389
100
AcDbEntity
  8
SLD-0_0
100
AcDbLine
 10
2788.7451225448
 20
801.8930048678
 30
0.0
 11
2788.7451225448
 21
742.8930048678
 31
0.0
  0
LINE
  5
390
330
389
100
AcDbEntity
  8
SLD-0_0
100
AcDbLine
 10
2130.7451225448
 20
743.8930048678
 30
0.0
 11
2788.7451225448
 21
743.8930048678
 31
0.0
  0
MTEXT
  5
391
330
389
100
AcDbEntity
  8
SLD-0_0
100
AcDbMText
 10
2438.2627178511
 20
760.2641651629
 30
0.0
 40
12.7
 41
0.0
 71
     1
 72
     1
  1
658
  7
SLDTEXTSTYLE0
 73
     1
 44
1.0
  0
ENDBLK
  5
38B
330
389
100
AcDbEntity
  8
0
100
AcDbBlockEnd
  0
BLOCK
  5
394
330
393
100
AcDbEntity
  8
0
100
AcDbBlockBegin
  2
_D_17
 70
     0
 10
0.0
 20
0.0
 30
0.0
  3
_D_17
  1

  0
SOLID
  5
396
330
393
100
AcDbEntity
  8
SLD-0_0
100
AcDbTrace
 10
2157.7451225448
 20
764.8930048678
 30
0.0
 11
2176.237017076
 21
762.0480980168
 31
0.0
 12
2176.237017076
 22
767.7379117187
 32
0.0
 13
2176.237017076
 23
767.7379117187
 33
0.0
  0
SOLID
  5
397
330
393
100
AcDbEntity
  8
SLD-0_0
100
AcDbTrace
 10
2439.7451225448
 20
764.8930048678
 30
0.0
 11
2421.2532280135
 21
767.7379117187
 31
0.0
 12
2421.2532280135
 22
762.0480980168
 32
0.0
 13
2421.2532280135
 23
762.0480980168
 33
0.0
  0
LINE
  5
398
330
393
100
AcDbEntity
  8
SLD-0_0
100
AcDbLine
 10
2157.7451225448
 20
901.8930048678
 30
0.0
 11
2157.7451225448
 21
763.8930048678
 31
0.0
  0
LINE
  5
399
330
393
100
AcDbEntity
  8
SLD-0_0
100
AcDbLine
 10
2439.7451225448
 20
901.8930048678
 30
0.0
 11
2439.7451225448
 21
763.8930048678
 31
0.0
  0
LINE
  5
39A
330
393
100
AcDbEntity
  8
SLD-0_0
100
AcDbLine
 10
2157.7451225448
 20
764.8930048678
 30
0.0
 11
2439.7451225448
 21
764.8930048678
 31
0.0
  0
MTEXT
  5
39B
330
393
100
AcDbEntity
  8
SLD-0_0
100
AcDbMText
 10
2272.0038398056
 20
781.2641651629
 30
0.0
 40
12.7
 41
0.0
 71
     1
 72
     1
  1
282
  7
SLDTEXTSTYLE0
 73
     1
 44
1.0
  0
ENDBLK
  5
395
330
393
100
AcDbEntity
  8
0
100
AcDbBlockEnd
  0
BLOCK
  5
39E
330
39D
100
AcDbEntity
  8
0
100
AcDbBlockBegin
  2
_D_18
 70
     0
 10
0.0
 20
0.0
 30
0.0
  3
_D_18
  1

  0
SOLID
  5
3A0
330
39D
100
AcDbEntity
  8
SLD-0_0
100
AcDbTrace
 10
2106.7451225448
 20
973.8930048678
 30
0.0
 11
2103.9002156938
 21
955.4011103365
 31
0.0
 12
2109.5900293957
 22
955.4011103365
 32
0.0
 13
2109.5900293957
 23
955.4011103365
 33
0.0
  0
SOLID
  5
3A1
330
39D
100
AcDbEntity
  8
SLD-0_0
100
AcDbTrace
 10
2106.7451225448
 20
852.8930048678
 30
0.0
 11
2109.5900293957
 21
871.384899399
 31
0.0
 12
2103.9002156938
 22
871.384899399
 32
0.0
 13
2103.9002156938
 23
871.384899399
 33
0.0
  0
LINE
  5
3A2
330
39D
100
AcDbEntity
  8
SLD-0_0
100
AcDbLine
 10
2206.7451225448
 20
973.8930048678
 30
0.0
 11
2105.7451225448
 21
973.8930048678
 31
0.0
  0
LINE
  5
3A3
330
39D
100
AcDbEntity
  8
SLD-0_0
100
AcDbLine
 10
2206.7451225448
 20
852.8930048678
 30
0.0
 11
2105.7451225448
 21
852.8930048678
 31
0.0
  0
LINE
  5
3A4
330
39D
100
AcDbEntity
  8
SLD-0_0
100
AcDbLine
 10
2106.7451225448
 20
973.8930048678
 30
0.0
 11
2106.7451225448
 21
852.8930048678
 31
0.0
  0
MTEXT
  5
3A5
330
39D
100
AcDbEntity
  8
SLD-0_0
100
AcDbMText
 10
2090.3739622497
 20
902.0553153001
 30
0.0
 40
12.7
 41
0.0
 71
     1
 72
     1
  1
121
  7
SLDTEXTSTYLE0
 11
-7.044195017643634E-15
 21
1.0
 31
0.0
 73
     1
 44
1.0
  0
ENDBLK
  5
39F
330
39D
100
AcDbEntity
  8
0
100
AcDbBlockEnd
  0
BLOCK
  5
3A8
330
3A7
100
AcDbEntity
  8
0
100
AcDbBlockBegin
  2
_D_19
 70
     0
 10
0.0
 20
0.0
 30
0.0
  3
_D_19
  1

  0
SOLID
  5
3AA
330
3A7
100
AcDbEntity
  8
SLD-0_0
100
AcDbTrace
 10
2071.7451225448
 20
802.8930048678
 30
0.0
 11
2074.5900293957
 21
821.384899399
 31
0.0
 12
2068.9002156938
 22
821.384899399
 32
0.0
 13
2068.9002156938
 23
821.384899399
 33
0.0
  0
SOLID
  5
3AB
330
3A7
100
AcDbEntity
  8
SLD-0_0
100
AcDbTrace
 10
2071.7451225448
 20
1023.8930048678
 30
0.0
 11
2068.9002156938
 21
1005.4011103365
 31
0.0
 12
2074.5900293957
 22
1005.4011103365
 32
0.0
 13
2074.5900293957
 23
1005.4011103365
 33
0.0
  0
LINE
  5
3AC
330
3A7
100
AcDbEntity
  8
SLD-0_0
100
AcDbLine
 10
2129.7451225448
 20
802.8930048678
 30
0.0
 11
2070.7451225448
 21
802.8930048678
 31
0.0
  0
LINE
  5
3AD
330
3A7
100
AcDbEntity
  8
SLD-0_0
100
AcDbLine
 10
2129.7451225448
 20
1023.8930048678
 30
0.0
 11
2070.7451225448
 21
1023.8930048678
 31
0.0
  0
LINE
  5
3AE
330
3A7
100
AcDbEntity
  8
SLD-0_0
100
AcDbLine
 10
2071.7451225448
 20
802.8930048678
 30
0.0
 11
2071.7451225448
 21
1023.8930048678
 31
0.0
  0
MTEXT
  5
3AF
330
3A7
100
AcDbEntity
  8
SLD-0_0
100
AcDbMText
 10
2055.3739622497
 20
902.0553153001
 30
0.0
 40
12.7
 41
0.0
 71
     1
 72
     1
  1
221
  7
SLDTEXTSTYLE0
 11
6.123233995736766E-17
 21
1.0
 31
0.0
 73
     1
 44
1.0
  0
ENDBLK
  5
3A9
330
3A7
100
AcDbEntity
  8
0
100
AcDbBlockEnd
  0
BLOCK
  5
3B3
330
3B2
100
AcDbEntity
  8
0
100
AcDbBlockBegin
  2
_D_20
 70
     0
 10
0.0
 20
0.0
 30
0.0
  3
_D_20
  1

  0
SOLID
  5
3B5
330
3B2
100
AcDbEntity
  8
SLD-0_0
100
AcDbTrace
 10
2427.2635716803
 20
869.8420446024
 30
0.0
 11
2439.2587777024
 21
855.4838173151
 31
0.0
 12
2443.0198538339
 22
859.7532770344
 32
0.0
 13
2443.0198538339
 23
859.7532770344
 33
0.0
  0
LINE
  5
3B6
330
3B2
100
AcDbEntity
  8
SLD-0_0
100
AcDbLine
 10
2427.2635716803
 20
869.8420446024
 30
0.0
 11
2463.6222604183
 21
837.8127468978
 31
0.0
  0
LINE
  5
3B7
330
3B2
100
AcDbEntity
  8
SLD-0_0
100
AcDbLine
 10
2427.2635716803
 20
869.8420446024
 30
0.0
 11
2389.7451225448
 21
902.8930048678
 31
0.0
  0
MTEXT
  5
3B8
330
3B2
100
AcDbEntity
  8
SLD-0_0
100
AcDbMText
 10
2451.1092613862
 20
870.5728836739
 30
0.0
 40
12.7
 41
0.0
 71
     1
 72
     1
  1
R50
  7
SLDTEXTSTYLE0
 11
0.750368982711129
 21
-0.6610192053072781
 31
0.0
 73
     1
 44
1.0
  0
ENDBLK
  5
3B4
330
3B2
100
AcDbEntity
  8
0
100
AcDbBlockEnd
  0
BLOCK
  5
3BB
330
3BA
100
AcDbEntity
  8
0
100
AcDbBlockBegin
  2
_D_21
 70
     0
 10
0.0
 20
0.0
 30
0.0
  3
_D_21
  1

  0
SOLID
  5
3BD
330
3BA
100
AcDbEntity
  8
SLD-0_0
100
AcDbTrace
 10
2526.4518246106
 20
938.8930048678
 30
0.0
 11
2529.2967314616
 21
957.384899399
 31
0.0
 12
2523.6069177597
 22
957.384899399
 32
0.0
 13
2523.6069177597
 23
957.384899399
 33
0.0
  0
SOLID
  5
3BE
330
3BA
100
AcDbEntity
  8
SLD-0_0
100
AcDbTrace
 10
2526.4518246106
 20
1023.8930048678
 30
0.0
 11
2523.6069177597
 21
1005.4011103365
 31
0.0
 12
2529.2967314616
 22
1005.4011103365
 32
0.0
 13
2529.2967314616
 23
1005.4011103365
 33
0.0
  0
LINE
  5
3BF
330
3BA
100
AcDbEntity
  8
SLD-0_0
100
AcDbLine
 10
2469.7451225448
 20
938.8930048678
 30
0.0
 11
2527.4518246106
 21
938.8930048678
 31
0.0
  0
LINE
  5
3C0
330
3BA
100
AcDbEntity
  8
SLD-0_0
100
AcDbLine
 10
2526.4518246106
 20
938.8930048678
 30
0.0
 11
2526.4518246106
 21
1023.8930048678
 31
0.0
  0
LINE
  5
3C1
330
3BA
100
AcDbEntity
  8
SLD-0_0
100
AcDbLine
 10
2526.4518246106
 20
1023.8930048678
 30
0.0
 11
2526.4518246106
 21
1057.3004124719
 31
0.0
  0
MTEXT
  5
3C2
330
3BA
100
AcDbEntity
  8
SLD-0_0
100
AcDbMText
 10
2510.0806643155
 20
1038.4855972636
 30
0.0
 40
12.7
 41
0.0
 71
     1
 72
     1
  1
85
  7
SLDTEXTSTYLE0
 11
6.123233995736766E-17
 21
1.0
 31
0.0
 73
     1
 44
1.0
  0
ENDBLK
  5
3BC
330
3BA
100
AcDbEntity
  8
0
100
AcDbBlockEnd
  0
BLOCK
  5
3C5
330
3C4
100
AcDbEntity
  8
0
100
AcDbBlockBegin
  2
_D_22
 70
     0
 10
0.0
 20
0.0
 30
0.0
  3
_D_22
  1

  0
SOLID
  5
3C7
330
3C4
100
AcDbEntity
  8
SLD-0_0
100
AcDbTrace
 10
2450.7451225448
 20
1068.8930048678
 30
0.0
 11
2432.2532280135
 21
1071.7379117187
 31
0.0
 12
2432.2532280135
 22
1066.0480980168
 32
0.0
 13
2432.2532280135
 23
1066.0480980168
 33
0.0
  0
SOLID
  5
3C8
330
3C4
100
AcDbEntity
  8
SLD-0_0
100
AcDbTrace
 10
2468.7451225448
 20
1068.8930048678
 30
0.0
 11
2487.237017076
 21
1066.0480980168
 31
0.0
 12
2487.237017076
 22
1071.7379117187
 32
0.0
 13
2487.237017076
 23
1071.7379117187
 33
0.0
  0
LINE
  5
3C9
330
3C4
100
AcDbEntity
  8
SLD-0_0
100
AcDbLine
 10
2450.7451225448
 20
1024.8930048678
 30
0.0
 11
2450.7451225448
 21
1069.8930048678
 31
0.0
  0
LINE
  5
3CA
330
3C4
100
AcDbEntity
  8
SLD-0_0
100
AcDbLine
 10
2468.7451225448
 20
1024.8930048678
 30
0.0
 11
2468.7451225448
 21
1069.8930048678
 31
0.0
  0
LINE
  5
3CB
330
3C4
100
AcDbEntity
  8
SLD-0_0
100
AcDbLine
 10
2450.7451225448
 20
1068.8930048678
 30
0.0
 11
2415.1837869078
 21
1068.8930048678
 31
0.0
  0
LINE
  5
3CC
330
3C4
100
AcDbEntity
  8
SLD-0_0
100
AcDbLine
 10
2450.7451225448
 20
1068.8930048678
 30
0.0
 11
2468.7451225448
 21
1068.8930048678
 31
0.0
  0
LINE
  5
3CD
330
3C4
100
AcDbEntity
  8
SLD-0_0
100
AcDbLine
 10
2468.7451225448
 20
1068.8930048678
 30
0.0
 11
2504.3064581818
 21
1068.8930048678
 31
0.0
  0
MTEXT
  5
3CE
330
3C4
100
AcDbEntity
  8
SLD-0_0
100
AcDbMText
 10
2450.2185189996
 20
1085.2641651629
 30
0.0
 40
12.7
 41
0.0
 71
     1
 72
     1
  1
18
  7
SLDTEXTSTYLE0
 73
     1
 44
1.0
  0
ENDBLK
  5
3C6
330
3C4
100
AcDbEntity
  8
0
100
AcDbBlockEnd
  0
BLOCK
  5
3D1
330
3D0
100
AcDbEntity
  8
0
100
AcDbBlockBegin
  2
_D_23
 70
     0
 10
0.0
 20
0.0
 30
0.0
  3
_D_23
  1

  0
SOLID
  5
3D3
330
3D0
100
AcDbEntity
  8
SLD-0_0
100
AcDbTrace
 10
2157.7451225448
 20
764.8930048678
 30
0.0
 11
2176.237017076
 21
762.0480980168
 31
0.0
 12
2176.237017076
 22
767.7379117187
 32
0.0
 13
2176.237017076
 23
767.7379117187
 33
0.0
  0
SOLID
  5
3D4
330
3D0
100
AcDbEntity
  8
SLD-0_0
100
AcDbTrace
 10
2130.7451225448
 20
764.8930048678
 30
0.0
 11
2112.2532280135
 21
767.7379117187
 31
0.0
 12
2112.2532280135
 22
762.0480980168
 32
0.0
 13
2112.2532280135
 23
762.0480980168
 33
0.0
  0
LINE
  5
3D5
330
3D0
100
AcDbEntity
  8
SLD-0_0
100
AcDbLine
 10
2157.7451225448
 20
901.8930048678
 30
0.0
 11
2157.7451225448
 21
763.8930048678
 31
0.0
  0
LINE
  5
3D6
330
3D0
100
AcDbEntity
  8
SLD-0_0
100
AcDbLine
 10
2130.7451225448
 20
801.8930048678
 30
0.0
 11
2130.7451225448
 21
763.8930048678
 31
0.0
  0
LINE
  5
3D7
330
3D0
100
AcDbEntity
  8
SLD-0_0
100
AcDbLine
 10
2157.7451225448
 20
764.8930048678
 30
0.0
 11
2193.3064581818
 21
764.8930048678
 31
0.0
  0
LINE
  5
3D8
330
3D0
100
AcDbEntity
  8
SLD-0_0
100
AcDbLine
 10
2157.7451225448
 20
764.8930048678
 30
0.0
 11
2130.7451225448
 21
764.8930048678
 31
0.0
  0
LINE
  5
3D9
330
3D0
100
AcDbEntity
  8
SLD-0_0
100
AcDbLine
 10
2130.7451225448
 20
764.8930048678
 30
0.0
 11
2095.1837869078
 21
764.8930048678
 31
0.0
  0
MTEXT
  5
3DA
330
3D0
100
AcDbEntity
  8
SLD-0_0
100
AcDbMText
 10
2134.702372263
 20
781.2641651629
 30
0.0
 40
12.7
 41
0.0
 71
     1
 72
     1
  1
27
  7
SLDTEXTSTYLE0
 73
     1
 44
1.0
  0
ENDBLK
  5
3D2
330
3D0
100
AcDbEntity
  8
0
100
AcDbBlockEnd
  0
BLOCK
  5
3DD
330
3DC
100
AcDbEntity
  8
0
100
AcDbBlockBegin
  2
_D_24
 70
     0
 10
0.0
 20
0.0
 30
0.0
  3
_D_24
  1

  0
SOLID
  5
3DF
330
3DC
100
AcDbEntity
  8
SLD-0_0
100
AcDbTrace
 10
2106.7451225448
 20
852.8930048678
 30
0.0
 11
2109.5900293957
 21
871.384899399
 31
0.0
 12
2103.9002156938
 22
871.384899399
 32
0.0
 13
2103.9002156938
 23
871.384899399
 33
0.0
  0
SOLID
  5
3E0
330
3DC
100
AcDbEntity
  8
SLD-0_0
100
AcDbTrace
 10
2106.7451225448
 20
802.8930048678
 30
0.0
 11
2103.9002156938
 21
784.4011103365
 31
0.0
 12
2109.5900293957
 22
784.4011103365
 32
0.0
 13
2109.5900293957
 23
784.4011103365
 33
0.0
  0
LINE
  5
3E1
330
3DC
100
AcDbEntity
  8
SLD-0_0
100
AcDbLine
 10
2206.7451225448
 20
852.8930048678
 30
0.0
 11
2105.7451225448
 21
852.8930048678
 31
0.0
  0
LINE
  5
3E2
330
3DC
100
AcDbEntity
  8
SLD-0_0
100
AcDbLine
 10
2129.7451225448
 20
802.8930048678
 30
0.0
 11
2105.7451225448
 21
802.8930048678
 31
0.0
  0
LINE
  5
3E3
330
3DC
100
AcDbEntity
  8
SLD-0_0
100
AcDbLine
 10
2106.7451225448
 20
852.8930048678
 30
0.0
 11
2106.7451225448
 21
888.4543405048
 31
0.0
  0
LINE
  5
3E4
330
3DC
100
AcDbEntity
  8
SLD-0_0
100
AcDbLine
 10
2106.7451225448
 20
852.8930048678
 30
0.0
 11
2106.7451225448
 21
802.8930048678
 31
0.0
  0
LINE
  5
3E5
330
3DC
100
AcDbEntity
  8
SLD-0_0
100
AcDbLine
 10
2106.7451225448
 20
802.8930048678
 30
0.0
 11
2106.7451225448
 21
767.3316692308
 31
0.0
  0
MTEXT
  5
3E6
330
3DC
100
AcDbEntity
  8
SLD-0_0
100
AcDbMText
 10
2090.3739622497
 20
814.9144840337
 30
0.0
 40
12.7
 41
0.0
 71
     1
 72
     1
  1
50
  7
SLDTEXTSTYLE0
 11
-7.044195017643634E-15
 21
1.0
 31
0.0
 73
     1
 44
1.0
  0
ENDBLK
  5
3DE
330
3DC
100
AcDbEntity
  8
0
100
AcDbBlockEnd
  0
BLOCK
  5
3F3
330
3F2
100
AcDbEntity
  8
0
100
AcDbBlockBegin
  2
_D_25
 70
     0
 10
0.0
 20
0.0
 30
0.0
  3
_D_25
  1

  0
SOLID
  5
3F5
330
3F2
100
AcDbEntity
  8
SLD-0_0
100
AcDbTrace
 10
2395.9203171653
 20
261.2083810546
 30
0.0
 11
2414.4122116965
 21
258.3634742037
 31
0.0
 12
2414.4122116965
 22
264.0532879056
 32
0.0
 13
2414.4122116965
 23
264.0532879056
 33
0.0
  0
SOLID
  5
3F6
330
3F2
100
AcDbEntity
  8
SLD-0_0
100
AcDbTrace
 10
2742.9203171653
 20
261.2083810546
 30
0.0
 11
2724.428422634
 21
264.0532879056
 31
0.0
 12
2724.428422634
 22
258.3634742037
 32
0.0
 13
2724.428422634
 23
258.3634742037
 33
0.0
  0
LINE
  5
3F7
330
3F2
100
AcDbEntity
  8
SLD-0_0
100
AcDbLine
 10
2395.9203171653
 20
559.9083810546
 30
0.0
 11
2395.9203171653
 21
260.2083810546
 31
0.0
  0
LINE
  5
3F8
330
3F2
100
AcDbEntity
  8
SLD-0_0
100
AcDbLine
 10
2742.9203171653
 20
559.9083810546
 30
0.0
 11
2742.9203171653
 21
260.2083810546
 31
0.0
  0
LINE
  5
3F9
330
3F2
100
AcDbEntity
  8
SLD-0_0
100
AcDbLine
 10
2395.9203171653
 20
261.2083810546
 30
0.0
 11
2742.9203171653
 21
261.2083810546
 31
0.0
  0
MTEXT
  5
3FA
330
3F2
100
AcDbEntity
  8
SLD-0_0
100
AcDbMText
 10
2553.7269838445
 20
277.5795413497
 30
0.0
 40
12.7
 41
0.0
 71
     1
 72
     1
  1
347
  7
SLDTEXTSTYLE0
 73
     1
 44
1.0
  0
ENDBLK
  5
3F4
330
3F2
100
AcDbEntity
  8
0
100
AcDbBlockEnd
  0
BLOCK
  5
3FE
330
3FD
100
AcDbEntity
  8
0
100
AcDbBlockBegin
  2
_D_26
 70
     0
 10
0.0
 20
0.0
 30
0.0
  3
_D_26
  1

  0
SOLID
  5
400
330
3FD
100
AcDbEntity
  8
SLD-0_0
100
AcDbTrace
 10
2766.9203171653
 20
560.9083810546
 30
0.0
 11
2764.0754103143
 21
542.4164865234
 31
0.0
 12
2769.7652240162
 22
542.4164865234
 32
0.0
 13
2769.7652240162
 23
542.4164865234
 33
0.0
  0
SOLID
  5
401
330
3FD
100
AcDbEntity
  8
SLD-0_0
100
AcDbTrace
 10
2766.9203171653
 20
292.2083810546
 30
0.0
 11
2769.7652240162
 21
310.7002755859
 31
0.0
 12
2764.0754103143
 22
310.7002755859
 32
0.0
 13
2764.0754103143
 23
310.7002755859
 33
0.0
  0
LINE
  5
402
330
3FD
100
AcDbEntity
  8
SLD-0_0
100
AcDbLine
 10
2743.9203171653
 20
560.9083810546
 30
0.0
 11
2767.9203171653
 21
560.9083810546
 31
0.0
  0
LINE
  5
403
330
3FD
100
AcDbEntity
  8
SLD-0_0
100
AcDbLine
 10
2743.9203171653
 20
292.2083810546
 30
0.0
 11
2767.9203171653
 21
292.2083810546
 31
0.0
  0
LINE
  5
404
330
3FD
100
AcDbEntity
  8
SLD-0_0
100
AcDbLine
 10
2766.9203171653
 20
560.9083810546
 30
0.0
 11
2766.9203171653
 21
292.2083810546
 31
0.0
  0
MTEXT
  5
405
330
3FD
100
AcDbEntity
  8
SLD-0_0
100
AcDbMText
 10
2750.5491568702
 20
399.1818488966
 30
0.0
 40
12.7
 41
0.0
 71
     1
 72
     1
  1
269
  7
SLDTEXTSTYLE0
 11
-8.820551857043885E-15
 21
1.0
 31
0.0
 73
     1
 44
1.0
  0
ENDBLK
  5
3FF
330
3FD
100
AcDbEntity
  8
0
100
AcDbBlockEnd
  0
BLOCK
  5
40B
330
40A
100
AcDbEntity
  8
0
100
AcDbBlockBegin
  2
SW_ANGULAR_DIMENSION_0
 70
     0
 10
0.0
 20
0.0
 30
0.0
  3
SW_ANGULAR_DIMENSION_0
  1

  0
ARC
  5
40D
330
40A
100
AcDbEntity
  8
CAJETIN
 62
     0
100
AcDbCircle
 10
51.789842924
 20
1.5379236574
 30
0.0
 40
50.20821341505069
100
AcDbArc
 50
135.0
 51
180.0
  0
ARC
  5
40E
330
40A
100
AcDbEntity
  8
CAJETIN
 62
     0
100
AcDbCircle
 10
51.789842924
 20
1.5379236574
 30
0.0
 40
50.20821341505069
100
AcDbArc
 50
96.4705080873
 51
135.0
  0
ARC
  5
40F
330
40A
100
AcDbEntity
  8
CAJETIN
 62
     0
100
AcDbCircle
 10
51.789842924
 20
1.5379236574
 30
0.0
 40
50.20821341505063
100
AcDbArc
 50
180.0
 51
218.5294919127
  0
SOLID
  5
410
330
40A
100
AcDbEntity
  8
CAJETIN
 62
     0
100
AcDbTrace
 10
16.2872747469
 20
37.0404918344
 30
0.0
 11
33.0825029188
 21
45.284518096
 31
0.0
 12
29.8278717571
 22
49.951568124
 32
0.0
 13
29.8278717571
 23
49.951568124
 33
0.0
  0
SOLID
  5
411
330
40A
100
AcDbEntity
  8
CAJETIN
 62
     0
100
AcDbTrace
 10
1.5816295089
 20
1.5379236574
 30
0.0
 11
2.0267678793
 21
-17.1662339066
 31
0.0
 12
7.628242367
 22
-16.1675029483
 32
0.0
 13
7.628242367
 23
-16.1675029483
 33
0.0
  0
LINE
  5
412
330
40A
100
AcDbEntity
  8
CAJETIN
 62
     0
100
AcDbLine
 10
33.0827361428
 20
20.2450304386
 30
0.0
 11
15.5801679657
 21
37.7475986156
 31
0.0
  0
LINE
  5
413
330
40A
100
AcDbEntity
  8
CAJETIN
 62
     0
100
AcDbLine
 10
50.789842924
 20
1.5379236574
 30
0.0
 11
0.5816295089
 21
1.5379236574
 31
0.0
  0
MTEXT
  5
414
330
40A
100
AcDbEntity
  8
CAJETIN
 62
     0
100
AcDbMText
 10
-15.9772037262
 20
3.5698530082
 30
0.0
 40
12.7
 41
0.0
 71
     1
 72
     1
  1
45°
  7
SLDTEXTSTYLE0
 11
0.2180574219432268
 21
0.9759359408974922
 31
0.0
 73
     1
 44
1.0
  0
ENDBLK
  5
40C
330
40A
100
AcDbEntity
  8
0
100
AcDbBlockEnd
  0
BLOCK
  5
417
330
416
100
AcDbEntity
  8
0
100
AcDbBlockBegin
  2
SW_ANGULAR_DIMENSION_1
 70
     0
 10
0.0
 20
0.0
 30
0.0
  3
SW_ANGULAR_DIMENSION_1
  1

  0
ARC
  5
419
330
416
100
AcDbEntity
  8
CAJETIN
 62
     0
100
AcDbCircle
 10
46.128556664
 20
2.2094807571
 30
0.0
 40
44.37383463472555
100
AcDbArc
 50
180.0
 51
225.0
  0
ARC
  5
41A
330
416
100
AcDbEntity
  8
CAJETIN
 62
     0
100
AcDbCircle
 10
46.128556664
 20
2.2094807571
 30
0.0
 40
44.37383463472555
100
AcDbArc
 50
137.0035436241
 51
180.0
  0
ARC
  5
41B
330
416
100
AcDbEntity
  8
CAJETIN
 62
     0
100
AcDbCircle
 10
46.128556664
 20
2.2094807571
 30
0.0
 40
44.3738346347255
100
AcDbArc
 50
225.0
 51
267.9964563759
  0
SOLID
  5
41C
330
416
100
AcDbEntity
  8
CAJETIN
 62
     0
100
AcDbTrace
 10
1.7547220293
 20
2.2094807571
 30
0.0
 11
8.171413504
 21
19.7841707648
 31
0.0
 12
2.592122104
 22
20.9001848493
 32
0.0
 13
2.592122104
 23
20.9001848493
 33
0.0
  0
SOLID
  5
41D
330
416
100
AcDbEntity
  8
CAJETIN
 62
     0
100
AcDbTrace
 10
14.7515172866
 20
-29.1675586203
 30
0.0
 11
28.5599721667
 21
-41.7917509576
 31
0.0
 12
31.7159858227
 22
-37.0574550474
 32
0.0
 13
31.7159858227
 23
-37.0574550474
 33
0.0
  0
LINE
  5
41E
330
416
100
AcDbEntity
  8
CAJETIN
 62
     0
100
AcDbLine
 10
45.128556664
 20
2.2094807571
 30
0.0
 11
0.7547220293
 21
2.2094807571
 31
0.0
  0
LINE
  5
41F
330
416
100
AcDbEntity
  8
CAJETIN
 62
     0
100
AcDbLine
 10
27.4214498828
 20
-16.4976260241
 30
0.0
 11
14.0444105054
 21
-29.8746654015
 31
0.0
  0
MTEXT
  5
420
330
416
100
AcDbEntity
  8
CAJETIN
 62
     0
100
AcDbMText
 10
15.4953642852
 20
5.2828567157
 30
0.0
 40
12.7
 41
0.0
 71
     1
 72
     1
  1
45°
  7
SLDTEXTSTYLE0
 11
0.3226928709047509
 21
-0.9465037300862843
 31
0.0
 73
     1
 44
1.0
  0
ENDBLK
  5
418
330
416
100
AcDbEntity
  8
0
100
AcDbBlockEnd
  0
BLOCK
  5
424
330
423
100
AcDbEntity
  8
0
100
AcDbBlockBegin
  2
_D_27
 70
     0
 10
0.0
 20
0.0
 30
0.0
  3
_D_27
  1

  0
SOLID
  5
426
330
423
100
AcDbEntity
  8
CAJETIN
100
AcDbTrace
 10
2295.5215604694
 20
560.9083810546
 30
0.0
 11
2292.6766536185
 21
542.4164865234
 31
0.0
 12
2298.3664673204
 22
542.4164865234
 32
0.0
 13
2298.3664673204
 23
542.4164865234
 33
0.0
  0
SOLID
  5
427
330
423
100
AcDbEntity
  8
CAJETIN
100
AcDbTrace
 10
2295.5215604694
 20
292.2083810546
 30
0.0
 11
2298.3664673204
 21
310.7002755859
 31
0.0
 12
2292.6766536185
 22
310.7002755859
 32
0.0
 13
2292.6766536185
 23
310.7002755859
 33
0.0
  0
LINE
  5
428
330
423
100
AcDbEntity
  8
CAJETIN
100
AcDbLine
 10
2272.5215604694
 20
560.9083810546
 30
0.0
 11
2296.5215604694
 21
560.9083810546
 31
0.0
  0
LINE
  5
429
330
423
100
AcDbEntity
  8
CAJETIN
100
AcDbLine
 10
2272.5215604694
 20
292.2083810546
 30
0.0
 11
2296.5215604694
 21
292.2083810546
 31
0.0
  0
LINE
  5
42A
330
423
100
AcDbEntity
  8
CAJETIN
100
AcDbLine
 10
2295.5215604694
 20
560.9083810546
 30
0.0
 11
2295.5215604694
 21
292.2083810546
 31
0.0
  0
MTEXT
  5
42B
330
423
100
AcDbEntity
  8
CAJETIN
100
AcDbMText
 10
2279.1504001743
 20
407.5665795387
 30
0.0
 40
12.7
 41
0.0
 71
     1
 72
     1
  1
269
  7
SLDTEXTSTYLE0
 11
-7.044195017643634E-15
 21
1.0
 31
0.0
 73
     1
 44
1.0
  0
ENDBLK
  5
425
330
423
100
AcDbEntity
  8
0
100
AcDbBlockEnd
  0
ENDSEC
  0
SECTION
  2
ENTITIES
  0
LINE
  5
7A
330
1F
100
AcDbEntity
  8
PREDETERMINADO
100
AcDbLine
 10
2954.7804651778
 20
54.8470237267
 30
0.0
 11
2946.0141513925
 21
54.8470237267
 31
0.0
  0
LINE
  5
7B
330
1F
100
AcDbEntity
  8
PREDETERMINADO
100
AcDbLine
 10
2940.2969902281
 20
26.4517899439
 30
0.0
 11
2945.6330073148
 21
26.4517899439
 31
0.0
  0
LINE
  5
7C
330
1F
100
AcDbEntity
  8
PREDETERMINADO
100
AcDbLine
 10
2975.743389447
 20
54.8470237267
 30
0.0
 11
2967.7393638169
 21
54.8470237267
 31
0.0
  0
LINE
  5
7D
330
1F
100
AcDbEntity
  8
PREDETERMINADO
100
AcDbLine
 10
2962.6880619137
 20
28.9292264484
 30
0.0
 11
2970.6195959942
 21
28.9292264484
 31
0.0
  0
LINE
  5
7E
330
1F
100
AcDbEntity
  8
PREDETERMINADO
100
AcDbLine
 10
2705.7139776297
 20
136.0001873961
 30
0.0
 11
2705.7139776297
 21
94.6171449077
 31
0.0
  0
LINE
  5
7F
330
1F
100
AcDbEntity
  8
PREDETERMINADO
100
AcDbLine
 10
2705.7139776297
 20
94.6171449077
 30
0.0
 11
2218.7380790231
 21
94.6171449077
 31
0.0
  0
LINE
  5
80
330
1F
100
AcDbEntity
  8
PREDETERMINADO
100
AcDbLine
 10
2218.7380790231
 20
94.6171449077
 30
0.0
 11
2218.7380790231
 21
90.3781449077
 31
0.0
  0
LINE
  5
81
330
1F
100
AcDbEntity
  8
PREDETERMINADO
100
AcDbLine
 10
2218.7380790231
 20
90.3781449077
 30
0.0
 11
2709.9529776297
 21
90.3781449077
 31
0.0
  0
LINE
  5
82
330
1F
100
AcDbEntity
  8
PREDETERMINADO
100
AcDbLine
 10
2709.9529776297
 20
90.3781449077
 30
0.0
 11
2709.9529776297
 21
136.0001873961
 31
0.0
  0
LINE
  5
83
330
1F
100
AcDbEntity
  8
PREDETERMINADO
100
AcDbLine
 10
2709.9529776297
 20
136.0001873961
 30
0.0
 11
2705.7139776297
 21
136.0001873961
 31
0.0
  0
LINE
  5
84
330
1F
100
AcDbEntity
  8
PREDETERMINADO
100
AcDbLine
 10
2962.6880619137
 20
28.9292264484
 30
0.0
 11
2970.6195959942
 21
28.9292264484
 31
0.0
  0
LINE
  5
85
330
1F
100
AcDbEntity
  8
PREDETERMINADO
100
AcDbLine
 10
2975.743389447
 20
54.8470237267
 30
0.0
 11
2967.7393638169
 21
54.8470237267
 31
0.0
  0
LINE
  5
86
330
1F
100
AcDbEntity
  8
PREDETERMINADO
100
AcDbLine
 10
2954.7804651778
 20
54.8470237267
 30
0.0
 11
2946.0141513925
 21
54.8470237267
 31
0.0
  0
LINE
  5
87
330
1F
100
AcDbEntity
  8
PREDETERMINADO
100
AcDbLine
 10
2940.2969902281
 20
26.4517899439
 30
0.0
 11
2945.6330073148
 21
26.4517899439
 31
0.0
  0
LINE
  5
88
330
1F
100
AcDbEntity
  8
PREDETERMINADO
  6
Continuous
 62
   179
370
    15
100
AcDbLine
 10
2218.7380790231
 20
225.8885880506
 30
0.0
 11
2218.7380790231
 21
140.2391873961
 31
0.0
  0
LINE
  5
89
330
1F
100
AcDbEntity
  8
SLD-0_0
100
AcDbLine
 10
2407.4845844079
 20
90.3781449077
 30
0.0
 11
2407.4845844079
 21
13.9385880506
 31
0.0
  0
LINE
  5
8A
330
1F
100
AcDbEntity
  8
FORMATO
  6
Continuous
 62
   179
100
AcDbLine
 10
2413.2229776297
 20
140.2391873961
 30
0.0
 11
2413.2229776297
 21
225.8885880506
 31
0.0
  0
LINE
  5
8B
330
1F
100
AcDbEntity
  8
FORMATO
  6
Continuous
 62
   179
100
AcDbLine
 10
2332.7301434798
 20
140.2391873961
 30
0.0
 11
2413.2229776297
 21
140.2391873961
 31
0.0
  0
LINE
  5
8C
330
1F
100
AcDbEntity
  8
FORMATO
  6
Continuous
 62
   179
100
AcDbLine
 10
2332.7301434798
 20
140.2391873961
 30
0.0
 11
2332.7301434798
 21
225.8885880506
 31
0.0
  0
LINE
  5
8D
330
1F
100
AcDbEntity
  8
FORMATO
  6
Continuous
 62
   179
100
AcDbLine
 10
2218.7380790231
 20
161.4341873961
 30
0.0
 11
2498.0029776297
 21
161.4341873961
 31
0.0
  0
LINE
  5
8E
330
1F
100
AcDbEntity
  8
FORMATO
  6
Continuous
 62
   179
100
AcDbLine
 10
2218.7380790231
 20
182.6291873961
 30
0.0
 11
2498.0029776297
 21
182.6291873961
 31
0.0
  0
LINE
  5
8F
330
1F
100
AcDbEntity
  8
FORMATO
  6
Continuous
 62
   179
100
AcDbLine
 10
2498.0029776297
 20
140.2391873961
 30
0.0
 11
2498.0029776297
 21
225.8885880506
 31
0.0
  0
LINE
  5
90
330
1F
100
AcDbEntity
  8
FORMATO
  6
Continuous
 62
   179
100
AcDbLine
 10
2985.4879776297
 20
203.8241873961
 30
0.0
 11
2218.7380790231
 21
203.8241873961
 31
0.0
  0
LINE
  5
91
330
1F
100
AcDbEntity
  8
FORMATO
  6
Continuous
 62
   179
100
AcDbLine
 10
2804.9423754276
 20
225.8885880506
 30
0.0
 11
2804.9423754276
 21
178.187712345
 31
0.0
  0
LINE
  5
92
330
1F
100
AcDbEntity
  8
FORMATO
  6
Continuous
 62
   179
100
AcDbLine
 10
2752.3429776297
 20
225.8885880506
 30
0.0
 11
2752.3429776297
 21
178.187712345
 31
0.0
  0
LINE
  5
93
330
1F
100
AcDbEntity
  8
FORMATO
  6
Continuous
 62
   179
100
AcDbLine
 10
2709.9529776297
 20
178.187712345
 30
0.0
 11
2985.4879776297
 21
178.187712345
 31
0.0
  0
LINE
  5
94
330
1F
100
AcDbEntity
  8
FORMATO
  6
Continuous
 62
   179
100
AcDbLine
 10
2874.3092423969
 20
136.0001873961
 30
0.0
 11
2874.3092423969
 21
225.8885880506
 31
0.0
  0
LINE
  5
95
330
1F
100
AcDbEntity
  8
PREDETERMINADO
370
    15
100
AcDbLine
 10
2218.7380790231
 20
94.6171449077
 30
0.0
 11
2218.7380790231
 21
13.9385880506
 31
0.0
  0
LINE
  5
96
330
1F
100
AcDbEntity
  8
FORMATO
  6
Continuous
 62
   179
100
AcDbLine
 10
2837.1229776297
 20
80.6632431379
 30
0.0
 11
2985.4879776297
 21
80.6632431379
 31
0.0
  0
LINE
  5
97
330
1F
100
AcDbEntity
  8
FORMATO
  6
Continuous
 62
   179
100
AcDbLine
 10
2837.1229776297
 20
13.9385880506
 30
0.0
 11
2837.1229776297
 21
136.0001873961
 31
0.0
  0
LINE
  5
98
330
1F
100
AcDbEntity
  8
FORMATO
  6
Continuous
 62
   179
370
    15
100
AcDbLine
 10
2214.4990790231
 20
140.2391873961
 30
0.0
 11
2705.7139776297
 21
140.2391873961
 31
0.0
  0
LINE
  5
99
330
1F
100
AcDbEntity
  8
FORMATO
  6
Continuous
 62
   179
370
    15
100
AcDbLine
 10
2709.9529776297
 20
90.3781449077
 30
0.0
 11
2709.9529776297
 21
136.0001873961
 31
0.0
  0
LINE
  5
9A
330
1F
100
AcDbEntity
  8
FORMATO
  6
Continuous
 62
   179
100
AcDbLine
 10
2568.6317482269
 20
90.3781449077
 30
0.0
 11
2568.6317482269
 21
13.9385880506
 31
0.0
  0
LINE
  5
9B
330
1F
100
AcDbEntity
  8
SLD-0
  6
Continuous
 62
   179
100
AcDbLine
 10
2967.7393638169
 20
54.8470237267
 30
0.0
 11
2975.743389447
 21
54.8470237267
 31
0.0
  0
LINE
  5
9C
330
1F
100
AcDbEntity
  8
SLD-0
  6
Continuous
 62
   179
100
AcDbLine
 10
2962.4033467302
 20
28.9292264484
 30
0.0
 11
2970.6195959942
 21
28.9292264484
 31
0.0
  0
LINE
  5
9D
330
1F
100
AcDbEntity
  8
SLD-0
  6
Continuous
 62
   179
100
AcDbLine
 10
2946.0141513925
 20
54.8470237267
 30
0.0
 11
2954.7804651778
 21
54.8470237267
 31
0.0
  0
LINE
  5
9E
330
1F
100
AcDbEntity
  8
FORMATO
  6
Continuous
 62
   179
100
AcDbLine
 10
2501.681482026
 20
183.9959353091
 30
0.0
 11
2508.3728656716
 21
183.9959353091
 31
0.0
  0
LINE
  5
9F
330
1F
100
AcDbEntity
  8
FORMATO
  6
Continuous
 62
   179
100
AcDbLine
 10
2501.681482026
 20
167.0399353091
 30
0.0
 11
2508.3728656716
 21
167.0399353091
 31
0.0
  0
LINE
  5
A0
330
1F
100
AcDbEntity
  8
FORMATO
  6
Continuous
 62
   179
100
AcDbLine
 10
2501.681482026
 20
150.0839353091
 30
0.0
 11
2508.3728656716
 21
150.0839353091
 31
0.0
  0
LINE
  5
A1
330
1F
100
AcDbEntity
  8
FORMATO
  6
Continuous
 62
   179
100
AcDbLine
 10
2712.6153070816
 20
95.7163101209
 30
0.0
 11
2719.3066907271
 21
95.7163101209
 31
0.0
  0
LINE
  5
A2
330
1F
100
AcDbEntity
  8
FORMATO
  6
Continuous
 62
   179
100
AcDbLine
 10
2712.6153070816
 20
74.0535937143
 30
0.0
 11
2719.3066907271
 21
74.0535937143
 31
0.0
  0
LINE
  5
A3
330
1F
100
AcDbEntity
  8
FORMATO
  6
Continuous
 62
   179
100
AcDbLine
 10
2712.6153070816
 20
52.3908773078
 30
0.0
 11
2719.3066907271
 21
52.3908773078
 31
0.0
  0
LINE
  5
A4
330
1F
100
AcDbEntity
  8
FORMATO
  6
Continuous
 62
   179
100
AcDbLine
 10
2712.6153070816
 20
30.7281609012
 30
0.0
 11
2719.3066907271
 21
30.7281609012
 31
0.0
  0
LINE
  5
A5
330
1F
100
AcDbEntity
  8
PREDETERMINADO
100
AcDbLine
 10
2709.9529776297
 20
136.0001873961
 30
0.0
 11
2985.8420369895
 21
136.0001873961
 31
0.0
  0
LINE
  5
A6
330
1F
100
AcDbEntity
  8
FORMATO
  6
Continuous
 62
   179
370
    15
100
AcDbLine
 10
2218.7380790231
 20
225.8885880506
 30
0.0
 11
2985.4879776297
 21
225.8885880506
 31
0.0
  0
LINE
  5
A7
330
1F
100
AcDbEntity
  8
FORMATO
  6
Continuous
 62
   179
370
    15
100
AcDbLine
 10
2709.9529776297
 20
90.3781449077
 30
0.0
 11
2218.7380790231
 21
90.3781449077
 31
0.0
  0
LINE
  5
A8
330
1F
100
AcDbEntity
  8
PREDETERMINADO
  6
Continuous
 62
   179
100
AcDbLine
 10
2254.8106842822
 20
222.0401269747
 30
0.0
 11
2254.8106842822
 21
205.70416719
 31
0.0
  0
LINE
  5
A9
330
1F
100
AcDbEntity
  8
PREDETERMINADO
  6
Continuous
 62
   179
100
AcDbLine
 10
2238.4149012691
 20
218.2923467984
 30
0.0
 11
2238.4149012691
 21
209.4519473664
 31
0.0
  0
LINE
  5
AA
330
1F
100
AcDbEntity
  8
PREDETERMINADO
  6
CENTER
 62
   179
100
AcDbLine
 10
2274.908740879
 20
223.0864482492
 30
0.0
 11
2274.908740879
 21
204.4738830876
 31
0.0
  0
LINE
  5
AB
330
1F
100
AcDbEntity
  8
PREDETERMINADO
  6
Continuous
 62
   179
100
AcDbLine
 10
2254.8106842822
 20
222.0401269747
 30
0.0
 11
2238.4149012691
 21
218.2923467984
 31
0.0
  0
LINE
  5
AC
330
1F
100
AcDbEntity
  8
PREDETERMINADO
  6
Continuous
 62
   179
100
AcDbLine
 10
2238.4149012691
 20
209.4519473664
 30
0.0
 11
2254.8106842822
 21
205.70416719
 31
0.0
  0
LINE
  5
AD
330
1F
100
AcDbEntity
  8
PREDETERMINADO
  6
CENTER
 62
   179
100
AcDbLine
 10
2284.7372802644
 20
213.8721470824
 30
0.0
 11
2236.7239752297
 21
213.8721470824
 31
0.0
  0
LINE
  5
AE
330
1F
100
AcDbEntity
  8
PREDETERMINADO
370
    15
100
AcDbLine
 10
2218.7380790231
 20
13.9385880506
 30
0.0
 11
2985.4879776297
 21
13.9385880506
 31
0.0
  0
LINE
  5
AF
330
1F
100
AcDbEntity
  8
PREDETERMINADO
370
    15
100
AcDbLine
 10
2985.4879776297
 20
13.9385880506
 30
0.0
 11
2985.4879776297
 21
225.8885880506
 31
0.0
  0
LINE
  5
B0
330
1F
100
AcDbEntity
  8
PREDETERMINADO
370
    15
100
AcDbLine
 10
2705.7139776297
 20
136.0001873961
 30
0.0
 11
2709.9529776297
 21
136.0001873961
 31
0.0
  0
LINE
  5
B1
330
1F
100
AcDbEntity
  8
PREDETERMINADO
100
AcDbLine
 10
2709.9529776297
 20
136.0001873961
 30
0.0
 11
2709.9529776297
 21
225.8885880506
 31
0.0
  0
LINE
  5
B2
330
1F
100
AcDbEntity
  8
PREDETERMINADO
100
AcDbLine
 10
2709.9529776297
 20
90.3781449077
 30
0.0
 11
2709.9529776297
 21
13.9385880506
 31
0.0
  0
LINE
  5
B3
330
1F
100
AcDbEntity
  8
PREDETERMINADO
370
    15
100
AcDbLine
 10
2214.4990790231
 20
140.2391873961
 30
0.0
 11
2214.4990790231
 21
94.6171449077
 31
0.0
  0
LINE
  5
B4
330
1F
100
AcDbEntity
  8
PREDETERMINADO
370
    15
100
AcDbLine
 10
2214.4990790231
 20
94.6171449077
 30
0.0
 11
2705.7139776297
 21
94.6171449077
 31
0.0
  0
LINE
  5
B5
330
1F
100
AcDbEntity
  8
PREDETERMINADO
370
    15
100
AcDbLine
 10
2705.7139776297
 20
94.6171449077
 30
0.0
 11
2705.7139776297
 21
140.2391873961
 31
0.0
  0
LINE
  5
B6
330
1F
100
AcDbEntity
  8
SLD-0
  6
Continuous
 62
   179
100
AcDbLine
 10
2940.2969902281
 20
26.4517899439
 30
0.0
 11
2945.6330073148
 21
26.4517899439
 31
0.0
  0
ARC
  5
B7
330
1F
100
AcDbEntity
  8
PREDETERMINADO
100
AcDbCircle
 10
2872.64074025
 20
54.8470237267
 30
0.0
 40
73.37341114253053
100
AcDbArc
 50
337.2322750577
 51
0.0
  0
ARC
  5
B8
330
1F
100
AcDbEntity
  8
PREDETERMINADO
100
AcDbCircle
 10
2906.1349671459
 20
54.8470237267
 30
0.0
 40
48.64549803190766
100
AcDbArc
 50
324.2875534854
 51
0.0
  0
ARC
  5
B9
330
1F
100
AcDbEntity
  8
PREDETERMINADO
100
AcDbCircle
 10
2898.7227142441
 20
54.8470237267
 30
0.0
 40
69.01664957284493
100
AcDbArc
 50
337.9429486592
 51
0.0
  0
ARC
  5
BA
330
1F
100
AcDbEntity
  8
PREDETERMINADO
100
AcDbCircle
 10
2907.6312103028
 20
54.8470237267
 30
0.0
 40
68.11217914413874
100
AcDbArc
 50
337.634330245
 51
0.0
  0
ARC
  5
BB
330
1F
100
AcDbEntity
  8
PREDETERMINADO
100
AcDbCircle
 10
2907.6312103028
 20
54.8470237267
 30
0.0
 40
68.11217914413874
100
AcDbArc
 50
337.634330245
 51
0.0
  0
ARC
  5
BC
330
1F
100
AcDbEntity
  8
PREDETERMINADO
100
AcDbCircle
 10
2898.7227142441
 20
54.8470237267
 30
0.0
 40
69.01664957284493
100
AcDbArc
 50
337.9429486592
 51
0.0
  0
ARC
  5
BD
330
1F
100
AcDbEntity
  8
PREDETERMINADO
100
AcDbCircle
 10
2906.1349671459
 20
54.8470237267
 30
0.0
 40
48.64549803190766
100
AcDbArc
 50
324.2875534854
 51
0.0
  0
ARC
  5
BE
330
1F
100
AcDbEntity
  8
PREDETERMINADO
100
AcDbCircle
 10
2872.64074025
 20
54.8470237267
 30
0.0
 40
73.37341114253053
100
AcDbArc
 50
337.2322750577
 51
0.0
  0
CIRCLE
  5
BF
330
1F
100
AcDbEntity
  8
PREDETERMINADO
  6
Continuous
 62
   179
100
AcDbCircle
 10
2274.908740879
 20
213.8721470824
 30
0.0
 40
8.16797989235628
  0
CIRCLE
  5
C0
330
1F
100
AcDbEntity
  8
PREDETERMINADO
  6
Continuous
 62
   179
100
AcDbCircle
 10
2274.8975165165
 20
213.8721470824
 30
0.0
 40
4.420199715999228
  0
ARC
  5
C1
330
1F
100
AcDbEntity
  8
SLD-0
  6
Continuous
 62
   179
100
AcDbCircle
 10
2898.7227142441
 20
54.8470237267
 30
0.0
 40
69.01664957284493
100
AcDbArc
 50
337.9429486592
 51
0.0
  0
ARC
  5
C2
330
1F
100
AcDbEntity
  8
SLD-0
  6
Continuous
 62
   179
100
AcDbCircle
 10
2907.6312103028
 20
54.8470237267
 30
0.0
 40
68.11217914413874
100
AcDbArc
 50
337.634330245
 51
0.0
  0
ARC
  5
C3
330
1F
100
AcDbEntity
  8
SLD-0
  6
Continuous
 62
   179
100
AcDbCircle
 10
2906.1349671459
 20
54.8470237267
 30
0.0
 40
48.64549803190766
100
AcDbArc
 50
324.2875534854
 51
0.0
  0
ARC
  5
C4
330
1F
100
AcDbEntity
  8
SLD-0
  6
Continuous
 62
   179
100
AcDbCircle
 10
2872.64074025
 20
54.8470237267
 30
0.0
 40
73.37341114253053
100
AcDbArc
 50
337.2322750577
 51
0.0
  0
HATCH
  5
C5
330
1F
100
AcDbEntity
  8
0
  6
Continuous
 62
   179
100
AcDbHatch
 10
0.0
 20
0.0
 30
0.0
210
0.0
220
0.0
230
1.0
  2
ANSI31
 70
     0
 71
     0
 91
        1
 92
        0
 93
        4
 72
     1
 10
2940.296990228136
 20
26.45178994388675
 11
2945.633007314844
 21
26.45178994388675
 72
     2
 10
2906.134967145864
 20
54.84702372672268
 40
48.64549803190743
 50
324.2875534853725
 51
360.0000000000008
 73
     1
 72
     1
 10
2954.780465177771
 20
54.84702372672268
 11
2946.014151392493
 21
54.84702372672268
 72
     2
 10
2872.640740249964
 20
54.84702372672268
 40
73.37341114252966
 50
0.0
 51
22.76772494225683
 73
     0
 97
        0
 75
     0
 76
     1
 52
90.0
 41
0.03125
 77
     0
 78
     1
 53
135.0000000000002
 43
0.0
 44
0.0
 45
-0.0701582509458525
 46
-0.070158250945853
 79
     0
 98
        1
 10
0.0
 20
0.0
  0
HATCH
  5
C6
330
1F
100
AcDbEntity
  8
0
  6
Continuous
 62
   179
100
AcDbHatch
 10
0.0
 20
0.0
 30
0.0
210
0.0
220
0.0
230
1.0
  2
ANSI31
 70
     0
 71
     0
 91
        1
 92
        0
 93
        4
 72
     1
 10
2962.688061913744
 20
28.92922644843043
 11
2970.619595994204
 21
28.92922644843043
 72
     2
 10
2907.631210302837
 20
54.84702372672268
 40
68.11217914413834
 50
337.6343302449529
 51
360.0000000000008
 73
     1
 72
     1
 10
2975.743389446975
 20
54.84702372672268
 11
2967.739363816916
 21
54.84702372672268
 72
     2
 10
2898.722714244071
 20
54.84702372672268
 40
69.01664957284461
 50
0.0
 51
22.05705134075574
 73
     0
 97
        0
 75
     0
 76
     1
 52
90.0
 41
0.03125
 77
     0
 78
     1
 53
135.0000000000002
 43
0.0
 44
0.0
 45
-0.0701582509458525
 46
-0.070158250945853
 79
     0
 98
        1
 10
0.0
 20
0.0
  0
HATCH
  5
C7
330
1F
100
AcDbEntity
  8
0
  6
Continuous
 62
   179
100
AcDbHatch
 10
0.0
 20
0.0
 30
0.0
210
0.0
220
0.0
230
1.0
  2
ANSI31
 70
     0
 71
     0
 91
        1
 92
        0
 93
        6
 72
     1
 10
2709.952977629699
 20
90.37814490772833
 11
2709.952977629699
 21
136.0001873960639
 72
     1
 10
2709.952977629699
 20
136.0001873960639
 11
2705.713977629698
 21
136.0001873960639
 72
     1
 10
2705.713977629698
 20
136.0001873960639
 11
2705.713977629698
 21
94.61714490772799
 72
     1
 10
2705.713977629698
 20
94.61714490772799
 11
2218.738079023131
 21
94.61714490772799
 72
     1
 10
2218.738079023131
 20
94.61714490772799
 11
2218.738079023131
 21
90.37814490772833
 72
     1
 10
2218.738079023131
 20
90.37814490772833
 11
2709.952977629699
 21
90.37814490772833
 97
        0
 75
     0
 76
     1
 52
0.0
 41
0.0625
 77
     0
 78
     1
 53
45.0
 43
0.0
 44
0.0
 45
-0.1403165018917055
 46
0.1403165018917055
 79
     0
 98
        1
 10
0.0
 20
0.0
  0
INSERT
  5
CE
330
1F
100
AcDbEntity
  8
CAJETIN
100
AcDbBlockReference
  2
SW_NOTE_0
 10
2729.620341277
 20
98.8406147163
 30
0.0
  0
MTEXT
  5
CF
330
1F
100
AcDbEntity
  8
CAJETIN
100
AcDbMText
 10
2940.3789931572
 20
155.0128472465
 30
0.0
 40
9.525
 41
0.0
 71
     1
 72
     1
  1
g.
  7
SLDTEXTSTYLE0
 73
     1
 44
1.0
  0
MTEXT
  5
D0
330
1F
100
AcDbEntity
  8
CAJETIN
100
AcDbMText
 10
2344.8797876802
 20
199.2693749924
 30
0.0
 40
9.525
 41
0.0
 71
     1
 72
     1
  1
R&D Dep.
  7
SLDTEXTSTYLE0
 73
     1
 44
1.0
  0
MTEXT
  5
D2
330
1F
100
AcDbEntity
  8
PREDETERMINADO
100
AcDbMText
 10
2850.7877267878
 20
58.2657467851
 30
0.0
 40
19.05
 41
0.0
 71
     1
 72
     1
  1
beyma
  7
SLDTEXTSTYLE1
 73
     1
 44
1.0
  0
MTEXT
  5
D3
330
1F
100
AcDbEntity
  8
CAJETIN
100
AcDbMText
 10
2773.8833152894
 20
196.6641281251
 30
0.0
 40
9.525
 41
0.0
 71
     1
 72
     1
  1
01
  7
SLDTEXTSTYLE0
 73
     1
 44
1.0
  0
MTEXT
  5
D4
330
1F
100
AcDbEntity
  8
CAJETIN
100
AcDbMText
 10
2757.0455387453
 20
155.0128472465
 30
0.0
 40
9.525
 41
0.0
 71
     1
 72
     1
  1
S-21LEX1600
  7
SLDTEXTSTYLE0
 73
     1
 44
1.0
  0
MTEXT
  5
D5
330
1F
100
AcDbEntity
  8
CAJETIN
100
AcDbMText
 10
2929.866154297
 20
197.5801898616
 30
0.0
 40
9.525
 41
0.0
 71
     2
 72
     1
  1
1:1
  7
SLDTEXTSTYLE0
 73
     1
 44
1.0
  0
MTEXT
  5
D6
330
1F
100
AcDbEntity
  8
CAJETIN
100
AcDbMText
 10
2357.8589142907
 20
222.330268191
 30
0.0
 40
9.525
 41
0.0
 71
     1
 72
     1
  1
NAME
  7
SLDTEXTSTYLE0
 73
     1
 44
1.0
  0
MTEXT
  5
D7
330
1F
100
AcDbEntity
  8
CAJETIN
100
AcDbMText
 10
2901.7758815957
 20
173.1980998713
 30
0.0
 40
9.525
 41
0.0
 71
     1
 72
     1
  1
WEIGHT
  7
SLDTEXTSTYLE0
 73
     1
 44
1.0
  0
MTEXT
  5
D8
330
1F
100
AcDbEntity
  8
CAJETIN
100
AcDbMText
 10
2283.6505318877
 20
221.4599423408
 30
0.0
 40
9.525
 41
0.0
 71
     1
 72
     1
  1
CAD
  7
SLDTEXTSTYLE0
 73
     1
 44
1.0
  0
MTEXT
  5
D9
330
1F
100
AcDbEntity
  8
CAJETIN
100
AcDbMText
 10
2443.0694460374
 20
222.330268191
 30
0.0
 40
9.525
 41
0.0
 71
     1
 72
     1
  1
DATE
  7
SLDTEXTSTYLE0
 73
     1
 44
1.0
  0
MTEXT
  5
DA
330
1F
100
AcDbEntity
  8
CAJETIN
100
AcDbMText
 10
2223.8400248561
 20
199.4945776643
 30
0.0
 40
9.525
 41
0.0
 71
     1
 72
     1
  1
DESIGNED BY
  7
SLDTEXTSTYLE0
 73
     1
 44
1.0
  0
MTEXT
  5
DB
330
1F
100
AcDbEntity
  8
CAJETIN
100
AcDbMText
 10
2223.8400248561
 20
158.2460589266
 30
0.0
 40
9.525
 41
0.0
 71
     1
 72
     1
  1
REVISED BY
  7
SLDTEXTSTYLE0
 73
     1
 44
1.0
  0
MTEXT
  5
DC
330
1F
100
AcDbEntity
  8
CAJETIN
100
AcDbMText
 10
2223.8400248561
 20
179.4898536752
 30
0.0
 40
9.525
 41
0.0
 71
     1
 72
     1
  1
DRAWN BY
  7
SLDTEXTSTYLE0
 73
     1
 44
1.0
  0
MTEXT
  5
DD
330
1F
100
AcDbEntity
  8
CAJETIN
100
AcDbMText
 10
2218.3542599655
 20
135.3780637829
 30
0.0
 40
9.525
 41
0.0
 71
     1
 72
     1
  1
TITLE:
  7
SLDTEXTSTYLE0
 73
     1
 44
1.0
  0
MTEXT
  5
DE
330
1F
100
AcDbEntity
  8
CAJETIN
100
AcDbMText
 10
2223.8400248561
 20
85.1066151542
 30
0.0
 40
9.525
 41
0.0
 71
     1
 72
     1
  1
MODEL CODE:
  7
SLDTEXTSTYLE0
 73
     1
 44
1.0
  0
MTEXT
  5
DF
330
1F
100
AcDbEntity
  8
CAJETIN
100
AcDbMText
 10
2579.7226213589
 20
85.5606605874
 30
0.0
 40
9.525
 41
0.0
 71
     1
 72
     1
  1
PART NUMBER
  7
SLDTEXTSTYLE0
 73
     1
 44
1.0
  0
MTEXT
  5
E0
330
1F
100
AcDbEntity
  8
CAJETIN
100
AcDbMText
 10
2568.9290914431
 20
222.330268191
 30
0.0
 40
9.525
 41
0.0
 71
     1
 72
     1
  1
NOTES
  7
SLDTEXTSTYLE0
 73
     1
 44
1.0
  0
MTEXT
  5
E1
330
1F
100
AcDbEntity
  8
CAJETIN
100
AcDbMText
 10
2713.1523780759
 20
221.3740187677
 30
0.0
 40
9.525
 41
0.0
 71
     1
 72
     1
  1
UNIT
  7
SLDTEXTSTYLE0
 73
     1
 44
1.0
  0
MTEXT
  5
E2
330
1F
100
AcDbEntity
  8
CAJETIN
100
AcDbMText
 10
2756.7444121269
 20
221.3740187677
 30
0.0
 40
9.525
 41
0.0
 71
     1
 72
     1
  1
LEVEL
  7
SLDTEXTSTYLE0
 73
     1
 44
1.0
  0
MTEXT
  5
E3
330
1F
100
AcDbEntity
  8
CAJETIN
100
AcDbMText
 10
2820.0472091646
 20
221.3740187677
 30
0.0
 40
9.525
 41
0.0
 71
     1
 72
     1
  1
DATE
  7
SLDTEXTSTYLE0
 73
     1
 44
1.0
  0
MTEXT
  5
E4
330
1F
100
AcDbEntity
  8
CAJETIN
100
AcDbMText
 10
2907.330566732
 20
222.330268191
 30
0.0
 40
9.525
 41
0.0
 71
     1
 72
     1
  1
SCALE
  7
SLDTEXTSTYLE0
 73
     1
 44
1.0
  0
MTEXT
  5
E5
330
1F
100
AcDbEntity
  8
CAJETIN
100
AcDbMText
 10
2722.1133743872
 20
173.1980998713
 30
0.0
 40
9.525
 41
0.0
 71
     1
 72
     1
  1
DRAWING NUMBER
  7
SLDTEXTSTYLE0
 73
     1
 44
1.0
  0
MTEXT
  5
E6
330
1F
100
AcDbEntity
  8
CAJETIN
100
AcDbMText
 10
2454.3879323419
 20
85.5606605874
 30
0.0
 40
9.525
 41
0.0
 71
     1
 72
     1
  1
SIGNED
  7
SLDTEXTSTYLE0
 73
     1
 44
1.0
  0
MTEXT
  5
E7
330
1F
100
AcDbEntity
  8
CAJETIN
100
AcDbMText
 10
2736.55573906
 20
130.9129423421
 30
0.0
 40
9.525
 41
0.0
 71
     1
 72
     1
  1
MATERIAL
  7
SLDTEXTSTYLE0
 73
     1
 44
1.0
  0
MTEXT
  5
E8
330
1F
100
AcDbEntity
  8
CAJETIN
100
AcDbMText
 10
2425.2260524053
 20
199.2693749924
 30
0.0
 40
9.525
 41
0.0
 71
     1
 72
     1
  1
18/01/2019
  7
SLDTEXTSTYLE0
 73
     1
 44
1.0
  0
MTEXT
  5
E9
330
1F
100
AcDbEntity
  8
CAJETIN
100
AcDbMText
 10
2346.2547865086
 20
178.4179457785
 30
0.0
 40
9.525
 41
0.0
 71
     1
 72
     1
  1
R. Climent
  7
SLDTEXTSTYLE0
 73
     1
 44
1.0
  0
MTEXT
  5
EA
330
1F
100
AcDbEntity
  8
CAJETIN
100
AcDbMText
 10
2346.2547865086
 20
157.1417316839
 30
0.0
 40
9.525
 41
0.0
 71
     1
 72
     1
  1
J. Serrano
  7
SLDTEXTSTYLE0
 73
     1
 44
1.0
  0
MTEXT
  5
EB
330
1F
100
AcDbEntity
  8
CAJETIN
100
AcDbMText
 10
2425.2260524053
 20
178.4179457785
 30
0.0
 40
9.525
 41
0.0
 71
     1
 72
     1
  1
18/01/2019
  7
SLDTEXTSTYLE0
 73
     1
 44
1.0
  0
MTEXT
  5
EC
330
1F
100
AcDbEntity
  8
CAJETIN
100
AcDbMText
 10
2425.2260524053
 20
157.1417316839
 30
0.0
 40
9.525
 41
0.0
 71
     1
 72
     1
  1
18/01/2019
  7
SLDTEXTSTYLE0
 73
     1
 44
1.0
  0
MTEXT
  5
ED
330
1F
100
AcDbEntity
  8
CAJETIN
100
AcDbMText
 10
2718.7130028383
 20
196.6641281251
 30
0.0
 40
9.525
 41
0.0
 71
     1
 72
     1
  1
mm
  7
SLDTEXTSTYLE0
 73
     1
 44
1.0
  0
INSERT
  5
F3
330
1F
100
AcDbEntity
  8
CAJETIN
100
AcDbBlockReference
  2
SW_NOTE_1
 10
2430.513545553
 20
118.6729021007
 30
0.0
  0
INSERT
  5
120
330
1F
100
AcDbEntity
  8
SLD-0_0
100
AcDbBlockReference
  2
SW_TABLEANNOTATION_0
 10
1264.6334756968
 20
248.3081343299
 30
0.0
  0
LINE
  5
121
330
1F
100
AcDbEntity
  8
0
  6
Continuous
 62
     7
100
AcDbLine
 10
950.6758942443
 20
393.5586458321
 30
0.0
 11
946.8305426953
 21
706.8331902509
 31
0.0
  0
ARC
  5
122
330
1F
100
AcDbEntity
  8
0
  6
Continuous
 62
     7
100
AcDbCircle
 10
568.7439746335
 20
172.8303223701
 30
0.0
 40
5.000000000000034
100
AcDbArc
 50
259.3878232163
 51
299.3894118811
  0
LINE
  5
123
330
1F
100
AcDbEntity
  8
0
  6
Continuous
 62
     7
100
AcDbLine
 10
278.7651624664
 20
222.0751637011
 30
0.0
 11
567.8231734097
 21
167.9158412066
 31
0.0
  0
LINE
  5
124
330
1F
100
AcDbEntity
  8
0
  6
Continuous
 62
     7
100
AcDbLine
 10
571.1976883688
 20
168.4737997998
 30
0.0
 11
781.4053141712
 21
286.8685355982
 31
0.0
  0
LINE
  5
125
330
1F
100
AcDbEntity
  8
0
  6
Continuous
 62
     7
100
AcDbLine
 10
274.6400107817
 20
230.702668081
 30
0.0
 11
274.6863403184
 21
226.9282759796
 31
0.0
  0
ARC
  5
126
330
1F
100
AcDbEntity
  8
0
  6
Continuous
 62
     7
100
AcDbCircle
 10
279.6859636902
 20
226.9896448646
 30
0.0
 40
4.999999999999973
100
AcDbArc
 50
180.7032532781
 51
259.3878232163
  0
LINE
  5
127
330
1F
100
AcDbEntity
  8
0
  6
Continuous
 62
     7
100
AcDbLine
 10
783.9512238076
 20
291.2864270534
 30
0.0
 11
783.9048942709
 21
295.0608191548
 31
0.0
  0
ARC
  5
128
330
1F
100
AcDbEntity
  8
0
  6
Continuous
 62
     7
100
AcDbCircle
 10
778.9516004358
 20
291.2250581684
 30
0.0
 40
4.999999999999953
100
AcDbArc
 50
299.3894118811
 51
0.7032532781
  0
ARC
  5
129
330
1F
100
AcDbEntity
  8
0
  6
Continuous
 62
     7
100
AcDbCircle
 10
272.9357580752
 20
776.9179314758
 30
0.0
 40
5.000000000000157
100
AcDbArc
 50
119.3894118811
 51
180.7032532781
  0
LINE
  5
12A
330
1F
100
AcDbEntity
  8
0
  6
Continuous
 62
     7
100
AcDbLine
 10
267.9361347034
 20
776.8565625909
 30
0.0
 11
267.9824642401
 21
773.0821704894
 31
0.0
  0
LINE
  5
12B
330
1F
100
AcDbEntity
  8
0
  6
Continuous
 62
     7
100
AcDbLine
 10
480.6896701422
 20
899.6691898445
 30
0.0
 11
270.4820443398
 21
781.2744540461
 31
0.0
  0
ARC
  5
12C
330
1F
100
AcDbEntity
  8
0
  6
Continuous
 62
     7
100
AcDbCircle
 10
772.2013948208
 20
841.1533447797
 30
0.0
 40
5.000000000000031
100
AcDbArc
 50
0.7032532781
 51
79.3878232163
  0
LINE
  5
12D
330
1F
100
AcDbEntity
  8
0
  6
Continuous
 62
     7
100
AcDbLine
 10
777.2473477294
 20
837.4403215632
 30
0.0
 11
777.2010181926
 21
841.2147136647
 31
0.0
  0
LINE
  5
12E
330
1F
100
AcDbEntity
  8
0
  6
Continuous
 62
     7
100
AcDbLine
 10
773.1221960446
 20
846.0678259432
 30
0.0
 11
484.0641851013
 21
900.2271484377
 31
0.0
  0
ARC
  5
12F
330
1F
100
AcDbEntity
  8
0
  6
Continuous
 62
     7
100
AcDbCircle
 10
483.1433838775
 20
895.3126672742
 30
0.0
 40
5.000000000000165
100
AcDbArc
 50
79.3878232163
 51
119.389411881
  0
LINE
  5
130
330
1F
100
AcDbEntity
  8
0
  6
Continuous
 62
     7
100
AcDbLine
 10
151.9534436875
 20
695.9887405901
 30
0.0
 11
155.7987952366
 21
382.7141961712
 31
0.0
  0
LINE
  5
131
330
1F
100
AcDbEntity
  8
0
  6
Continuous
 62
     7
100
AcDbLine
 10
940.9697390805
 20
708.8620303974
 30
0.0
 11
725.6225625251
 21
587.5725577824
 31
0.0
  0
LINE
  5
132
330
1F
100
AcDbEntity
  8
0
  6
Continuous
 62
     7
100
AcDbLine
 10
944.4006947
 20
708.2191897743
 30
0.0
 11
940.9697390805
 21
708.8620303974
 31
0.0
  0
LWPOLYLINE
  5
133
330
1F
100
AcDbEntity
  8
0
  6
Continuous
 62
     7
100
AcDbPolyline
 90
        9
 70
   128
 43
0.0
 10
946.1196138479
 20
705.9682705871
 10
946.5385460909
 20
706.2660781589
 10
946.7765668773
 20
706.5833211584
 10
946.8245292017
 20
706.9078081153
 10
946.680589899
 20
707.2270691776
 10
946.3502804758
 20
707.5288353218
 10
945.846294538
 20
707.8015098443
 10
945.1879999825
 20
708.034614016
 10
944.4006947
 20
708.2191897743
  0
LINE
  5
134
330
1F
100
AcDbEntity
  8
0
  6
Continuous
 62
     7
100
AcDbLine
 10
946.1196138479
 20
705.9682705871
 30
0.0
 11
735.9119880455
 21
587.5735347887
 31
0.0
  0
ARC
  5
135
330
1F
100
AcDbEntity
  8
0
  6
Continuous
 62
     7
100
AcDbCircle
 10
731.4280851961
 20
598.4868076622
 30
0.0
 40
11.7985130238874
100
AcDbArc
 50
258.3893582534
 51
292.3361391603
  0
LINE
  5
136
330
1F
100
AcDbEntity
  8
0
  6
Continuous
 62
     7
100
AcDbLine
 10
729.0535181446
 20
586.9297171593
 30
0.0
 11
725.6225625251
 21
587.5725577824
 31
0.0
  0
ARC
  5
137
330
1F
100
AcDbEntity
  8
0
  6
Continuous
 62
     7
100
AcDbCircle
 10
735.2734367451
 20
285.2122632434
 30
0.0
 40
11.79851302388604
100
AcDbArc
 50
258.3893582534
 51
292.3361391603
  0
LINE
  5
138
330
1F
100
AcDbEntity
  8
0
  6
Continuous
 62
     7
100
AcDbLine
 10
725.6225625251
 20
587.5725577824
 30
0.0
 11
729.4679140741
 21
274.2980133636
 31
0.0
  0
LINE
  5
139
330
1F
100
AcDbEntity
  8
0
  6
Continuous
 62
     7
100
AcDbLine
 10
732.8988696936
 20
273.6551727405
 30
0.0
 11
729.4679140741
 21
274.2980133636
 31
0.0
  0
LINE
  5
13A
330
1F
100
AcDbEntity
  8
0
  6
Continuous
 62
     7
100
AcDbLine
 10
739.7573395946
 20
274.2989903699
 30
0.0
 11
949.9649653969
 21
392.6937261683
 31
0.0
  0
ARC
  5
13B
330
1F
100
AcDbEntity
  8
0
  6
Continuous
 62
     7
100
AcDbCircle
 10
949.5900585967
 20
393.7265214928
 30
0.0
 40
1.098736224493545
100
AcDbArc
 50
289.9510000133
 51
351.211367115
  0
ARC
  5
13C
330
1F
100
AcDbEntity
  8
0
  6
Continuous
 62
     7
100
AcDbCircle
 10
490.0424682809
 20
339.0490506697
 30
0.0
 40
11.79851302388591
100
AcDbArc
 50
78.3893582534
 51
112.3361391603
  0
LINE
  5
13D
330
1F
100
AcDbEntity
  8
0
  6
Continuous
 62
     7
100
AcDbLine
 10
781.4750462757
 20
296.4468186782
 30
0.0
 11
779.678151993
 21
296.7834935782
 31
0.0
  0
LINE
  5
13E
330
1F
100
AcDbEntity
  8
0
  6
Continuous
 62
     7
100
AcDbLine
 10
729.0755331768
 20
306.2646476988
 30
0.0
 11
533.0232060799
 21
342.9979704473
 31
0.0
  0
LINE
  5
13F
330
1F
100
AcDbEntity
  8
0
  6
Continuous
 62
     7
100
AcDbLine
 10
509.1171574984
 20
347.477124616
 30
0.0
 11
492.4170353323
 21
350.6061411727
 31
0.0
  0
LWPOLYLINE
  5
140
330
1F
100
AcDbEntity
  8
0
  6
Continuous
 62
     7
100
AcDbPolyline
 90
        9
 70
   128
 43
0.0
 10
783.1939654235
 20
294.195899491
 10
783.6128976665
 20
294.4937070628
 10
783.8509184529
 20
294.8109500623
 10
783.8988807773
 20
295.1354370192
 10
783.7549414746
 20
295.4546980815
 10
783.4246320514
 20
295.7564642257
 10
782.9206461136
 20
296.0291387482
 10
782.2623515582
 20
296.2622429199
 10
781.4750462757
 20
296.4468186782
  0
LINE
  5
141
330
1F
100
AcDbEntity
  8
0
  6
Continuous
 62
     7
100
AcDbLine
 10
572.9863396212
 20
175.8011636926
 30
0.0
 11
783.1939654235
 21
294.195899491
 31
0.0
  0
ARC
  5
142
330
1F
100
AcDbEntity
  8
0
  6
Continuous
 62
     7
100
AcDbCircle
 10
568.5024367717
 20
186.7144365661
 30
0.0
 40
11.79851302388579
100
AcDbArc
 50
258.3893582534
 51
292.3361391603
  0
LINE
  5
143
330
1F
100
AcDbEntity
  8
0
  6
Continuous
 62
     7
100
AcDbLine
 10
277.0698587769
 20
229.3166685577
 30
0.0
 11
566.1278697202
 21
175.1573460632
 31
0.0
  0
LWPOLYLINE
  5
144
330
1F
100
AcDbEntity
  8
0
  6
Continuous
 62
     7
100
AcDbPolyline
 90
        9
 70
   128
 43
0.0
 10
275.3509396291
 20
231.5675877449
 10
274.9320073861
 20
231.2697801731
 10
274.6939865997
 20
230.9525371735
 10
274.6460242752
 20
230.6280502167
 10
274.789963578
 20
230.3087891544
 10
275.1202730012
 20
230.0070230101
 10
275.624258939
 20
229.7343484877
 10
276.2825534944
 20
229.501244316
 10
277.0698587769
 20
229.3166685577
  0
LINE
  5
145
330
1F
100
AcDbEntity
  8
0
  6
Continuous
 62
     7
100
AcDbLine
 10
485.5585654314
 20
349.9623235432
 30
0.0
 11
468.4156987734
 21
340.3069879623
 31
0.0
  0
LINE
  5
146
330
1F
100
AcDbEntity
  8
0
  6
Continuous
 62
     7
100
AcDbLine
 10
359.3610759672
 20
278.8844148969
 30
0.0
 11
275.3509396291
 21
231.5675877449
 31
0.0
  0
ARC
  5
147
330
1F
100
AcDbEntity
  8
0
  6
Continuous
 62
     7
100
AcDbCircle
 10
561.8448902301
 20
729.0939389745
 30
0.0
 40
11.798513023888
100
AcDbArc
 50
258.3893582534
 51
292.3361391603
  0
LINE
  5
148
330
1F
100
AcDbEntity
  8
0
  6
Continuous
 62
     7
100
AcDbLine
 10
270.4123122354
 20
771.6961709661
 30
0.0
 11
559.4703231787
 21
717.5368484716
 31
0.0
  0
LINE
  5
149
330
1F
100
AcDbEntity
  8
0
  6
Continuous
 62
     7
100
AcDbLine
 10
566.3287930796
 20
718.180666101
 30
0.0
 11
776.5364188819
 21
836.5754018994
 31
0.0
  0
LWPOLYLINE
  5
14A
330
1F
100
AcDbEntity
  8
0
  6
Continuous
 62
     7
100
AcDbPolyline
 90
        7
 70
   128
 43
0.0
 10
270.4123122354
 20
771.6961709661
 10
269.6250069529
 20
771.8807467244
 10
268.9667123974
 20
772.1138508961
 10
268.4627264596
 20
772.3865254185
 10
268.1324170364
 20
772.6882915628
 10
267.9884777337
 20
773.0075526251
 10
267.9824642401
 20
773.0821704894
  0
ARC
  5
14B
330
1F
100
AcDbEntity
  8
0
  6
Continuous
 62
     7
100
AcDbCircle
 10
776.1615120818
 20
837.6081972239
 30
0.0
 40
1.098736224492534
100
AcDbArc
 50
289.9510000133
 51
351.211367115
  0
LINE
  5
14C
330
1F
100
AcDbEntity
  8
0
  6
Continuous
 62
     7
100
AcDbLine
 10
161.6595988513
 20
380.6853560248
 30
0.0
 11
192.7592535656
 21
398.2015397944
 31
0.0
  0
LINE
  5
14D
330
1F
100
AcDbEntity
  8
0
  6
Continuous
 62
     7
100
AcDbLine
 10
236.5787911035
 20
422.8819125916
 30
0.0
 11
280.4015430684
 21
447.5640958427
 31
0.0
  0
LINE
  5
14E
330
1F
100
AcDbEntity
  8
0
  6
Continuous
 62
     7
100
AcDbLine
 10
370.7769115745
 20
498.4659974085
 30
0.0
 11
377.0067754068
 21
501.9748286398
 31
0.0
  0
LINE
  5
14F
330
1F
100
AcDbEntity
  8
0
  6
Continuous
 62
     7
100
AcDbLine
 10
157.8142473023
 20
693.9599004437
 30
0.0
 11
161.6595988513
 21
380.6853560248
 31
0.0
  0
LINE
  5
150
330
1F
100
AcDbEntity
  8
0
  6
Continuous
 62
     7
100
AcDbLine
 10
289.4878203476
 20
768.1220904823
 30
0.0
 11
157.8142473023
 21
693.9599004437
 31
0.0
  0
LINE
  5
151
330
1F
100
AcDbEntity
  8
0
  6
Continuous
 62
     7
100
AcDbLine
 10
377.0067754068
 20
501.9748286398
 30
0.0
 11
376.5548063191
 21
538.7960160435
 31
0.0
  0
LINE
  5
152
330
1F
100
AcDbEntity
  8
0
  6
Continuous
 62
     7
100
AcDbLine
 10
375.9040652065
 20
591.8108374431
 30
0.0
 11
375.3018847414
 21
640.869501771
 31
0.0
  0
LINE
  5
153
330
1F
100
AcDbEntity
  8
0
  6
Continuous
 62
     7
100
AcDbLine
 10
374.8799197345
 20
675.2463054509
 30
0.0
 11
373.9341108303
 21
752.2998205345
 31
0.0
  0
LINE
  5
154
330
1F
100
AcDbEntity
  8
0
  6
Continuous
 62
     7
100
AcDbLine
 10
161.6595988513
 20
380.6853560248
 30
0.0
 11
158.2286432318
 21
381.3281966479
 31
0.0
  0
LINE
  5
155
330
1F
100
AcDbEntity
  8
0
  6
Continuous
 62
     7
100
AcDbLine
 10
157.8142473023
 20
693.9599004437
 30
0.0
 11
154.3832916828
 21
694.6027410667
 31
0.0
  0
LWPOLYLINE
  5
156
330
1F
100
AcDbEntity
  8
0
  6
Continuous
 62
     7
100
AcDbPolyline
 90
        9
 70
   128
 43
0.0
 10
152.664372535
 20
696.8536602539
 10
152.245440292
 20
696.5558526821
 10
152.0074195056
 20
696.2386096826
 10
151.9594571811
 20
695.9141227257
 10
152.1033964838
 20
695.5948616634
 10
152.433705907
 20
695.2930955192
 10
152.9376918448
 20
695.0204209967
 10
153.5959864003
 20
694.7873168251
 10
154.3832916828
 20
694.6027410667
  0
LINE
  5
157
330
1F
100
AcDbEntity
  8
0
  6
Continuous
 62
     7
100
AcDbLine
 10
281.7681702037
 20
769.5684818842
 30
0.0
 11
152.664372535
 21
696.8536602539
 31
0.0
  0
LWPOLYLINE
  5
158
330
1F
100
AcDbEntity
  8
0
  6
Continuous
 62
     7
100
AcDbPolyline
 90
        7
 70
   128
 43
0.0
 10
158.2286432318
 20
381.3281966479
 10
157.4413379493
 20
381.5127724062
 10
156.7830433939
 20
381.7458765779
 10
156.2790574561
 20
382.0185511004
 10
155.9487480329
 20
382.3203172446
 10
155.8048087301
 20
382.6395783069
 10
155.7987952366
 20
382.7141961712
  0
LINE
  5
159
330
1F
100
AcDbEntity
  8
0
  6
Continuous
 62
     7
100
AcDbLine
 10
560.9254138918
 20
530.9242251936
 30
0.0
 11
560.7779942087
 21
542.9342673176
 31
0.0
  0
LINE
  5
15A
330
1F
100
AcDbEntity
  8
0
  6
Continuous
 62
     7
100
AcDbLine
 10
560.9254138918
 20
530.9242251936
 30
0.0
 11
478.3400687271
 21
635.8332771798
 31
0.0
  0
LINE
  5
15B
330
1F
100
AcDbEntity
  8
0
  6
Continuous
 62
     7
100
AcDbLine
 10
478.3400687271
 20
635.8332771798
 30
0.0
 11
489.2573026574
 21
633.7877708427
 31
0.0
  0
LINE
  5
15C
330
1F
100
AcDbEntity
  8
0
  6
Continuous
 62
     7
100
AcDbLine
 10
560.7779942087
 20
542.9342673176
 30
0.0
 11
489.2573026574
 21
633.7877708427
 31
0.0
  0
LINE
  5
15D
330
1F
100
AcDbEntity
  8
0
  6
Continuous
 62
     7
100
AcDbLine
 10
649.9491997752
 20
593.1579510854
 30
0.0
 11
560.7779942087
 21
542.9342673176
 31
0.0
  0
LINE
  5
15E
330
1F
100
AcDbEntity
  8
0
  6
Continuous
 62
     7
100
AcDbLine
 10
650.0966194584
 20
581.1479089614
 30
0.0
 11
649.9491997752
 21
593.1579510854
 31
0.0
  0
LINE
  5
15F
330
1F
100
AcDbEntity
  8
0
  6
Continuous
 62
     7
100
AcDbLine
 10
650.0966194584
 20
581.1479089614
 30
0.0
 11
560.9254138918
 21
530.9242251936
 31
0.0
  0
LINE
  5
160
330
1F
100
AcDbEntity
  8
0
  6
Continuous
 62
     7
100
AcDbLine
 10
578.4285082239
 20
684.0114546105
 30
0.0
 11
489.2573026574
 21
633.7877708427
 31
0.0
  0
LINE
  5
161
330
1F
100
AcDbEntity
  8
0
  6
Continuous
 62
     7
100
AcDbLine
 10
578.4285082239
 20
684.0114546105
 30
0.0
 11
649.9491997752
 21
593.1579510854
 31
0.0
  0
LINE
  5
162
330
1F
100
AcDbEntity
  8
0
  6
Continuous
 62
     7
100
AcDbLine
 10
567.5112742936
 20
686.0569609476
 30
0.0
 11
578.4285082239
 21
684.0114546105
 31
0.0
  0
LINE
  5
163
330
1F
100
AcDbEntity
  8
0
  6
Continuous
 62
     7
100
AcDbLine
 10
478.3400687271
 20
635.8332771798
 30
0.0
 11
567.5112742936
 21
686.0569609476
 31
0.0
  0
LINE
  5
164
330
1F
100
AcDbEntity
  8
0
  6
Continuous
 62
     7
100
AcDbLine
 10
482.1854155517
 20
322.5591176501
 30
0.0
 11
493.102649482
 21
320.5136113129
 31
0.0
  0
LINE
  5
165
330
1F
100
AcDbEntity
  8
0
  6
Continuous
 62
     7
100
AcDbLine
 10
482.1854155517
 20
322.5591176501
 30
0.0
 11
562.5701124459
 21
396.9333055928
 31
0.0
  0
LINE
  5
166
330
1F
100
AcDbEntity
  8
0
  6
Continuous
 62
     7
100
AcDbLine
 10
562.5701124459
 20
396.9333055928
 30
0.0
 11
562.7175321291
 21
384.9232634688
 31
0.0
  0
LINE
  5
167
330
1F
100
AcDbEntity
  8
0
  6
Continuous
 62
     7
100
AcDbLine
 10
493.102649482
 20
320.5136113129
 30
0.0
 11
562.7175321291
 21
384.9232634688
 31
0.0
  0
LINE
  5
168
330
1F
100
AcDbEntity
  8
0
  6
Continuous
 62
     7
100
AcDbLine
 10
562.5701124459
 20
396.9333055928
 30
0.0
 11
651.7413180125
 21
447.1569893606
 31
0.0
  0
LINE
  5
169
330
1F
100
AcDbEntity
  8
0
  6
Continuous
 62
     7
100
AcDbLine
 10
651.7413180125
 20
447.1569893606
 30
0.0
 11
651.8887376956
 21
435.1469472366
 31
0.0
  0
LINE
  5
16A
330
1F
100
AcDbEntity
  8
0
  6
Continuous
 62
     7
100
AcDbLine
 10
651.8887376956
 20
435.1469472366
 30
0.0
 11
562.7175321291
 21
384.9232634688
 31
0.0
  0
LINE
  5
16B
330
1F
100
AcDbEntity
  8
0
  6
Continuous
 62
     7
100
AcDbLine
 10
582.2738550485
 20
370.7372950807
 30
0.0
 11
493.102649482
 21
320.5136113129
 31
0.0
  0
LINE
  5
16C
330
1F
100
AcDbEntity
  8
0
  6
Continuous
 62
     7
100
AcDbLine
 10
651.8887376956
 20
435.1469472366
 30
0.0
 11
582.2738550485
 21
370.7372950807
 31
0.0
  0
LINE
  5
16D
330
1F
100
AcDbEntity
  8
0
  6
Continuous
 62
     7
100
AcDbLine
 10
280.3740127416
 20
449.8069468412
 30
0.0
 11
362.9593579064
 21
344.897894855
 31
0.0
  0
LINE
  5
16E
330
1F
100
AcDbEntity
  8
0
  6
Continuous
 62
     7
100
AcDbLine
 10
369.5452183082
 20
500.0306306089
 30
0.0
 11
280.3740127416
 21
449.8069468412
 31
0.0
  0
LINE
  5
16F
330
1F
100
AcDbEntity
  8
0
  6
Continuous
 62
     7
100
AcDbLine
 10
439.2041224568
 20
411.5421756409
 30
0.0
 11
369.5452183082
 21
500.0306306089
 31
0.0
  0
LINE
  5
170
330
1F
100
AcDbEntity
  8
0
  6
Continuous
 62
     7
100
AcDbLine
 10
362.9593579064
 20
344.897894855
 30
0.0
 11
434.4504385836
 21
385.1636443796
 31
0.0
  0
LINE
  5
171
330
1F
100
AcDbEntity
  8
0
  6
Continuous
 62
     7
100
AcDbLine
 10
280.3740127416
 20
449.8069468412
 30
0.0
 11
280.5214324248
 21
437.7969047171
 31
0.0
  0
LINE
  5
172
330
1F
100
AcDbEntity
  8
0
  6
Continuous
 62
     7
100
AcDbLine
 10
362.9593579064
 20
344.897894855
 30
0.0
 11
352.0421239761
 21
346.9434011921
 31
0.0
  0
LINE
  5
173
330
1F
100
AcDbEntity
  8
0
  6
Continuous
 62
     7
100
AcDbLine
 10
280.5214324248
 20
437.7969047171
 30
0.0
 11
352.0421239761
 21
346.9434011921
 31
0.0
  0
LINE
  5
174
330
1F
100
AcDbEntity
  8
0
  6
Continuous
 62
     7
100
AcDbLine
 10
437.3681552896
 20
710.4414041577
 30
0.0
 11
348.1969497231
 21
660.2177203899
 31
0.0
  0
LINE
  5
175
330
1F
100
AcDbEntity
  8
0
  6
Continuous
 62
     7
100
AcDbLine
 10
448.2853892198
 20
708.3958978206
 30
0.0
 11
437.3681552896
 21
710.4414041577
 31
0.0
  0
LINE
  5
176
330
1F
100
AcDbEntity
  8
0
  6
Continuous
 62
     7
100
AcDbLine
 10
448.2853892198
 20
708.3958978206
 30
0.0
 11
359.1141836533
 21
658.1722140528
 31
0.0
  0
LINE
  5
177
330
1F
100
AcDbEntity
  8
0
  6
Continuous
 62
     7
100
AcDbLine
 10
359.1141836533
 20
658.1722140528
 30
0.0
 11
348.1969497231
 21
660.2177203899
 31
0.0
  0
LINE
  5
178
330
1F
100
AcDbEntity
  8
0
  6
Continuous
 62
     7
100
AcDbLine
 10
359.1141836533
 20
658.1722140528
 30
0.0
 11
302.2959783423
 21
605.6024085595
 31
0.0
  0
LINE
  5
179
330
1F
100
AcDbEntity
  8
0
  6
Continuous
 62
     7
100
AcDbLine
 10
348.1969497231
 20
660.2177203899
 30
0.0
 11
291.378744412
 21
607.6479148966
 31
0.0
  0
LINE
  5
17A
330
1F
100
AcDbEntity
  8
0
  6
Continuous
 62
     7
100
AcDbLine
 10
367.9006923256
 20
634.0217098778
 30
0.0
 11
448.2853892198
 21
708.3958978206
 31
0.0
  0
LINE
  5
17B
330
1F
100
AcDbEntity
  8
0
  6
Continuous
 62
     7
100
AcDbLine
 10
313.661778288
 20
603.4728567001
 30
0.0
 11
367.9006923256
 21
634.0217098778
 31
0.0
  0
LINE
  5
17C
330
1F
100
AcDbEntity
  8
0
  6
Continuous
 62
     7
100
AcDbLine
 10
430.8593124149
 20
606.2985970041
 30
0.0
 11
430.9635538726
 21
597.8062147759
 31
0.0
  0
LINE
  5
17D
330
1F
100
AcDbEntity
  8
0
  6
Continuous
 62
     7
100
AcDbLine
 10
430.8593124149
 20
606.2985970041
 30
0.0
 11
513.8274445967
 21
590.7532820242
 31
0.0
  0
LINE
  5
17E
330
1F
100
AcDbEntity
  8
0
  6
Continuous
 62
     7
100
AcDbLine
 10
628.8778007052
 20
569.1968846794
 30
0.0
 11
713.0554121192
 21
553.4249557558
 31
0.0
  0
LINE
  5
17F
330
1F
100
AcDbEntity
  8
0
  6
Continuous
 62
     7
100
AcDbLine
 10
713.0554121192
 20
553.4249557558
 30
0.0
 11
713.1596535769
 21
544.9325735276
 31
0.0
  0
LINE
  5
180
330
1F
100
AcDbEntity
  8
0
  6
Continuous
 62
     7
100
AcDbLine
 10
430.9635538726
 20
597.8062147759
 30
0.0
 11
521.6513361982
 21
580.814508394
 31
0.0
  0
LINE
  5
181
330
1F
100
AcDbEntity
  8
0
  6
Continuous
 62
     7
100
AcDbLine
 10
617.5895834753
 20
562.8390492228
 30
0.0
 11
713.1596535769
 21
544.9325735276
 31
0.0
  0
LINE
  5
182
330
1F
100
AcDbEntity
  8
0
  6
Continuous
 62
     7
100
AcDbLine
 10
636.3579676456
 20
610.4230394034
 30
0.0
 11
733.7833564429
 21
592.1689421244
 31
0.0
  0
LINE
  5
183
330
1F
100
AcDbEntity
  8
0
  6
Continuous
 62
     7
100
AcDbLine
 10
713.0554121192
 20
553.4249557558
 30
0.0
 11
725.9525504206
 21
560.68897996
 31
0.0
  0
LINE
  5
184
330
1F
100
AcDbEntity
  8
0
  6
Continuous
 62
     7
100
AcDbLine
 10
430.8593124149
 20
606.2985970041
 30
0.0
 11
479.8629209381
 21
633.8987816412
 31
0.0
  0
LINE
  5
185
330
1F
100
AcDbEntity
  8
0
  6
Continuous
 62
     7
100
AcDbLine
 10
473.5330696871
 20
621.6421676416
 30
0.0
 11
468.1365413963
 21
618.6026939842
 31
0.0
  0
LWPOLYLINE
  5
186
330
1F
100
AcDbEntity
  8
0
  6
Continuous
 62
     7
100
AcDbPolyline
 90
       19
 70
   128
 43
0.0
 10
476.7311371355
 20
607.3480980485
 10
474.9111092077
 20
607.7258067421
 10
473.2027205029
 20
608.1557175822
 10
471.6189728907
 20
608.6345586877
 10
470.1719196466
 20
609.1586857885
 10
468.8725737196
 20
609.7241099611
 10
467.7308239167
 20
610.326527986
 10
466.7553596434
 20
610.9613550983
 10
465.9536047719
 20
611.6237598803
 10
465.3316611407
 20
612.3087010318
 10
464.8942621164
 20
613.0109657369
 10
464.6447365698
 20
613.7252093373
 10
464.5849835409
 20
614.4459960078
 10
464.7154577864
 20
615.1678401266
 10
465.0351663184
 20
615.8852480242
 10
465.541675962
 20
616.5927597933
 10
466.2311318729
 20
617.2849908421
 10
467.0982868754
 20
617.9566728744
 10
468.1365413963
 20
618.6026939842
  0
LINE
  5
187
330
1F
100
AcDbEntity
  8
0
  6
Continuous
 62
     7
100
AcDbLine
 10
504.9218558855
 20
602.066147124
 30
0.0
 11
476.7311371355
 21
607.3480980485
 31
0.0
  0
LWPOLYLINE
  5
188
330
1F
100
AcDbEntity
  8
0
  6
Continuous
 62
     7
100
AcDbPolyline
 90
        9
 70
   128
 43
0.0
 10
486.6094292254
 20
625.32861962
 10
484.7808908877
 20
625.0664471319
 10
482.8303887145
 20
624.7223117067
 10
480.9723261042
 20
624.3241569922
 10
479.2208440352
 20
623.8750131862
 10
477.5892723436
 20
623.3782985442
 10
476.0900282752
 20
622.8377933647
 10
474.7345219826
 20
622.2576112183
 10
473.5330696871
 20
621.6421676416
  0
LINE
  5
189
330
1F
100
AcDbEntity
  8
0
  6
Continuous
 62
     7
100
AcDbLine
 10
641.726677588
 20
576.4337267208
 30
0.0
 11
692.8813411643
 21
566.8491387944
 31
0.0
  0
LWPOLYLINE
  5
18A
330
1F
100
AcDbEntity
  8
0
  6
Continuous
 62
     7
100
AcDbPolyline
 90
       18
 70
   128
 43
0.0
 10
692.8813411643
 20
566.8491387944
 10
694.7991568035
 20
566.5265068384
 10
696.8001644191
 20
566.2614070441
 10
698.8691351349
 20
566.0558569809
 10
700.9903228345
 20
565.911421009
 10
703.1475839987
 20
565.8291983733
 10
705.3245005674
 20
565.8098148377
 10
707.5045048912
 20
565.8534179226
 10
709.6710058207
 20
565.9596757823
 10
711.8075149758
 20
566.1277797302
 10
713.8977722316
 20
566.3564503939
 10
715.9258694684
 20
566.6439474514
 10
717.8763716416
 20
566.9880828766
 10
719.7344342519
 20
567.3862375911
 10
721.4859163209
 20
567.8353813971
 10
723.1174880125
 20
568.332096039
 10
724.6167320809
 20
568.8726012186
 10
725.8456972821
 20
569.3941315798
  0
LINE
  5
18B
330
1F
100
AcDbEntity
  8
0
  6
Continuous
 62
     7
100
AcDbLine
 10
723.9756232206
 20
584.3622965348
 30
0.0
 11
725.6662427561
 21
584.0140003125
 31
0.0
  0
LINE
  5
18C
330
1F
100
AcDbEntity
  8
0
  6
Continuous
 62
     7
100
AcDbLine
 10
645.9213828769
 20
598.9869207098
 30
0.0
 11
723.9756232206
 21
584.3622965348
 31
0.0
  0
LINE
  5
18D
330
1F
100
AcDbEntity
  8
0
  6
Continuous
 62
     7
100
AcDbLine
 10
645.9213828769
 20
598.9869207098
 30
0.0
 11
645.2676221959
 21
599.1050094244
 31
0.0
  0
LINE
  5
18E
330
1F
100
AcDbEntity
  8
0
  6
Continuous
 62
     7
100
AcDbLine
 10
713.1596535769
 20
544.9325735276
 30
0.0
 11
726.0567918782
 21
552.1965977318
 31
0.0
  0
LINE
  5
18F
330
1F
100
AcDbEntity
  8
0
  6
Continuous
 62
     7
100
AcDbLine
 10
724.0798646783
 20
575.8699143065
 30
0.0
 11
725.7704842138
 21
575.5216180843
 31
0.0
  0
LINE
  5
190
330
1F
100
AcDbEntity
  8
0
  6
Continuous
 62
     7
100
AcDbLine
 10
649.9910121598
 20
589.751564027
 30
0.0
 11
724.0798646783
 21
575.8699143065
 31
0.0
  0
LINE
  5
191
330
1F
100
AcDbEntity
  8
0
  6
Continuous
 62
     7
100
AcDbLine
 10
468.1791647629
 20
610.075420171
 30
0.0
 11
468.240782854
 21
610.110311756
 31
0.0
  0
LWPOLYLINE
  5
192
330
1F
100
AcDbEntity
  8
0
  6
Continuous
 62
     7
100
AcDbPolyline
 90
       12
 70
   128
 43
0.0
 10
492.8909670668
 20
617.349114556
 10
491.139995993
 20
617.2583365727
 10
489.003486838
 20
617.0902326248
 10
486.9132295821
 20
616.8615619611
 10
484.8851323453
 20
616.5740649036
 10
482.9346301721
 20
616.2299294784
 10
481.0765675619
 20
615.8317747639
 10
479.3250854929
 20
615.3826309579
 10
477.6935138013
 20
614.885916316
 10
476.1942697329
 20
614.3454111364
 10
474.8387634402
 20
613.7652289901
 10
473.6373111448
 20
613.1497854134
  0
LINE
  5
193
330
1F
100
AcDbEntity
  8
0
  6
Continuous
 62
     7
100
AcDbLine
 10
473.6373111448
 20
613.1497854134
 30
0.0
 11
468.240782854
 21
610.110311756
 31
0.0
  0
LINE
  5
194
330
1F
100
AcDbEntity
  8
0
  6
Continuous
 62
     7
100
AcDbLine
 10
664.0212176559
 20
472.6161128411
 30
0.0
 11
671.7408677998
 21
471.1697214391
 31
0.0
  0
LINE
  5
195
330
1F
100
AcDbEntity
  8
0
  6
Continuous
 62
     7
100
AcDbLine
 10
664.0212176559
 20
472.6161128411
 30
0.0
 11
663.0182370385
 21
554.327314534
 31
0.0
  0
LINE
  5
196
330
1F
100
AcDbEntity
  8
0
  6
Continuous
 62
     7
100
AcDbLine
 10
662.7953421541
 20
572.4861986968
 30
0.0
 11
662.6124423192
 21
587.3867511504
 31
0.0
  0
LINE
  5
197
330
1F
100
AcDbEntity
  8
0
  6
Continuous
 62
     7
100
AcDbLine
 10
662.3895474349
 20
605.5456353133
 30
0.0
 11
660.3569271763
 21
771.1399060501
 31
0.0
  0
LINE
  5
198
330
1F
100
AcDbEntity
  8
0
  6
Continuous
 62
     7
100
AcDbLine
 10
671.7408677998
 20
471.1697214391
 30
0.0
 11
670.7378871823
 21
552.880923132
 31
0.0
  0
LINE
  5
199
330
1F
100
AcDbEntity
  8
0
  6
Continuous
 62
     7
100
AcDbLine
 10
670.514992298
 20
571.0398072949
 30
0.0
 11
670.3320924631
 21
585.9403597485
 31
0.0
  0
LINE
  5
19A
330
1F
100
AcDbEntity
  8
0
  6
Continuous
 62
     7
100
AcDbLine
 10
670.1091975787
 20
604.0992439113
 30
0.0
 11
668.0059422092
 21
775.4480424009
 31
0.0
  0
LINE
  5
19B
330
1F
100
AcDbEntity
  8
0
  6
Continuous
 62
     7
100
AcDbLine
 10
689.8490329099
 20
787.7506738714
 30
0.0
 11
692.1539991048
 21
599.968822093
 31
0.0
  0
LINE
  5
19C
330
1F
100
AcDbEntity
  8
0
  6
Continuous
 62
     7
100
AcDbLine
 10
692.3768939892
 20
581.8099379301
 30
0.0
 11
692.5597938241
 21
566.9093854765
 31
0.0
  0
LINE
  5
19D
330
1F
100
AcDbEntity
  8
0
  6
Continuous
 62
     7
100
AcDbLine
 10
692.7826887084
 20
548.7505013137
 30
0.0
 11
693.5839585006
 21
483.4723529096
 31
0.0
  0
LINE
  5
19E
330
1F
100
AcDbEntity
  8
0
  6
Continuous
 62
     7
100
AcDbLine
 10
693.5839585006
 20
483.4723529096
 30
0.0
 11
671.7408677998
 21
471.1697214391
 31
0.0
  0
LINE
  5
19F
330
1F
100
AcDbEntity
  8
0
  6
Continuous
 62
     7
100
AcDbLine
 10
393.3387905378
 20
272.5181841357
 30
0.0
 11
274.11308276
 21
294.8568957877
 31
0.0
  0
LINE
  5
1A0
330
1F
100
AcDbEntity
  8
0
  6
Continuous
 62
     7
100
AcDbLine
 10
191.5275602992
 20
399.7661729948
 30
0.0
 11
274.11308276
 21
294.8568957877
 31
0.0
  0
LINE
  5
1A1
330
1F
100
AcDbEntity
  8
0
  6
Continuous
 62
     7
100
AcDbLine
 10
189.8828617451
 20
533.7570925957
 30
0.0
 11
191.5275602992
 21
399.7661729948
 31
0.0
  0
LINE
  5
1A2
330
1F
100
AcDbEntity
  8
0
  6
Continuous
 62
     7
100
AcDbLine
 10
189.8828617451
 20
533.7570925957
 30
0.0
 11
270.2677312109
 21
608.1314402065
 31
0.0
  0
LINE
  5
1A3
330
1F
100
AcDbEntity
  8
0
  6
Continuous
 62
     7
100
AcDbLine
 10
389.4934389887
 20
585.7927285545
 30
0.0
 11
270.2677312109
 21
608.1314402065
 31
0.0
  0
LINE
  5
1A4
330
1F
100
AcDbEntity
  8
0
  6
Continuous
 62
     7
100
AcDbLine
 10
389.4934389887
 20
585.7927285545
 30
0.0
 11
472.0789614494
 21
480.8834513473
 31
0.0
  0
LINE
  5
1A5
330
1F
100
AcDbEntity
  8
0
  6
Continuous
 62
     7
100
AcDbLine
 10
472.0789614494
 20
480.8834513473
 30
0.0
 11
473.7236600035
 21
346.8925317465
 31
0.0
  0
LINE
  5
1A6
330
1F
100
AcDbEntity
  8
0
  6
Continuous
 62
     7
100
AcDbLine
 10
473.7236600035
 20
346.8925317465
 30
0.0
 11
393.3387905378
 21
272.5181841357
 31
0.0
  0
LWPOLYLINE
  5
1A7
330
1F
100
AcDbEntity
  8
0
  6
Continuous
 62
     7
100
AcDbPolyline
 90
      176
 70
   128
 43
0.0
 10
448.8846213899
 20
418.3878759085
 10
448.7524134886
 20
423.0254852238
 10
448.4694636596
 20
427.6853925536
 10
448.036136612
 20
432.3615914976
 10
447.4529908838
 20
437.0480546565
 10
446.7207781224
 20
441.7387414008
 10
445.8404421152
 20
446.4276056573
 10
444.8131175739
 20
451.1086037015
 10
443.6401286712
 20
455.7757019484
 10
442.3229873342
 20
460.422884729
 10
440.863391296
 20
465.0441620444
 10
439.2632219067
 20
469.6335772867
 10
437.5245417091
 20
474.1852149167
 10
435.6495917797
 20
478.6932080887
 10
433.6407888403
 20
483.1517462127
 10
431.5007221429
 20
487.5550824438
 10
429.2321501323
 20
491.8975410899
 10
426.8379968905
 20
496.1735249272
 10
424.3213483679
 20
500.3775224146
 10
421.6854484053
 20
504.5041147982
 10
418.9336945533
 20
508.5479830955
 10
416.0696336923
 20
512.5039149516
 10
413.0969574615
 20
516.3668113572
 10
410.0194974999
 20
520.1316932217
 10
406.8412205078
 20
523.7937077904
 10
403.5662231341
 20
527.3481348995
 10
400.1987266954
 20
530.7903930607
 10
396.7430717355
 20
534.1160453659
 10
393.2037124302
 20
537.3208052066
 10
389.5852108462
 20
540.4005417989
 10
385.8922310611
 20
543.3512855079
 10
382.129533151
 20
546.1692329646
 10
378.3019670558
 20
548.850751968
 10
374.414466327
 20
551.3923861667
 10
370.4720417694
 20
553.7908595146
 10
366.4797749817
 20
556.0430804929
 10
362.4428118071
 20
558.1461460952
 10
358.3663557001
 20
560.0973455695
 10
354.25566102
 20
561.8941639119
 10
350.1160262578
 20
563.5342851085
 10
345.952787207
 20
565.0155951206
 10
341.7713100858
 20
566.3361846098
 10
337.5769846206
 20
567.4943513985
 10
333.3752170984
 20
568.4886026646
 10
329.171423399
 20
569.3176568651
 10
324.9710220137
 20
569.9804453885
 10
320.7794270612
 20
570.4761139316
 10
316.6020413092
 20
570.8040236012
 10
312.4442492104
 20
570.9637517372
 10
308.3114099622
 20
570.9550924576
 10
304.208850599
 20
570.7780569237
 10
300.1418591257
 20
570.4328733261
 10
296.1156777022
 20
569.91998659
 10
292.1354958859
 20
569.2400578022
 10
288.2064439428
 20
568.3939633587
 10
284.3335862352
 20
567.3827938353
 10
280.5219146936
 20
566.2078525817
 10
276.7763423823
 20
564.8706540416
 10
273.1016971668
 20
563.3729218007
 10
269.5027154912
 20
561.716586365
 10
265.9840362726
 20
559.9037826726
 10
262.5501949221
 20
557.9368473417
 10
259.2056174989
 20
555.8183156589
 10
255.9546150051
 20
553.5509183114
 10
252.8013778292
 20
551.1375778672
 10
249.7499703449
 20
548.581405008
 10
246.804325672
 20
545.8856945197
 10
243.9682406072
 20
543.0539210457
 10
241.2453707302
 20
540.0897346081
 10
238.6392256913
 20
536.9969559029
 10
236.1531646884
 20
533.7795713758
 10
233.7903921366
 20
530.4417280833
 10
231.5539535378
 20
526.9877283475
 10
229.4467315557
 20
523.4220242107
 10
227.4714422998
 20
519.749211697
 10
225.6306318246
 20
515.974024888
 10
223.9266728477
 20
512.101329821
 10
222.3617616916
 20
508.1361182169
 10
220.9379154528
 20
504.0835010458
 10
219.6569694018
 20
499.9487019397
 10
218.5205746175
 20
495.7370504591
 10
217.5301958591
 20
491.4539752236
 10
216.6871096778
 20
487.1049969146
 10
215.992402772
 20
482.6957211596
 10
215.446970586
 20
478.2318313065
 10
215.0515161561
 20
473.7190810982
 10
214.8065492043
 20
469.1632872564
 10
214.7123854815
 20
464.5703219838
 10
214.7691463602
 20
459.9461053956
 10
214.9767586783
 20
455.2965978883
 10
215.3349548335
 20
450.6277924571
 10
215.8432731278
 20
445.9457069716
 10
216.5010583629
 20
441.2563764184
 10
217.3074626848
 20
436.565845123
 10
218.2614466764
 20
431.8801589583
 10
219.3617806975
 20
427.2053575523
 10
220.6070464696
 20
422.547466503
 10
221.995638904
 20
417.9124896116
 10
223.5257681707
 20
413.3064011441
 10
225.1954620053
 20
408.7351381309
 10
227.0025682516
 20
404.2045927137
 10
228.944757635
 20
399.7206045514
 10
231.0195267653
 20
395.2889532927
 10
233.2242013631
 20
390.9153511265
 10
235.5559397071
 20
386.6054354192
 10
238.0117362969
 20
382.3647614483
 10
240.5884257268
 20
378.198795242
 10
243.2826867659
 20
374.1129065338
 10
246.0910466393
 20
370.1123618411
 10
249.0098855037
 20
366.2023176767
 10
252.035441114
 20
362.3878139028
 10
255.163813672
 20
358.6737672342
 10
258.3909708534
 20
355.0649649015
 10
261.7127530052
 20
351.5660584803
 10
265.1248785074
 20
348.1815578955
 10
268.6229492914
 20
344.9158256084
 10
272.2024565094
 20
341.7730709933
 10
275.858786346
 20
338.7573449124
 10
279.5872259648
 20
335.8725344941
 10
283.3829695835
 20
333.1223581225
 10
287.241124668
 20
330.5103606449
 10
291.1567182389
 20
328.0399088025
 10
295.1247032812
 20
325.714186891
 10
299.1399652498
 20
323.536192656
 10
303.197328662
 20
321.508733429
 10
307.2915637681
 20
319.634422509
 10
311.4173932927
 20
317.9156757943
 10
315.5694992366
 20
316.3547086681
 10
319.7425297317
 20
314.9535331431
 10
323.9311059388
 20
313.7139552685
 10
328.1298289815
 20
312.6375728013
 10
332.3332869041
 20
311.7257731479
 10
336.5360616483
 20
310.9797315747
 10
340.732736036
 20
310.4004096941
 10
344.9179007526
 20
309.9885542246
 10
349.0861613184
 20
309.7446960284
 10
353.2321450429
 20
309.6691494272
 10
357.3505079489
 20
309.7620117971
 10
361.4359416615
 20
310.0231634428
 10
365.4831802498
 20
310.4522677521
 10
369.4870070147
 20
311.04877163
 10
373.4422612127
 20
311.8119062111
 10
377.3438447082
 20
312.740687851
 10
381.1867285447
 20
313.8339193941
 10
384.9659594265
 20
315.0901917167
 10
388.6766661037
 20
316.5078855432
 10
392.314065651
 20
318.0851735332
 10
395.8734696322
 20
319.8200226371
 10
399.350290144
 20
321.7101967164
 10
402.7400457292
 20
323.7532594262
 10
406.0383671531
 20
325.9465773552
 10
409.2410030352
 20
328.2873234203
 10
412.3438253296
 20
330.7724805105
 10
415.3428346448
 20
333.3988453758
 10
418.2341653997
 20
336.1630327562
 10
421.0140908058
 20
339.0614797448
 10
423.6790276705
 20
342.0904503805
 10
426.2255410163
 20
345.2460404634
 10
428.650348508
 20
348.524182587
 10
430.9503246832
 20
351.9206513813
 10
433.1225049815
 20
355.4310689584
 10
435.1640895653
 20
359.0509105563
 10
437.0724469284
 20
362.7755103701
 10
438.8451172885
 20
366.6000675669
 10
440.4798157574
 20
370.5196524733
 10
441.974435286
 20
374.5292129297
 10
443.3270493804
 20
378.6235808023
 10
444.5359145849
 20
382.7974786444
 10
445.5994727296
 20
387.0455264992
 10
446.5163529383
 20
391.3622488339
 10
447.2853733957
 20
395.7420815974
 10
447.9055428708
 20
400.1793793924
 10
448.3760619945
 20
404.668422752
 10
448.6963242899
 20
409.2034255114
 10
448.865916954
 20
413.7785422666
 10
448.8846213899
 20
418.3878759085
  0
LINE
  5
1A8
330
1F
100
AcDbEntity
  8
0
  6
Continuous
 62
     7
100
AcDbLine
 10
472.0789614494
 20
480.8834513473
 30
0.0
 11
476.7045571272
 21
483.4887144823
 31
0.0
  0
LINE
  5
1A9
330
1F
100
AcDbEntity
  8
0
  6
Continuous
 62
     7
100
AcDbLine
 10
389.4934389887
 20
585.7927285545
 30
0.0
 11
394.1190346665
 21
588.3979916894
 31
0.0
  0
LINE
  5
1AA
330
1F
100
AcDbEntity
  8
0
  6
Continuous
 62
     7
100
AcDbLine
 10
394.1190346665
 20
588.3979916894
 30
0.0
 11
476.7045571272
 21
483.4887144823
 31
0.0
  0
LWPOLYLINE
  5
1AB
330
1F
100
AcDbEntity
  8
0
  6
Continuous
 62
     7
100
AcDbPolyline
 90
       89
 70
   128
 43
0.0
 10
265.4608185412
 20
559.6170593603
 10
263.8350826104
 20
558.6605315458
 10
260.4905051872
 20
556.541999863
 10
257.2395026934
 20
554.2746025156
 10
254.0862655175
 20
551.8612620714
 10
251.0348580331
 20
549.3050892122
 10
248.0892133602
 20
546.6093787239
 10
245.2531282955
 20
543.7776052498
 10
242.5302584184
 20
540.8134188122
 10
239.9241133796
 20
537.7206401071
 10
237.4380523767
 20
534.50325558
 10
235.0752798248
 20
531.1654122874
 10
232.8388412261
 20
527.7114125516
 10
230.731619244
 20
524.1457084148
 10
228.7563299881
 20
520.4728959011
 10
226.9155195129
 20
516.6977090921
 10
225.2115605359
 20
512.8250140252
 10
223.6466493798
 20
508.859802421
 10
222.2228031411
 20
504.8071852499
 10
220.9418570901
 20
500.6723861438
 10
219.8054623058
 20
496.4607346632
 10
218.8150835474
 20
492.1776594277
 10
217.9719973661
 20
487.8286811188
 10
217.2772904603
 20
483.4194053637
 10
216.7318582743
 20
478.9555155106
 10
216.3364038444
 20
474.4427653023
 10
216.0914368926
 20
469.8869714605
 10
215.9972731697
 20
465.294006188
 10
216.0540340484
 20
460.6697895998
 10
216.2616463666
 20
456.0202820924
 10
216.6198425218
 20
451.3514766613
 10
217.1281608161
 20
446.6693911757
 10
217.7859460512
 20
441.9800606225
 10
218.5923503731
 20
437.2895293271
 10
219.5463343647
 20
432.6038431625
 10
220.6466683858
 20
427.9290417565
 10
221.8919341579
 20
423.2711507071
 10
223.2805265923
 20
418.6361738157
 10
224.8106558589
 20
414.0300853483
 10
226.4803496936
 20
409.458822335
 10
228.2874559399
 20
404.9282769179
 10
230.2296453233
 20
400.4442887556
 10
232.3044144535
 20
396.0126374969
 10
234.5090890513
 20
391.6390353307
 10
236.8408273954
 20
387.3291196233
 10
239.2966239852
 20
383.0884456524
 10
241.8733134151
 20
378.9224794462
 10
244.5675744542
 20
374.836590738
 10
247.3759343275
 20
370.8360460453
 10
250.294773192
 20
366.9260018809
 10
253.3203288023
 20
363.1114981069
 10
256.4487013603
 20
359.3974514383
 10
259.6758585417
 20
355.7886491056
 10
262.9976406935
 20
352.2897426845
 10
266.4097661956
 20
348.9052420997
 10
269.9078369797
 20
345.6395098125
 10
273.4873441977
 20
342.4967551974
 10
277.1436740343
 20
339.4810291166
 10
280.8721136531
 20
336.5962186982
 10
284.6678572717
 20
333.8460423266
 10
288.5260123562
 20
331.234044849
 10
292.4416059271
 20
328.7635930067
 10
296.4095909694
 20
326.4378710952
 10
300.4248529381
 20
324.2598768601
 10
304.4822163503
 20
322.2324176331
 10
308.5764514564
 20
320.3581067132
 10
312.702280981
 20
318.6393599985
 10
316.8543869249
 20
317.0783928722
 10
321.0274174199
 20
315.6772173473
 10
325.2159936271
 20
314.4376394726
 10
329.4147166698
 20
313.3612570055
 10
333.6181745924
 20
312.449457352
 10
337.8209493366
 20
311.7034157788
 10
342.0176237243
 20
311.1240938982
 10
346.2027884408
 20
310.7122384287
 10
350.3710490067
 20
310.4683802325
 10
354.5170327312
 20
310.3928336314
 10
358.6353956372
 20
310.4856960012
 10
362.7208293498
 20
310.7468476469
 10
366.7680679381
 20
311.1759519563
 10
370.771894703
 20
311.7724558341
 10
374.727148901
 20
312.5355904152
 10
378.6287323965
 20
313.4643720551
 10
382.4716162329
 20
314.5576035983
 10
386.2508471147
 20
315.8138759209
 10
389.961553792
 20
317.2315697473
 10
393.5989533392
 20
318.8088577373
 10
397.1583573205
 20
320.5437068412
 10
399.4305908987
 20
321.7562491877
  0
LWPOLYLINE
  5
1AC
330
1F
100
AcDbEntity
  8
0
  6
Continuous
 62
     7
100
AcDbPolyline
 90
       22
 70
   128
 43
0.0
 10
290.6149453015
 20
562.6196622129
 10
290.5420900745
 20
562.0505821645
 10
290.3156592359
 20
561.5620549612
 10
289.9557721594
 20
561.197488389
 10
289.4944063911
 20
560.9892757876
 10
288.9725563041
 20
560.9559177603
 10
288.4365905689
 20
561.1003783144
 10
287.9341320929
 20
561.4098214956
 10
287.5098265169
 20
561.8567519193
 10
287.2013752532
 20
562.401457856
 10
287.0361855503
 20
562.9955397929
 10
287.0289352382
 20
563.5862109427
 10
287.180268539
 20
564.1209875818
 10
287.4767388247
 20
564.5523524588
 10
287.8920034094
 20
564.8419769115
 10
288.3891642124
 20
564.9641265362
 10
288.9240463147
 20
564.9079478027
 10
289.4491230941
 20
564.6784324381
 10
289.9177391745
 20
564.2959738897
 10
290.2882559607
 20
563.7945552778
 10
290.5277514103
 20
563.2187298467
 10
290.6149453015
 20
562.6196622129
  0
LWPOLYLINE
  5
1AD
330
1F
100
AcDbEntity
  8
0
  6
Continuous
 62
     7
100
AcDbPolyline
 90
       22
 70
   128
 43
0.0
 10
376.3682901164
 20
546.5524961736
 10
376.2954348894
 20
545.9834161252
 10
376.0690040508
 20
545.4948889219
 10
375.7091169743
 20
545.1303223497
 10
375.247751206
 20
544.9221097483
 10
374.7259011191
 20
544.888751721
 10
374.1899353838
 20
545.0332122751
 10
373.6874769079
 20
545.3426554563
 10
373.2631713318
 20
545.78958588
 10
372.9547200682
 20
546.3342918167
 10
372.7895303653
 20
546.9283737536
 10
372.7822800532
 20
547.5190449035
 10
372.9336133539
 20
548.0538215425
 10
373.2300836396
 20
548.4851864195
 10
373.6453482243
 20
548.7748108722
 10
374.1425090274
 20
548.8969604969
 10
374.6773911296
 20
548.8407817634
 10
375.202467909
 20
548.6112663988
 10
375.6710839894
 20
548.2288078504
 10
376.0416007757
 20
547.7273892385
 10
376.2810962252
 20
547.1515638074
 10
376.3682901164
 20
546.5524961736
  0
LWPOLYLINE
  5
1AE
330
1F
100
AcDbEntity
  8
0
  6
Continuous
 62
     7
100
AcDbPolyline
 90
       22
 70
   128
 43
0.0
 10
437.8238638073
 20
468.4848200948
 10
437.7510085803
 20
467.9157400464
 10
437.5245777417
 20
467.4272128431
 10
437.1646906652
 20
467.0626462709
 10
436.7033248969
 20
466.8544336695
 10
436.1814748099
 20
466.8210756422
 10
435.6455090747
 20
466.9655361963
 10
435.1430505987
 20
467.2749793775
 10
434.7187450227
 20
467.7219098012
 10
434.410293759
 20
468.2666157379
 10
434.2451040561
 20
468.8606976748
 10
434.237853744
 20
469.4513688247
 10
434.3891870448
 20
469.9861454637
 10
434.6856573305
 20
470.4175103407
 10
435.1009219152
 20
470.7071347934
 10
435.5980827182
 20
470.8292844181
 10
436.1329648205
 20
470.7731056846
 10
436.6580415999
 20
470.54359032
 10
437.1266576803
 20
470.1611317716
 10
437.4971744665
 20
469.6597131597
 10
437.7366699161
 20
469.0838877286
 10
437.8238638073
 20
468.4848200948
  0
LWPOLYLINE
  5
1AF
330
1F
100
AcDbEntity
  8
0
  6
Continuous
 62
     7
100
AcDbPolyline
 90
       22
 70
   128
 43
0.0
 10
438.9818247894
 20
374.1476198405
 10
438.9089695624
 20
373.5785397921
 10
438.6825387238
 20
373.0900125888
 10
438.3226516473
 20
372.7254460166
 10
437.861285879
 20
372.5172334152
 10
437.3394357921
 20
372.483875388
 10
436.8034700568
 20
372.628335942
 10
436.3010115809
 20
372.9377791232
 10
435.8767060048
 20
373.3847095469
 10
435.5682547412
 20
373.9294154836
 10
435.4030650383
 20
374.5234974205
 10
435.3958147262
 20
375.1141685704
 10
435.5471480269
 20
375.6489452094
 10
435.8436183126
 20
376.0803100864
 10
436.2588828973
 20
376.3699345391
 10
436.7560437004
 20
376.4920841638
 10
437.2909258026
 20
376.4359054303
 10
437.816002582
 20
376.2063900657
 10
438.2846186624
 20
375.8239315173
 10
438.6551354487
 20
375.3225129055
 10
438.8946308982
 20
374.7466874744
 10
438.9818247894
 20
374.1476198405
  0
LWPOLYLINE
  5
1B0
330
1F
100
AcDbEntity
  8
0
  6
Continuous
 62
     7
100
AcDbPolyline
 90
       22
 70
   128
 43
0.0
 10
379.1638552242
 20
318.8023478834
 10
379.0909999972
 20
318.233267835
 10
378.8645691586
 20
317.7447406317
 10
378.5046820821
 20
317.3801740595
 10
378.0433163138
 20
317.1719614581
 10
377.5214662268
 20
317.1386034308
 10
376.9855004915
 20
317.2830639849
 10
376.4830420156
 20
317.5925071661
 10
376.0587364396
 20
318.0394375898
 10
375.7502851759
 20
318.5841435265
 10
375.585095473
 20
319.1782254634
 10
375.5778451609
 20
319.7688966132
 10
375.7291784616
 20
320.3036732523
 10
376.0256487473
 20
320.7350381293
 10
376.4409133321
 20
321.024662582
 10
376.9380741351
 20
321.1468122067
 10
377.4729562374
 20
321.0906334732
 10
377.9980330168
 20
320.8611181086
 10
378.4666490972
 20
320.4786595602
 10
378.8371658834
 20
319.9772409483
 10
379.076661333
 20
319.4014155172
 10
379.1638552242
 20
318.8023478834
  0
LWPOLYLINE
  5
1B1
330
1F
100
AcDbEntity
  8
0
  6
Continuous
 62
     7
100
AcDbPolyline
 90
       22
 70
   128
 43
0.0
 10
293.4105104093
 20
334.8695139227
 10
293.3376551822
 20
334.3004338743
 10
293.1112243437
 20
333.811906671
 10
292.7513372671
 20
333.4473400988
 10
292.2899714988
 20
333.2391274974
 10
291.7681214119
 20
333.2057694701
 10
291.2321556766
 20
333.3502300242
 10
290.7296972007
 20
333.6596732054
 10
290.3053916246
 20
334.1066036291
 10
289.996940361
 20
334.6513095658
 10
289.8317506581
 20
335.2453915027
 10
289.824500346
 20
335.8360626525
 10
289.9758336467
 20
336.3708392916
 10
290.2723039324
 20
336.8022041686
 10
290.6875685171
 20
337.0918286213
 10
291.1847293202
 20
337.213978246
 10
291.7196114224
 20
337.1577995125
 10
292.2446882018
 20
336.9282841479
 10
292.7133042822
 20
336.5458255994
 10
293.0838210685
 20
336.0444069876
 10
293.323316518
 20
335.4685815565
 10
293.4105104093
 20
334.8695139227
  0
LWPOLYLINE
  5
1B2
330
1F
100
AcDbEntity
  8
0
  6
Continuous
 62
     7
100
AcDbPolyline
 90
       22
 70
   128
 43
0.0
 10
231.9549367184
 20
412.9371900015
 10
231.8820814914
 20
412.3681099531
 10
231.6556506528
 20
411.8795827498
 10
231.2957635763
 20
411.5150161776
 10
230.834397808
 20
411.3068035761
 10
230.312547721
 20
411.2734455489
 10
229.7765819857
 20
411.417906103
 10
229.2741235098
 20
411.7273492842
 10
228.8498179338
 20
412.1742797079
 10
228.5413666701
 20
412.7189856446
 10
228.3761769672
 20
413.3130675815
 10
228.3689266551
 20
413.9037387313
 10
228.5202599558
 20
414.4385153704
 10
228.8167302415
 20
414.8698802474
 10
229.2319948262
 20
415.1595047001
 10
229.7291556293
 20
415.2816543248
 10
230.2640377315
 20
415.2254755913
 10
230.7891145109
 20
414.9959602267
 10
231.2577305914
 20
414.6135016782
 10
231.6282473776
 20
414.1120830664
 10
231.8677428272
 20
413.5362576353
 10
231.9549367184
 20
412.9371900015
  0
LWPOLYLINE
  5
1B3
330
1F
100
AcDbEntity
  8
0
  6
Continuous
 62
     7
100
AcDbPolyline
 90
       22
 70
   128
 43
0.0
 10
230.7969757363
 20
507.2743902557
 10
230.7241205093
 20
506.7053102074
 10
230.4976896707
 20
506.2167830041
 10
230.1378025942
 20
505.8522164318
 10
229.6764368258
 20
505.6440038304
 10
229.1545867389
 20
505.6106458032
 10
228.6186210036
 20
505.7551063573
 10
228.1161625277
 20
506.0645495385
 10
227.6918569516
 20
506.5114799622
 10
227.383405688
 20
507.0561858989
 10
227.2182159851
 20
507.6502678358
 10
227.210965673
 20
508.2409389856
 10
227.3622989737
 20
508.7757156247
 10
227.6587692594
 20
509.2070805017
 10
228.0740338441
 20
509.4967049544
 10
228.5711946472
 20
509.6188545791
 10
229.1060767494
 20
509.5626758456
 10
229.6311535288
 20
509.333160481
 10
230.0997696092
 20
508.9507019325
 10
230.4702863955
 20
508.4492833207
 10
230.709781845
 20
507.8734578896
 10
230.7969757363
 20
507.2743902557
  0
LWPOLYLINE
  5
1B4
330
1F
100
AcDbEntity
  8
0
  6
Continuous
 62
     7
100
AcDbPolyline
 90
      168
 70
   128
 43
0.0
 10
439.4477727673
 20
421.1204370597
 10
439.3184794556
 20
425.5357251864
 10
439.0388289896
 20
429.9729699059
 10
438.6092171834
 20
434.4258907946
 10
438.0302521043
 20
438.888185241
 10
437.3027532128
 20
443.3535373662
 10
436.4277502021
 20
447.8156269637
 10
435.4064815411
 20
452.2681384445
 10
434.2403927215
 20
456.7047697766
 10
432.9311342115
 20
461.1192414044
 10
431.4805591202
 20
465.5053051371
 10
429.8907205744
 20
469.8567529918
 10
428.1638688128
 20
474.1674259808
 10
426.302448001
 20
478.4312228283
 10
424.3090927719
 20
482.6421086069
 10
422.186624497
 20
486.7941232786
 10
419.9380472928
 20
490.8813901308
 10
417.5665437689
 20
494.8981240944
 10
415.0754705233
 20
498.8386399317
 10
412.4683533916
 20
502.6973602832
 10
409.7488824566
 20
506.4688235616
 10
406.9209068253
 20
510.1476916824
 10
403.988429181
 20
513.7287576193
 10
400.9556001178
 20
517.2069527738
 10
397.8267122662
 20
520.5773541496
 10
394.6061942169
 20
523.8351913205
 10
391.2986042533
 20
526.9758531822
 10
387.908623899
 20
529.9948944792
 10
384.4410512921
 20
532.8880420959
 10
380.9007943939
 20
535.6512011057
 10
377.2928640421
 20
538.2804605657
 10
373.6223668587
 20
540.7720990533
 10
369.8944980221
 20
543.1225899328
 10
366.1145339136
 20
545.3286063473
 10
362.2878246498
 20
547.3870259271
 10
358.4197865097
 20
549.2949352096
 10
354.5158942688
 20
551.0496337625
 10
350.58167345
 20
552.6486380062
 10
346.6226925029
 20
554.089684729
 10
342.6445549224
 20
555.3707342905
 10
338.6528913173
 20
556.4899735082
 10
334.6533514411
 20
557.4458182241
 10
330.6515961952
 20
558.236915547
 10
326.6532896168
 20
558.8621457671
 10
322.6640908616
 20
559.3206239409
 10
318.6896461945
 20
559.6117011438
 10
314.7355809973
 20
559.7349653886
 10
310.8074918073
 20
559.6902422085
 10
306.9109383954
 20
559.4775949042
 10
303.0514358972
 20
559.0973244542
 10
299.234447007
 20
558.5499690888
 10
295.4653742457
 20
557.8363035282
 10
291.7495523143
 20
556.9573378863
 10
288.0922405432
 20
555.9143162407
 10
284.4986154483
 20
554.7087148719
 10
280.973763404
 20
553.3422401737
 10
277.5226734442
 20
551.8168262384
 10
274.150230201
 20
550.1346321187
 10
270.8612069904
 20
548.2980387723
 10
267.6602590572
 20
546.3096456918
 10
264.5519169852
 20
544.1722672251
 10
261.5405802849
 20
541.8889285926
 10
258.6305111668
 20
539.4628616046
 10
255.8258285083
 20
536.8975000878
 10
253.130502024
 20
534.1964750245
 10
250.5483466472
 20
531.3636094135
 10
248.08301713
 20
528.4029128595
 10
245.7380028708
 20
525.3185758973
 10
243.5166229749
 20
522.114964061
 10
241.4220215572
 20
518.7966117049
 10
239.4571632918
 20
515.3682155856
 10
237.6248292159
 20
511.8346282146
 10
235.9276127933
 20
508.2008509895
 10
234.3679162443
 20
504.4720271157
 10
232.9479471447
 20
500.6534343264
 10
231.6697153022
 20
496.7504774128
 10
230.535029911
 20
492.7686805738
 10
229.5454969912
 20
488.7136795977
 10
228.7025171162
 20
484.5912138848
 10
228.0072834296
 20
480.4071183245
 10
227.4607799571
 20
476.167315036
 10
227.0637802131
 20
471.8778049868
 10
226.8168461065
 20
467.5446594987
 10
226.7203271447
 20
463.1740116547
 10
226.7743599397
 20
458.772047618
 10
226.978868014
 20
454.3449978763
 10
227.3335619093
 20
449.8991284237
 10
227.8379395961
 20
445.4407318912
 10
228.4912871842
 20
440.9761186404
 10
229.2926799331
 20
436.5116078322
 10
230.240983561
 20
432.0535184824
 10
231.3348558502
 20
427.608160518
 10
232.5727485467
 20
423.181825846
 10
233.9529095519
 20
418.7807794482
 10
235.4733854022
 20
414.4112505137
 10
237.132024034
 20
410.079423622
 10
238.9264778299
 20
405.7914299896
 10
240.8542069412
 20
401.5533387922
 10
242.9124828828
 20
397.3711485738
 10
245.0983923954
 20
393.250778757
 10
247.4088415684
 20
389.1980612646
 10
249.8405602195
 20
385.2187322649
 10
252.3901065228
 20
381.3184240532
 10
255.0538718806
 20
377.5026570797
 10
257.8280860309
 20
373.7768321356
 10
260.7088223838
 20
370.1462227097
 10
263.6920035792
 20
366.6159675236
 10
266.7734072576
 20
363.1910632587
 10
269.9486720367
 20
359.8763574841
 10
273.2133036844
 20
356.676541795
 10
276.5626814795
 20
353.5961451728
 10
279.9920647524
 20
350.6395275745
 10
283.4965995944
 20
347.8108737616
 10
287.0713257285
 20
345.1141873772
 10
290.7111835295
 20
342.5532852795
 10
294.4110211858
 20
340.1317921389
 10
298.1656019908
 20
337.8531353083
 10
301.9696117553
 20
335.7205399715
 10
305.8176663288
 20
333.7370245787
 10
309.7043192205
 20
331.9053965743
 10
313.6240693077
 20
330.2282484228
 10
317.5713686225
 20
328.7079539399
 10
321.5406302042
 20
327.3466649324
 10
325.5262360068
 20
326.1463081527
 10
329.5225448511
 20
325.1085825716
 10
333.5239004086
 20
324.2349569735
 10
337.5246392082
 20
323.526667878
 10
341.5190986514
 20
322.9847177888
 10
345.5016250275
 20
322.6098737759
 10
349.4665815157
 20
322.4026663889
 10
353.4083561637
 20
322.3633889069
 10
357.3213698301
 20
322.4920969225
 10
361.2000840816
 20
322.7886082641
 10
365.039009032
 20
323.2525032531
 10
368.8327111123
 20
323.8831252978
 10
372.5758207614
 20
324.6795818234
 10
376.2630400262
 20
325.6407455346
 10
379.8891500601
 20
326.7652560118
 10
383.4490185099
 20
328.0515216361
 10
386.9376067799
 20
329.4977218423
 10
390.3499771634
 20
331.1018096958
 10
393.6812998318
 20
332.8615147896
 10
396.9268596703
 20
334.774346458
 10
400.082062952
 20
336.8375973014
 10
403.1424438394
 20
339.0483470193
 10
406.1036707056
 20
341.4034665424
 10
408.9615522652
 20
343.8996224626
 10
411.7120435062
 20
346.5332817502
 10
414.3512514161
 20
349.300716755
 10
416.875440491
 20
352.1980104822
 10
419.2810380236
 20
355.2210621366
 10
421.5646391597
 20
358.3655929265
 10
423.7230117171
 20
361.6271521203
 10
425.753100761
 20
365.0011233457
 10
427.6520329271
 20
368.4827311237
 10
429.4171204895
 20
372.0670476278
 10
431.0458651641
 20
375.7489996588
 10
432.5359616448
 20
379.5233758253
 10
433.8853008668
 20
383.3848339199
 10
435.0919729912
 20
387.3279084806
 10
436.1542701087
 20
391.3470185262
 10
437.0706886565
 20
395.4364754558
 10
437.8399315464
 20
399.5904911005
 10
438.4609100014
 20
403.8031859157
 10
438.9327450958
 20
408.0685973029
 10
439.2547689997
 20
412.3806880493
 10
439.4265259245
 20
416.7333548727
 10
439.4477727673
 20
421.1204370597
  0
LINE
  5
1B5
330
1F
100
AcDbEntity
  8
0
  6
Continuous
 62
     7
100
AcDbLine
 10
473.7236600035
 20
346.8925317465
 30
0.0
 11
478.3492556813
 21
349.4977948814
 31
0.0
  0
LINE
  5
1B6
330
1F
100
AcDbEntity
  8
0
  6
Continuous
 62
     7
100
AcDbLine
 10
476.7045571272
 20
483.4887144823
 30
0.0
 11
478.3492556813
 21
349.4977948814
 31
0.0
  0
LWPOLYLINE
  5
1B7
330
1F
100
AcDbEntity
  8
0
  6
Continuous
 62
     7
100
AcDbPolyline
 90
       84
 70
   128
 43
0.0
 10
273.9175560272
 20
550.0112416763
 10
271.0009670468
 20
548.1912246225
 10
267.8926249747
 20
546.0538461559
 10
264.8812882745
 20
543.7705075233
 10
261.9712191564
 20
541.3444405354
 10
259.1665364978
 20
538.7790790186
 10
256.4712100135
 20
536.0780539552
 10
253.8890546367
 20
533.2451883443
 10
251.4237251196
 20
530.2844917903
 10
249.0787108603
 20
527.2001548281
 10
246.8573309644
 20
523.9965429918
 10
244.7627295467
 20
520.6781906357
 10
242.7978712813
 20
517.2497945164
 10
240.9655372054
 20
513.7162071453
 10
239.2683207828
 20
510.0824299203
 10
237.7086242338
 20
506.3536060465
 10
236.2886551343
 20
502.5350132572
 10
235.0104232918
 20
498.6320563436
 10
233.8757379005
 20
494.6502595046
 10
232.8862049807
 20
490.5952585285
 10
232.0432251057
 20
486.4727928156
 10
231.3479914192
 20
482.2886972552
 10
230.8014879466
 20
478.0488939667
 10
230.4044882026
 20
473.7593839176
 10
230.157554096
 20
469.4262384295
 10
230.0610351342
 20
465.0555905855
 10
230.1150679292
 20
460.6536265487
 10
230.3195760035
 20
456.2265768071
 10
230.6742698988
 20
451.7807073545
 10
231.1786475857
 20
447.322310822
 10
231.8319951738
 20
442.8576975712
 10
232.6333879227
 20
438.393186763
 10
233.5816915506
 20
433.9350974132
 10
234.6755638397
 20
429.4897394488
 10
235.9134565362
 20
425.0634047768
 10
237.2936175414
 20
420.662358379
 10
238.8140933917
 20
416.2928294445
 10
240.4727320235
 20
411.9610025528
 10
242.2671858194
 20
407.6730089204
 10
244.1949149307
 20
403.434917723
 10
246.2531908723
 20
399.2527275046
 10
248.4391003849
 20
395.1323576878
 10
250.7495495579
 20
391.0796401954
 10
253.181268209
 20
387.1003111957
 10
255.7308145123
 20
383.200002984
 10
258.3945798701
 20
379.3842360104
 10
261.1687940204
 20
375.6584110664
 10
264.0495303733
 20
372.0278016405
 10
267.0327115687
 20
368.4975464544
 10
270.1141152471
 20
365.0726421895
 10
273.2893800263
 20
361.7579364149
 10
276.5540116739
 20
358.5581207258
 10
279.903389469
 20
355.4777241036
 10
283.3327727419
 20
352.5211065053
 10
286.837307584
 20
349.6924526924
 10
290.412033718
 20
346.995766308
 10
294.0518915191
 20
344.4348642103
 10
297.7517291753
 20
342.0133710697
 10
301.5063099803
 20
339.7347142391
 10
305.3103197448
 20
337.6021189022
 10
309.1583743184
 20
335.6186035095
 10
313.04502721
 20
333.7869755051
 10
316.9647772972
 20
332.1098273536
 10
320.912076612
 20
330.5895328707
 10
324.8813381937
 20
329.2282438632
 10
328.8669439963
 20
328.0278870835
 10
332.8632528406
 20
326.9901615023
 10
336.8646083982
 20
326.1165359043
 10
340.8653471977
 20
325.4082468087
 10
344.8598066409
 20
324.8662967196
 10
348.842333017
 20
324.4914527067
 10
352.8072895053
 20
324.2842453197
 10
356.7490641532
 20
324.2449678376
 10
360.6620778196
 20
324.3736758533
 10
364.5407920711
 20
324.6701871949
 10
368.3797170215
 20
325.1340821838
 10
372.1734191018
 20
325.7647042286
 10
375.9165287509
 20
326.5611607541
 10
379.6037480157
 20
327.5223244654
 10
383.2298580497
 20
328.6468349426
 10
386.7897264995
 20
329.9331005669
 10
390.2783147694
 20
331.3793007731
 10
393.6906851529
 20
332.9833886266
 10
395.5994490872
 20
333.9673300047
  0
LINE
  5
1B8
330
1F
100
AcDbEntity
  8
0
  6
Continuous
 62
     7
100
AcDbLine
 10
270.2677312109
 20
608.1314402065
 30
0.0
 11
274.8933268887
 21
610.7367033414
 31
0.0
  0
LINE
  5
1B9
330
1F
100
AcDbEntity
  8
0
  6
Continuous
 62
     7
100
AcDbLine
 10
394.1190346665
 20
588.3979916894
 30
0.0
 11
274.8933268887
 21
610.7367033414
 31
0.0
  0
LINE
  5
1BA
330
1F
100
AcDbEntity
  8
0
  6
Continuous
 62
     7
100
AcDbLine
 10
393.3387905378
 20
272.5181841357
 30
0.0
 11
397.9643862156
 21
275.1234472706
 31
0.0
  0
LINE
  5
1BB
330
1F
100
AcDbEntity
  8
0
  6
Continuous
 62
     7
100
AcDbLine
 10
478.3492556813
 20
349.4977948814
 30
0.0
 11
397.9643862156
 21
275.1234472706
 31
0.0
  0
LINE
  5
1BC
330
1F
100
AcDbEntity
  8
0
  6
Continuous
 62
     7
100
AcDbLine
 10
895.6863213912
 20
809.7323531071
 30
0.0
 11
900.311917069
 21
812.3376162421
 31
0.0
  0
LINE
  5
1BD
330
1F
100
AcDbEntity
  8
0
  6
Continuous
 62
     7
100
AcDbLine
 10
895.6863213912
 20
809.7323531071
 30
0.0
 11
770.5164540311
 21
833.1847915669
 31
0.0
  0
LINE
  5
1BE
330
1F
100
AcDbEntity
  8
0
  6
Continuous
 62
     7
100
AcDbLine
 10
900.311917069
 20
812.3376162421
 30
0.0
 11
775.1420497089
 21
835.7900547018
 31
0.0
  0
LINE
  5
1BF
330
1F
100
AcDbEntity
  8
0
  6
Continuous
 62
     7
100
AcDbLine
 10
617.3355732359
 20
549.3314499366
 30
0.0
 11
663.1850065184
 21
540.7408759019
 31
0.0
  0
LINE
  5
1C0
330
1F
100
AcDbEntity
  8
0
  6
Continuous
 62
     7
100
AcDbLine
 10
692.9494581883
 20
535.1640626816
 30
0.0
 11
726.3426604567
 21
528.9073490037
 31
0.0
  0
LINE
  5
1C1
330
1F
100
AcDbEntity
  8
0
  6
Continuous
 62
     7
100
AcDbLine
 10
614.9270180623
 20
745.5525275411
 30
0.0
 11
616.2725059193
 21
635.9378174092
 31
0.0
  0
LINE
  5
1C2
330
1F
100
AcDbEntity
  8
0
  6
Continuous
 62
     7
100
AcDbLine
 10
617.1726539075
 20
562.6042229845
 30
0.0
 11
617.3355732359
 21
549.3314499366
 31
0.0
  0
LINE
  5
1C3
330
1F
100
AcDbEntity
  8
0
  6
Continuous
 62
     7
100
AcDbLine
 10
897.2268885414
 20
684.2248498342
 30
0.0
 11
895.6863213912
 21
809.7323531071
 31
0.0
  0
LINE
  5
1C4
330
1F
100
AcDbEntity
  8
0
  6
Continuous
 62
     7
100
AcDbLine
 10
901.8524842192
 20
686.8301129691
 30
0.0
 11
900.311917069
 21
812.3376162421
 31
0.0
  0
LINE
  5
1C5
330
1F
100
AcDbEntity
  8
0
  6
Continuous
 62
     8
370
     0
100
AcDbLine
 10
735.9119880455
 20
587.5735347887
 30
0.0
 11
739.7573395946
 21
274.2989903699
 31
0.0
  0
LINE
  5
1C6
330
1F
100
AcDbEntity
  8
0
  6
Continuous
 62
     8
370
     0
100
AcDbLine
 10
732.8988696936
 20
273.6551727405
 30
0.0
 11
729.0535181446
 21
586.9297171593
 31
0.0
  0
LINE
  5
1C7
330
1F
100
AcDbEntity
  8
0
  6
Continuous
 62
     8
370
     0
100
AcDbLine
 10
949.9649653969
 20
392.6937261683
 30
0.0
 11
946.1196138479
 21
705.9682705871
 31
0.0
  0
LINE
  5
1C8
330
1F
100
AcDbEntity
  8
0
  6
Continuous
 62
     8
370
     0
100
AcDbLine
 10
572.9863396212
 20
175.8011636926
 30
0.0
 11
573.0326691579
 21
172.0267715912
 31
0.0
  0
ARC
  5
1C9
330
1F
100
AcDbEntity
  8
0
  6
Continuous
 62
     8
370
     0
100
AcDbCircle
 10
568.5487663084
 20
182.9400444647
 30
0.0
 40
11.79851302388619
100
AcDbArc
 50
258.3893582534
 51
292.3361391603
  0
LINE
  5
1CA
330
1F
100
AcDbEntity
  8
0
  6
Continuous
 62
     8
370
     0
100
AcDbLine
 10
566.174199257
 20
171.3829539618
 30
0.0
 11
566.1278697202
 21
175.1573460632
 31
0.0
  0
LWPOLYLINE
  5
1CB
330
1F
100
AcDbEntity
  8
0
  6
Continuous
 62
     8
370
     0
100
AcDbPolyline
 90
        8
 70
   128
 43
0.0
 10
567.8231734097
 20
167.9158412066
 10
567.8140678104
 20
167.9175839469
 10
567.3644359312
 20
168.1033421446
 10
566.9678189506
 20
168.4707555415
 10
566.6394586369
 20
169.0057046466
 10
566.3919736926
 20
169.6876316661
 10
566.2348748255
 20
170.4903305268
 10
566.174199257
 20
171.3829539618
  0
ARC
  5
1CC
330
1F
100
AcDbEntity
  8
0
  6
Continuous
 62
     8
370
     0
100
AcDbCircle
 10
569.1130661599
 20
171.8007677363
 30
0.0
 40
3.926113269403168
100
AcDbArc
 50
302.0705668625
 51
3.3000141039
  0
LINE
  5
1CD
330
1F
100
AcDbEntity
  8
0
  6
Continuous
 62
     8
370
     0
100
AcDbLine
 10
277.1161883136
 20
225.5422764563
 30
0.0
 11
566.174199257
 21
171.3829539618
 31
0.0
  0
LINE
  5
1CE
330
1F
100
AcDbEntity
  8
0
  6
Continuous
 62
     8
370
     0
100
AcDbLine
 10
277.0698587769
 20
229.3166685577
 30
0.0
 11
277.1161883136
 21
225.5422764563
 31
0.0
  0
LWPOLYLINE
  5
1CF
330
1F
100
AcDbEntity
  8
0
  6
Continuous
 62
     8
370
     0
100
AcDbPolyline
 90
        8
 70
   128
 43
0.0
 10
277.1161883136
 20
225.5422764563
 10
277.1768638822
 20
224.6496530213
 10
277.3339627493
 20
223.8469541606
 10
277.5814476936
 20
223.1650271411
 10
277.9098080073
 20
222.630078036
 10
278.3064249879
 20
222.2626646391
 10
278.7560568671
 20
222.0769064415
 10
278.7651624664
 20
222.0751637011
  0
LINE
  5
1D0
330
1F
100
AcDbEntity
  8
0
  6
Continuous
 62
     8
370
     0
100
AcDbLine
 10
783.2402949602
 20
290.4215073896
 30
0.0
 11
783.1939654235
 21
294.195899491
 31
0.0
  0
LINE
  5
1D1
330
1F
100
AcDbEntity
  8
0
  6
Continuous
 62
     8
370
     0
100
AcDbLine
 10
573.0326691579
 20
172.0267715912
 30
0.0
 11
783.2402949602
 21
290.4215073896
 31
0.0
  0
ARC
  5
1D2
330
1F
100
AcDbEntity
  8
0
  6
Continuous
 62
     8
370
     0
100
AcDbCircle
 10
779.3206919622
 20
290.1955035347
 30
0.0
 40
3.926113269403466
100
AcDbArc
 50
302.0705668625
 51
3.3000141039
  0
LWPOLYLINE
  5
1D3
330
1F
100
AcDbEntity
  8
0
  6
Continuous
 62
     8
370
     0
100
AcDbPolyline
 90
        7
 70
   128
 43
0.0
 10
277.1161883136
 20
225.5422764563
 10
276.3288830311
 20
225.7268522146
 10
275.6705884757
 20
225.9599563863
 10
275.1666025379
 20
226.2326309087
 10
274.8362931147
 20
226.5343970529
 10
274.692353812
 20
226.8536581153
 10
274.6863403184
 20
226.9282759796
  0
ARC
  5
1D4
330
1F
100
AcDbEntity
  8
0
  6
Continuous
 62
     8
370
     0
100
AcDbCircle
 10
782.8653881601
 20
291.454302714
 30
0.0
 40
1.098736224493117
100
AcDbArc
 50
289.9510000134
 51
351.211367115
  0
ARC
  5
1D5
330
1F
100
AcDbEntity
  8
0
  6
Continuous
 62
     8
370
     0
100
AcDbCircle
 10
560.5434361989
 20
721.9088586966
 30
0.0
 40
5.739213295296174
100
AcDbArc
 50
0.4612244142
 51
75.9590515332
  0
ARC
  5
1D6
330
1F
100
AcDbEntity
  8
0
  6
Continuous
 62
     8
370
     0
100
AcDbCircle
 10
561.7985606934
 20
732.868331076
 30
0.0
 40
11.79851302388361
100
AcDbArc
 50
258.3893582534
 51
292.3361391603
  0
LWPOLYLINE
  5
1D7
330
1F
100
AcDbEntity
  8
0
  6
Continuous
 62
     8
370
     0
100
AcDbPolyline
 90
        9
 70
   128
 43
0.0
 10
561.9358570976
 20
727.4765991081
 10
561.4356315532
 20
727.1035766819
 10
560.9568549186
 20
726.5635795837
 10
560.5179263113
 20
725.877359599
 10
560.1357135116
 20
725.0712877772
 10
559.824904743
 20
724.1763410062
 10
559.5974442123
 20
723.2269115885
 10
559.4620730999
 20
722.2594855643
 10
559.4239936419
 20
721.311240573
  0
LINE
  5
1D8
330
1F
100
AcDbEntity
  8
0
  6
Continuous
 62
     8
370
     0
100
AcDbLine
 10
559.4703231787
 20
717.5368484716
 30
0.0
 11
559.4239936419
 21
721.311240573
 31
0.0
  0
LINE
  5
1D9
330
1F
100
AcDbEntity
  8
0
  6
Continuous
 62
     8
370
     0
100
AcDbLine
 10
566.2824635429
 20
721.9550582025
 30
0.0
 11
566.3287930796
 21
718.180666101
 31
0.0
  0
LINE
  5
1DA
330
1F
100
AcDbEntity
  8
0
  6
Continuous
 62
     8
370
     0
100
AcDbLine
 10
272.8778461543
 20
781.6359216026
 30
0.0
 11
561.9358570976
 21
727.4765991081
 31
0.0
  0
LINE
  5
1DB
330
1F
100
AcDbEntity
  8
0
  6
Continuous
 62
     8
370
     0
100
AcDbLine
 10
559.4239936419
 20
721.311240573
 30
0.0
 11
270.3659826986
 21
775.4705630675
 31
0.0
  0
LWPOLYLINE
  5
1DC
330
1F
100
AcDbEntity
  8
0
  6
Continuous
 62
     8
370
     0
100
AcDbPolyline
 90
        9
 70
   128
 43
0.0
 10
270.3659826986
 20
775.4705630675
 10
270.4040621566
 20
776.4188080588
 10
270.539433269
 20
777.386234083
 10
270.7668937997
 20
778.3356635007
 10
271.0777025683
 20
779.2306102717
 10
271.459915368
 20
780.0366820935
 10
271.8988439753
 20
780.7229020782
 10
272.3776206099
 20
781.2628991764
 10
272.8778461543
 20
781.6359216026
  0
LINE
  5
1DD
330
1F
100
AcDbEntity
  8
0
  6
Continuous
 62
     8
370
     0
100
AcDbLine
 10
561.9358570976
 20
727.4765991081
 30
0.0
 11
772.1434828999
 21
845.8713349065
 31
0.0
  0
ARC
  5
1DE
330
1F
100
AcDbEntity
  8
0
  6
Continuous
 62
     8
370
     0
100
AcDbCircle
 10
770.7510620013
 20
840.303594495
 30
0.0
 40
5.739213295296249
100
AcDbArc
 50
0.4612244142
 51
75.9590515332
  0
LINE
  5
1DF
330
1F
100
AcDbEntity
  8
0
  6
Continuous
 62
     8
370
     0
100
AcDbLine
 10
776.4900893452
 20
840.3497940009
 30
0.0
 11
566.2824635429
 21
721.9550582025
 31
0.0
  0
LINE
  5
1E0
330
1F
100
AcDbEntity
  8
0
  6
Continuous
 62
     8
370
     0
100
AcDbLine
 10
270.3659826986
 20
775.4705630675
 30
0.0
 11
270.4123122354
 21
771.6961709661
 31
0.0
  0
LINE
  5
1E1
330
1F
100
AcDbEntity
  8
0
  6
Continuous
 62
     8
370
     0
100
AcDbLine
 10
776.5364188819
 20
836.5754018994
 30
0.0
 11
776.4900893452
 21
840.3497940009
 31
0.0
  0
LINE
  5
1E2
330
1F
100
AcDbEntity
  8
0
  6
Continuous
 62
     8
370
     0
100
AcDbLine
 10
483.0854719566
 20
900.030657401
 30
0.0
 11
272.8778461543
 21
781.6359216026
 31
0.0
  0
LINE
  5
1E3
330
1F
100
AcDbEntity
  8
0
  6
Continuous
 62
     8
370
     0
100
AcDbLine
 10
772.1434828999
 20
845.8713349065
 30
0.0
 11
483.0854719566
 21
900.030657401
 31
0.0
  0
ARC
  5
1E4
330
1F
100
AcDbEntity
  8
0
  6
Continuous
 62
     8
370
     0
100
AcDbCircle
 10
272.1674272652
 20
778.2241639543
 30
0.0
 40
3.484936907446366
100
AcDbArc
 50
78.2375690571
 51
118.9220555815
  0
LWPOLYLINE
  5
1E5
330
1F
100
AcDbEntity
  8
0
  6
Continuous
 62
     8
370
     0
100
AcDbPolyline
 90
        7
 70
   128
 43
0.0
 10
267.9361347034
 20
776.8565625909
 10
267.942148197
 20
776.7819447265
 10
268.0860874997
 20
776.4626836642
 10
268.4163969229
 20
776.16091752
 10
268.9203828607
 20
775.8882429975
 10
269.5786774161
 20
775.6551388259
 10
270.3659826986
 20
775.4705630675
  0
ARC
  5
1E6
330
1F
100
AcDbEntity
  8
0
  6
Continuous
 62
     8
370
     0
100
AcDbCircle
 10
482.3750530675
 20
896.6188997527
 30
0.0
 40
3.484936907445504
100
AcDbArc
 50
78.2375690571
 51
118.9220555815
  0
LWPOLYLINE
  5
1E7
330
1F
100
AcDbEntity
  8
0
  6
Continuous
 62
     8
370
     0
100
AcDbPolyline
 90
        3
 70
   128
 43
0.0
 10
772.1434828999
 20
845.8713349065
 10
772.6459339669
 20
846.063047618
 10
773.1221960446
 20
846.0678259432
  0
ARC
  5
1E8
330
1F
100
AcDbEntity
  8
0
  6
Continuous
 62
     8
370
     0
100
AcDbCircle
 10
776.115182545
 20
841.3825893253
 30
0.0
 40
1.098736224493284
100
AcDbArc
 50
289.9510000134
 51
351.211367115
  0
LWPOLYLINE
  5
1E9
330
1F
100
AcDbEntity
  8
0
  6
Continuous
 62
     8
370
     0
100
AcDbPolyline
 90
        3
 70
   128
 43
0.0
 10
484.0641851013
 20
900.2271484377
 10
483.5879230236
 20
900.2223701125
 10
483.0854719566
 20
900.030657401
  0
LINE
  5
1EA
330
1F
100
AcDbEntity
  8
0
  6
Continuous
 62
     8
370
     0
100
AcDbLine
 10
154.3832916828
 20
694.6027410667
 30
0.0
 11
158.2286432318
 21
381.3281966479
 31
0.0
  0
LINE
  5
1EB
330
1F
100
AcDbEntity
  8
0
  6
Continuous
 62
     8
370
     0
100
AcDbLine
 10
723.9756232206
 20
584.3622965348
 30
0.0
 11
724.0798646783
 21
575.8699143065
 31
0.0
  0
LINE
  5
1EC
330
1F
100
AcDbEntity
  8
0
  6
Continuous
 62
     8
370
     0
100
AcDbLine
 10
645.9213828769
 20
598.9869207098
 30
0.0
 11
645.9302657659
 21
598.2632461722
 31
0.0
  0
LINE
  5
1ED
330
1F
100
AcDbEntity
  8
0
  6
Continuous
 62
     8
370
     0
100
AcDbLine
 10
468.1365413963
 20
618.6026939842
 30
0.0
 11
468.240782854
 21
610.110311756
 31
0.0
  0
LINE
  5
1EE
330
1F
100
AcDbEntity
  8
0
  6
Continuous
 62
     8
370
     0
100
AcDbLine
 10
473.5330696871
 20
621.6421676416
 30
0.0
 11
473.6373111448
 21
613.1497854134
 31
0.0
  0
INSERT
  5
1F4
330
1F
100
AcDbEntity
  8
SLD-0_0
100
AcDbBlockReference
  2
SW_NOTE_2
 10
384.747573579
 20
884.9162012753
 30
0.0
  0
LEADER
  5
1FE
330
1F
100
AcDbEntity
  8
SLD-0_0
100
AcDbLeader
  3
SLDDIMSTYLE0
 76
     2
 10
508.9073811917
 20
813.7401545112
 30
0.0
 10
384.747573579
 20
884.9162012753
 30
0.0
  0
INSERT
  5
204
330
1F
100
AcDbEntity
  8
SLD-0_0
100
AcDbBlockReference
  2
SW_NOTE_3
 10
412.6693443597
 20
631.4787473028
 30
0.0
  0
LEADER
  5
205
330
1F
100
AcDbEntity
  8
SLD-0_0
100
AcDbLeader
  3
SLDDIMSTYLE0
 76
     2
 10
461.7620915734
 20
608.3761338959
 30
0.0
 10
412.6693443597
 20
631.4787473028
 30
0.0
  0
INSERT
  5
20B
330
1F
100
AcDbEntity
  8
SLD-0_0
100
AcDbBlockReference
  2
SW_NOTE_4
 10
716.2065197503
 20
697.3035653929
 30
0.0
  0
LEADER
  5
20C
330
1F
100
AcDbEntity
  8
SLD-0_0
100
AcDbLeader
  3
SLDDIMSTYLE0
 76
     2
 10
679.5281788842
 20
671.0110621594
 30
0.0
 10
716.2065197503
 20
697.3035653929
 30
0.0
  0
INSERT
  5
212
330
1F
100
AcDbEntity
  8
SLD-0_0
100
AcDbBlockReference
  2
SW_NOTE_5
 10
893.9683251233
 20
866.1561836592
 30
0.0
  0
LEADER
  5
213
330
1F
100
AcDbEntity
  8
SLD-0_0
100
AcDbLeader
  3
SLDDIMSTYLE0
 76
     2
 10
821.2285834426
 20
781.5496759922
 30
0.0
 10
893.9683251233
 20
866.1561836592
 30
0.0
  0
INSERT
  5
219
330
1F
100
AcDbEntity
  8
SLD-0_0
100
AcDbBlockReference
  2
SW_NOTE_6
 10
972.3600484512
 20
503.8288664772
 30
0.0
  0
LEADER
  5
21A
330
1F
100
AcDbEntity
  8
SLD-0_0
100
AcDbLeader
  3
SLDDIMSTYLE0
 76
     2
 10
863.6636992823
 20
516.1865124491
 30
0.0
 10
972.3600484512
 20
503.8288664772
 30
0.0
  0
INSERT
  5
220
330
1F
100
AcDbEntity
  8
SLD-0_0
100
AcDbBlockReference
  2
SW_NOTE_7
 10
239.5777033418
 20
263.3331768242
 30
0.0
  0
LEADER
  5
221
330
1F
100
AcDbEntity
  8
SLD-0_0
100
AcDbLeader
  3
SLDDIMSTYLE0
 76
     2
 10
373.4155750149
 20
299.377526882
 30
0.0
 10
239.5777033418
 20
263.3331768242
 30
0.0
  0
INSERT
  5
227
330
1F
100
AcDbEntity
  8
SLD-0_0
100
AcDbBlockReference
  2
SW_NOTE_8
 10
714.1543112442
 20
202.1703153109
 30
0.0
  0
LEADER
  5
228
330
1F
100
AcDbEntity
  8
SLD-0_0
100
AcDbLeader
  3
SLDDIMSTYLE0
 76
     2
 10
567.3989694739
 20
243.2602176118
 30
0.0
 10
714.1543112442
 20
202.1703153109
 30
0.0
  0
INSERT
  5
22E
330
1F
100
AcDbEntity
  8
SLD-0_0
100
AcDbBlockReference
  2
SW_NOTE_9
 10
182.9077046931
 20
743.9977543866
 30
0.0
  0
LEADER
  5
22F
330
1F
100
AcDbEntity
  8
SLD-0_0
100
AcDbLeader
  3
SLDDIMSTYLE0
 76
     2
 10
193.7352746955
 20
593.0609475669
 30
0.0
 10
182.9077046931
 20
743.9977543866
 30
0.0
  0
INSERT
  5
235
330
1F
100
AcDbEntity
  8
SLD-0_0
100
AcDbBlockReference
  2
SW_NOTE_10
 10
615.5937995973
 20
355.1318410897
 30
0.0
  0
LEADER
  5
236
330
1F
100
AcDbEntity
  8
SLD-0_0
100
AcDbLeader
  3
SLDDIMSTYLE0
 76
     2
 10
586.0040182034
 20
395.9360465075
 30
0.0
 10
615.5937995973
 20
355.1318410897
 30
0.0
  0
INSERT
  5
23C
330
1F
100
AcDbEntity
  8
SLD-0_0
100
AcDbBlockReference
  2
SW_NOTE_11
 10
2184.6227858412
 20
552.4577038697
 30
0.0
  0
INSERT
  5
242
330
1F
100
AcDbEntity
  8
SLD-0_0
100
AcDbBlockReference
  2
SW_NOTE_12
 10
2072.7453241333
 20
712.3403792206
 30
0.0
  0
INSERT
  5
248
330
1F
100
AcDbEntity
  8
SLD-0_0
100
AcDbBlockReference
  2
SW_NOTE_13
 10
2055.5875689587
 20
1048.3445331512
 30
0.0
  0
INSERT
  5
24E
330
1F
100
AcDbEntity
  8
SLD-0_0
100
AcDbBlockReference
  2
SW_NOTE_14
 10
1247.5420023206
 20
993.1893042815
 30
0.0
  0
INSERT
  5
254
330
1F
100
AcDbEntity
  8
SLD-0_0
100
AcDbBlockReference
  2
SW_NOTE_15
 10
2129.8858577669
 20
1854.2274255665
 30
0.0
  0
INSERT
  5
25A
330
1F
100
AcDbEntity
  8
SLD-0_0
100
AcDbBlockReference
  2
SW_NOTE_16
 10
1111.9962938055
 20
1862.2230583948
 30
0.0
  0
INSERT
  5
260
330
1F
100
AcDbEntity
  8
SLD-0_0
100
AcDbBlockReference
  2
SW_NOTE_17
 10
95.3418605885
 20
1862.2230583948
 30
0.0
  0
LINE
  5
261
330
1F
100
AcDbEntity
  8
0
  6
Continuous
 62
     7
100
AcDbLine
 10
161.9106947631
 20
1840.7174502343
 30
0.0
 11
161.9106947631
 21
1146.7174502343
 31
0.0
  0
LINE
  5
262
330
1F
100
AcDbEntity
  8
0
  6
Continuous
 62
     7
100
AcDbLine
 10
999.9106947631
 20
1840.7174502343
 30
0.0
 11
161.9106947631
 21
1840.7174502343
 31
0.0
  0
LINE
  5
263
330
1F
100
AcDbEntity
  8
0
  6
Continuous
 62
     7
100
AcDbLine
 10
999.9106947631
 20
1146.7174502343
 30
0.0
 11
999.9106947631
 21
1840.7174502343
 31
0.0
  0
LINE
  5
264
330
1F
100
AcDbEntity
  8
0
  6
Continuous
 62
     7
100
AcDbLine
 10
161.9106947631
 20
1146.7174502343
 30
0.0
 11
999.9106947631
 21
1146.7174502343
 31
0.0
  0
DIMENSION
  5
265
330
1F
100
AcDbEntity
  8
SLD-0_0
100
AcDbDimension
  2
_D
 10
161.9106947631
 20
1864.7174502343
 30
0.0
 11
582.8049451023
 21
1864.7174502343
 31
0.0
 70
   160
  1
<>
 71
     2
 42
-1.0
  3
SLDDIMSTYLE1
100
AcDbAlignedDimension
 13
999.9106947631
 23
1840.7174502343
 33
0.0
 14
161.9106947631
 24
1840.7174502343
 34
0.0
 50
0.0
100
AcDbRotatedDimension
  0
DIMENSION
  5
270
330
1F
100
AcDbEntity
  8
SLD-0_0
100
AcDbDimension
  2
_D_1
 10
1044.9106947631
 20
1840.7174502343
 30
0.0
 11
1044.9106947631
 21
1490.5461181626
 31
0.0
 70
   160
  1
<>
 71
     2
 42
-1.0
  3
SLDDIMSTYLE1
100
AcDbAlignedDimension
 13
999.9106947631
 23
1146.7174502343
 33
0.0
 14
999.9106947631
 24
1840.7174502343
 34
0.0
 50
90.0
100
AcDbRotatedDimension
  0
LINE
  5
27A
330
1F
100
AcDbEntity
  8
0
  6
Continuous
 62
     7
100
AcDbLine
 10
2866.5056576373
 20
1161.7174502343
 30
0.0
 11
2208.5056576373
 21
1161.7174502343
 31
0.0
  0
LINE
  5
27B
330
1F
100
AcDbEntity
  8
0
  6
Continuous
 62
     7
100
AcDbLine
 10
2866.5056576373
 20
1825.7174502343
 30
0.0
 11
2866.5056576373
 21
1161.7174502343
 31
0.0
  0
LINE
  5
27C
330
1F
100
AcDbEntity
  8
0
  6
Continuous
 62
     7
100
AcDbLine
 10
2208.5056576373
 20
1825.7174502343
 30
0.0
 11
2866.5056576373
 21
1825.7174502343
 31
0.0
  0
LINE
  5
27D
330
1F
100
AcDbEntity
  8
0
  6
Continuous
 62
     7
100
AcDbLine
 10
2208.5056576373
 20
1161.7174502343
 30
0.0
 11
2208.5056576373
 21
1825.7174502343
 31
0.0
  0
DIMENSION
  5
27E
330
1F
100
AcDbEntity
  8
SLD-0_0
100
AcDbDimension
  2
_D_2
 10
2866.5056576373
 20
1856.7174502343
 30
0.0
 11
2516.5951444888
 21
1856.7174502343
 31
0.0
 70
   160
  1
<>
 71
     2
 42
-1.0
  3
SLDDIMSTYLE1
100
AcDbAlignedDimension
 13
2208.5056576373
 23
1825.7174502343
 33
0.0
 14
2866.5056576373
 24
1825.7174502343
 34
0.0
100
AcDbRotatedDimension
  0
DIMENSION
  5
288
330
1F
100
AcDbEntity
  8
SLD-0_0
100
AcDbDimension
  2
_D_3
 10
2904.5056576373
 20
1161.7174502343
 30
0.0
 11
2904.5056576373
 21
1487.3580953473
 31
0.0
 70
   160
  1
<>
 71
     2
 42
-1.0
  3
SLDDIMSTYLE1
100
AcDbAlignedDimension
 13
2866.5056576373
 23
1825.7174502343
 33
0.0
 14
2866.5056576373
 24
1161.7174502343
 34
0.0
 50
90.0
100
AcDbRotatedDimension
  0
LINE
  5
292
330
1F
100
AcDbEntity
  8
0
  6
Continuous
 62
     7
100
AcDbLine
 10
1201.9897868887
 20
1825.7174502343
 30
0.0
 11
2039.9897868887
 21
1825.7174502343
 31
0.0
  0
LINE
  5
293
330
1F
100
AcDbEntity
  8
0
  6
Continuous
 62
     7
100
AcDbLine
 10
1201.9897868887
 20
1161.7174502343
 30
0.0
 11
1201.9897868887
 21
1825.7174502343
 31
0.0
  0
LINE
  5
294
330
1F
100
AcDbEntity
  8
0
  6
Continuous
 62
     7
100
AcDbLine
 10
2039.9897868887
 20
1161.7174502343
 30
0.0
 11
1201.9897868887
 21
1161.7174502343
 31
0.0
  0
LINE
  5
295
330
1F
100
AcDbEntity
  8
0
  6
Continuous
 62
     7
100
AcDbLine
 10
2039.9897868887
 20
1825.7174502343
 30
0.0
 11
2039.9897868887
 21
1161.7174502343
 31
0.0
  0
DIMENSION
  5
296
330
1F
100
AcDbEntity
  8
SLD-0_0
100
AcDbDimension
  2
_D_4
 10
2039.9897868887
 20
1849.7174502343
 30
0.0
 11
1626.6823457863
 21
1849.7174502343
 31
0.0
 70
   160
  1
<>
 71
     2
 42
-1.0
  3
SLDDIMSTYLE1
100
AcDbAlignedDimension
 13
1201.9897868887
 23
1825.7174502343
 33
0.0
 14
2039.9897868887
 24
1825.7174502343
 34
0.0
 50
0.0
100
AcDbRotatedDimension
  0
DIMENSION
  5
2A0
330
1F
100
AcDbEntity
  8
SLD-0_0
100
AcDbDimension
  2
_D_5
 10
2084.9897868887
 20
1161.7174502343
 30
0.0
 11
2084.9897868887
 21
1511.1512943331
 31
0.0
 70
   160
  1
<>
 71
     2
 42
-1.0
  3
SLDDIMSTYLE1
100
AcDbAlignedDimension
 13
2039.9897868887
 23
1825.7174502343
 33
0.0
 14
2039.9897868887
 24
1161.7174502343
 34
0.0
 50
90.0
100
AcDbRotatedDimension
  0
LINE
  5
2AA
330
1F
100
AcDbEntity
  8
0
  6
Continuous
 62
     7
100
AcDbLine
 10
1796.1421401864
 20
543.4737658297
 30
0.0
 11
1606.1421401864
 21
353.4737658297
 31
0.0
  0
CIRCLE
  5
2AB
330
1F
100
AcDbEntity
  8
0
  6
Continuous
 62
     7
100
AcDbCircle
 10
1467.1421401864
 20
685.4737658297
 30
0.0
 40
273.0000000000002
  0
LINE
  5
2AC
330
1F
100
AcDbEntity
  8
0
  6
Continuous
 62
     7
100
AcDbLine
 10
1606.1421401864
 20
353.4737658297
 30
0.0
 11
1328.1421401864
 21
353.4737658297
 31
0.0
  0
LINE
  5
2AD
330
1F
100
AcDbEntity
  8
0
  6
Continuous
 62
     7
100
AcDbLine
 10
1138.1421401864
 20
543.4737658297
 30
0.0
 11
1328.1421401864
 21
353.4737658297
 31
0.0
  0
LINE
  5
2AE
330
1F
100
AcDbEntity
  8
0
  6
Continuous
 62
     7
100
AcDbLine
 10
1138.1421401864
 20
827.4737658297
 30
0.0
 11
1138.1421401864
 21
543.4737658297
 31
0.0
  0
LINE
  5
2AF
330
1F
100
AcDbEntity
  8
0
  6
Continuous
 62
     7
100
AcDbLine
 10
1138.1421401864
 20
827.4737658297
 30
0.0
 11
1328.1421401864
 21
1017.4737658297
 31
0.0
  0
LINE
  5
2B0
330
1F
100
AcDbEntity
  8
0
  6
Continuous
 62
     7
100
AcDbLine
 10
1606.1421401864
 20
1017.4737658297
 30
0.0
 11
1328.1421401864
 21
1017.4737658297
 31
0.0
  0
LINE
  5
2B1
330
1F
100
AcDbEntity
  8
0
  6
Continuous
 62
     7
100
AcDbLine
 10
1606.1421401864
 20
1017.4737658297
 30
0.0
 11
1796.1421401864
 21
827.4737658297
 31
0.0
  0
LINE
  5
2B2
330
1F
100
AcDbEntity
  8
0
  6
Continuous
 62
     7
100
AcDbLine
 10
1796.1421401864
 20
827.4737658297
 30
0.0
 11
1796.1421401864
 21
543.4737658297
 31
0.0
  0
CIRCLE
  5
2B3
330
1F
100
AcDbEntity
  8
0
  6
Continuous
 62
     7
100
AcDbCircle
 10
1467.1421401864
 20
685.4737658297
 30
0.0
 40
247.9999999999998
  0
CIRCLE
  5
2B4
330
1F
100
AcDbEntity
  8
0
  6
Continuous
 62
     7
100
AcDbCircle
 10
1225.7786123179
 20
585.4977191243
 30
0.0
 40
4.200000000000045
  0
CIRCLE
  5
2B5
330
1F
100
AcDbEntity
  8
0
  6
Continuous
 62
     7
100
AcDbCircle
 10
1367.1660934811
 20
444.1102379611
 30
0.0
 40
4.200000000000045
  0
CIRCLE
  5
2B6
330
1F
100
AcDbEntity
  8
0
  6
Continuous
 62
     7
100
AcDbCircle
 10
1567.1181868918
 20
444.1102379611
 30
0.0
 40
4.200000000000045
  0
CIRCLE
  5
2B7
330
1F
100
AcDbEntity
  8
0
  6
Continuous
 62
     7
100
AcDbCircle
 10
1708.505668055
 20
585.4977191243
 30
0.0
 40
4.200000000000045
  0
CIRCLE
  5
2B8
330
1F
100
AcDbEntity
  8
0
  6
Continuous
 62
     7
100
AcDbCircle
 10
1708.505668055
 20
785.449812535
 30
0.0
 40
4.200000000000045
  0
CIRCLE
  5
2B9
330
1F
100
AcDbEntity
  8
0
  6
Continuous
 62
     7
100
AcDbCircle
 10
1567.1181868918
 20
926.8372936982
 30
0.0
 40
4.199999999999818
  0
CIRCLE
  5
2BA
330
1F
100
AcDbEntity
  8
0
  6
Continuous
 62
     7
100
AcDbCircle
 10
1367.1660934811
 20
926.8372936982
 30
0.0
 40
4.200000000000045
  0
CIRCLE
  5
2BB
330
1F
100
AcDbEntity
  8
0
  6
Continuous
 62
     7
100
AcDbCircle
 10
1225.7786123179
 20
785.449812535
 30
0.0
 40
4.200000000000273
  0
DIMENSION
  5
2BC
330
1F
100
AcDbEntity
  8
SLD-0_0
100
AcDbDimension
  2
_D_6
 10
1796.1421401864
 20
273.4737658297
 30
0.0
 11
1467.1421401864
 21
273.4737658297
 31
0.0
 70
   160
  1
<>
 71
     2
 42
-1.0
  3
SLDDIMSTYLE1
100
AcDbAlignedDimension
 13
1138.1421401864
 23
543.4737658297
 33
0.0
 14
1796.1421401864
 24
543.4737658297
 34
0.0
100
AcDbRotatedDimension
  0
DIMENSION
  5
2C6
330
1F
100
AcDbEntity
  8
SLD-0_0
100
AcDbDimension
  2
_D_7
 10
1841.1421401864
 20
353.4737658297
 30
0.0
 11
1841.1421401864
 21
692.5569763862
 31
0.0
 70
   160
  1
<>
 71
     2
 42
-1.0
  3
SLDDIMSTYLE1
100
AcDbAlignedDimension
 13
1606.1421401864
 23
1017.4737658297
 33
0.0
 14
1606.1421401864
 24
353.4737658297
 34
0.0
 50
90.0
100
AcDbRotatedDimension
  0
DIMENSION
  5
2D0
330
1F
100
AcDbEntity
  8
SLD-0_0
100
AcDbDimension
  2
_D_8
 10
1690.8662086407
 20
578.4618917488
 30
0.0
 11
1606.5169146786
 21
618.8079278012
 31
0.0
 70
   163
  1
<>
 71
     1
 42
-1.0
  3
SLDDIMSTYLE2
100
AcDbDiametricDimension
 15
1243.4180717322
 25
792.4856399105
 35
0.0
 40
0.0
  0
DIMENSION
  5
2DA
330
1F
100
AcDbEntity
  8
SLD-0_0
100
AcDbDimension
  2
_D_9
 10
1567.6876239433
 20
930.9985124433
 30
0.0
 11
1536.1974944131
 21
908.7691183117
 31
0.0
 70
   163
  1
<>
 71
     1
 42
-1.0
  3
SLDDIMSTYLE3
100
AcDbDiametricDimension
 15
1566.5487498403
 25
922.6760749532
 35
0.0
 40
0.0
  0
DIMENSION
  5
2E8
330
1F
100
AcDbEntity
  8
SLD-0_0
100
AcDbDimension
  2
_D_10
 10
1328.1421401864
 20
308.4737658297
 30
0.0
 11
1467.1421401864
 21
308.4737658297
 31
0.0
 70
   160
  1
<>
 71
     2
 42
-1.0
  3
SLDDIMSTYLE1
100
AcDbAlignedDimension
 13
1606.1421401864
 23
353.4737658297
 33
0.0
 14
1328.1421401864
 24
353.4737658297
 34
0.0
 50
0.0
100
AcDbRotatedDimension
  0
DIMENSION
  5
2F2
330
1F
100
AcDbEntity
  8
SLD-0_0
100
AcDbDimension
  2
_D_11
 10
1100.1421401864
 20
543.4737658297
 30
0.0
 11
1100.1421401864
 21
692.5569763862
 31
0.0
 70
   160
  1
<>
 71
     2
 42
-1.0
  3
SLDDIMSTYLE1
100
AcDbAlignedDimension
 13
1138.1421401864
 23
827.4737658297
 33
0.0
 14
1138.1421401864
 24
543.4737658297
 34
0.0
 50
90.0
100
AcDbRotatedDimension
  0
DIMENSION
  5
2FC
330
1F
100
AcDbEntity
  8
SLD-0_0
100
AcDbDimension
  2
_D_12
 10
1328.1421401864
 20
353.4737658297
 30
0.0
 11
1193.2993512482
 21
409.863217468
 31
0.0
 70
   162
  1
<>
 71
     1
 42
-1.0
  3
SLDDIMSTYLE4
100
AcDb2LineAngularDimension
 13
1328.1421401864
 23
353.4737658297
 33
0.0
 14
1606.1421401864
 24
353.4737658297
 34
0.0
 15
1138.1421401864
 25
543.4737658297
 35
0.0
 16
1193.1091643865
 26
409.4062557736
 36
0.0
  0
DIMENSION
  5
306
330
1F
100
AcDbEntity
  8
SLD-0_0
100
AcDbDimension
  2
_D_13
 10
1249.8092535923
 20
540.4979785248
 30
0.0
 11
1355.243025312
 21
610.8294641398
 31
0.0
 70
   163
  1
<>
 71
     1
 42
-1.0
  3
SLDDIMSTYLE5
100
AcDbDiametricDimension
 15
1684.4750267806
 25
830.4495531345
 35
0.0
 40
0.0
  0
INSERT
  5
354
330
1F
100
AcDbEntity
  8
SLD-0_0
100
AcDbBlockReference
  2
SW_CENTERMARKSYMBOL_0
 10
1567.1181868918
 20
926.8372936982
 30
0.0
  0
LINE
  5
355
330
1F
100
AcDbEntity
  8
0
  6
Continuous
 62
     7
100
AcDbLine
 10
2798.9766958731
 20
629.4307292386
 30
0.0
 11
2798.9766958731
 21
714.4307292386
 31
0.0
  0
LINE
  5
356
330
1F
100
AcDbEntity
  8
0
  6
Continuous
 62
     7
100
AcDbLine
 10
2134.9766958731
 20
714.4307292386
 30
0.0
 11
2134.9766958731
 21
629.4307292386
 31
0.0
  0
LINE
  5
357
330
1F
100
AcDbEntity
  8
0
  6
Continuous
 62
     7
100
AcDbLine
 10
2798.9766958731
 20
714.4307292386
 30
0.0
 11
2134.9766958731
 21
714.4307292386
 31
0.0
  0
LINE
  5
358
330
1F
100
AcDbEntity
  8
0
  6
Continuous
 62
     7
100
AcDbLine
 10
2134.9766958731
 20
629.4307292386
 30
0.0
 11
2798.9766958731
 21
629.4307292386
 31
0.0
  0
DIMENSION
  5
359
330
1F
100
AcDbEntity
  8
SLD-0_0
100
AcDbDimension
  2
_D_14
 10
2836.9766958731
 20
629.4307292386
 30
0.0
 11
2836.9766958731
 21
672.4424751414
 31
0.0
 70
   160
  1
<>
 71
     2
 42
-1.0
  3
SLDDIMSTYLE6
100
AcDbAlignedDimension
 13
2798.9766958731
 23
714.4307292386
 33
0.0
 14
2798.9766958731
 24
629.4307292386
 34
0.0
 50
90.0
100
AcDbRotatedDimension
  0
DIMENSION
  5
366
330
1F
100
AcDbEntity
  8
SLD-0_0
100
AcDbDimension
  2
_D_15
 10
2798.9766958731
 20
591.4307292386
 30
0.0
 11
2442.0088806791
 21
591.4307292386
 31
0.0
 70
   160
  1
<>
 71
     2
 42
-1.0
  3
SLDDIMSTYLE1
100
AcDbAlignedDimension
 13
2134.9766958731
 23
629.4307292386
 33
0.0
 14
2798.9766958731
 24
629.4307292386
 34
0.0
100
AcDbRotatedDimension
  0
LINE
  5
370
330
1F
100
AcDbEntity
  8
0
  6
Continuous
 62
     7
100
AcDbLine
 10
2468.7451225448
 20
1023.8930048678
 30
0.0
 11
2788.7451225448
 21
1023.8930048678
 31
0.0
  0
LINE
  5
371
330
1F
100
AcDbEntity
  8
0
  6
Continuous
 62
     7
100
AcDbLine
 10
2479.7451225448
 20
923.8930048678
 30
0.0
 11
2479.7451225448
 21
902.8930048678
 31
0.0
  0
LINE
  5
372
330
1F
100
AcDbEntity
  8
0
  6
Continuous
 62
     7
100
AcDbLine
 10
2157.7451225448
 20
923.8930048678
 30
0.0
 11
2157.7451225448
 21
902.8930048678
 31
0.0
  0
ARC
  5
373
330
1F
100
AcDbEntity
  8
0
  6
Continuous
 62
     7
100
AcDbCircle
 10
2529.7451225448
 20
902.8930048678
 30
0.0
 40
50.0
100
AcDbArc
 50
180.0
 51
270.0
  0
LINE
  5
374
330
1F
100
AcDbEntity
  8
0
  6
Continuous
 62
     7
100
AcDbLine
 10
2529.7451225448
 20
852.8930048678
 30
0.0
 11
2711.7451225448
 21
852.8930048678
 31
0.0
  0
ARC
  5
375
330
1F
100
AcDbEntity
  8
0
  6
Continuous
 62
     7
100
AcDbCircle
 10
2711.7451225448
 20
902.8930048678
 30
0.0
 40
50.0
100
AcDbArc
 50
270.0
 51
0.0
  0
LINE
  5
376
330
1F
100
AcDbEntity
  8
0
  6
Continuous
 62
     7
100
AcDbLine
 10
2761.7451225448
 20
923.8930048678
 30
0.0
 11
2761.7451225448
 21
902.8930048678
 31
0.0
  0
ARC
  5
377
330
1F
100
AcDbEntity
  8
0
  6
Continuous
 62
     7
100
AcDbCircle
 10
2711.7451225448
 20
923.8930048678
 30
0.0
 40
50.00000000000011
100
AcDbArc
 50
0.0
 51
90.0
  0
LINE
  5
378
330
1F
100
AcDbEntity
  8
0
  6
Continuous
 62
     7
100
AcDbLine
 10
2529.7451225448
 20
973.8930048678
 30
0.0
 11
2711.7451225448
 21
973.8930048678
 31
0.0
  0
ARC
  5
379
330
1F
100
AcDbEntity
  8
0
  6
Continuous
 62
     7
100
AcDbCircle
 10
2529.7451225448
 20
923.8930048678
 30
0.0
 40
50.0
100
AcDbArc
 50
90.0
 51
180.0
  0
ARC
  5
37A
330
1F
100
AcDbEntity
  8
0
  6
Continuous
 62
     7
100
AcDbCircle
 10
2207.7451225448
 20
902.8930048678
 30
0.0
 40
50.00000000000045
100
AcDbArc
 50
180.0
 51
270.0
  0
LINE
  5
37B
330
1F
100
AcDbEntity
  8
0
  6
Continuous
 62
     7
100
AcDbLine
 10
2389.7451225448
 20
852.8930048678
 30
0.0
 11
2207.7451225448
 21
852.8930048678
 31
0.0
  0
ARC
  5
37C
330
1F
100
AcDbEntity
  8
0
  6
Continuous
 62
     7
100
AcDbCircle
 10
2389.7451225448
 20
902.8930048678
 30
0.0
 40
50.0
100
AcDbArc
 50
270.0
 51
0.0
  0
LINE
  5
37D
330
1F
100
AcDbEntity
  8
0
  6
Continuous
 62
     7
100
AcDbLine
 10
2439.7451225448
 20
923.8930048678
 30
0.0
 11
2439.7451225448
 21
902.8930048678
 31
0.0
  0
ARC
  5
37E
330
1F
100
AcDbEntity
  8
0
  6
Continuous
 62
     7
100
AcDbCircle
 10
2389.7451225448
 20
923.8930048678
 30
0.0
 40
50.0
100
AcDbArc
 50
0.0
 51
90.0
  0
LINE
  5
37F
330
1F
100
AcDbEntity
  8
0
  6
Continuous
 62
     7
100
AcDbLine
 10
2389.7451225448
 20
973.8930048678
 30
0.0
 11
2207.7451225448
 21
973.8930048678
 31
0.0
  0
ARC
  5
380
330
1F
100
AcDbEntity
  8
0
  6
Continuous
 62
     7
100
AcDbCircle
 10
2207.7451225448
 20
923.8930048678
 30
0.0
 40
50.00000000000045
100
AcDbArc
 50
90.0
 51
180.0
  0
LINE
  5
381
330
1F
100
AcDbEntity
  8
0
  6
Continuous
 62
     7
100
AcDbLine
 10
2788.7451225448
 20
802.8930048678
 30
0.0
 11
2788.7451225448
 21
1023.8930048678
 31
0.0
  0
LINE
  5
382
330
1F
100
AcDbEntity
  8
0
  6
Continuous
 62
     7
100
AcDbLine
 10
2130.7451225448
 20
802.8930048678
 30
0.0
 11
2788.7451225448
 21
802.8930048678
 31
0.0
  0
LINE
  5
383
330
1F
100
AcDbEntity
  8
0
  6
Continuous
 62
     7
100
AcDbLine
 10
2130.7451225448
 20
802.8930048678
 30
0.0
 11
2130.7451225448
 21
1023.8930048678
 31
0.0
  0
LINE
  5
384
330
1F
100
AcDbEntity
  8
0
  6
Continuous
 62
     7
100
AcDbLine
 10
2130.7451225448
 20
1023.8930048678
 30
0.0
 11
2450.7451225448
 21
1023.8930048678
 31
0.0
  0
LINE
  5
385
330
1F
100
AcDbEntity
  8
0
  6
Continuous
 62
     7
100
AcDbLine
 10
2450.7451225448
 20
938.8930048678
 30
0.0
 11
2450.7451225448
 21
1023.8930048678
 31
0.0
  0
LINE
  5
386
330
1F
100
AcDbEntity
  8
0
  6
Continuous
 62
     7
100
AcDbLine
 10
2450.7451225448
 20
938.8930048678
 30
0.0
 11
2468.7451225448
 21
938.8930048678
 31
0.0
  0
LINE
  5
387
330
1F
100
AcDbEntity
  8
0
  6
Continuous
 62
     7
100
AcDbLine
 10
2468.7451225448
 20
938.8930048678
 30
0.0
 11
2468.7451225448
 21
1023.8930048678
 31
0.0
  0
DIMENSION
  5
388
330
1F
100
AcDbEntity
  8
SLD-0_0
100
AcDbDimension
  2
_D_16
 10
2788.7451225448
 20
743.8930048678
 30
0.0
 11
2452.3738287917
 21
743.8930048678
 31
0.0
 70
   160
  1
<>
 71
     2
 42
-1.0
  3
SLDDIMSTYLE1
100
AcDbAlignedDimension
 13
2130.7451225448
 23
802.8930048678
 33
0.0
 14
2788.7451225448
 24
802.8930048678
 34
0.0
 50
0.0
100
AcDbRotatedDimension
  0
DIMENSION
  5
392
330
1F
100
AcDbEntity
  8
SLD-0_0
100
AcDbDimension
  2
_D_17
 10
2439.7451225448
 20
764.8930048678
 30
0.0
 11
2286.1149507462
 21
764.8930048678
 31
0.0
 70
   160
  1
<>
 71
     2
 42
-1.0
  3
SLDDIMSTYLE1
100
AcDbAlignedDimension
 13
2157.7451225448
 23
902.8930048678
 33
0.0
 14
2439.7451225448
 24
902.8930048678
 34
0.0
 50
0.0
100
AcDbRotatedDimension
  0
DIMENSION
  5
39C
330
1F
100
AcDbEntity
  8
SLD-0_0
100
AcDbDimension
  2
_D_18
 10
2106.7451225448
 20
852.8930048678
 30
0.0
 11
2106.7451225448
 21
916.1664262406
 31
0.0
 70
   160
  1
<>
 71
     2
 42
-1.0
  3
SLDDIMSTYLE1
100
AcDbAlignedDimension
 13
2207.7451225448
 23
973.8930048678
 33
0.0
 14
2207.7451225448
 24
852.8930048678
 34
0.0
 50
90.0
100
AcDbRotatedDimension
  0
DIMENSION
  5
3A6
330
1F
100
AcDbEntity
  8
SLD-0_0
100
AcDbDimension
  2
_D_19
 10
2071.7451225448
 20
1023.8930048678
 30
0.0
 11
2071.7451225448
 21
916.1664262406
 31
0.0
 70
   160
  1
<>
 71
     2
 42
-1.0
  3
SLDDIMSTYLE1
100
AcDbAlignedDimension
 13
2130.7451225448
 23
802.8930048678
 33
0.0
 14
2130.7451225448
 24
1023.8930048678
 34
0.0
 50
90.0
100
AcDbRotatedDimension
  0
DIMENSION
  5
3B0
330
1F
100
AcDbEntity
  8
SLD-0_0
100
AcDbDimension
  2
_D_20
 10
2389.7451225448
 20
902.8930048678
 30
0.0
 11
2452.3738387917
 21
847.7217876627
 31
0.0
 70
   164
  1
<>
 71
     1
 42
-1.0
  3
SLDDIMSTYLE7
100
AcDbRadialDimension
 15
2427.2635716803
 25
869.8420446024
 35
0.0
 40
0.0
  0
DIMENSION
  5
3B9
330
1F
100
AcDbEntity
  8
SLD-0_0
100
AcDbDimension
  2
_D_21
 10
2526.4518246106
 20
1023.8930048678
 30
0.0
 11
2526.4518246106
 21
1047.8930048678
 31
0.0
 70
   160
  1
<>
 71
     2
 42
-1.0
  3
SLDDIMSTYLE1
100
AcDbAlignedDimension
 13
2468.7451225448
 23
938.8930048678
 33
0.0
 14
2468.7451225448
 24
1023.8930048678
 34
0.0
 50
90.0
100
AcDbRotatedDimension
  0
DIMENSION
  5
3C3
330
1F
100
AcDbEntity
  8
SLD-0_0
100
AcDbDimension
  2
_D_22
 10
2468.7451225448
 20
1068.8930048678
 30
0.0
 11
2459.6259266037
 21
1068.8930048678
 31
0.0
 70
   160
  1
<>
 71
     2
 42
-1.0
  3
SLDDIMSTYLE6
100
AcDbAlignedDimension
 13
2450.7451225448
 23
1023.8930048678
 33
0.0
 14
2468.7451225448
 24
1023.8930048678
 34
0.0
100
AcDbRotatedDimension
  0
DIMENSION
  5
3CF
330
1F
100
AcDbEntity
  8
SLD-0_0
100
AcDbDimension
  2
_D_23
 10
2130.7451225448
 20
764.8930048678
 30
0.0
 11
2144.1097798672
 21
764.8930048678
 31
0.0
 70
   160
  1
<>
 71
     2
 42
-1.0
  3
SLDDIMSTYLE6
100
AcDbAlignedDimension
 13
2157.7451225448
 23
902.8930048678
 33
0.0
 14
2130.7451225448
 24
802.8930048678
 34
0.0
100
AcDbRotatedDimension
  0
DIMENSION
  5
3DB
330
1F
100
AcDbEntity
  8
SLD-0_0
100
AcDbDimension
  2
_D_24
 10
2106.7451225448
 20
802.8930048678
 30
0.0
 11
2106.7451225448
 21
824.3218916379
 31
0.0
 70
   160
  1
<>
 71
     2
 42
-1.0
  3
SLDDIMSTYLE6
100
AcDbAlignedDimension
 13
2207.7451225448
 23
852.8930048678
 33
0.0
 14
2130.7451225448
 24
802.8930048678
 34
0.0
 50
90.0
100
AcDbRotatedDimension
  0
LINE
  5
3E7
330
1F
100
AcDbEntity
  8
0
  6
Continuous
 62
     7
100
AcDbLine
 10
2742.9203171653
 20
310.2083810546
 30
0.0
 11
2395.9203171653
 21
310.2083810546
 31
0.0
  0
LINE
  5
3E8
330
1F
100
AcDbEntity
  8
0
  6
Continuous
 62
     7
100
AcDbLine
 10
2395.9203171653
 20
310.2083810546
 30
0.0
 11
2395.9203171653
 21
542.9083810546
 31
0.0
  0
LINE
  5
3E9
330
1F
100
AcDbEntity
  8
0
  6
Continuous
 62
     7
100
AcDbLine
 10
2742.9203171653
 20
542.9083810546
 30
0.0
 11
2395.9203171653
 21
542.9083810546
 31
0.0
  0
LINE
  5
3EA
330
1F
100
AcDbEntity
  8
0
  6
Continuous
 62
     7
100
AcDbLine
 10
2742.9203171653
 20
542.9083810546
 30
0.0
 11
2742.9203171653
 21
310.2083810546
 31
0.0
  0
LINE
  5
3EB
330
1F
100
AcDbEntity
  8
0
  6
Continuous
 62
     7
100
AcDbLine
 10
2395.9203171653
 20
560.9083810546
 30
0.0
 11
2742.9203171653
 21
560.9083810546
 31
0.0
  0
LINE
  5
3EC
330
1F
100
AcDbEntity
  8
0
  6
Continuous
 62
     7
100
AcDbLine
 10
2395.9203171653
 20
560.9083810546
 30
0.0
 11
2395.9203171653
 21
542.9083810546
 31
0.0
  0
LINE
  5
3ED
330
1F
100
AcDbEntity
  8
0
  6
Continuous
 62
     7
100
AcDbLine
 10
2742.9203171653
 20
560.9083810546
 30
0.0
 11
2742.9203171653
 21
542.9083810546
 31
0.0
  0
LINE
  5
3EE
330
1F
100
AcDbEntity
  8
0
  6
Continuous
 62
     7
100
AcDbLine
 10
2742.9203171653
 20
292.2083810546
 30
0.0
 11
2395.9203171653
 21
292.2083810546
 31
0.0
  0
LINE
  5
3EF
330
1F
100
AcDbEntity
  8
0
  6
Continuous
 62
     7
100
AcDbLine
 10
2395.9203171653
 20
292.2083810546
 30
0.0
 11
2395.9203171653
 21
310.2083810546
 31
0.0
  0
LINE
  5
3F0
330
1F
100
AcDbEntity
  8
0
  6
Continuous
 62
     7
100
AcDbLine
 10
2742.9203171653
 20
292.2083810546
 30
0.0
 11
2742.9203171653
 21
310.2083810546
 31
0.0
  0
DIMENSION
  5
3F1
330
1F
100
AcDbEntity
  8
SLD-0_0
100
AcDbDimension
  2
_D_25
 10
2742.9203171653
 20
261.2083810546
 30
0.0
 11
2567.8380947851
 21
261.2083810546
 31
0.0
 70
   160
  1
<>
 71
     2
 42
-1.0
  3
SLDDIMSTYLE1
100
AcDbAlignedDimension
 13
2395.9203171653
 23
560.9083810546
 33
0.0
 14
2742.9203171653
 24
560.9083810546
 34
0.0
 50
0.0
100
AcDbRotatedDimension
  0
DIMENSION
  5
3FB
330
1F
100
AcDbEntity
  8
SLD-0_0
100
AcDbDimension
  2
_D_26
 10
2766.9203171653
 20
292.2083810546
 30
0.0
 11
2766.9203171653
 21
413.2929598371
 31
0.0
 70
   160
  1
<>
 71
     2
 42
-1.0
  3
SLDDIMSTYLE8
100
AcDbAlignedDimension
 13
2742.9203171653
 23
560.9083810546
 33
0.0
 14
2742.9203171653
 24
292.2083810546
 34
0.0
 50
90.0
100
AcDbRotatedDimension
  0
LINE
  5
406
330
1F
100
AcDbEntity
  8
0
  6
Continuous
 62
     7
100
AcDbLine
 10
2271.5215604694
 20
292.2083810546
 30
0.0
 11
2253.5215604694
 21
310.2083810546
 31
0.0
  0
LINE
  5
407
330
1F
100
AcDbEntity
  8
0
  6
Continuous
 62
     7
100
AcDbLine
 10
2253.5215604694
 20
542.9083810546
 30
0.0
 11
2253.5215604694
 21
310.2083810546
 31
0.0
  0
LINE
  5
408
330
1F
100
AcDbEntity
  8
0
  6
Continuous
 62
     7
100
AcDbLine
 10
2271.5215604694
 20
560.9083810546
 30
0.0
 11
2253.5215604694
 21
542.9083810546
 31
0.0
  0
LINE
  5
409
330
1F
100
AcDbEntity
  8
0
  6
Continuous
 62
     7
100
AcDbLine
 10
2271.5215604694
 20
560.9083810546
 30
0.0
 11
2271.5215604694
 21
292.2083810546
 31
0.0
  0
INSERT
  5
415
330
1F
100
AcDbEntity
  8
CAJETIN
100
AcDbBlockReference
  2
SW_ANGULAR_DIMENSION_0
 10
2219.7317175455
 20
290.6704573973
 30
0.0
  0
INSERT
  5
421
330
1F
100
AcDbEntity
  8
CAJETIN
100
AcDbBlockReference
  2
SW_ANGULAR_DIMENSION_1
 10
2225.3930038054
 20
558.6989002975
 30
0.0
  0
DIMENSION
  5
422
330
1F
100
AcDbEntity
  8
CAJETIN
100
AcDbDimension
  2
_D_27
 10
2295.5215604694
 20
292.2083810546
 30
0.0
 11
2295.5215604694
 21
421.6776904793
 31
0.0
 70
   160
  1
<>
 71
     2
 42
-1.0
  3
SLDDIMSTYLE8
100
AcDbAlignedDimension
 13
2271.5215604694
 23
560.9083810546
 33
0.0
 14
2271.5215604694
 24
292.2083810546
 34
0.0
 50
90.0
100
AcDbRotatedDimension
  0
ENDSEC
  0
SECTION
  2
OBJECTS
  0
DICTIONARY
  5
C
330
0
100
AcDbDictionary
281
     1
  3
ACAD_GROUP
350
D
  3
ACAD_LAYOUT
350
1A
  3
ACAD_MLINESTYLE
350
17
  3
ACAD_PLOTSETTINGS
350
19
  3
ACAD_PLOTSTYLENAME
350
E
  3
ACAD_SCALELIST
350
47
  0
DICTIONARY
  5
D
102
{ACAD_REACTORS
330
C
102
}
330
C
100
AcDbDictionary
281
     1
  0
DICTIONARY
  5
1A
102
{ACAD_REACTORS
330
C
102
}
330
C
100
AcDbDictionary
281
     1
  3
Layout1
350
1E
  3
Layout2
350
26
  3
Model
350
22
  0
DICTIONARY
  5
17
102
{ACAD_REACTORS
330
C
102
}
330
C
100
AcDbDictionary
281
     1
  3
Standard
350
18
  0
DICTIONARY
  5
19
102
{ACAD_REACTORS
330
C
102
}
330
C
100
AcDbDictionary
281
     1
  0
ACDBDICTIONARYWDFLT
  5
E
102
{ACAD_REACTORS
330
C
102
}
330
C
100
AcDbDictionary
281
     1
  3
Normal
350
F
100
AcDbDictionaryWithDefault
340
F
  0
DICTIONARY
  5
47
102
{ACAD_REACTORS
330
C
102
}
330
C
100
AcDbDictionary
281
     1
  3
A0
350
48
  3
A1
350
49
  3
A2
350
4A
  3
A3
350
4B
  3
A4
350
4C
  3
A5
350
4D
  3
A6
350
4E
  3
A7
350
4F
  3
A8
350
50
  3
A9
350
51
  3
B0
350
52
  3
B1
350
53
  3
B2
350
54
  3
B3
350
55
  3
B4
350
56
  3
B5
350
57
  3
B6
350
58
  3
B7
350
59
  3
B8
350
5A
  3
B9
350
5B
  3
C0
350
5C
  3
C1
350
5D
  3
C2
350
5E
  3
C3
350
5F
  3
C4
350
60
  3
C5
350
61
  3
C6
350
62
  3
C7
350
63
  3
C8
350
64
  3
C9
350
65
  3
D0
350
66
  3
D1
350
67
  3
D2
350
68
  0
LAYOUT
  5
1E
102
{ACAD_REACTORS
330
1A
102
}
330
1A
100
AcDbPlotSettings
  1

  2
none_device
  4

  6

 40
0.0
 41
0.0
 42
0.0
 43
0.0
 44
0.0
 45
0.0
 46
0.0
 47
0.0
 48
0.0
 49
0.0
140
0.0
141
0.0
142
1.0
143
1.0
 70
   688
 72
     1
 73
     0
 74
     5
  7

 75
    16
147
1.0
148
0.0
149
0.0
100
AcDbLayout
  1
Layout1
 70
     1
 71
     1
 10
0.0
 20
0.0
 11
420.0
 21
297.0
 12
0.0
 22
0.0
 32
0.0
 14
1.0000000000E+20
 24
1.0000000000E+20
 34
1.0000000000E+20
 15
-1.0000000000E+20
 25
-1.0000000000E+20
 35
-1.0000000000E+20
146
0.0
 13
0.0
 23
0.0
 33
0.0
 16
1.0
 26
0.0
 36
0.0
 17
0.0
 27
1.0
 37
0.0
 76
     0
330
1B
  0
LAYOUT
  5
26
102
{ACAD_REACTORS
330
1A
102
}
330
1A
100
AcDbPlotSettings
  1

  2
none_device
  4

  6

 40
0.0
 41
0.0
 42
0.0
 43
0.0
 44
0.0
 45
0.0
 46
0.0
 47
0.0
 48
0.0
 49
0.0
140
0.0
141
0.0
142
1.0
143
1.0
 70
   688
 72
     1
 73
     0
 74
     5
  7

 75
    16
147
1.0
148
0.0
149
0.0
100
AcDbLayout
  1
Layout2
 70
     1
 71
     2
 10
0.0
 20
0.0
 11
0.0
 21
0.0
 12
0.0
 22
0.0
 32
0.0
 14
0.0
 24
0.0
 34
0.0
 15
0.0
 25
0.0
 35
0.0
146
0.0
 13
0.0
 23
0.0
 33
0.0
 16
1.0
 26
0.0
 36
0.0
 17
0.0
 27
1.0
 37
0.0
 76
     0
330
23
  0
LAYOUT
  5
22
102
{ACAD_REACTORS
330
1A
102
}
330
1A
100
AcDbPlotSettings
  1

  2
none_device
  4
Letter_(8.50_x_11.00_Inches)
  6

 40
6.35
 41
6.35
 42
6.35000508
 43
6.35000508
 44
215.9
 45
279.4
 46
0.0
 47
0.0
 48
0.0
 49
0.0
140
0.0
141
0.0
142
1.0
143
1.0
 70
  1712
 72
     1
 73
     0
 74
     0
  7

 75
     0
147
1.0
148
0.0
149
0.0
100
AcDbLayout
  1
Model
 70
     1
 71
     0
 10
0.0
 20
0.0
 11
3000.0
 21
2000.0
 12
0.0
 22
0.0
 32
0.0
 14
0.0
 24
0.0
 34
0.0
 15
3000.0
 25
2000.0
 35
0.0
146
0.0
 13
0.0
 23
0.0
 33
0.0
 16
1.0
 26
0.0
 36
0.0
 17
0.0
 27
1.0
 37
0.0
 76
     0
330
1F
331
29
  0
MLINESTYLE
  5
18
102
{ACAD_REACTORS
330
17
102
}
330
17
100
AcDbMlineStyle
  2
Standard
 70
     0
  3

 62
   256
 51
90.0
 52
90.0
 71
     2
 49
0.5
 62
   256
  6
BYLAYER
 49
-0.5
 62
   256
  6
BYLAYER
  0
ACDBPLACEHOLDER
  5
F
102
{ACAD_REACTORS
330
E
102
}
330
E
  0
SCALE
  5
48
102
{ACAD_REACTORS
330
47
102
}
330
47
100
AcDbScale
 70
     0
300
1:1
140
1.0
141
1.0
290
     1
  0
SCALE
  5
49
102
{ACAD_REACTORS
330
47
102
}
330
47
100
AcDbScale
 70
     0
300
1:2
140
1.0
141
2.0
290
     0
  0
SCALE
  5
4A
102
{ACAD_REACTORS
330
47
102
}
330
47
100
AcDbScale
 70
     0
300
1:4
140
1.0
141
4.0
290
     0
  0
SCALE
  5
4B
102
{ACAD_REACTORS
330
47
102
}
330
47
100
AcDbScale
 70
     0
300
1:5
140
1.0
141
5.0
290
     0
  0
SCALE
  5
4C
102
{ACAD_REACTORS
330
47
102
}
330
47
100
AcDbScale
 70
     0
300
1:8
140
1.0
141
8.0
290
     0
  0
SCALE
  5
4D
102
{ACAD_REACTORS
330
47
102
}
330
47
100
AcDbScale
 70
     0
300
1:10
140
1.0
141
10.0
290
     0
  0
SCALE
  5
4E
102
{ACAD_REACTORS
330
47
102
}
330
47
100
AcDbScale
 70
     0
300
1:16
140
1.0
141
16.0
290
     0
  0
SCALE
  5
4F
102
{ACAD_REACTORS
330
47
102
}
330
47
100
AcDbScale
 70
     0
300
1:20
140
1.0
141
20.0
290
     0
  0
SCALE
  5
50
102
{ACAD_REACTORS
330
47
102
}
330
47
100
AcDbScale
 70
     0
300
1:30
140
1.0
141
30.0
290
     0
  0
SCALE
  5
51
102
{ACAD_REACTORS
330
47
102
}
330
47
100
AcDbScale
 70
     0
300
1:40
140
1.0
141
40.0
290
     0
  0
SCALE
  5
52
102
{ACAD_REACTORS
330
47
102
}
330
47
100
AcDbScale
 70
     0
300
1:50
140
1.0
141
50.0
290
     0
  0
SCALE
  5
53
102
{ACAD_REACTORS
330
47
102
}
330
47
100
AcDbScale
 70
     0
300
1:100
140
1.0
141
100.0
290
     0
  0
SCALE
  5
54
102
{ACAD_REACTORS
330
47
102
}
330
47
100
AcDbScale
 70
     0
300
2:1
140
2.0
141
1.0
290
     0
  0
SCALE
  5
55
102
{ACAD_REACTORS
330
47
102
}
330
47
100
AcDbScale
 70
     0
300
4:1
140
4.0
141
1.0
290
     0
  0
SCALE
  5
56
102
{ACAD_REACTORS
330
47
102
}
330
47
100
AcDbScale
 70
     0
300
8:1
140
8.0
141
1.0
290
     0
  0
SCALE
  5
57
102
{ACAD_REACTORS
330
47
102
}
330
47
100
AcDbScale
 70
     0
300
10:1
140
10.0
141
1.0
290
     0
  0
SCALE
  5
58
102
{ACAD_REACTORS
330
47
102
}
330
47
100
AcDbScale
 70
     0
300
100:1
140
100.0
141
1.0
290
     0
  0
SCALE
  5
59
102
{ACAD_REACTORS
330
47
102
}
330
47
100
AcDbScale
 70
     0
300
1/128" = 1'-0"
140
0.0078125
141
12.0
290
     0
  0
SCALE
  5
5A
102
{ACAD_REACTORS
330
47
102
}
330
47
100
AcDbScale
 70
     0
300
1/64" = 1'-0"
140
0.015625
141
12.0
290
     0
  0
SCALE
  5
5B
102
{ACAD_REACTORS
330
47
102
}
330
47
100
AcDbScale
 70
     0
300
1/32" = 1'-0"
140
0.03125
141
12.0
290
     0
  0
SCALE
  5
5C
102
{ACAD_REACTORS
330
47
102
}
330
47
100
AcDbScale
 70
     0
300
1/16" = 1'-0"
140
0.0625
141
12.0
290
     0
  0
SCALE
  5
5D
102
{ACAD_REACTORS
330
47
102
}
330
47
100
AcDbScale
 70
     0
300
3/32" = 1'-0"
140
0.09375
141
12.0
290
     0
  0
SCALE
  5
5E
102
{ACAD_REACTORS
330
47
102
}
330
47
100
AcDbScale
 70
     0
300
1/8" = 1'-0"
140
0.125
141
12.0
290
     0
  0
SCALE
  5
5F
102
{ACAD_REACTORS
330
47
102
}
330
47
100
AcDbScale
 70
     0
300
3/16" = 1'-0"
140
0.1875
141
12.0
290
     0
  0
SCALE
  5
60
102
{ACAD_REACTORS
330
47
102
}
330
47
100
AcDbScale
 70
     0
300
1/4" = 1'-0"
140
0.25
141
12.0
290
     0
  0
SCALE
  5
61
102
{ACAD_REACTORS
330
47
102
}
330
47
100
AcDbScale
 70
     0
300
3/8" = 1'-0"
140
0.375
141
12.0
290
     0
  0
SCALE
  5
62
102
{ACAD_REACTORS
330
47
102
}
330
47
100
AcDbScale
 70
     0
300
1/2" = 1'-0"
140
0.5
141
12.0
290
     0
  0
SCALE
  5
63
102
{ACAD_REACTORS
330
47
102
}
330
47
100
AcDbScale
 70
     0
300
3/4" = 1'-0"
140
0.75
141
12.0
290
     0
  0
SCALE
  5
64
102
{ACAD_REACTORS
330
47
102
}
330
47
100
AcDbScale
 70
     0
300
1" = 1'-0"
140
1.0
141
12.0
290
     0
  0
SCALE
  5
65
102
{ACAD_REACTORS
330
47
102
}
330
47
100
AcDbScale
 70
     0
300
1-1/2" = 1'-0"
140
1.5
141
12.0
290
     0
  0
SCALE
  5
66
102
{ACAD_REACTORS
330
47
102
}
330
47
100
AcDbScale
 70
     0
300
3" = 1'-0"
140
3.0
141
12.0
290
     0
  0
SCALE
  5
67
102
{ACAD_REACTORS
330
47
102
}
330
47
100
AcDbScale
 70
     0
300
6" = 1'-0"
140
6.0
141
12.0
290
     0
  0
SCALE
  5
68
102
{ACAD_REACTORS
330
47
102
}
330
47
100
AcDbScale
 70
     0
300
1'-0" = 1'-0"
140
12.0
141
12.0
290
     0
  0
ENDSEC
  0
EOF
