  0
SECTION
  2
HEADER
  9
$ACADVER
  1
AC1015
  9
$ACADMAINTVER
 70
     6
  9
$DWGCODEPAGE
  3
ANSI_1252
  9
$INSBASE
 10
0.0
 20
0.0
 30
0.0
  9
$EXTMIN
 10
0.0
 20
0.0
 30
0.0
  9
$EXTMAX
 10
2378.0
 20
1682.0
 30
0.0
  9
$LIMMIN
 10
0.0
 20
0.0
  9
$LIMMAX
 10
2378.0
 20
1682.0
  9
$ORTHOMODE
 70
     0
  9
$REGENMODE
 70
     1
  9
$FILLMODE
 70
     1
  9
$QTEXTMODE
 70
     0
  9
$MIRRTEXT
 70
     1
  9
$LTSCALE
 40
1.0
  9
$ATTMODE
 70
     1
  9
$TEXTSIZE
 40
2.5
  9
$TRACEWID
 40
1.0
  9
$TEXTSTYLE
  7
Standard
  9
$CLAYER
  8
0
  9
$CELTYPE
  6
ByLayer
  9
$CECOLOR
 62
   256
  9
$CELTSCALE
 40
1.0
  9
$DISPSILH
 70
     0
  9
$DIMSCALE
 40
1.0
  9
$DIMASZ
 40
3.302
  9
$DIMEXO
 40
1.0
  9
$DIMDLI
 40
3.75
  9
$DIMRND
 40
0.0
  9
$DIMDLE
 40
0.0
  9
$DIMEXE
 40
1.0
  9
$DIMTP
 40
0.0
  9
$DIMTM
 40
0.0
  9
$DIMTXT
 40
3.5
  9
$DIMCEN
 40
2.5
  9
$DIMTSZ
 40
0.0
  9
$DIMTOL
 70
     0
  9
$DIMLIM
 70
     0
  9
$DIMTIH
 70
     1
  9
$DIMTOH
 70
     1
  9
$DIMSE1
 70
     0
  9
$DIMSE2
 70
     0
  9
$DIMTAD
 70
     1
  9
$DIMZIN
 70
     0
  9
$DIMBLK
  1

  9
$DIMASO
 70
     1
  9
$DIMSHO
 70
     1
  9
$DIMPOST
  1

  9
$DIMAPOST
  1

  9
$DIMALT
 70
     0
  9
$DIMALTD
 70
     3
  9
$DIMALTF
 40
0.0393700787
  9
$DIMLFAC
 40
1.0
  9
$DIMTOFL
 70
     1
  9
$DIMTVP
 40
0.0
  9
$DIMTIX
 70
     0
  9
$DIMSOXD
 70
     0
  9
$DIMSAH
 70
     0
  9
$DIMBLK1
  1

  9
$DIMBLK2
  1

  9
$DIMSTYLE
  2
ISO-25
  9
$DIMCLRD
 70
     0
  9
$DIMCLRE
 70
     0
  9
$DIMCLRT
 70
     0
  9
$DIMTFAC
 40
1.0
  9
$DIMGAP
 40
1.524
  9
$DIMJUST
 70
     0
  9
$DIMSD1
 70
     0
  9
$DIMSD2
 70
     0
  9
$DIMTOLJ
 70
     0
  9
$DIMTZIN
 70
     0
  9
$DIMALTZ
 70
     0
  9
$DIMALTTZ
 70
     0
  9
$DIMUPT
 70
     0
  9
$DIMDEC
 70
     2
  9
$DIMTDEC
 70
     2
  9
$DIMALTU
 70
     2
  9
$DIMALTTD
 70
     3
  9
$DIMTXSTY
  7
Standard
  9
$DIMAUNIT
 70
     0
  9
$DIMADEC
 70
     2
  9
$DIMALTRND
 40
0.0
  9
$DIMAZIN
 70
     0
  9
$DIMDSEP
 70
    44
  9
$DIMATFIT
 70
     3
  9
$DIMFRAC
 70
     0
  9
$DIMLDRBLK
  1

  9
$DIMLUNIT
 70
     2
  9
$DIMLWD
 70
    -2
  9
$DIMLWE
 70
    -2
  9
$DIMTMOVE
 70
     0
  9
$LUNITS
 70
     2
  9
$LUPREC
 70
     2
  9
$SKETCHINC
 40
1.0
  9
$FILLETRAD
 40
10.0
  9
$AUNITS
 70
     0
  9
$AUPREC
 70
     2
  9
$MENU
  1
.
  9
$ELEVATION
 40
0.0
  9
$PELEVATION
 40
0.0
  9
$THICKNESS
 40
0.0
  9
$LIMCHECK
 70
     0
  9
$CHAMFERA
 40
0.0
  9
$CHAMFERB
 40
0.0
  9
$CHAMFERC
 40
0.0
  9
$CHAMFERD
 40
0.0
  9
$SKPOLY
 70
     0
  9
$TDCREATE
 40
2458516.495902975
  9
$TDUCREATE
 40
2458516.454236308
  9
$TDUPDATE
 40
2458516.495932731
  9
$TDUUPDATE
 40
2458516.454266065
  9
$TDINDWG
 40
0.0000000116
  9
$TDUSRTIMER
 40
0.0000000116
  9
$USRTIMER
 70
     1
  9
$ANGBASE
 50
0.0
  9
$ANGDIR
 70
     0
  9
$PDMODE
 70
     0
  9
$PDSIZE
 40
-1.0
  9
$PLINEWID
 40
0.0
  9
$SPLFRAME
 70
     0
  9
$SPLINETYPE
 70
     6
  9
$SPLINESEGS
 70
     8
  9
$HANDSEED
  5
43E
  9
$SURFTAB1
 70
     6
  9
$SURFTAB2
 70
     6
  9
$SURFTYPE
 70
     6
  9
$SURFU
 70
     6
  9
$SURFV
 70
     6
  9
$UCSBASE
  2

  9
$UCSNAME
  2

  9
$UCSORG
 10
0.0
 20
0.0
 30
0.0
  9
$UCSXDIR
 10
1.0
 20
0.0
 30
0.0
  9
$UCSYDIR
 10
0.0
 20
1.0
 30
0.0
  9
$UCSORTHOREF
  2

  9
$UCSORTHOVIEW
 70
     0
  9
$UCSORGTOP
 10
0.0
 20
0.0
 30
0.0
  9
$UCSORGBOTTOM
 10
0.0
 20
0.0
 30
0.0
  9
$UCSORGLEFT
 10
0.0
 20
0.0
 30
0.0
  9
$UCSORGRIGHT
 10
0.0
 20
0.0
 30
0.0
  9
$UCSORGFRONT
 10
0.0
 20
0.0
 30
0.0
  9
$UCSORGBACK
 10
0.0
 20
0.0
 30
0.0
  9
$PUCSBASE
  2

  9
$PUCSNAME
  2

  9
$PUCSORG
 10
0.0
 20
0.0
 30
0.0
  9
$PUCSXDIR
 10
1.0
 20
0.0
 30
0.0
  9
$PUCSYDIR
 10
0.0
 20
1.0
 30
0.0
  9
$PUCSORTHOREF
  2

  9
$PUCSORTHOVIEW
 70
     0
  9
$PUCSORGTOP
 10
0.0
 20
0.0
 30
0.0
  9
$PUCSORGBOTTOM
 10
0.0
 20
0.0
 30
0.0
  9
$PUCSORGLEFT
 10
0.0
 20
0.0
 30
0.0
  9
$PUCSORGRIGHT
 10
0.0
 20
0.0
 30
0.0
  9
$PUCSORGFRONT
 10
0.0
 20
0.0
 30
0.0
  9
$PUCSORGBACK
 10
0.0
 20
0.0
 30
0.0
  9
$USERI1
 70
     0
  9
$USERI2
 70
     0
  9
$USERI3
 70
     0
  9
$USERI4
 70
     0
  9
$USERI5
 70
     0
  9
$USERR1
 40
0.0
  9
$USERR2
 40
0.0
  9
$USERR3
 40
0.0
  9
$USERR4
 40
0.0
  9
$USERR5
 40
0.0
  9
$WORLDVIEW
 70
     1
  9
$SHADEDGE
 70
     3
  9
$SHADEDIF
 70
    70
  9
$TILEMODE
 70
     1
  9
$MAXACTVP
 70
    64
  9
$PINSBASE
 10
0.0
 20
0.0
 30
0.0
  9
$PLIMCHECK
 70
     0
  9
$PEXTMIN
 10
1.0000000000E+20
 20
1.0000000000E+20
 30
1.0000000000E+20
  9
$PEXTMAX
 10
-1.0000000000E+20
 20
-1.0000000000E+20
 30
-1.0000000000E+20
  9
$PLIMMIN
 10
0.0
 20
0.0
  9
$PLIMMAX
 10
420.0
 20
297.0
  9
$UNITMODE
 70
     0
  9
$VISRETAIN
 70
     1
  9
$PLINEGEN
 70
     0
  9
$PSLTSCALE
 70
     1
  9
$TREEDEPTH
 70
  3020
  9
$CMLSTYLE
  2
Standard
  9
$CMLJUST
 70
     0
  9
$CMLSCALE
 40
20.0
  9
$PROXYGRAPHICS
 70
     1
  9
$MEASUREMENT
 70
     1
  9
$CELWEIGHT
370
    -1
  9
$ENDCAPS
280
     0
  9
$JOINSTYLE
280
     0
  9
$LWDISPLAY
290
     1
  9
$INSUNITS
 70
     4
  9
$HYPERLINKBASE
  1

  9
$STYLESHEET
  1

  9
$XEDIT
290
     1
  9
$CEPSNTYPE
380
     0
  9
$PSTYLEMODE
290
     1
  9
$FINGERPRINTGUID
  2
{380E53B7-62BB-4CAF-84AD-42D8A2389C5A}
  9
$VERSIONGUID
  2
{FAEB1C32-E019-11D5-929B-00C0DF256EC4}
  9
$EXTNAMES
290
     1
  9
$PSVPSCALE
 40
0.0
  9
$OLESTARTUP
290
     0
  0
ENDSEC
  0
SECTION
  2
CLASSES
  0
CLASS
  1
ACDBDICTIONARYWDFLT
  2
AcDbDictionaryWithDefault
  3
ObjectDBX Classes
 90
        0
280
     0
281
     0
  0
CLASS
  1
VISUALSTYLE
  2
AcDbVisualStyle
  3
ObjectDBX Classes
 90
     4095
280
     0
281
     0
  0
CLASS
  1
MATERIAL
  2
AcDbMaterial
  3
ObjectDBX Classes
 90
     1153
280
     0
281
     0
  0
CLASS
  1
SCALE
  2
AcDbScale
  3
ObjectDBX Classes
 90
     1153
280
     0
281
     0
  0
CLASS
  1
TABLESTYLE
  2
AcDbTableStyle
  3
ObjectDBX Classes
 90
     4095
280
     0
281
     0
  0
CLASS
  1
MLEADERSTYLE
  2
AcDbMLeaderStyle
  3
ACDB_MLEADERSTYLE_CLASS
 90
     4095
280
     0
281
     0
  0
CLASS
  1
SUN
  2
AcDbSun
  3
SCENEOE
 90
     1153
280
     0
281
     0
  0
CLASS
  1
ACDBPLACEHOLDER
  2
AcDbPlaceHolder
  3
ObjectDBX Classes
 90
        0
280
     0
281
     0
  0
CLASS
  1
LAYOUT
  2
AcDbLayout
  3
ObjectDBX Classes
 90
        0
280
     0
281
     0
  0
ENDSEC
  0
SECTION
  2
TABLES
  0
TABLE
  2
VPORT
  5
8
330
0
100
AcDbSymbolTable
 70
     1
  0
VPORT
  5
29
330
8
100
AcDbSymbolTableRecord
100
AcDbViewportTableRecord
  2
*Active
 70
     0
 10
0.0
 20
0.0
 11
1.0
 21
1.0
 12
1189.0
 22
841.0
 13
0.0
 23
0.0
 14
10.0
 24
10.0
 15
10.0
 25
10.0
 16
0.0
 26
0.0
 36
1.0
 17
0.0
 27
0.0
 37
0.0
 40
1682.0
 41
1.4137931034
 42
50.0
 43
0.0
 44
0.0
 50
0.0
 51
0.0
 71
     0
 72
  2000
 73
     1
 74
     3
 75
     0
 76
     0
 77
     0
 78
     0
281
     0
 65
     1
110
0.0
120
0.0
130
0.0
111
1.0
121
0.0
131
0.0
112
0.0
122
1.0
132
0.0
 79
     0
146
0.0
  0
ENDTAB
  0
TABLE
  2
LTYPE
  5
5
330
0
100
AcDbSymbolTable
 70
     6
  0
LTYPE
  5
14
330
5
100
AcDbSymbolTableRecord
100
AcDbLinetypeTableRecord
  2
ByBlock
 70
     0
  3

 72
    65
 73
     0
 40
0.0
  0
LTYPE
  5
15
330
5
100
AcDbSymbolTableRecord
100
AcDbLinetypeTableRecord
  2
ByLayer
 70
     0
  3

 72
    65
 73
     0
 40
0.0
  0
LTYPE
  5
16
330
5
100
AcDbSymbolTableRecord
100
AcDbLinetypeTableRecord
  2
Continuous
 70
     0
  3
Solid line
 72
    65
 73
     0
 40
0.0
  0
LTYPE
  5
6E
330
5
100
AcDbSymbolTableRecord
100
AcDbLinetypeTableRecord
  2
HIDDEN
 70
     0
  3
Hidden __ __ __ __ __ __ __ __ __ __ __ __ __ __
 72
    65
 73
     2
 40
1.905
 49
1.27
 74
     0
 49
-0.635
 74
     0
  0
LTYPE
  5
6F
330
5
100
AcDbSymbolTableRecord
100
AcDbLinetypeTableRecord
  2
PHANTOM
 70
     0
  3
Phantom ______  __  __  ______  __  __  ______
 72
    65
 73
     6
 40
12.7
 49
6.35
 74
     0
 49
-1.27
 74
     0
 49
1.27
 74
     0
 49
-1.27
 74
     0
 49
1.27
 74
     0
 49
-1.27
 74
     0
  0
LTYPE
  5
70
330
5
100
AcDbSymbolTableRecord
100
AcDbLinetypeTableRecord
  2
CENTER
 70
     0
  3
Center ____ _ ____ _ ____ _ ____ _ ____ _ ____
 72
    65
 73
     4
 40
10.16
 49
6.35
 74
     0
 49
-1.27
 74
     0
 49
1.27
 74
     0
 49
-1.27
 74
     0
  0
LTYPE
  5
71
330
5
100
AcDbSymbolTableRecord
100
AcDbLinetypeTableRecord
  2
CENTERX2
 70
     0
  3
Center (2x) ________  __  ________  __  _____
 72
    65
 73
     4
 40
20.32
 49
12.7
 74
     0
 49
-2.54
 74
     0
 49
2.54
 74
     0
 49
-2.54
 74
     0
  0
LTYPE
  5
72
330
5
100
AcDbSymbolTableRecord
100
AcDbLinetypeTableRecord
  2
DOT2
 70
     0
  3
Dot (.5x) ........................................
 72
    65
 73
     2
 40
0.635
 49
0.0
 74
     0
 49
-0.635
 74
     0
  0
ENDTAB
  0
TABLE
  2
LAYER
  5
2
330
0
100
AcDbSymbolTable
 70
     9
  0
LAYER
  5
10
330
2
100
AcDbSymbolTableRecord
100
AcDbLayerTableRecord
  2
0
 70
     0
 62
     7
  6
Continuous
370
    -3
390
F
  0
LAYER
  5
73
330
2
100
AcDbSymbolTableRecord
100
AcDbLayerTableRecord
  2
SLD-0_0
 70
     0
 62
   179
  6
Continuous
370
    -3
390
F
  0
LAYER
  5
74
330
2
100
AcDbSymbolTableRecord
100
AcDbLayerTableRecord
  2
SLD-0
 70
     0
 62
   179
  6
Continuous
370
    -3
390
F
  0
LAYER
  5
75
330
2
100
AcDbSymbolTableRecord
100
AcDbLayerTableRecord
  2
PREDETERMINADO
 70
     0
 62
   179
  6
Continuous
370
    -3
390
F
  0
LAYER
  5
76
330
2
100
AcDbSymbolTableRecord
100
AcDbLayerTableRecord
  2
CAJETIN
 70
     0
 62
   179
  6
Continuous
370
    -3
390
F
  0
LAYER
  5
77
330
2
100
AcDbSymbolTableRecord
100
AcDbLayerTableRecord
  2
FORMATO
 70
     0
 62
   179
  6
Continuous
370
    -3
390
F
  0
LAYER
  5
78
330
2
100
AcDbSymbolTableRecord
100
AcDbLayerTableRecord
  2
NONPLOT
 70
     0
 62
    -1
  6
DOT2
290
     0
370
    -3
390
F
  0
LAYER
  5
79
330
2
100
AcDbSymbolTableRecord
100
AcDbLayerTableRecord
  2
TEXTOS
 70
     0
 62
   142
  6
Continuous
370
    -3
390
F
  0
LAYER
  5
7A
330
2
100
AcDbSymbolTableRecord
100
AcDbLayerTableRecord
  2
FORMAT
 70
     0
 62
     7
  6
Continuous
370
    -3
390
F
  0
ENDTAB
  0
TABLE
  2
STYLE
  5
3
330
0
100
AcDbSymbolTable
 70
     7
  0
STYLE
  5
11
330
3
100
AcDbSymbolTableRecord
100
AcDbTextStyleTableRecord
  2
Standard
 70
     0
 40
0.0
 41
1.0
 50
0.0
 71
     0
 42
2.5
  3
txt
  4

  0
STYLE
  5
DF
330
3
100
AcDbSymbolTableRecord
100
AcDbTextStyleTableRecord
  2
SLDTEXTSTYLE0
 70
     0
 40
0.0
 41
0.605
 50
0.0
 71
     0
 42
2.5
  3
TXT
  4

  0
STYLE
  5
115
330
3
100
AcDbSymbolTableRecord
100
AcDbTextStyleTableRecord
  2
SLDTEXTSTYLE1
 70
     0
 40
0.0
 41
0.5636394322
 50
0.0
 71
     0
 42
2.5
  3
TXT
  4

  0
STYLE
  5
14C
330
3
100
AcDbSymbolTableRecord
100
AcDbTextStyleTableRecord
  2
SLDTEXTSTYLE2
 70
     0
 40
0.0
 41
0.75
 50
0.0
 71
     0
 42
2.5
  3
TXT
  4

  0
STYLE
  5
14E
330
3
100
AcDbSymbolTableRecord
100
AcDbTextStyleTableRecord
  2
SLDTEXTSTYLE3
 70
     0
 40
0.0
 41
0.6785714286
 50
0.0
 71
     0
 42
2.5
  3
TXT
  4

  0
STYLE
  5
155
330
3
100
AcDbSymbolTableRecord
100
AcDbTextStyleTableRecord
  2
SLDTEXTSTYLE4
 70
     0
 40
0.0
 41
0.6666666667
 50
0.0
 71
     0
 42
2.5
  3
TXT
  4

  0
STYLE
  5
162
330
3
100
AcDbSymbolTableRecord
100
AcDbTextStyleTableRecord
  2
SLDTEXTSTYLE5
 70
     0
 40
0.0
 41
0.6875
 50
0.0
 71
     0
 42
2.5
  3
TXT
  4

  0
ENDTAB
  0
TABLE
  2
VIEW
  5
6
330
0
100
AcDbSymbolTable
 70
     0
  0
ENDTAB
  0
TABLE
  2
UCS
  5
7
330
0
100
AcDbSymbolTable
 70
     0
  0
ENDTAB
  0
TABLE
  2
APPID
  5
9
330
0
100
AcDbSymbolTable
 70
     1
  0
APPID
  5
12
330
9
100
AcDbSymbolTableRecord
100
AcDbRegAppTableRecord
  2
ACAD
 70
     0
  0
ENDTAB
  0
TABLE
  2
DIMSTYLE
  5
A
330
0
100
AcDbSymbolTable
 70
    10
100
AcDbDimStyleTable
  0
DIMSTYLE
105
27
330
A
100
AcDbSymbolTableRecord
100
AcDbDimStyleTableRecord
  2
ISO-25
 70
     0
 41
2.5
 42
0.625
 43
3.75
 44
1.25
 73
     0
 74
     0
 77
     1
 78
     8
140
2.5
141
2.5
143
0.0393700787
147
0.625
171
     3
172
     1
178
     0
271
     2
272
     2
274
     3
278
    44
283
     0
284
     8
340
11
  0
DIMSTYLE
105
245
330
A
100
AcDbSymbolTableRecord
100
AcDbDimStyleTableRecord
  2
SLDDIMSTYLE0
 70
     0
 41
1.016
 44
0.0
 45
0.000000001
146
1.016
147
0.0
173
     1
178
     0
271
     0
272
     0
276
     2
340
11
341
246
343
246
344
246
  0
DIMSTYLE
105
28C
102
{ACAD_REACTORS
330
28B
330
296
330
2A4
330
2AE
330
2BC
330
2C6
330
2D0
330
2EB
330
2F5
330
317
330
321
330
391
330
3A6
330
3B0
330
3C3
330
3D9
330
3E3
330
3F1
330
3FB
330
40F
102
}
330
A
100
AcDbSymbolTableRecord
100
AcDbDimStyleTableRecord
  2
SLDDIMSTYLE1
 70
     0
 41
3.302
 44
0.0
 45
0.000000001
 73
     0
 74
     0
 77
     1
 78
    12
 79
     3
140
3.5
147
0.875
173
     1
178
     0
271
     2
272
     2
276
     2
284
    12
340
DF
  0
DIMSTYLE
105
300
102
{ACAD_REACTORS
330
2FF
102
}
330
A
100
AcDbSymbolTableRecord
100
AcDbDimStyleTableRecord
  2
SLDDIMSTYLE2
 70
     0
 41
3.302
 44
0.0
 45
0.000000001
 73
     0
 74
     0
 77
     1
 78
    12
 79
     3
140
3.5
141
0.0
147
0.875
172
     1
173
     1
178
     0
271
     2
272
     2
276
     2
284
    12
340
DF
  0
DIMSTYLE
105
30A
102
{ACAD_REACTORS
330
309
102
}
330
A
100
AcDbSymbolTableRecord
100
AcDbDimStyleTableRecord
  2
SLDDIMSTYLE3
 70
     0
 41
3.302
 44
0.0
 45
0.000000001
 78
     4
 79
     1
140
3.5
141
0.0
147
0.875
172
     1
173
     1
178
     0
271
     2
272
     2
276
     2
284
    12
340
DF
341
30B
343
30B
  0
DIMSTYLE
105
32C
102
{ACAD_REACTORS
330
32B
102
}
330
A
100
AcDbSymbolTableRecord
100
AcDbDimStyleTableRecord
  2
SLDDIMSTYLE4
 70
     0
 41
3.302
 44
0.0
 73
     0
 74
     0
 77
     1
 78
    12
 79
     3
140
3.5
147
0.875
173
     1
178
     0
179
     2
272
     2
276
     2
284
    12
340
DF
  0
DIMSTYLE
105
39C
102
{ACAD_REACTORS
330
39B
102
}
330
A
100
AcDbSymbolTableRecord
100
AcDbDimStyleTableRecord
  2
SLDDIMSTYLE5
 70
     0
 41
3.302
 44
0.0
 45
0.000000001
 73
     0
 74
     0
 77
     1
 78
     4
 79
     1
140
3.5
147
0.875
173
     1
178
     0
271
     2
272
     2
276
     2
284
    12
340
DF
  0
DIMSTYLE
105
3BB
102
{ACAD_REACTORS
330
3BA
102
}
330
A
100
AcDbSymbolTableRecord
100
AcDbDimStyleTableRecord
  2
SLDDIMSTYLE6
 70
     0
 41
3.302
 44
0.0
 45
0.000000001
 73
     0
 74
     0
 77
     1
 78
    12
 79
     3
140
3.5
141
0.0
147
0.875
173
     1
178
     0
271
     2
272
     2
276
     2
284
    12
340
DF
  0
DIMSTYLE
105
3CD
102
{ACAD_REACTORS
330
3CC
330
432
102
}
330
A
100
AcDbSymbolTableRecord
100
AcDbDimStyleTableRecord
  2
SLDDIMSTYLE7
 70
     0
 41
3.302
 44
0.0
 45
0.000000001
 73
     0
 74
     0
 77
     1
 78
    12
 79
     3
140
3.5
147
0.875
172
     1
173
     1
178
     0
271
     2
272
     2
276
     2
284
    12
289
     0
340
DF
  0
DIMSTYLE
105
428
102
{ACAD_REACTORS
330
427
102
}
330
A
100
AcDbSymbolTableRecord
100
AcDbDimStyleTableRecord
  2
SLDDIMSTYLE8
 70
     0
 41
3.302
 44
0.0
 45
0.000000001
 73
     0
 74
     0
 77
     1
 78
    12
 79
     3
140
3.5
147
0.875
173
     1
178
     0
271
     1
272
     1
276
     2
284
    12
340
DF
  0
ENDTAB
  0
TABLE
  2
BLOCK_RECORD
  5
1
330
0
100
AcDbSymbolTable
 70
    53
  0
BLOCK_RECORD
  5
1F
330
1
100
AcDbSymbolTableRecord
100
AcDbBlockTableRecord
  2
*Model_Space
340
22
  0
BLOCK_RECORD
  5
1B
330
1
100
AcDbSymbolTableRecord
100
AcDbBlockTableRecord
  2
*Paper_Space
340
1E
  0
BLOCK_RECORD
  5
23
330
1
100
AcDbSymbolTableRecord
100
AcDbBlockTableRecord
  2
*Paper_Space0
340
26
  0
BLOCK_RECORD
  5
DB
330
1
100
AcDbSymbolTableRecord
100
AcDbBlockTableRecord
  2
SW_NOTE_0
340
0
102
{BLKREFS
331
E1
102
}
  0
BLOCK_RECORD
  5
E2
330
1
100
AcDbSymbolTableRecord
100
AcDbBlockTableRecord
  2
SW_NOTE_1
340
0
102
{BLKREFS
331
E7
102
}
  0
BLOCK_RECORD
  5
E8
330
1
100
AcDbSymbolTableRecord
100
AcDbBlockTableRecord
  2
SW_NOTE_2
340
0
102
{BLKREFS
331
ED
102
}
  0
BLOCK_RECORD
  5
EE
330
1
100
AcDbSymbolTableRecord
100
AcDbBlockTableRecord
  2
SW_NOTE_3
340
0
102
{BLKREFS
331
F3
102
}
  0
BLOCK_RECORD
  5
F4
330
1
100
AcDbSymbolTableRecord
100
AcDbBlockTableRecord
  2
SW_NOTE_4
340
0
102
{BLKREFS
331
F9
102
}
  0
BLOCK_RECORD
  5
119
330
1
100
AcDbSymbolTableRecord
100
AcDbBlockTableRecord
  2
SW_NOTE_5
340
0
102
{BLKREFS
331
11E
102
}
  0
BLOCK_RECORD
  5
11F
330
1
100
AcDbSymbolTableRecord
100
AcDbBlockTableRecord
  2
SW_NOTE_6
340
0
102
{BLKREFS
331
124
102
}
  0
BLOCK_RECORD
  5
125
330
1
100
AcDbSymbolTableRecord
100
AcDbBlockTableRecord
  2
SW_NOTE_7
340
0
102
{BLKREFS
331
12A
102
}
  0
BLOCK_RECORD
  5
12B
330
1
100
AcDbSymbolTableRecord
100
AcDbBlockTableRecord
  2
SW_NOTE_8
340
0
102
{BLKREFS
331
130
102
}
  0
BLOCK_RECORD
  5
131
330
1
100
AcDbSymbolTableRecord
100
AcDbBlockTableRecord
  2
SW_NOTE_9
340
0
102
{BLKREFS
331
136
102
}
  0
BLOCK_RECORD
  5
137
330
1
100
AcDbSymbolTableRecord
100
AcDbBlockTableRecord
  2
SW_TABLEANNOTATION_0
340
0
102
{BLKREFS
331
165
102
}
  0
BLOCK_RECORD
  5
23F
330
1
100
AcDbSymbolTableRecord
100
AcDbBlockTableRecord
  2
SW_NOTE_10
340
0
102
{BLKREFS
331
244
102
}
  0
BLOCK_RECORD
  5
246
330
1
100
AcDbSymbolTableRecord
100
AcDbBlockTableRecord
  2
_DOT
340
0
  0
BLOCK_RECORD
  5
24F
330
1
100
AcDbSymbolTableRecord
100
AcDbBlockTableRecord
  2
SW_NOTE_11
340
0
102
{BLKREFS
331
254
102
}
  0
BLOCK_RECORD
  5
256
330
1
100
AcDbSymbolTableRecord
100
AcDbBlockTableRecord
  2
SW_NOTE_12
340
0
102
{BLKREFS
331
25B
102
}
  0
BLOCK_RECORD
  5
25D
330
1
100
AcDbSymbolTableRecord
100
AcDbBlockTableRecord
  2
SW_NOTE_13
340
0
102
{BLKREFS
331
262
102
}
  0
BLOCK_RECORD
  5
264
330
1
100
AcDbSymbolTableRecord
100
AcDbBlockTableRecord
  2
SW_NOTE_14
340
0
102
{BLKREFS
331
269
102
}
  0
BLOCK_RECORD
  5
26B
330
1
100
AcDbSymbolTableRecord
100
AcDbBlockTableRecord
  2
SW_NOTE_15
340
0
102
{BLKREFS
331
270
102
}
  0
BLOCK_RECORD
  5
272
330
1
100
AcDbSymbolTableRecord
100
AcDbBlockTableRecord
  2
SW_NOTE_16
340
0
102
{BLKREFS
331
277
102
}
  0
BLOCK_RECORD
  5
279
330
1
100
AcDbSymbolTableRecord
100
AcDbBlockTableRecord
  2
SW_NOTE_17
340
0
102
{BLKREFS
331
27E
102
}
  0
BLOCK_RECORD
  5
280
330
1
100
AcDbSymbolTableRecord
100
AcDbBlockTableRecord
  2
SW_NOTE_18
340
0
102
{BLKREFS
331
285
102
}
  0
BLOCK_RECORD
  5
28D
330
1
100
AcDbSymbolTableRecord
100
AcDbBlockTableRecord
  2
_D
340
0
  0
BLOCK_RECORD
  5
297
330
1
100
AcDbSymbolTableRecord
100
AcDbBlockTableRecord
  2
_D_1
340
0
  0
BLOCK_RECORD
  5
2A5
330
1
100
AcDbSymbolTableRecord
100
AcDbBlockTableRecord
  2
_D_2
340
0
  0
BLOCK_RECORD
  5
2AF
330
1
100
AcDbSymbolTableRecord
100
AcDbBlockTableRecord
  2
_D_3
340
0
  0
BLOCK_RECORD
  5
2BD
330
1
100
AcDbSymbolTableRecord
100
AcDbBlockTableRecord
  2
_D_4
340
0
  0
BLOCK_RECORD
  5
2C7
330
1
100
AcDbSymbolTableRecord
100
AcDbBlockTableRecord
  2
_D_5
340
0
  0
BLOCK_RECORD
  5
2D1
330
1
100
AcDbSymbolTableRecord
100
AcDbBlockTableRecord
  2
_D_6
340
0
  0
BLOCK_RECORD
  5
2EC
330
1
100
AcDbSymbolTableRecord
100
AcDbBlockTableRecord
  2
_D_7
340
0
  0
BLOCK_RECORD
  5
2F6
330
1
100
AcDbSymbolTableRecord
100
AcDbBlockTableRecord
  2
_D_8
340
0
  0
BLOCK_RECORD
  5
301
330
1
100
AcDbSymbolTableRecord
100
AcDbBlockTableRecord
  2
_D_9
340
0
  0
BLOCK_RECORD
  5
30B
330
1
100
AcDbSymbolTableRecord
100
AcDbBlockTableRecord
  2
_NONE
340
0
  0
BLOCK_RECORD
  5
30E
330
1
100
AcDbSymbolTableRecord
100
AcDbBlockTableRecord
  2
_D_10
340
0
  0
BLOCK_RECORD
  5
318
330
1
100
AcDbSymbolTableRecord
100
AcDbBlockTableRecord
  2
_D_11
340
0
  0
BLOCK_RECORD
  5
322
330
1
100
AcDbSymbolTableRecord
100
AcDbBlockTableRecord
  2
_D_12
340
0
  0
BLOCK_RECORD
  5
32D
330
1
100
AcDbSymbolTableRecord
100
AcDbBlockTableRecord
  2
_D_13
340
0
  0
BLOCK_RECORD
  5
335
330
1
100
AcDbSymbolTableRecord
100
AcDbBlockTableRecord
  2
SW_CENTERMARKSYMBOL_0
340
0
102
{BLKREFS
331
378
102
}
  0
BLOCK_RECORD
  5
392
330
1
100
AcDbSymbolTableRecord
100
AcDbBlockTableRecord
  2
_D_14
340
0
  0
BLOCK_RECORD
  5
39D
330
1
100
AcDbSymbolTableRecord
100
AcDbBlockTableRecord
  2
_D_15
340
0
  0
BLOCK_RECORD
  5
3A7
330
1
100
AcDbSymbolTableRecord
100
AcDbBlockTableRecord
  2
_D_16
340
0
  0
BLOCK_RECORD
  5
3B1
330
1
100
AcDbSymbolTableRecord
100
AcDbBlockTableRecord
  2
_D_17
340
0
  0
BLOCK_RECORD
  5
3BC
330
1
100
AcDbSymbolTableRecord
100
AcDbBlockTableRecord
  2
_D_18
340
0
  0
BLOCK_RECORD
  5
3C4
330
1
100
AcDbSymbolTableRecord
100
AcDbBlockTableRecord
  2
_D_19
340
0
  0
BLOCK_RECORD
  5
3CE
330
1
100
AcDbSymbolTableRecord
100
AcDbBlockTableRecord
  2
_D_20
340
0
  0
BLOCK_RECORD
  5
3DA
330
1
100
AcDbSymbolTableRecord
100
AcDbBlockTableRecord
  2
_D_21
340
0
  0
BLOCK_RECORD
  5
3E4
330
1
100
AcDbSymbolTableRecord
100
AcDbBlockTableRecord
  2
_D_22
340
0
  0
BLOCK_RECORD
  5
3F2
330
1
100
AcDbSymbolTableRecord
100
AcDbBlockTableRecord
  2
_D_23
340
0
  0
BLOCK_RECORD
  5
3FC
330
1
100
AcDbSymbolTableRecord
100
AcDbBlockTableRecord
  2
_D_24
340
0
  0
BLOCK_RECORD
  5
410
330
1
100
AcDbSymbolTableRecord
100
AcDbBlockTableRecord
  2
_D_25
340
0
  0
BLOCK_RECORD
  5
41D
330
1
100
AcDbSymbolTableRecord
100
AcDbBlockTableRecord
  2
SW_ANGULAR_DIMENSION_0
340
0
102
{BLKREFS
331
426
102
}
  0
BLOCK_RECORD
  5
429
330
1
100
AcDbSymbolTableRecord
100
AcDbBlockTableRecord
  2
_D_26
340
0
  0
BLOCK_RECORD
  5
433
330
1
100
AcDbSymbolTableRecord
100
AcDbBlockTableRecord
  2
_D_27
340
0
  0
ENDTAB
  0
ENDSEC
  0
SECTION
  2
BLOCKS
  0
BLOCK
  5
20
330
1F
100
AcDbEntity
  8
0
100
AcDbBlockBegin
  2
*Model_Space
 70
     0
 10
0.0
 20
0.0
 30
0.0
  3
*Model_Space
  1

  0
ENDBLK
  5
21
330
1F
100
AcDbEntity
  8
0
100
AcDbBlockEnd
  0
BLOCK
  5
1C
330
1B
100
AcDbEntity
 67
     1
  8
0
100
AcDbBlockBegin
  2
*Paper_Space
 70
     0
 10
0.0
 20
0.0
 30
0.0
  3
*Paper_Space
  1

  0
ENDBLK
  5
1D
330
1B
100
AcDbEntity
 67
     1
  8
0
100
AcDbBlockEnd
  0
BLOCK
  5
24
330
23
100
AcDbEntity
  8
0
100
AcDbBlockBegin
  2
*Paper_Space0
 70
     0
 10
0.0
 20
0.0
 30
0.0
  3
*Paper_Space0
  1

  0
ENDBLK
  5
25
330
23
100
AcDbEntity
  8
0
100
AcDbBlockEnd
  0
BLOCK
  5
DC
330
DB
100
AcDbEntity
  8
0
100
AcDbBlockBegin
  2
SW_NOTE_0
 70
     0
 10
0.0
 20
0.0
 30
0.0
  3
SW_NOTE_0
  1

  0
CIRCLE
  5
DE
330
DB
100
AcDbEntity
  8
SLD-0_0
 62
     0
100
AcDbCircle
 10
4.6265226161
 20
9.6133115005
 30
0.0
 40
10.12207265019895
  0
MTEXT
  5
E0
330
DB
100
AcDbEntity
  8
SLD-0_0
 62
     0
100
AcDbMText
 10
0.0
 20
16.3200536553
 30
0.0
 40
12.7
 41
0.0
 71
     1
 72
     1
  1
4
  7
SLDTEXTSTYLE0
 73
     1
 44
1.0
  0
ENDBLK
  5
DD
330
DB
100
AcDbEntity
  8
0
100
AcDbBlockEnd
  0
BLOCK
  5
E3
330
E2
100
AcDbEntity
  8
0
100
AcDbBlockBegin
  2
SW_NOTE_1
 70
     0
 10
0.0
 20
0.0
 30
0.0
  3
SW_NOTE_1
  1

  0
CIRCLE
  5
E5
330
E2
100
AcDbEntity
  8
SLD-0_0
 62
     0
100
AcDbCircle
 10
4.627586614
 20
9.5888677646
 30
0.0
 40
10.1220726501989
  0
MTEXT
  5
E6
330
E2
100
AcDbEntity
  8
SLD-0_0
 62
     0
100
AcDbMText
 10
0.0
 20
16.3200536553
 30
0.0
 40
12.7
 41
0.0
 71
     1
 72
     1
  1
3
  7
SLDTEXTSTYLE0
 73
     1
 44
1.0
  0
ENDBLK
  5
E4
330
E2
100
AcDbEntity
  8
0
100
AcDbBlockEnd
  0
BLOCK
  5
E9
330
E8
100
AcDbEntity
  8
0
100
AcDbBlockBegin
  2
SW_NOTE_2
 70
     0
 10
0.0
 20
0.0
 30
0.0
  3
SW_NOTE_2
  1

  0
CIRCLE
  5
EB
330
E8
100
AcDbEntity
  8
SLD-0_0
 62
     0
100
AcDbCircle
 10
4.6227391705
 20
9.5576696883
 30
0.0
 40
10.122072650199
  0
MTEXT
  5
EC
330
E8
100
AcDbEntity
  8
SLD-0_0
 62
     0
100
AcDbMText
 10
0.0
 20
16.3200536553
 30
0.0
 40
12.7
 41
0.0
 71
     1
 72
     1
  1
2
  7
SLDTEXTSTYLE0
 73
     1
 44
1.0
  0
ENDBLK
  5
EA
330
E8
100
AcDbEntity
  8
0
100
AcDbBlockEnd
  0
BLOCK
  5
EF
330
EE
100
AcDbEntity
  8
0
100
AcDbBlockBegin
  2
SW_NOTE_3
 70
     0
 10
0.0
 20
0.0
 30
0.0
  3
SW_NOTE_3
  1

  0
CIRCLE
  5
F1
330
EE
100
AcDbEntity
  8
SLD-0_0
 62
     0
100
AcDbCircle
 10
4.6260977177
 20
9.6102707577
 30
0.0
 40
10.12207265019893
  0
MTEXT
  5
F2
330
EE
100
AcDbEntity
  8
SLD-0_0
 62
     0
100
AcDbMText
 10
0.0
 20
16.3200536553
 30
0.0
 40
12.7
 41
0.0
 71
     1
 72
     1
  1
1
  7
SLDTEXTSTYLE0
 73
     1
 44
1.0
  0
ENDBLK
  5
F0
330
EE
100
AcDbEntity
  8
0
100
AcDbBlockEnd
  0
BLOCK
  5
F5
330
F4
100
AcDbEntity
  8
0
100
AcDbBlockBegin
  2
SW_NOTE_4
 70
     0
 10
0.0
 20
0.0
 30
0.0
  3
SW_NOTE_4
  1

  0
MTEXT
  5
F7
330
F4
100
AcDbEntity
  8
CAJETIN
 62
     0
100
AcDbMText
 10
25.89609375
 20
12.2400402414
 30
0.0
 40
9.525
 41
0.0
 71
     2
 72
     1
  1
S-18LEX
  7
SLDTEXTSTYLE0
 73
     1
 44
1.0
  0
MTEXT
  5
F8
330
F4
100
AcDbEntity
  8
CAJETIN
 62
     0
100
AcDbMText
 10
28.4482393563
 20
-0.4599596051
 30
0.0
 40
9.525
 41
0.0
 71
     2
 72
     1
  1
DIRECT RADIATION SUBWOOFER
  7
SLDTEXTSTYLE0
 73
     1
 44
1.0
  0
ENDBLK
  5
F6
330
F4
100
AcDbEntity
  8
0
100
AcDbBlockEnd
  0
BLOCK
  5
11A
330
119
100
AcDbEntity
  8
0
100
AcDbBlockBegin
  2
SW_NOTE_5
 70
     0
 10
0.0
 20
0.0
 30
0.0
  3
SW_NOTE_5
  1

  0
MTEXT
  5
11C
330
119
100
AcDbEntity
  8
CAJETIN
 62
     0
100
AcDbMText
 10
0.0
 20
12.2400402414
 30
0.0
 40
9.525
 41
0.0
 71
     1
 72
     1
  1
Birch Plywood
  7
SLDTEXTSTYLE0
 73
     1
 44
1.0
  0
MTEXT
  5
11D
330
119
100
AcDbEntity
  8
CAJETIN
 62
     0
100
AcDbMText
 10
0.0
 20
-0.4599596051
 30
0.0
 40
9.525
 41
0.0
 71
     1
 72
     1
  1
18mm
  7
SLDTEXTSTYLE0
 73
     1
 44
1.0
  0
ENDBLK
  5
11B
330
119
100
AcDbEntity
  8
0
100
AcDbBlockEnd
  0
BLOCK
  5
120
330
11F
100
AcDbEntity
  8
0
100
AcDbBlockBegin
  2
SW_NOTE_6
 70
     0
 10
0.0
 20
0.0
 30
0.0
  3
SW_NOTE_6
  1

  0
CIRCLE
  5
122
330
11F
100
AcDbEntity
  8
SLD-0_0
 62
     0
100
AcDbCircle
 10
4.661679548
 20
9.5618988961
 30
0.0
 40
10.1220726501988
  0
MTEXT
  5
123
330
11F
100
AcDbEntity
  8
SLD-0_0
 62
     0
100
AcDbMText
 10
0.0
 20
16.3200536553
 30
0.0
 40
12.7
 41
0.0
 71
     1
 72
     1
  1
5
  7
SLDTEXTSTYLE0
 73
     1
 44
1.0
  0
ENDBLK
  5
121
330
11F
100
AcDbEntity
  8
0
100
AcDbBlockEnd
  0
BLOCK
  5
126
330
125
100
AcDbEntity
  8
0
100
AcDbBlockBegin
  2
SW_NOTE_7
 70
     0
 10
0.0
 20
0.0
 30
0.0
  3
SW_NOTE_7
  1

  0
CIRCLE
  5
128
330
125
100
AcDbEntity
  8
SLD-0_0
 62
     0
100
AcDbCircle
 10
4.6781662091
 20
9.5861817745
 30
0.0
 40
10.1220726501989
  0
MTEXT
  5
129
330
125
100
AcDbEntity
  8
SLD-0_0
 62
     0
100
AcDbMText
 10
0.0
 20
16.3200536553
 30
0.0
 40
12.7
 41
0.0
 71
     1
 72
     1
  1
7
  7
SLDTEXTSTYLE0
 73
     1
 44
1.0
  0
ENDBLK
  5
127
330
125
100
AcDbEntity
  8
0
100
AcDbBlockEnd
  0
BLOCK
  5
12C
330
12B
100
AcDbEntity
  8
0
100
AcDbBlockBegin
  2
SW_NOTE_8
 70
     0
 10
0.0
 20
0.0
 30
0.0
  3
SW_NOTE_8
  1

  0
CIRCLE
  5
12E
330
12B
100
AcDbEntity
  8
SLD-0_0
 62
     0
100
AcDbCircle
 10
4.6781662091
 20
9.5861817745
 30
0.0
 40
10.1220726501989
  0
MTEXT
  5
12F
330
12B
100
AcDbEntity
  8
SLD-0_0
 62
     0
100
AcDbMText
 10
0.0
 20
16.3200536553
 30
0.0
 40
12.7
 41
0.0
 71
     1
 72
     1
  1
4
  7
SLDTEXTSTYLE0
 73
     1
 44
1.0
  0
ENDBLK
  5
12D
330
12B
100
AcDbEntity
  8
0
100
AcDbBlockEnd
  0
BLOCK
  5
132
330
131
100
AcDbEntity
  8
0
100
AcDbBlockBegin
  2
SW_NOTE_9
 70
     0
 10
0.0
 20
0.0
 30
0.0
  3
SW_NOTE_9
  1

  0
CIRCLE
  5
134
330
131
100
AcDbEntity
  8
SLD-0_0
 62
     0
100
AcDbCircle
 10
4.6516022875
 20
9.5887968379
 30
0.0
 40
10.1457845246658
  0
MTEXT
  5
135
330
131
100
AcDbEntity
  8
SLD-0_0
 62
     0
100
AcDbMText
 10
0.0
 20
16.3200536553
 30
0.0
 40
12.7
 41
0.0
 71
     1
 72
     1
  1
6
  7
SLDTEXTSTYLE0
 73
     1
 44
1.0
  0
ENDBLK
  5
133
330
131
100
AcDbEntity
  8
0
100
AcDbBlockEnd
  0
BLOCK
  5
138
330
137
100
AcDbEntity
  8
0
100
AcDbBlockBegin
  2
SW_TABLEANNOTATION_0
 70
     0
 10
0.0
 20
0.0
 30
0.0
  3
SW_TABLEANNOTATION_0
  1

  0
LINE
  5
13A
330
137
100
AcDbEntity
  8
CAJETIN
 62
     0
100
AcDbLine
 10
0.0
 20
0.0
 30
0.0
 11
0.0
 21
-203.252238381
 31
0.0
  0
LINE
  5
13B
330
137
100
AcDbEntity
  8
CAJETIN
 62
     0
100
AcDbLine
 10
0.0
 20
-203.252238381
 30
0.0
 11
524.1828627233
 21
-203.252238381
 31
0.0
  0
LINE
  5
13C
330
137
100
AcDbEntity
  8
CAJETIN
 62
     0
100
AcDbLine
 10
524.1828627233
 20
-203.252238381
 30
0.0
 11
524.1828627233
 21
0.0
 31
0.0
  0
LINE
  5
13D
330
137
100
AcDbEntity
  8
CAJETIN
 62
     0
100
AcDbLine
 10
524.1828627233
 20
0.0
 30
0.0
 11
0.0
 21
0.0
 31
0.0
  0
LINE
  5
13E
330
137
100
AcDbEntity
  8
CAJETIN
 62
     0
100
AcDbLine
 10
119.1500609111
 20
0.0
 30
0.0
 11
119.1500609111
 21
-35.9852446918
 31
0.0
  0
LINE
  5
13F
330
137
100
AcDbEntity
  8
CAJETIN
 62
     0
100
AcDbLine
 10
401.9446123234
 20
0.0
 30
0.0
 11
401.9446123234
 21
-35.9852446918
 31
0.0
  0
LINE
  5
140
330
137
100
AcDbEntity
  8
CAJETIN
 62
     0
100
AcDbLine
 10
119.1500609111
 20
-35.9852446918
 30
0.0
 11
119.1500609111
 21
-203.252238381
 31
0.0
  0
LINE
  5
141
330
137
100
AcDbEntity
  8
CAJETIN
 62
     0
100
AcDbLine
 10
401.9446123234
 20
-35.9852446918
 30
0.0
 11
401.9446123234
 21
-203.252238381
 31
0.0
  0
LINE
  5
142
330
137
100
AcDbEntity
  8
CAJETIN
 62
     0
100
AcDbLine
 10
0.0
 20
-59.8805295046
 30
0.0
 11
524.1828627233
 21
-59.8805295046
 31
0.0
  0
LINE
  5
143
330
137
100
AcDbEntity
  8
CAJETIN
 62
     0
100
AcDbLine
 10
0.0
 20
-83.7758143173
 30
0.0
 11
524.1828627233
 21
-83.7758143173
 31
0.0
  0
LINE
  5
144
330
137
100
AcDbEntity
  8
CAJETIN
 62
     0
100
AcDbLine
 10
0.0
 20
-107.6710991301
 30
0.0
 11
524.1828627233
 21
-107.6710991301
 31
0.0
  0
LINE
  5
145
330
137
100
AcDbEntity
  8
CAJETIN
 62
     0
100
AcDbLine
 10
0.0
 20
-131.5663839428
 30
0.0
 11
524.1828627233
 21
-131.5663839428
 31
0.0
  0
LINE
  5
146
330
137
100
AcDbEntity
  8
CAJETIN
 62
     0
100
AcDbLine
 10
0.0
 20
-155.4616687556
 30
0.0
 11
524.1828627233
 21
-155.4616687556
 31
0.0
  0
LINE
  5
147
330
137
100
AcDbEntity
  8
CAJETIN
 62
     0
100
AcDbLine
 10
0.0
 20
-179.3569535683
 30
0.0
 11
524.1828627233
 21
-179.3569535683
 31
0.0
  0
LINE
  5
148
330
137
100
AcDbEntity
  8
CAJETIN
 62
     0
100
AcDbLine
 10
0.0
 20
-35.9852446918
 30
0.0
 11
524.1828627233
 21
-35.9852446918
 31
0.0
  0
MTEXT
  5
149
330
137
100
AcDbEntity
  8
CAJETIN
 62
     0
100
AcDbMText
 10
25.4379006719
 20
-11.7084038445
 30
0.0
 40
12.7
 41
0.0
 71
     1
 72
     1
  1
ITEM N.º
  7
SLDTEXTSTYLE0
 73
     1
 44
1.0
  0
MTEXT
  5
14A
330
137
100
AcDbEntity
  8
CAJETIN
 62
     0
100
AcDbMText
 10
175.8806672485
 20
-11.7084038445
 30
0.0
 40
12.7
 41
0.0
 71
     1
 72
     1
  1
PARTS DIMENSIONS
  7
SLDTEXTSTYLE0
 73
     1
 44
1.0
  0
MTEXT
  5
14B
330
137
100
AcDbEntity
  8
CAJETIN
 62
     0
100
AcDbMText
 10
445.6600343404
 20
-11.7084038445
 30
0.0
 40
12.7
 41
0.0
 71
     1
 72
     1
  1
QTY
  7
SLDTEXTSTYLE0
 73
     1
 44
1.0
  0
MTEXT
  5
14D
330
137
100
AcDbEntity
  8
CAJETIN
 62
     0
100
AcDbMText
 10
54.883085998
 20
-41.5715126335
 30
0.0
 40
12.7
 41
0.0
 71
     1
 72
     1
  1
1
  7
SLDTEXTSTYLE2
 73
     1
 44
1.0
  0
MTEXT
  5
14F
330
137
100
AcDbEntity
  8
CAJETIN
 62
     0
100
AcDbMText
 10
205.514006743
 20
-41.5715126335
 30
0.0
 40
12.7
 41
0.0
 71
     1
 72
     1
  1
600 x 800 x 18
  7
SLDTEXTSTYLE3
 73
     1
 44
1.0
  0
MTEXT
  5
150
330
137
100
AcDbEntity
  8
CAJETIN
 62
     0
100
AcDbMText
 10
458.3717930657
 20
-41.5715126335
 30
0.0
 40
12.7
 41
0.0
 71
     1
 72
     1
  1
1
  7
SLDTEXTSTYLE2
 73
     1
 44
1.0
  0
MTEXT
  5
151
330
137
100
AcDbEntity
  8
CAJETIN
 62
     0
100
AcDbMText
 10
54.883085998
 20
-65.4667974462
 30
0.0
 40
12.7
 41
0.0
 71
     1
 72
     1
  1
2
  7
SLDTEXTSTYLE2
 73
     1
 44
1.0
  0
MTEXT
  5
152
330
137
100
AcDbEntity
  8
CAJETIN
 62
     0
100
AcDbMText
 10
205.514006743
 20
-65.4667974462
 30
0.0
 40
12.7
 41
0.0
 71
     1
 72
     1
  1
500 x 500 x 18
  7
SLDTEXTSTYLE3
 73
     1
 44
1.0
  0
MTEXT
  5
153
330
137
100
AcDbEntity
  8
CAJETIN
 62
     0
100
AcDbMText
 10
458.3717930657
 20
-65.4667974462
 30
0.0
 40
12.7
 41
0.0
 71
     1
 72
     1
  1
2
  7
SLDTEXTSTYLE2
 73
     1
 44
1.0
  0
MTEXT
  5
154
330
137
100
AcDbEntity
  8
CAJETIN
 62
     0
100
AcDbMText
 10
54.883085998
 20
-89.362082259
 30
0.0
 40
12.7
 41
0.0
 71
     1
 72
     1
  1
3
  7
SLDTEXTSTYLE2
 73
     1
 44
1.0
  0
MTEXT
  5
156
330
137
100
AcDbEntity
  8
CAJETIN
 62
     0
100
AcDbMText
 10
203.1739134879
 20
-89.362082259
 30
0.0
 40
12.7
 41
0.0
 71
     1
 72
     1
  1
564 x 500  x 18
  7
SLDTEXTSTYLE4
 73
     1
 44
1.0
  0
MTEXT
  5
157
330
137
100
AcDbEntity
  8
CAJETIN
 62
     0
100
AcDbMText
 10
458.3717930657
 20
-89.362082259
 30
0.0
 40
12.7
 41
0.0
 71
     1
 72
     1
  1
2
  7
SLDTEXTSTYLE2
 73
     1
 44
1.0
  0
MTEXT
  5
158
330
137
100
AcDbEntity
  8
CAJETIN
 62
     0
100
AcDbMText
 10
54.883085998
 20
-113.2573670717
 30
0.0
 40
12.7
 41
0.0
 71
     1
 72
     1
  1
4
  7
SLDTEXTSTYLE2
 73
     1
 44
1.0
  0
MTEXT
  5
159
330
137
100
AcDbEntity
  8
CAJETIN
 62
     0
100
AcDbMText
 10
205.514006743
 20
-113.2573670717
 30
0.0
 40
12.7
 41
0.0
 71
     1
 72
     1
  1
564 x 500 x 18
  7
SLDTEXTSTYLE3
 73
     1
 44
1.0
  0
MTEXT
  5
15A
330
137
100
AcDbEntity
  8
CAJETIN
 62
     0
100
AcDbMText
 10
458.3717930657
 20
-113.2573670717
 30
0.0
 40
12.7
 41
0.0
 71
     1
 72
     1
  1
1
  7
SLDTEXTSTYLE2
 73
     1
 44
1.0
  0
MTEXT
  5
15B
330
137
100
AcDbEntity
  8
CAJETIN
 62
     0
100
AcDbMText
 10
54.883085998
 20
-137.1526518845
 30
0.0
 40
12.7
 41
0.0
 71
     1
 72
     1
  1
5
  7
SLDTEXTSTYLE2
 73
     1
 44
1.0
  0
MTEXT
  5
15C
330
137
100
AcDbEntity
  8
CAJETIN
 62
     0
100
AcDbMText
 10
205.514006743
 20
-137.1526518845
 30
0.0
 40
12.7
 41
0.0
 71
     1
 72
     1
  1
440 x 451 x 18
  7
SLDTEXTSTYLE3
 73
     1
 44
1.0
  0
MTEXT
  5
15D
330
137
100
AcDbEntity
  8
CAJETIN
 62
     0
100
AcDbMText
 10
458.3717930657
 20
-137.1526518845
 30
0.0
 40
12.7
 41
0.0
 71
     1
 72
     1
  1
1
  7
SLDTEXTSTYLE2
 73
     1
 44
1.0
  0
MTEXT
  5
15E
330
137
100
AcDbEntity
  8
CAJETIN
 62
     0
100
AcDbMText
 10
54.883085998
 20
-161.0479366972
 30
0.0
 40
12.7
 41
0.0
 71
     1
 72
     1
  1
6
  7
SLDTEXTSTYLE2
 73
     1
 44
1.0
  0
MTEXT
  5
15F
330
137
100
AcDbEntity
  8
CAJETIN
 62
     0
100
AcDbMText
 10
205.514006743
 20
-161.0479366972
 30
0.0
 40
12.7
 41
0.0
 71
     1
 72
     1
  1
451 x 130 x 18
  7
SLDTEXTSTYLE3
 73
     1
 44
1.0
  0
MTEXT
  5
160
330
137
100
AcDbEntity
  8
CAJETIN
 62
     0
100
AcDbMText
 10
458.3717930657
 20
-161.0479366972
 30
0.0
 40
12.7
 41
0.0
 71
     1
 72
     1
  1
1
  7
SLDTEXTSTYLE2
 73
     1
 44
1.0
  0
MTEXT
  5
161
330
137
100
AcDbEntity
  8
CAJETIN
 62
     0
100
AcDbMText
 10
54.883085998
 20
-184.94322151
 30
0.0
 40
12.7
 41
0.0
 71
     1
 72
     1
  1
7
  7
SLDTEXTSTYLE2
 73
     1
 44
1.0
  0
MTEXT
  5
163
330
137
100
AcDbEntity
  8
CAJETIN
 62
     0
100
AcDbMText
 10
198.4819662364
 20
-184.94322151
 30
0.0
 40
12.7
 41
0.0
 71
     1
 72
     1
  1
215.7 x 184 x 18
  7
SLDTEXTSTYLE5
 73
     1
 44
1.0
  0
MTEXT
  5
164
330
137
100
AcDbEntity
  8
CAJETIN
 62
     0
100
AcDbMText
 10
458.3717930657
 20
-184.94322151
 30
0.0
 40
12.7
 41
0.0
 71
     1
 72
     1
  1
2
  7
SLDTEXTSTYLE2
 73
     1
 44
1.0
  0
ENDBLK
  5
139
330
137
100
AcDbEntity
  8
0
100
AcDbBlockEnd
  0
BLOCK
  5
240
330
23F
100
AcDbEntity
  8
0
100
AcDbBlockBegin
  2
SW_NOTE_10
 70
     0
 10
0.0
 20
0.0
 30
0.0
  3
SW_NOTE_10
  1

  0
CIRCLE
  5
242
330
23F
100
AcDbEntity
  8
SLD-0_0
 62
     0
100
AcDbCircle
 10
-14.8286775077
 20
10.3838905509
 30
0.0
 40
18.10289644229631
  0
MTEXT
  5
243
330
23F
100
AcDbEntity
  8
SLD-0_0
 62
     0
100
AcDbMText
 10
-14.7698813098
 20
17.5592553181
 30
0.0
 40
12.7
 41
0.0
 71
     2
 72
     1
  1
1
  7
SLDTEXTSTYLE0
 73
     1
 44
1.0
  0
ENDBLK
  5
241
330
23F
100
AcDbEntity
  8
0
100
AcDbBlockEnd
  0
BLOCK
  5
247
330
246
100
AcDbEntity
  8
0
100
AcDbBlockBegin
  2
_DOT
 70
     0
 10
0.0
 20
0.0
 30
0.0
  3
_DOT
  1

  0
POLYLINE
  5
249
330
246
100
AcDbEntity
  8
0
  6
ByBlock
 62
     0
100
AcDb2dPolyline
 66
     1
 10
0.0
 20
0.0
 30
0.0
 70
     1
 40
0.5
 41
0.5
  0
VERTEX
  5
24B
330
249
100
AcDbEntity
  8
0
  6
ByBlock
 62
     0
100
AcDbVertex
100
AcDb2dVertex
 10
-0.25
 20
0.0
 30
0.0
 42
1.0
  0
VERTEX
  5
24C
330
249
100
AcDbEntity
  8
0
  6
ByBlock
 62
     0
100
AcDbVertex
100
AcDb2dVertex
 10
0.25
 20
0.0
 30
0.0
 42
1.0
  0
SEQEND
  5
24D
330
249
100
AcDbEntity
  8
0
  6
ByBlock
 62
     0
  0
LINE
  5
24A
330
246
100
AcDbEntity
  8
0
  6
ByBlock
 62
     0
370
    -2
100
AcDbLine
 10
-0.5
 20
0.0
 30
0.0
 11
-1.0
 21
0.0
 31
0.0
  0
ENDBLK
  5
248
330
246
100
AcDbEntity
  8
0
100
AcDbBlockEnd
  0
BLOCK
  5
250
330
24F
100
AcDbEntity
  8
0
100
AcDbBlockBegin
  2
SW_NOTE_11
 70
     0
 10
0.0
 20
0.0
 30
0.0
  3
SW_NOTE_11
  1

  0
CIRCLE
  5
252
330
24F
100
AcDbEntity
  8
SLD-0_0
 62
     0
100
AcDbCircle
 10
15.2688199768
 20
9.7251219075
 30
0.0
 40
18.10289644229626
  0
MTEXT
  5
253
330
24F
100
AcDbEntity
  8
SLD-0_0
 62
     0
100
AcDbMText
 10
15.3276161748
 20
16.9004866746
 30
0.0
 40
12.7
 41
0.0
 71
     2
 72
     1
  1
6
  7
SLDTEXTSTYLE0
 73
     1
 44
1.0
  0
ENDBLK
  5
251
330
24F
100
AcDbEntity
  8
0
100
AcDbBlockEnd
  0
BLOCK
  5
257
330
256
100
AcDbEntity
  8
0
100
AcDbBlockBegin
  2
SW_NOTE_12
 70
     0
 10
0.0
 20
0.0
 30
0.0
  3
SW_NOTE_12
  1

  0
CIRCLE
  5
259
330
256
100
AcDbEntity
  8
SLD-0_0
 62
     0
100
AcDbCircle
 10
11.9582062403
 20
13.5910324522
 30
0.0
 40
18.10289644229631
  0
MTEXT
  5
25A
330
256
100
AcDbEntity
  8
SLD-0_0
 62
     0
100
AcDbMText
 10
12.0170024382
 20
20.7663972193
 30
0.0
 40
12.7
 41
0.0
 71
     2
 72
     1
  1
7
  7
SLDTEXTSTYLE0
 73
     1
 44
1.0
  0
ENDBLK
  5
258
330
256
100
AcDbEntity
  8
0
100
AcDbBlockEnd
  0
BLOCK
  5
25E
330
25D
100
AcDbEntity
  8
0
100
AcDbBlockBegin
  2
SW_NOTE_13
 70
     0
 10
0.0
 20
0.0
 30
0.0
  3
SW_NOTE_13
  1

  0
CIRCLE
  5
260
330
25D
100
AcDbEntity
  8
SLD-0_0
 62
     0
100
AcDbCircle
 10
12.0033509376
 20
13.5511780252
 30
0.0
 40
18.10289644229621
  0
MTEXT
  5
261
330
25D
100
AcDbEntity
  8
SLD-0_0
 62
     0
100
AcDbMText
 10
12.0621471355
 20
20.7265427923
 30
0.0
 40
12.7
 41
0.0
 71
     2
 72
     1
  1
2
  7
SLDTEXTSTYLE0
 73
     1
 44
1.0
  0
ENDBLK
  5
25F
330
25D
100
AcDbEntity
  8
0
100
AcDbBlockEnd
  0
BLOCK
  5
265
330
264
100
AcDbEntity
  8
0
100
AcDbBlockBegin
  2
SW_NOTE_14
 70
     0
 10
0.0
 20
0.0
 30
0.0
  3
SW_NOTE_14
  1

  0
CIRCLE
  5
267
330
264
100
AcDbEntity
  8
SLD-0_0
 62
     0
100
AcDbCircle
 10
17.6799855607
 20
3.8901118458
 30
0.0
 40
18.10289644229631
  0
MTEXT
  5
268
330
264
100
AcDbEntity
  8
SLD-0_0
 62
     0
100
AcDbMText
 10
17.7387817587
 20
11.0654766129
 30
0.0
 40
12.7
 41
0.0
 71
     2
 72
     1
  1
3
  7
SLDTEXTSTYLE0
 73
     1
 44
1.0
  0
ENDBLK
  5
266
330
264
100
AcDbEntity
  8
0
100
AcDbBlockEnd
  0
BLOCK
  5
26C
330
26B
100
AcDbEntity
  8
0
100
AcDbBlockBegin
  2
SW_NOTE_15
 70
     0
 10
0.0
 20
0.0
 30
0.0
  3
SW_NOTE_15
  1

  0
CIRCLE
  5
26E
330
26B
100
AcDbEntity
  8
SLD-0_0
 62
     0
100
AcDbCircle
 10
-17.4904736468
 20
-4.6688533081
 30
0.0
 40
18.10289644229629
  0
MTEXT
  5
26F
330
26B
100
AcDbEntity
  8
SLD-0_0
 62
     0
100
AcDbMText
 10
-17.4316774488
 20
2.506511459
 30
0.0
 40
12.7
 41
0.0
 71
     2
 72
     1
  1
4
  7
SLDTEXTSTYLE0
 73
     1
 44
1.0
  0
ENDBLK
  5
26D
330
26B
100
AcDbEntity
  8
0
100
AcDbBlockEnd
  0
BLOCK
  5
273
330
272
100
AcDbEntity
  8
0
100
AcDbBlockBegin
  2
SW_NOTE_16
 70
     0
 10
0.0
 20
0.0
 30
0.0
  3
SW_NOTE_16
  1

  0
CIRCLE
  5
275
330
272
100
AcDbEntity
  8
SLD-0_0
 62
     0
100
AcDbCircle
 10
-17.0403075911
 20
-6.1108736529
 30
0.0
 40
18.10289644229626
  0
MTEXT
  5
276
330
272
100
AcDbEntity
  8
SLD-0_0
 62
     0
100
AcDbMText
 10
-16.9815113932
 20
1.0644911143
 30
0.0
 40
12.7
 41
0.0
 71
     2
 72
     1
  1
1
  7
SLDTEXTSTYLE0
 73
     1
 44
1.0
  0
ENDBLK
  5
274
330
272
100
AcDbEntity
  8
0
100
AcDbBlockEnd
  0
BLOCK
  5
27A
330
279
100
AcDbEntity
  8
0
100
AcDbBlockBegin
  2
SW_NOTE_17
 70
     0
 10
0.0
 20
0.0
 30
0.0
  3
SW_NOTE_17
  1

  0
CIRCLE
  5
27C
330
279
100
AcDbEntity
  8
SLD-0_0
 62
     0
100
AcDbCircle
 10
-9.6411640357
 20
15.3219716629
 30
0.0
 40
18.10289644229629
  0
MTEXT
  5
27D
330
279
100
AcDbEntity
  8
SLD-0_0
 62
     0
100
AcDbMText
 10
-9.5823678377
 20
22.49733643
 30
0.0
 40
12.7
 41
0.0
 71
     2
 72
     1
  1
3
  7
SLDTEXTSTYLE0
 73
     1
 44
1.0
  0
ENDBLK
  5
27B
330
279
100
AcDbEntity
  8
0
100
AcDbBlockEnd
  0
BLOCK
  5
281
330
280
100
AcDbEntity
  8
0
100
AcDbBlockBegin
  2
SW_NOTE_18
 70
     0
 10
0.0
 20
0.0
 30
0.0
  3
SW_NOTE_18
  1

  0
CIRCLE
  5
283
330
280
100
AcDbEntity
  8
SLD-0_0
 62
     0
100
AcDbCircle
 10
3.7014403951
 20
17.7204457789
 30
0.0
 40
18.10289644229631
  0
MTEXT
  5
284
330
280
100
AcDbEntity
  8
SLD-0_0
 62
     0
100
AcDbMText
 10
3.7602365931
 20
24.895810546
 30
0.0
 40
12.7
 41
0.0
 71
     2
 72
     1
  1
5
  7
SLDTEXTSTYLE0
 73
     1
 44
1.0
  0
ENDBLK
  5
282
330
280
100
AcDbEntity
  8
0
100
AcDbBlockEnd
  0
BLOCK
  5
28E
330
28D
100
AcDbEntity
  8
0
100
AcDbBlockBegin
  2
_D
 70
     0
 10
0.0
 20
0.0
 30
0.0
  3
_D
  1

  0
SOLID
  5
290
330
28D
100
AcDbEntity
  8
SLD-0_0
100
AcDbTrace
 10
877.4135801889
 20
1614.3628519269
 30
0.0
 11
874.1115801889
 21
1614.8708519269
 31
0.0
 12
874.1115801889
 22
1613.8548519269
 32
0.0
 13
874.1115801889
 23
1613.8548519269
 33
0.0
  0
SOLID
  5
291
330
28D
100
AcDbEntity
  8
SLD-0_0
100
AcDbTrace
 10
77.4135801889
 20
1614.3628519269
 30
0.0
 11
80.7155801889
 21
1613.8548519269
 31
0.0
 12
80.7155801889
 22
1614.8708519269
 32
0.0
 13
80.7155801889
 23
1614.8708519269
 33
0.0
  0
LINE
  5
292
330
28D
100
AcDbEntity
  8
SLD-0_0
100
AcDbLine
 10
877.4135801889
 20
1605.0106181236
 30
0.0
 11
877.4135801889
 21
1615.3628519269
 31
0.0
  0
LINE
  5
293
330
28D
100
AcDbEntity
  8
SLD-0_0
100
AcDbLine
 10
77.4135801889
 20
1605.0106181236
 30
0.0
 11
77.4135801889
 21
1615.3628519269
 31
0.0
  0
LINE
  5
294
330
28D
100
AcDbEntity
  8
SLD-0_0
100
AcDbLine
 10
877.4135801889
 20
1614.3628519269
 30
0.0
 11
77.4135801889
 21
1614.3628519269
 31
0.0
  0
MTEXT
  5
295
330
28D
100
AcDbEntity
  8
SLD-0_0
100
AcDbMText
 10
486.4207909315
 20
1618.8745890161
 30
0.0
 40
3.5
 41
0.0
 71
     1
 72
     1
  1
800
  7
SLDTEXTSTYLE0
 73
     1
 44
1.0
  0
ENDBLK
  5
28F
330
28D
100
AcDbEntity
  8
0
100
AcDbBlockEnd
  0
BLOCK
  5
298
330
297
100
AcDbEntity
  8
0
100
AcDbBlockBegin
  2
_D_1
 70
     0
 10
0.0
 20
0.0
 30
0.0
  3
_D_1
  1

  0
SOLID
  5
29A
330
297
100
AcDbEntity
  8
SLD-0_0
100
AcDbTrace
 10
890.8073997517
 20
1004.0106181236
 30
0.0
 11
891.3153997517
 21
1007.3126181236
 31
0.0
 12
890.2993997517
 22
1007.3126181236
 32
0.0
 13
890.2993997517
 23
1007.3126181236
 33
0.0
  0
SOLID
  5
29B
330
297
100
AcDbEntity
  8
SLD-0_0
100
AcDbTrace
 10
890.8073997517
 20
1604.0106181236
 30
0.0
 11
890.2993997517
 21
1600.7086181236
 31
0.0
 12
891.3153997517
 22
1600.7086181236
 32
0.0
 13
891.3153997517
 23
1600.7086181236
 33
0.0
  0
LINE
  5
29C
330
297
100
AcDbEntity
  8
SLD-0_0
100
AcDbLine
 10
878.4135801889
 20
1004.0106181236
 30
0.0
 11
891.8073997517
 21
1004.0106181236
 31
0.0
  0
LINE
  5
29D
330
297
100
AcDbEntity
  8
SLD-0_0
100
AcDbLine
 10
878.4135801889
 20
1604.0106181236
 30
0.0
 11
891.8073997517
 21
1604.0106181236
 31
0.0
  0
LINE
  5
29E
330
297
100
AcDbEntity
  8
SLD-0_0
100
AcDbLine
 10
890.8073997517
 20
1004.0106181236
 30
0.0
 11
890.8073997517
 21
1604.0106181236
 31
0.0
  0
MTEXT
  5
29F
330
297
100
AcDbEntity
  8
SLD-0_0
100
AcDbMText
 10
886.2956626625
 20
1334.0323690381
 30
0.0
 40
3.5
 41
0.0
 71
     1
 72
     1
  1
600
  7
SLDTEXTSTYLE0
 11
-3.713525943768165E-15
 21
1.0
 31
0.0
 73
     1
 44
1.0
  0
ENDBLK
  5
299
330
297
100
AcDbEntity
  8
0
100
AcDbBlockEnd
  0
BLOCK
  5
2A6
330
2A5
100
AcDbEntity
  8
0
100
AcDbBlockBegin
  2
_D_2
 70
     0
 10
0.0
 20
0.0
 30
0.0
  3
_D_2
  1

  0
SOLID
  5
2A8
330
2A5
100
AcDbEntity
  8
SLD-0_0
100
AcDbTrace
 10
1540.6975930614
 20
1564.0452277169
 30
0.0
 11
1543.9995930614
 21
1563.5372277169
 31
0.0
 12
1543.9995930614
 22
1564.5532277169
 32
0.0
 13
1543.9995930614
 23
1564.5532277169
 33
0.0
  0
SOLID
  5
2A9
330
2A5
100
AcDbEntity
  8
SLD-0_0
100
AcDbTrace
 10
2340.6975930614
 20
1564.0452277169
 30
0.0
 11
2337.3955930614
 21
1564.5532277169
 31
0.0
 12
2337.3955930614
 22
1563.5372277169
 32
0.0
 13
2337.3955930614
 23
1563.5372277169
 33
0.0
  0
LINE
  5
2AA
330
2A5
100
AcDbEntity
  8
SLD-0_0
100
AcDbLine
 10
1540.6975930614
 20
1555.0106181236
 30
0.0
 11
1540.6975930614
 21
1565.0452277169
 31
0.0
  0
LINE
  5
2AB
330
2A5
100
AcDbEntity
  8
SLD-0_0
100
AcDbLine
 10
2340.6975930614
 20
1555.0106181236
 30
0.0
 11
2340.6975930614
 21
1565.0452277169
 31
0.0
  0
LINE
  5
2AC
330
2A5
100
AcDbEntity
  8
SLD-0_0
100
AcDbLine
 10
1540.6975930614
 20
1564.0452277169
 30
0.0
 11
2340.6975930614
 21
1564.0452277169
 31
0.0
  0
MTEXT
  5
2AD
330
2A5
100
AcDbEntity
  8
SLD-0_0
100
AcDbMText
 10
1936.0771169746
 20
1568.5569648061
 30
0.0
 40
3.5
 41
0.0
 71
     1
 72
     1
  1
800
  7
SLDTEXTSTYLE0
 73
     1
 44
1.0
  0
ENDBLK
  5
2A7
330
2A5
100
AcDbEntity
  8
0
100
AcDbBlockEnd
  0
BLOCK
  5
2B0
330
2AF
100
AcDbEntity
  8
0
100
AcDbBlockBegin
  2
_D_3
 70
     0
 10
0.0
 20
0.0
 30
0.0
  3
_D_3
  1

  0
SOLID
  5
2B2
330
2AF
100
AcDbEntity
  8
SLD-0_0
100
AcDbTrace
 10
2350.6975930614
 20
1554.0106181236
 30
0.0
 11
2350.1895930614
 21
1550.7086181236
 31
0.0
 12
2351.2055930614
 22
1550.7086181236
 32
0.0
 13
2351.2055930614
 23
1550.7086181236
 33
0.0
  0
SOLID
  5
2B3
330
2AF
100
AcDbEntity
  8
SLD-0_0
100
AcDbTrace
 10
2350.6975930614
 20
1054.0106181236
 30
0.0
 11
2351.2055930614
 21
1057.3126181236
 31
0.0
 12
2350.1895930614
 22
1057.3126181236
 32
0.0
 13
2350.1895930614
 23
1057.3126181236
 33
0.0
  0
LINE
  5
2B4
330
2AF
100
AcDbEntity
  8
SLD-0_0
100
AcDbLine
 10
2341.6975930614
 20
1554.0106181236
 30
0.0
 11
2351.6975930614
 21
1554.0106181236
 31
0.0
  0
LINE
  5
2B5
330
2AF
100
AcDbEntity
  8
SLD-0_0
100
AcDbLine
 10
2341.6975930614
 20
1054.0106181236
 30
0.0
 11
2351.6975930614
 21
1054.0106181236
 31
0.0
  0
LINE
  5
2B6
330
2AF
100
AcDbEntity
  8
SLD-0_0
100
AcDbLine
 10
2350.6975930614
 20
1554.0106181236
 30
0.0
 11
2350.6975930614
 21
1054.0106181236
 31
0.0
  0
MTEXT
  5
2B7
330
2AF
100
AcDbEntity
  8
SLD-0_0
100
AcDbMText
 10
2346.1858559722
 20
1309.3510395014
 30
0.0
 40
3.5
 41
0.0
 71
     1
 72
     1
  1
500
  7
SLDTEXTSTYLE0
 11
6.123233995736766E-17
 21
1.0
 31
0.0
 73
     1
 44
1.0
  0
ENDBLK
  5
2B1
330
2AF
100
AcDbEntity
  8
0
100
AcDbBlockEnd
  0
BLOCK
  5
2BE
330
2BD
100
AcDbEntity
  8
0
100
AcDbBlockBegin
  2
_D_4
 70
     0
 10
0.0
 20
0.0
 30
0.0
  3
_D_4
  1

  0
SOLID
  5
2C0
330
2BD
100
AcDbEntity
  8
SLD-0_0
100
AcDbTrace
 10
932.4770020808
 20
1564.7632900027
 30
0.0
 11
935.7790020808
 21
1564.2552900027
 31
0.0
 12
935.7790020808
 22
1565.2712900027
 32
0.0
 13
935.7790020808
 23
1565.2712900027
 33
0.0
  0
SOLID
  5
2C1
330
2BD
100
AcDbEntity
  8
SLD-0_0
100
AcDbTrace
 10
1496.4770020808
 20
1564.7632900027
 30
0.0
 11
1493.1750020808
 21
1565.2712900027
 31
0.0
 12
1493.1750020808
 22
1564.2552900027
 32
0.0
 13
1493.1750020808
 23
1564.2552900027
 33
0.0
  0
LINE
  5
2C2
330
2BD
100
AcDbEntity
  8
SLD-0_0
100
AcDbLine
 10
932.4770020808
 20
1555.0106181236
 30
0.0
 11
932.4770020808
 21
1565.7632900027
 31
0.0
  0
LINE
  5
2C3
330
2BD
100
AcDbEntity
  8
SLD-0_0
100
AcDbLine
 10
1496.4770020808
 20
1555.0106181236
 30
0.0
 11
1496.4770020808
 21
1565.7632900027
 31
0.0
  0
LINE
  5
2C4
330
2BD
100
AcDbEntity
  8
SLD-0_0
100
AcDbLine
 10
932.4770020808
 20
1564.7632900027
 30
0.0
 11
1496.4770020808
 21
1564.7632900027
 31
0.0
  0
MTEXT
  5
2C5
330
2BD
100
AcDbEntity
  8
SLD-0_0
100
AcDbMText
 10
1178.7017186008
 20
1569.2750270919
 30
0.0
 40
3.5
 41
0.0
 71
     1
 72
     1
  1
564
  7
SLDTEXTSTYLE0
 73
     1
 44
1.0
  0
ENDBLK
  5
2BF
330
2BD
100
AcDbEntity
  8
0
100
AcDbBlockEnd
  0
BLOCK
  5
2C8
330
2C7
100
AcDbEntity
  8
0
100
AcDbBlockBegin
  2
_D_5
 70
     0
 10
0.0
 20
0.0
 30
0.0
  3
_D_5
  1

  0
SOLID
  5
2CA
330
2C7
100
AcDbEntity
  8
SLD-0_0
100
AcDbTrace
 10
1506.5924443777
 20
1554.0106181236
 30
0.0
 11
1506.0844443777
 21
1550.7086181236
 31
0.0
 12
1507.1004443777
 22
1550.7086181236
 32
0.0
 13
1507.1004443777
 23
1550.7086181236
 33
0.0
  0
SOLID
  5
2CB
330
2C7
100
AcDbEntity
  8
SLD-0_0
100
AcDbTrace
 10
1506.5924443777
 20
1054.0106181236
 30
0.0
 11
1507.1004443777
 21
1057.3126181236
 31
0.0
 12
1506.0844443777
 22
1057.3126181236
 32
0.0
 13
1506.0844443777
 23
1057.3126181236
 33
0.0
  0
LINE
  5
2CC
330
2C7
100
AcDbEntity
  8
SLD-0_0
100
AcDbLine
 10
1497.4770020808
 20
1554.0106181236
 30
0.0
 11
1507.5924443777
 21
1554.0106181236
 31
0.0
  0
LINE
  5
2CD
330
2C7
100
AcDbEntity
  8
SLD-0_0
100
AcDbLine
 10
1497.4770020808
 20
1054.0106181236
 30
0.0
 11
1507.5924443777
 21
1054.0106181236
 31
0.0
  0
LINE
  5
2CE
330
2C7
100
AcDbEntity
  8
SLD-0_0
100
AcDbLine
 10
1506.5924443777
 20
1554.0106181236
 30
0.0
 11
1506.5924443777
 21
1054.0106181236
 31
0.0
  0
MTEXT
  5
2CF
330
2C7
100
AcDbEntity
  8
SLD-0_0
100
AcDbMText
 10
1502.0807072885
 20
1330.4372611706
 30
0.0
 40
3.5
 41
0.0
 71
     1
 72
     1
  1
500
  7
SLDTEXTSTYLE0
 11
-7.044195017643634E-15
 21
1.0
 31
0.0
 73
     1
 44
1.0
  0
ENDBLK
  5
2C9
330
2C7
100
AcDbEntity
  8
0
100
AcDbBlockEnd
  0
BLOCK
  5
2D2
330
2D1
100
AcDbEntity
  8
0
100
AcDbBlockBegin
  2
_D_6
 70
     0
 10
0.0
 20
0.0
 30
0.0
  3
_D_6
  1

  0
SOLID
  5
2D4
330
2D1
100
AcDbEntity
  8
SLD-0_0
100
AcDbTrace
 10
1496.4770020808
 20
1043.2881422566
 30
0.0
 11
1493.1750020808
 21
1043.7961422566
 31
0.0
 12
1493.1750020808
 22
1042.7801422566
 32
0.0
 13
1493.1750020808
 23
1042.7801422566
 33
0.0
  0
SOLID
  5
2D5
330
2D1
100
AcDbEntity
  8
SLD-0_0
100
AcDbTrace
 10
932.4770020808
 20
1043.2881422566
 30
0.0
 11
935.7790020808
 21
1042.7801422566
 31
0.0
 12
935.7790020808
 22
1043.7961422566
 32
0.0
 13
935.7790020808
 23
1043.7961422566
 33
0.0
  0
LINE
  5
2D6
330
2D1
100
AcDbEntity
  8
SLD-0_0
100
AcDbLine
 10
1496.4770020808
 20
1053.0106181236
 30
0.0
 11
1496.4770020808
 21
1042.2881422566
 31
0.0
  0
LINE
  5
2D7
330
2D1
100
AcDbEntity
  8
SLD-0_0
100
AcDbLine
 10
932.4770020808
 20
1053.0106181236
 30
0.0
 11
932.4770020808
 21
1042.2881422566
 31
0.0
  0
LINE
  5
2D8
330
2D1
100
AcDbEntity
  8
SLD-0_0
100
AcDbLine
 10
1496.4770020808
 20
1043.2881422566
 30
0.0
 11
932.4770020808
 21
1043.2881422566
 31
0.0
  0
MTEXT
  5
2D9
330
2D1
100
AcDbEntity
  8
SLD-0_0
100
AcDbMText
 10
1227.1594458862
 20
1047.7998793458
 30
0.0
 40
3.5
 41
0.0
 71
     1
 72
     1
  1
564
  7
SLDTEXTSTYLE0
 73
     1
 44
1.0
  0
ENDBLK
  5
2D3
330
2D1
100
AcDbEntity
  8
0
100
AcDbBlockEnd
  0
BLOCK
  5
2ED
330
2EC
100
AcDbEntity
  8
0
100
AcDbBlockBegin
  2
_D_7
 70
     0
 10
0.0
 20
0.0
 30
0.0
  3
_D_7
  1

  0
SOLID
  5
2EF
330
2EC
100
AcDbEntity
  8
SLD-0_0
100
AcDbTrace
 10
914.8808200609
 20
869.0650381397
 30
0.0
 11
918.1828200609
 21
868.5570381397
 31
0.0
 12
918.1828200609
 22
869.5730381397
 32
0.0
 13
918.1828200609
 23
869.5730381397
 33
0.0
  0
SOLID
  5
2F0
330
2EC
100
AcDbEntity
  8
SLD-0_0
100
AcDbTrace
 10
1478.8808200609
 20
869.0650381397
 30
0.0
 11
1475.5788200609
 21
869.5730381397
 31
0.0
 12
1475.5788200609
 22
868.5570381397
 32
0.0
 13
1475.5788200609
 23
868.5570381397
 33
0.0
  0
LINE
  5
2F1
330
2EC
100
AcDbEntity
  8
SLD-0_0
100
AcDbLine
 10
914.8808200609
 20
687.566696003
 30
0.0
 11
914.8808200609
 21
870.0650381397
 31
0.0
  0
LINE
  5
2F2
330
2EC
100
AcDbEntity
  8
SLD-0_0
100
AcDbLine
 10
1478.8808200609
 20
687.566696003
 30
0.0
 11
1478.8808200609
 21
870.0650381397
 31
0.0
  0
LINE
  5
2F3
330
2EC
100
AcDbEntity
  8
SLD-0_0
100
AcDbLine
 10
914.8808200609
 20
869.0650381397
 30
0.0
 11
1478.8808200609
 21
869.0650381397
 31
0.0
  0
MTEXT
  5
2F4
330
2EC
100
AcDbEntity
  8
SLD-0_0
100
AcDbMText
 10
1188.6710671006
 20
873.5767752289
 30
0.0
 40
3.5
 41
0.0
 71
     1
 72
     1
  1
564
  7
SLDTEXTSTYLE0
 73
     1
 44
1.0
  0
ENDBLK
  5
2EE
330
2EC
100
AcDbEntity
  8
0
100
AcDbBlockEnd
  0
BLOCK
  5
2F7
330
2F6
100
AcDbEntity
  8
0
100
AcDbBlockBegin
  2
_D_8
 70
     0
 10
0.0
 20
0.0
 30
0.0
  3
_D_8
  1

  0
SOLID
  5
2F9
330
2F6
100
AcDbEntity
  8
SLD-0_0
100
AcDbTrace
 10
897.8808200609
 20
852.0650381397
 30
0.0
 11
897.3728200609
 21
848.7630381397
 31
0.0
 12
898.3888200609
 22
848.7630381397
 32
0.0
 13
898.3888200609
 23
848.7630381397
 33
0.0
  0
SOLID
  5
2FA
330
2F6
100
AcDbEntity
  8
SLD-0_0
100
AcDbTrace
 10
897.8808200609
 20
352.0650381397
 30
0.0
 11
898.3888200609
 21
355.3670381397
 31
0.0
 12
897.3728200609
 22
355.3670381397
 32
0.0
 13
897.3728200609
 23
355.3670381397
 33
0.0
  0
LINE
  5
2FB
330
2F6
100
AcDbEntity
  8
SLD-0_0
100
AcDbLine
 10
1079.3791621976
 20
852.0650381397
 30
0.0
 11
896.8808200609
 21
852.0650381397
 31
0.0
  0
LINE
  5
2FC
330
2F6
100
AcDbEntity
  8
SLD-0_0
100
AcDbLine
 10
1079.3791621976
 20
352.0650381397
 30
0.0
 11
896.8808200609
 21
352.0650381397
 31
0.0
  0
LINE
  5
2FD
330
2F6
100
AcDbEntity
  8
SLD-0_0
100
AcDbLine
 10
897.8808200609
 20
852.0650381397
 30
0.0
 11
897.8808200609
 21
352.0650381397
 31
0.0
  0
MTEXT
  5
2FE
330
2F6
100
AcDbEntity
  8
SLD-0_0
100
AcDbMText
 10
893.3690829717
 20
595.645555966
 30
0.0
 40
3.5
 41
0.0
 71
     1
 72
     1
  1
500
  7
SLDTEXTSTYLE0
 11
-7.044195017643634E-15
 21
1.0
 31
0.0
 73
     1
 44
1.0
  0
ENDBLK
  5
2F8
330
2F6
100
AcDbEntity
  8
0
100
AcDbBlockEnd
  0
BLOCK
  5
302
330
301
100
AcDbEntity
  8
0
100
AcDbBlockBegin
  2
_D_9
 70
     0
 10
0.0
 20
0.0
 30
0.0
  3
_D_9
  1

  0
SOLID
  5
304
330
301
100
AcDbEntity
  8
SLD-0_0
100
AcDbTrace
 10
1003.8285997012
 20
694.4059294836
 30
0.0
 11
1006.588175677
 21
692.5228446651
 31
0.0
 12
1007.0265791612
 22
693.4393916552
 32
0.0
 13
1007.0265791612
 23
693.4393916552
 33
0.0
  0
SOLID
  5
305
330
301
100
AcDbEntity
  8
SLD-0_0
100
AcDbTrace
 10
1389.9330404206
 20
509.7241467957
 30
0.0
 11
1387.1734644448
 21
511.6072316142
 31
0.0
 12
1386.7350609606
 22
510.6906846241
 32
0.0
 13
1386.7350609606
 23
510.6906846241
 33
0.0
  0
LINE
  5
306
330
301
100
AcDbEntity
  8
SLD-0_0
100
AcDbLine
 10
1389.9330404206
 20
509.7241467957
 30
0.0
 11
1003.8285997012
 21
694.4059294836
 31
0.0
  0
MTEXT
  5
307
330
301
100
AcDbEntity
  8
SLD-0_0
100
AcDbMText
 10
1313.148771449
 20
551.4522944048
 30
0.0
 40
3.5
 41
0.0
 71
     1
 72
     1
  1
%%c
  7
SLDTEXTSTYLE0
 11
0.9021131792508805
 21
-0.4314994922614263
 31
0.0
 73
     1
 44
1.0
  0
MTEXT
  5
308
330
301
100
AcDbEntity
  8
SLD-0_0
100
AcDbMText
 10
1317.7626991695
 20
549.272299857
 30
0.0
 40
3.5
 41
0.0
 71
     1
 72
     1
  1
428
  7
SLDTEXTSTYLE0
 11
0.9021131792508805
 21
-0.4314994922614263
 31
0.0
 73
     1
 44
1.0
  0
ENDBLK
  5
303
330
301
100
AcDbEntity
  8
0
100
AcDbBlockEnd
  0
BLOCK
  5
30C
330
30B
100
AcDbEntity
  8
0
100
AcDbBlockBegin
  2
_NONE
 70
     0
 10
0.0
 20
0.0
 30
0.0
  3
_NONE
  1

  0
ENDBLK
  5
30D
330
30B
100
AcDbEntity
  8
0
100
AcDbBlockEnd
  0
BLOCK
  5
30F
330
30E
100
AcDbEntity
  8
0
100
AcDbBlockBegin
  2
_D_10
 70
     0
 10
0.0
 20
0.0
 30
0.0
  3
_D_10
  1

  0
SOLID
  5
311
330
30E
100
AcDbEntity
  8
SLD-0_0
100
AcDbTrace
 10
1281.3908051474
 20
801.5824347865
 30
0.0
 11
1280.9839011815
 21
798.2664587367
 31
0.0
 12
1281.9994271139
 22
798.2974922753
 32
0.0
 13
1281.9994271139
 23
798.2974922753
 33
0.0
  0
LINE
  5
312
330
30E
100
AcDbEntity
  8
SLD-0_0
100
AcDbLine
 10
1281.3908051474
 20
801.5824347865
 30
0.0
 11
1283.0604798573
 21
746.9448380096
 31
0.0
  0
LINE
  5
313
330
30E
100
AcDbEntity
  8
SLD-0_0
100
AcDbLine
 10
1281.1342286474
 20
809.9785153304
 30
0.0
 11
1281.3908051474
 21
801.5824347865
 31
0.0
  0
LINE
  5
314
330
30E
100
AcDbEntity
  8
SLD-0_0
100
AcDbLine
 10
1283.0604798573
 20
746.9448380096
 30
0.0
 11
1299.108569594
 21
746.9448380096
 31
0.0
  0
MTEXT
  5
315
330
30E
100
AcDbEntity
  8
SLD-0_0
100
AcDbMText
 10
1284.6479798573
 20
751.4565750988
 30
0.0
 40
3.5
 41
0.0
 71
     1
 72
     1
  1
%%c
  7
SLDTEXTSTYLE0
 73
     1
 44
1.0
  0
MTEXT
  5
316
330
30E
100
AcDbEntity
  8
SLD-0_0
100
AcDbMText
 10
1289.7509314025
 20
751.4808807554
 30
0.0
 40
3.5
 41
0.0
 71
     1
 72
     1
  1
8.40
  7
SLDTEXTSTYLE0
 73
     1
 44
1.0
  0
ENDBLK
  5
310
330
30E
100
AcDbEntity
  8
0
100
AcDbBlockEnd
  0
BLOCK
  5
319
330
318
100
AcDbEntity
  8
0
100
AcDbBlockBegin
  2
_D_11
 70
     0
 10
0.0
 20
0.0
 30
0.0
  3
_D_11
  1

  0
SOLID
  5
31B
330
318
100
AcDbEntity
  8
SLD-0_0
100
AcDbTrace
 10
1313.3824779242
 20
342.0650381397
 30
0.0
 11
1310.0804779242
 21
342.5730381397
 31
0.0
 12
1310.0804779242
 22
341.5570381397
 32
0.0
 13
1310.0804779242
 23
341.5570381397
 33
0.0
  0
SOLID
  5
31C
330
318
100
AcDbEntity
  8
SLD-0_0
100
AcDbTrace
 10
1080.3791621976
 20
342.0650381397
 30
0.0
 11
1083.6811621976
 21
341.5570381397
 31
0.0
 12
1083.6811621976
 22
342.5730381397
 32
0.0
 13
1083.6811621976
 23
342.5730381397
 33
0.0
  0
LINE
  5
31D
330
318
100
AcDbEntity
  8
SLD-0_0
100
AcDbLine
 10
1313.3824779242
 20
351.0650381397
 30
0.0
 11
1313.3824779242
 21
341.0650381397
 31
0.0
  0
LINE
  5
31E
330
318
100
AcDbEntity
  8
SLD-0_0
100
AcDbLine
 10
1080.3791621976
 20
351.0650381397
 30
0.0
 11
1080.3791621976
 21
341.0650381397
 31
0.0
  0
LINE
  5
31F
330
318
100
AcDbEntity
  8
SLD-0_0
100
AcDbLine
 10
1313.3824779242
 20
342.0650381397
 30
0.0
 11
1080.3791621976
 21
342.0650381397
 31
0.0
  0
MTEXT
  5
320
330
318
100
AcDbEntity
  8
SLD-0_0
100
AcDbMText
 10
1200.7818945108
 20
346.5767752289
 30
0.0
 40
3.5
 41
0.0
 71
     1
 72
     1
  1
233
  7
SLDTEXTSTYLE0
 73
     1
 44
1.0
  0
ENDBLK
  5
31A
330
318
100
AcDbEntity
  8
0
100
AcDbBlockEnd
  0
BLOCK
  5
323
330
322
100
AcDbEntity
  8
0
100
AcDbBlockBegin
  2
_D_12
 70
     0
 10
0.0
 20
0.0
 30
0.0
  3
_D_12
  1

  0
SOLID
  5
325
330
322
100
AcDbEntity
  8
SLD-0_0
100
AcDbTrace
 10
904.8808200609
 20
686.566696003
 30
0.0
 11
904.3728200609
 21
683.264696003
 31
0.0
 12
905.3888200609
 22
683.264696003
 32
0.0
 13
905.3888200609
 23
683.264696003
 33
0.0
  0
SOLID
  5
326
330
322
100
AcDbEntity
  8
SLD-0_0
100
AcDbTrace
 10
904.8808200609
 20
517.5633802764
 30
0.0
 11
905.3888200609
 21
520.8653802764
 31
0.0
 12
904.3728200609
 22
520.8653802764
 32
0.0
 13
904.3728200609
 23
520.8653802764
 33
0.0
  0
LINE
  5
327
330
322
100
AcDbEntity
  8
SLD-0_0
100
AcDbLine
 10
913.8808200609
 20
686.566696003
 30
0.0
 11
903.8808200609
 21
686.566696003
 31
0.0
  0
LINE
  5
328
330
322
100
AcDbEntity
  8
SLD-0_0
100
AcDbLine
 10
913.8808200609
 20
517.5633802764
 30
0.0
 11
903.8808200609
 21
517.5633802764
 31
0.0
  0
LINE
  5
329
330
322
100
AcDbEntity
  8
SLD-0_0
100
AcDbLine
 10
904.8808200609
 20
686.566696003
 30
0.0
 11
904.8808200609
 21
517.5633802764
 31
0.0
  0
MTEXT
  5
32A
330
322
100
AcDbEntity
  8
SLD-0_0
100
AcDbMText
 10
900.3690829717
 20
596.3822934976
 30
0.0
 40
3.5
 41
0.0
 71
     1
 72
     1
  1
169
  7
SLDTEXTSTYLE0
 11
-6.156016597943509E-15
 21
1.0
 31
0.0
 73
     1
 44
1.0
  0
ENDBLK
  5
324
330
322
100
AcDbEntity
  8
0
100
AcDbBlockEnd
  0
BLOCK
  5
32E
330
32D
100
AcDbEntity
  8
0
100
AcDbBlockBegin
  2
_D_13
 70
     0
 10
0.0
 20
0.0
 30
0.0
  3
_D_13
  1

  0
ARC
  5
330
330
32D
100
AcDbEntity
  8
SLD-0_0
100
AcDbCircle
 10
1080.3791621976
 20
352.0650381397
 30
0.0
 40
146.158639788155
100
AcDbArc
 50
135.0
 51
180.0
  0
SOLID
  5
331
330
32D
100
AcDbEntity
  8
SLD-0_0
100
AcDbTrace
 10
977.0293968744
 20
455.4148034629
 30
0.0
 11
974.3578044937
 21
453.4088467955
 31
0.0
 12
975.0842928507
 22
452.6985858102
 32
0.0
 13
975.0842928507
 23
452.6985858102
 33
0.0
  0
SOLID
  5
332
330
32D
100
AcDbEntity
  8
SLD-0_0
100
AcDbTrace
 10
934.2205224095
 20
352.0650381397
 30
0.0
 11
934.7657820856
 21
355.3610903064
 31
0.0
 12
933.7498468828
 22
355.3725647909
 32
0.0
 13
933.7498468828
 23
355.3725647909
 33
0.0
  0
LINE
  5
333
330
32D
100
AcDbEntity
  8
SLD-0_0
100
AcDbLine
 10
1079.3791621976
 20
352.0650381397
 30
0.0
 11
933.2205224095
 21
352.0650381397
 31
0.0
  0
MTEXT
  5
334
330
32D
100
AcDbEntity
  8
SLD-0_0
100
AcDbMText
 10
939.9710948682
 20
406.8405655282
 30
0.0
 40
3.5
 41
0.0
 71
     1
 72
     1
  1
45°
  7
SLDTEXTSTYLE0
 11
0.3858099098354738
 21
0.9225782966625345
 31
0.0
 73
     1
 44
1.0
  0
ENDBLK
  5
32F
330
32D
100
AcDbEntity
  8
0
100
AcDbBlockEnd
  0
BLOCK
  5
336
330
335
100
AcDbEntity
  8
0
100
AcDbBlockBegin
  2
SW_CENTERMARKSYMBOL_0
 70
     0
 10
0.0
 20
0.0
 30
0.0
  3
SW_CENTERMARKSYMBOL_0
  1

  0
ARC
  5
338
330
335
100
AcDbEntity
  8
SLD-0_0
 62
     0
100
AcDbCircle
 10
-84.3816968365
 20
-203.7154369187
 30
0.0
 40
220.5000000000001
100
AcDbArc
 50
67.5
 51
68.1496120126
  0
ARC
  5
339
330
335
100
AcDbEntity
  8
SLD-0_0
 62
     0
100
AcDbCircle
 10
-84.3816968365
 20
-203.7154369187
 30
0.0
 40
220.5000000000001
100
AcDbArc
 50
66.8503879874
 51
67.5
  0
ARC
  5
33A
330
335
100
AcDbEntity
  8
SLD-0_0
 62
     0
100
AcDbCircle
 10
-84.3816968365
 20
-203.7154369187
 30
0.0
 40
220.5000000000001
100
AcDbArc
 50
112.5
 51
113.1496120126
  0
ARC
  5
33B
330
335
100
AcDbEntity
  8
SLD-0_0
 62
     0
100
AcDbCircle
 10
-84.3816968365
 20
-203.7154369187
 30
0.0
 40
220.5000000000001
100
AcDbArc
 50
111.8503879874
 51
112.5
  0
ARC
  5
33C
330
335
100
AcDbEntity
  8
SLD-0_0
 62
     0
100
AcDbCircle
 10
-84.3816968365
 20
-203.7154369187
 30
0.0
 40
220.5000000000002
100
AcDbArc
 50
22.5
 51
23.1496120126
  0
ARC
  5
33D
330
335
100
AcDbEntity
  8
SLD-0_0
 62
     0
100
AcDbCircle
 10
-84.3816968365
 20
-203.7154369187
 30
0.0
 40
220.5000000000002
100
AcDbArc
 50
21.8503879874
 51
22.5
  0
ARC
  5
33E
330
335
100
AcDbEntity
  8
SLD-0_0
 62
     0
100
AcDbCircle
 10
-84.3816968365
 20
-203.7154369187
 30
0.0
 40
220.5000000000001
100
AcDbArc
 50
337.5
 51
338.1496120126
  0
ARC
  5
33F
330
335
100
AcDbEntity
  8
SLD-0_0
 62
     0
100
AcDbCircle
 10
-84.3816968365
 20
-203.7154369187
 30
0.0
 40
220.5000000000002
100
AcDbArc
 50
336.8503879874
 51
337.5
  0
ARC
  5
340
330
335
100
AcDbEntity
  8
SLD-0_0
 62
     0
100
AcDbCircle
 10
-84.3816968365
 20
-203.7154369187
 30
0.0
 40
220.5000000000001
100
AcDbArc
 50
292.5
 51
293.1496120126
  0
ARC
  5
341
330
335
100
AcDbEntity
  8
SLD-0_0
 62
     0
100
AcDbCircle
 10
-84.3816968365
 20
-203.7154369187
 30
0.0
 40
220.5000000000001
100
AcDbArc
 50
291.8503879874
 51
292.5
  0
ARC
  5
342
330
335
100
AcDbEntity
  8
SLD-0_0
 62
     0
100
AcDbCircle
 10
-84.3816968365
 20
-203.7154369187
 30
0.0
 40
220.5000000000001
100
AcDbArc
 50
247.5
 51
248.1496120126
  0
ARC
  5
343
330
335
100
AcDbEntity
  8
SLD-0_0
 62
     0
100
AcDbCircle
 10
-84.3816968365
 20
-203.7154369187
 30
0.0
 40
220.5000000000001
100
AcDbArc
 50
246.8503879874
 51
247.5
  0
ARC
  5
344
330
335
100
AcDbEntity
  8
SLD-0_0
 62
     0
100
AcDbCircle
 10
-84.3816968365
 20
-203.7154369187
 30
0.0
 40
220.5000000000001
100
AcDbArc
 50
202.5
 51
203.1496120126
  0
ARC
  5
345
330
335
100
AcDbEntity
  8
SLD-0_0
 62
     0
100
AcDbCircle
 10
-84.3816968365
 20
-203.7154369187
 30
0.0
 40
220.5000000000001
100
AcDbArc
 50
201.8503879874
 51
202.5
  0
ARC
  5
346
330
335
100
AcDbEntity
  8
SLD-0_0
 62
     0
100
AcDbCircle
 10
-84.3816968365
 20
-203.7154369187
 30
0.0
 40
220.5000000000001
100
AcDbArc
 50
157.5
 51
158.1496120126
  0
ARC
  5
347
330
335
100
AcDbEntity
  8
SLD-0_0
 62
     0
100
AcDbCircle
 10
-84.3816968365
 20
-203.7154369187
 30
0.0
 40
220.5000000000001
100
AcDbArc
 50
156.8503879874
 51
157.5
  0
ARC
  5
348
330
335
100
AcDbEntity
  8
SLD-0_0
 62
     0
100
AcDbCircle
 10
-84.3816968365
 20
-203.7154369187
 30
0.0
 40
220.5000000000001
100
AcDbArc
 50
23.7992240252
 51
66.2007759748
  0
ARC
  5
349
330
335
100
AcDbEntity
  8
SLD-0_0
 62
     0
100
AcDbCircle
 10
-84.3816968365
 20
-203.7154369187
 30
0.0
 40
220.5000000000001
100
AcDbArc
 50
68.7992240252
 51
111.2007759748
  0
ARC
  5
34A
330
335
100
AcDbEntity
  8
SLD-0_0
 62
     0
100
AcDbCircle
 10
-84.3816968365
 20
-203.7154369187
 30
0.0
 40
220.5000000000001
100
AcDbArc
 50
113.7992240252
 51
156.2007759748
  0
ARC
  5
34B
330
335
100
AcDbEntity
  8
SLD-0_0
 62
     0
100
AcDbCircle
 10
-84.3816968365
 20
-203.7154369187
 30
0.0
 40
220.5000000000001
100
AcDbArc
 50
158.7992240252
 51
201.2007759748
  0
ARC
  5
34C
330
335
100
AcDbEntity
  8
SLD-0_0
 62
     0
100
AcDbCircle
 10
-84.3816968365
 20
-203.7154369187
 30
0.0
 40
220.5000000000001
100
AcDbArc
 50
203.7992240252
 51
246.2007759748
  0
ARC
  5
34D
330
335
100
AcDbEntity
  8
SLD-0_0
 62
     0
100
AcDbCircle
 10
-84.3816968365
 20
-203.7154369187
 30
0.0
 40
220.5000000000001
100
AcDbArc
 50
248.7992240252
 51
291.2007759748
  0
ARC
  5
34E
330
335
100
AcDbEntity
  8
SLD-0_0
 62
     0
100
AcDbCircle
 10
-84.3816968365
 20
-203.7154369187
 30
0.0
 40
220.5000000000002
100
AcDbArc
 50
293.7992240252
 51
336.2007759748
  0
ARC
  5
34F
330
335
100
AcDbEntity
  8
SLD-0_0
 62
     0
100
AcDbCircle
 10
-84.3816968365
 20
-203.7154369187
 30
0.0
 40
220.5000000000003
100
AcDbArc
 50
338.7992240252
 51
21.2007759748
  0
LINE
  5
350
330
335
100
AcDbEntity
  8
SLD-0_0
 62
     0
100
AcDbLine
 10
0.0
 20
0.0
 30
0.0
 11
0.9567085809
 21
2.3096988313
 31
0.0
  0
LINE
  5
351
330
335
100
AcDbEntity
  8
SLD-0_0
 62
     0
100
AcDbLine
 10
0.0
 20
0.0
 30
0.0
 11
-0.9567085809
 21
-2.3096988313
 31
0.0
  0
LINE
  5
352
330
335
100
AcDbEntity
  8
SLD-0_0
 62
     0
100
AcDbLine
 10
1.9134171618
 20
4.6193976626
 30
0.0
 11
2.5639789968
 21
6.1899928678
 31
0.0
  0
LINE
  5
353
330
335
100
AcDbEntity
  8
SLD-0_0
 62
     0
100
AcDbLine
 10
-1.9134171618
 20
-4.6193976626
 30
0.0
 11
-2.5639789968
 21
-6.1899928678
 31
0.0
  0
LINE
  5
354
330
335
100
AcDbEntity
  8
SLD-0_0
 62
     0
100
AcDbLine
 10
-84.3816968365
 20
-203.7154369187
 30
0.0
 11
-84.3816968365
 21
-201.2154369187
 31
0.0
  0
LINE
  5
355
330
335
100
AcDbEntity
  8
SLD-0_0
 62
     0
100
AcDbLine
 10
-84.3816968365
 20
-203.7154369187
 30
0.0
 11
-86.8816968365
 21
-203.7154369187
 31
0.0
  0
LINE
  5
356
330
335
100
AcDbEntity
  8
SLD-0_0
 62
     0
100
AcDbLine
 10
-84.3816968365
 20
-203.7154369187
 30
0.0
 11
-84.3816968365
 21
-206.2154369187
 31
0.0
  0
LINE
  5
357
330
335
100
AcDbEntity
  8
SLD-0_0
 62
     0
100
AcDbLine
 10
-84.3816968365
 20
-203.7154369187
 30
0.0
 11
-81.8816968365
 21
-203.7154369187
 31
0.0
  0
LINE
  5
358
330
335
100
AcDbEntity
  8
SLD-0_0
 62
     0
100
AcDbLine
 10
-84.3816968365
 20
-198.7154369187
 30
0.0
 11
-84.3816968365
 21
19.2845630813
 31
0.0
  0
LINE
  5
359
330
335
100
AcDbEntity
  8
SLD-0_0
 62
     0
100
AcDbLine
 10
-89.3816968365
 20
-203.7154369187
 30
0.0
 11
-307.3816968365
 21
-203.7154369187
 31
0.0
  0
LINE
  5
35A
330
335
100
AcDbEntity
  8
SLD-0_0
 62
     0
100
AcDbLine
 10
-84.3816968365
 20
-208.7154369187
 30
0.0
 11
-84.3816968365
 21
-426.7154369187
 31
0.0
  0
LINE
  5
35B
330
335
100
AcDbEntity
  8
SLD-0_0
 62
     0
100
AcDbLine
 10
-79.3816968365
 20
-203.7154369187
 30
0.0
 11
138.6183031635
 21
-203.7154369187
 31
0.0
  0
LINE
  5
35C
330
335
100
AcDbEntity
  8
SLD-0_0
 62
     0
100
AcDbLine
 10
-168.763393673
 20
0.0
 30
0.0
 11
-169.7201022539
 21
2.3096988313
 31
0.0
  0
LINE
  5
35D
330
335
100
AcDbEntity
  8
SLD-0_0
 62
     0
100
AcDbLine
 10
-168.763393673
 20
0.0
 30
0.0
 11
-167.8066850921
 21
-2.3096988313
 31
0.0
  0
LINE
  5
35E
330
335
100
AcDbEntity
  8
SLD-0_0
 62
     0
100
AcDbLine
 10
-170.6768108348
 20
4.6193976626
 30
0.0
 11
-171.3273726699
 21
6.1899928678
 31
0.0
  0
LINE
  5
35F
330
335
100
AcDbEntity
  8
SLD-0_0
 62
     0
100
AcDbLine
 10
-166.8499765112
 20
-4.6193976626
 30
0.0
 11
-166.1994146762
 21
-6.1899928678
 31
0.0
  0
LINE
  5
360
330
335
100
AcDbEntity
  8
SLD-0_0
 62
     0
100
AcDbLine
 10
119.3337400822
 20
-119.3337400822
 30
0.0
 11
121.6434389135
 21
-118.3770315013
 31
0.0
  0
LINE
  5
361
330
335
100
AcDbEntity
  8
SLD-0_0
 62
     0
100
AcDbLine
 10
119.3337400822
 20
-119.3337400822
 30
0.0
 11
117.024041251
 21
-120.2904486632
 31
0.0
  0
LINE
  5
362
330
335
100
AcDbEntity
  8
SLD-0_0
 62
     0
100
AcDbLine
 10
123.9531377448
 20
-117.4203229204
 30
0.0
 11
125.5237329501
 21
-116.7697610854
 31
0.0
  0
LINE
  5
363
330
335
100
AcDbEntity
  8
SLD-0_0
 62
     0
100
AcDbLine
 10
114.7143424197
 20
-121.2471572441
 30
0.0
 11
113.1437472144
 21
-121.8977190791
 31
0.0
  0
LINE
  5
364
330
335
100
AcDbEntity
  8
SLD-0_0
 62
     0
100
AcDbLine
 10
119.3337400822
 20
-288.0971337552
 30
0.0
 11
121.6434389135
 21
-289.0538423362
 31
0.0
  0
LINE
  5
365
330
335
100
AcDbEntity
  8
SLD-0_0
 62
     0
100
AcDbLine
 10
119.3337400822
 20
-288.0971337552
 30
0.0
 11
117.024041251
 21
-287.1404251743
 31
0.0
  0
LINE
  5
366
330
335
100
AcDbEntity
  8
SLD-0_0
 62
     0
100
AcDbLine
 10
123.9531377448
 20
-290.0105509171
 30
0.0
 11
125.5237329501
 21
-290.6611127521
 31
0.0
  0
LINE
  5
367
330
335
100
AcDbEntity
  8
SLD-0_0
 62
     0
100
AcDbLine
 10
114.7143424197
 20
-286.1837165934
 30
0.0
 11
113.1437472144
 21
-285.5331547584
 31
0.0
  0
LINE
  5
368
330
335
100
AcDbEntity
  8
SLD-0_0
 62
     0
100
AcDbLine
 10
0.0
 20
-407.4308738375
 30
0.0
 11
0.9567085809
 21
-409.7405726688
 31
0.0
  0
LINE
  5
369
330
335
100
AcDbEntity
  8
SLD-0_0
 62
     0
100
AcDbLine
 10
0.0
 20
-407.4308738375
 30
0.0
 11
-0.9567085809
 21
-405.1211750062
 31
0.0
  0
LINE
  5
36A
330
335
100
AcDbEntity
  8
SLD-0_0
 62
     0
100
AcDbLine
 10
1.9134171618
 20
-412.0502715
 30
0.0
 11
2.5639789968
 21
-413.6208667053
 31
0.0
  0
LINE
  5
36B
330
335
100
AcDbEntity
  8
SLD-0_0
 62
     0
100
AcDbLine
 10
-1.9134171618
 20
-402.8114761749
 30
0.0
 11
-2.5639789969
 21
-401.2408809697
 31
0.0
  0
LINE
  5
36C
330
335
100
AcDbEntity
  8
SLD-0_0
 62
     0
100
AcDbLine
 10
-168.763393673
 20
-407.4308738375
 30
0.0
 11
-169.7201022539
 21
-409.7405726688
 31
0.0
  0
LINE
  5
36D
330
335
100
AcDbEntity
  8
SLD-0_0
 62
     0
100
AcDbLine
 10
-168.763393673
 20
-407.4308738375
 30
0.0
 11
-167.8066850921
 21
-405.1211750062
 31
0.0
  0
LINE
  5
36E
330
335
100
AcDbEntity
  8
SLD-0_0
 62
     0
100
AcDbLine
 10
-170.6768108348
 20
-412.0502715
 30
0.0
 11
-171.3273726699
 21
-413.6208667053
 31
0.0
  0
LINE
  5
36F
330
335
100
AcDbEntity
  8
SLD-0_0
 62
     0
100
AcDbLine
 10
-166.8499765112
 20
-402.8114761749
 30
0.0
 11
-166.1994146762
 21
-401.2408809697
 31
0.0
  0
LINE
  5
370
330
335
100
AcDbEntity
  8
SLD-0_0
 62
     0
100
AcDbLine
 10
-288.0971337552
 20
-288.0971337552
 30
0.0
 11
-290.4068325865
 21
-289.0538423361
 31
0.0
  0
LINE
  5
371
330
335
100
AcDbEntity
  8
SLD-0_0
 62
     0
100
AcDbLine
 10
-288.0971337552
 20
-288.0971337552
 30
0.0
 11
-285.787434924
 21
-287.1404251743
 31
0.0
  0
LINE
  5
372
330
335
100
AcDbEntity
  8
SLD-0_0
 62
     0
100
AcDbLine
 10
-292.7165314178
 20
-290.0105509171
 30
0.0
 11
-294.2871266231
 21
-290.6611127521
 31
0.0
  0
LINE
  5
373
330
335
100
AcDbEntity
  8
SLD-0_0
 62
     0
100
AcDbLine
 10
-283.4777360927
 20
-286.1837165934
 30
0.0
 11
-281.9071408874
 21
-285.5331547584
 31
0.0
  0
LINE
  5
374
330
335
100
AcDbEntity
  8
SLD-0_0
 62
     0
100
AcDbLine
 10
-288.0971337552
 20
-119.3337400822
 30
0.0
 11
-290.4068325865
 21
-118.3770315013
 31
0.0
  0
LINE
  5
375
330
335
100
AcDbEntity
  8
SLD-0_0
 62
     0
100
AcDbLine
 10
-288.0971337552
 20
-119.3337400822
 30
0.0
 11
-285.787434924
 21
-120.2904486631
 31
0.0
  0
LINE
  5
376
330
335
100
AcDbEntity
  8
SLD-0_0
 62
     0
100
AcDbLine
 10
-292.7165314178
 20
-117.4203229204
 30
0.0
 11
-294.2871266231
 21
-116.7697610854
 31
0.0
  0
LINE
  5
377
330
335
100
AcDbEntity
  8
SLD-0_0
 62
     0
100
AcDbLine
 10
-283.4777360927
 20
-121.2471572441
 30
0.0
 11
-281.9071408874
 21
-121.8977190791
 31
0.0
  0
ENDBLK
  5
337
330
335
100
AcDbEntity
  8
0
100
AcDbBlockEnd
  0
BLOCK
  5
393
330
392
100
AcDbEntity
  8
0
100
AcDbBlockBegin
  2
_D_14
 70
     0
 10
0.0
 20
0.0
 30
0.0
  3
_D_14
  1

  0
SOLID
  5
395
330
392
100
AcDbEntity
  8
SLD-0_0
100
AcDbTrace
 10
1702.1425242235
 20
739.8798168999
 30
0.0
 11
1705.4445242235
 21
739.3718168999
 31
0.0
 12
1705.4445242235
 22
740.3878168999
 32
0.0
 13
1705.4445242235
 23
740.3878168999
 33
0.0
  0
SOLID
  5
396
330
392
100
AcDbEntity
  8
SLD-0_0
100
AcDbTrace
 10
2266.1425242235
 20
739.8798168999
 30
0.0
 11
2262.8405242235
 21
740.3878168999
 31
0.0
 12
2262.8405242235
 22
739.3718168999
 32
0.0
 13
2262.8405242235
 23
739.3718168999
 33
0.0
  0
LINE
  5
397
330
392
100
AcDbEntity
  8
SLD-0_0
100
AcDbLine
 10
1702.1425242235
 20
758.4258621799
 30
0.0
 11
1702.1425242235
 21
738.8798168999
 31
0.0
  0
LINE
  5
398
330
392
100
AcDbEntity
  8
SLD-0_0
100
AcDbLine
 10
2266.1425242235
 20
758.4258621799
 30
0.0
 11
2266.1425242235
 21
738.8798168999
 31
0.0
  0
LINE
  5
399
330
392
100
AcDbEntity
  8
SLD-0_0
100
AcDbLine
 10
1702.1425242235
 20
739.8798168999
 30
0.0
 11
2266.1425242235
 21
739.8798168999
 31
0.0
  0
MTEXT
  5
39A
330
392
100
AcDbEntity
  8
SLD-0_0
100
AcDbMText
 10
1973.7660654063
 20
744.3915539891
 30
0.0
 40
3.5
 41
0.0
 71
     1
 72
     1
  1
564
  7
SLDTEXTSTYLE0
 73
     1
 44
1.0
  0
ENDBLK
  5
394
330
392
100
AcDbEntity
  8
0
100
AcDbBlockEnd
  0
BLOCK
  5
39E
330
39D
100
AcDbEntity
  8
0
100
AcDbBlockBegin
  2
_D_15
 70
     0
 10
0.0
 20
0.0
 30
0.0
  3
_D_15
  1

  0
SOLID
  5
3A0
330
39D
100
AcDbEntity
  8
SLD-0_0
100
AcDbTrace
 10
1747.1425242235
 20
749.4258621799
 30
0.0
 11
1750.4445242235
 21
748.9178621799
 31
0.0
 12
1750.4445242235
 22
749.9338621799
 32
0.0
 13
1750.4445242235
 23
749.9338621799
 33
0.0
  0
SOLID
  5
3A1
330
39D
100
AcDbEntity
  8
SLD-0_0
100
AcDbTrace
 10
1961.6425242235
 20
749.4258621799
 30
0.0
 11
1958.3405242235
 21
749.9338621799
 31
0.0
 12
1958.3405242235
 22
748.9178621799
 32
0.0
 13
1958.3405242235
 23
748.9178621799
 33
0.0
  0
LINE
  5
3A2
330
39D
100
AcDbEntity
  8
SLD-0_0
100
AcDbLine
 10
1747.1425242235
 20
853.4258621799
 30
0.0
 11
1747.1425242235
 21
748.4258621799
 31
0.0
  0
LINE
  5
3A3
330
39D
100
AcDbEntity
  8
SLD-0_0
100
AcDbLine
 10
1961.6425242235
 20
853.4258621799
 30
0.0
 11
1961.6425242235
 21
748.4258621799
 31
0.0
  0
LINE
  5
3A4
330
39D
100
AcDbEntity
  8
SLD-0_0
100
AcDbLine
 10
1747.1425242235
 20
749.4258621799
 30
0.0
 11
1961.6425242235
 21
749.4258621799
 31
0.0
  0
MTEXT
  5
3A5
330
39D
100
AcDbEntity
  8
SLD-0_0
100
AcDbMText
 10
1838.0750434671
 20
753.9375992691
 30
0.0
 40
3.5
 41
0.0
 71
     1
 72
     1
  1
214.50
  7
SLDTEXTSTYLE0
 73
     1
 44
1.0
  0
ENDBLK
  5
39F
330
39D
100
AcDbEntity
  8
0
100
AcDbBlockEnd
  0
BLOCK
  5
3A8
330
3A7
100
AcDbEntity
  8
0
100
AcDbBlockBegin
  2
_D_16
 70
     0
 10
0.0
 20
0.0
 30
0.0
  3
_D_16
  1

  0
SOLID
  5
3AA
330
3A7
100
AcDbEntity
  8
SLD-0_0
100
AcDbTrace
 10
1685.1425242235
 20
944.4258621799
 30
0.0
 11
1684.6345242235
 21
941.1238621799
 31
0.0
 12
1685.6505242235
 22
941.1238621799
 32
0.0
 13
1685.6505242235
 23
941.1238621799
 33
0.0
  0
SOLID
  5
3AB
330
3A7
100
AcDbEntity
  8
SLD-0_0
100
AcDbTrace
 10
1685.1425242235
 20
804.4258621799
 30
0.0
 11
1685.6505242235
 21
807.7278621799
 31
0.0
 12
1684.6345242235
 22
807.7278621799
 32
0.0
 13
1684.6345242235
 23
807.7278621799
 33
0.0
  0
LINE
  5
3AC
330
3A7
100
AcDbEntity
  8
SLD-0_0
100
AcDbLine
 10
1796.1425242235
 20
944.4258621799
 30
0.0
 11
1684.1425242235
 21
944.4258621799
 31
0.0
  0
LINE
  5
3AD
330
3A7
100
AcDbEntity
  8
SLD-0_0
100
AcDbLine
 10
1796.1425242235
 20
804.4258621799
 30
0.0
 11
1684.1425242235
 21
804.4258621799
 31
0.0
  0
LINE
  5
3AE
330
3A7
100
AcDbEntity
  8
SLD-0_0
100
AcDbLine
 10
1685.1425242235
 20
944.4258621799
 30
0.0
 11
1685.1425242235
 21
804.4258621799
 31
0.0
  0
MTEXT
  5
3AF
330
3A7
100
AcDbEntity
  8
SLD-0_0
100
AcDbMText
 10
1680.6307871343
 20
866.1673370015
 30
0.0
 40
3.5
 41
0.0
 71
     1
 72
     1
  1
140
  7
SLDTEXTSTYLE0
 11
-7.044195017643634E-15
 21
1.0
 31
0.0
 73
     1
 44
1.0
  0
ENDBLK
  5
3A9
330
3A7
100
AcDbEntity
  8
0
100
AcDbBlockEnd
  0
BLOCK
  5
3B2
330
3B1
100
AcDbEntity
  8
0
100
AcDbBlockBegin
  2
_D_17
 70
     0
 10
0.0
 20
0.0
 30
0.0
  3
_D_17
  1

  0
SOLID
  5
3B4
330
3B1
100
AcDbEntity
  8
SLD-0_0
100
AcDbTrace
 10
1671.1425242235
 20
759.4258621799
 30
0.0
 11
1671.6505242235
 21
762.7278621799
 31
0.0
 12
1670.6345242235
 22
762.7278621799
 32
0.0
 13
1670.6345242235
 23
762.7278621799
 33
0.0
  0
SOLID
  5
3B5
330
3B1
100
AcDbEntity
  8
SLD-0_0
100
AcDbTrace
 10
1671.1425242235
 20
989.4258621799
 30
0.0
 11
1670.6345242235
 21
986.1238621799
 31
0.0
 12
1671.6505242235
 22
986.1238621799
 32
0.0
 13
1671.6505242235
 23
986.1238621799
 33
0.0
  0
LINE
  5
3B6
330
3B1
100
AcDbEntity
  8
SLD-0_0
100
AcDbLine
 10
1701.1425242235
 20
759.4258621799
 30
0.0
 11
1670.1425242235
 21
759.4258621799
 31
0.0
  0
LINE
  5
3B7
330
3B1
100
AcDbEntity
  8
SLD-0_0
100
AcDbLine
 10
1701.1425242235
 20
989.4258621799
 30
0.0
 11
1670.1425242235
 21
989.4258621799
 31
0.0
  0
LINE
  5
3B8
330
3B1
100
AcDbEntity
  8
SLD-0_0
100
AcDbLine
 10
1671.1425242235
 20
759.4258621799
 30
0.0
 11
1671.1425242235
 21
989.4258621799
 31
0.0
  0
MTEXT
  5
3B9
330
3B1
100
AcDbEntity
  8
SLD-0_0
100
AcDbMText
 10
1666.6307871343
 20
866.1673370015
 30
0.0
 40
3.5
 41
0.0
 71
     1
 72
     1
  1
230
  7
SLDTEXTSTYLE0
 11
6.123233995736766E-17
 21
1.0
 31
0.0
 73
     1
 44
1.0
  0
ENDBLK
  5
3B3
330
3B1
100
AcDbEntity
  8
0
100
AcDbBlockEnd
  0
BLOCK
  5
3BD
330
3BC
100
AcDbEntity
  8
0
100
AcDbBlockBegin
  2
_D_18
 70
     0
 10
0.0
 20
0.0
 30
0.0
  3
_D_18
  1

  0
SOLID
  5
3BF
330
3BC
100
AcDbEntity
  8
SLD-0_0
100
AcDbTrace
 10
1949.160973359
 20
821.3749019145
 30
0.0
 11
1951.3028939836
 21
818.8110290554
 31
0.0
 12
1951.9744894962
 22
819.5734039418
 32
0.0
 13
1951.9744894962
 23
819.5734039418
 33
0.0
  0
LINE
  5
3C0
330
3BC
100
AcDbEntity
  8
SLD-0_0
100
AcDbLine
 10
1949.160973359
 20
821.3749019145
 30
0.0
 11
1977.5472281509
 21
796.3687249316
 31
0.0
  0
LINE
  5
3C1
330
3BC
100
AcDbEntity
  8
SLD-0_0
100
AcDbLine
 10
1949.160973359
 20
821.3749019145
 30
0.0
 11
1911.6425242235
 21
854.4258621799
 31
0.0
  0
MTEXT
  5
3C2
330
3BC
100
AcDbEntity
  8
SLD-0_0
100
AcDbMText
 10
1973.9118592335
 20
805.5820539512
 30
0.0
 40
3.5
 41
0.0
 71
     1
 72
     1
  1
R50
  7
SLDTEXTSTYLE0
 11
0.750368982711129
 21
-0.6610192053072781
 31
0.0
 73
     1
 44
1.0
  0
ENDBLK
  5
3BE
330
3BC
100
AcDbEntity
  8
0
100
AcDbBlockEnd
  0
BLOCK
  5
3C5
330
3C4
100
AcDbEntity
  8
0
100
AcDbBlockBegin
  2
_D_19
 70
     0
 10
0.0
 20
0.0
 30
0.0
  3
_D_19
  1

  0
SOLID
  5
3C7
330
3C4
100
AcDbEntity
  8
SLD-0_0
100
AcDbTrace
 10
2002.9044537051
 20
904.4258621799
 30
0.0
 11
2003.4124537051
 21
907.7278621799
 31
0.0
 12
2002.3964537051
 22
907.7278621799
 32
0.0
 13
2002.3964537051
 23
907.7278621799
 33
0.0
  0
SOLID
  5
3C8
330
3C4
100
AcDbEntity
  8
SLD-0_0
100
AcDbTrace
 10
2002.9044537051
 20
989.4258621799
 30
0.0
 11
2002.3964537051
 21
986.1238621799
 31
0.0
 12
2003.4124537051
 22
986.1238621799
 32
0.0
 13
2003.4124537051
 23
986.1238621799
 33
0.0
  0
LINE
  5
3C9
330
3C4
100
AcDbEntity
  8
SLD-0_0
100
AcDbLine
 10
1994.1425242235
 20
904.4258621799
 30
0.0
 11
2003.9044537051
 21
904.4258621799
 31
0.0
  0
LINE
  5
3CA
330
3C4
100
AcDbEntity
  8
SLD-0_0
100
AcDbLine
 10
2002.9044537051
 20
904.4258621799
 30
0.0
 11
2002.9044537051
 21
989.4258621799
 31
0.0
  0
MTEXT
  5
3CB
330
3C4
100
AcDbEntity
  8
SLD-0_0
100
AcDbMText
 10
1998.3927166159
 20
941.7319385705
 30
0.0
 40
3.5
 41
0.0
 71
     1
 72
     1
  1
85
  7
SLDTEXTSTYLE0
 11
6.123233995736766E-17
 21
1.0
 31
0.0
 73
     1
 44
1.0
  0
ENDBLK
  5
3C6
330
3C4
100
AcDbEntity
  8
0
100
AcDbBlockEnd
  0
BLOCK
  5
3CF
330
3CE
100
AcDbEntity
  8
0
100
AcDbBlockBegin
  2
_D_20
 70
     0
 10
0.0
 20
0.0
 30
0.0
  3
_D_20
  1

  0
SOLID
  5
3D1
330
3CE
100
AcDbEntity
  8
SLD-0_0
100
AcDbTrace
 10
1975.1425242235
 20
997.8603689586
 30
0.0
 11
1971.8405242235
 21
998.3683689586
 31
0.0
 12
1971.8405242235
 22
997.3523689586
 32
0.0
 13
1971.8405242235
 23
997.3523689586
 33
0.0
  0
SOLID
  5
3D2
330
3CE
100
AcDbEntity
  8
SLD-0_0
100
AcDbTrace
 10
1993.1425242235
 20
997.8603689586
 30
0.0
 11
1996.4445242235
 21
997.3523689586
 31
0.0
 12
1996.4445242235
 22
998.3683689586
 32
0.0
 13
1996.4445242235
 23
998.3683689586
 33
0.0
  0
LINE
  5
3D3
330
3CE
100
AcDbEntity
  8
SLD-0_0
100
AcDbLine
 10
1975.1425242235
 20
990.4258621799
 30
0.0
 11
1975.1425242235
 21
998.8603689586
 31
0.0
  0
LINE
  5
3D4
330
3CE
100
AcDbEntity
  8
SLD-0_0
100
AcDbLine
 10
1993.1425242235
 20
990.4258621799
 30
0.0
 11
1993.1425242235
 21
998.8603689586
 31
0.0
  0
LINE
  5
3D5
330
3CE
100
AcDbEntity
  8
SLD-0_0
100
AcDbLine
 10
1975.1425242235
 20
997.8603689586
 30
0.0
 11
1968.7925242235
 21
997.8603689586
 31
0.0
  0
LINE
  5
3D6
330
3CE
100
AcDbEntity
  8
SLD-0_0
100
AcDbLine
 10
1975.1425242235
 20
997.8603689586
 30
0.0
 11
1993.1425242235
 21
997.8603689586
 31
0.0
  0
LINE
  5
3D7
330
3CE
100
AcDbEntity
  8
SLD-0_0
100
AcDbLine
 10
1993.1425242235
 20
997.8603689586
 30
0.0
 11
1999.4925242235
 21
997.8603689586
 31
0.0
  0
MTEXT
  5
3D8
330
3CE
100
AcDbEntity
  8
SLD-0_0
100
AcDbMText
 10
1981.5821806665
 20
1002.3721060478
 30
0.0
 40
3.5
 41
0.0
 71
     1
 72
     1
  1
18
  7
SLDTEXTSTYLE0
 73
     1
 44
1.0
  0
ENDBLK
  5
3D0
330
3CE
100
AcDbEntity
  8
0
100
AcDbBlockEnd
  0
BLOCK
  5
3DB
330
3DA
100
AcDbEntity
  8
0
100
AcDbBlockBegin
  2
_D_21
 70
     0
 10
0.0
 20
0.0
 30
0.0
  3
_D_21
  1

  0
SOLID
  5
3DD
330
3DA
100
AcDbEntity
  8
SLD-0_0
100
AcDbTrace
 10
1747.1425242235
 20
749.4258621799
 30
0.0
 11
1743.8405242235
 21
749.9338621799
 31
0.0
 12
1743.8405242235
 22
748.9178621799
 32
0.0
 13
1743.8405242235
 23
748.9178621799
 33
0.0
  0
SOLID
  5
3DE
330
3DA
100
AcDbEntity
  8
SLD-0_0
100
AcDbTrace
 10
1702.1425242235
 20
749.4258621799
 30
0.0
 11
1705.4445242235
 21
748.9178621799
 31
0.0
 12
1705.4445242235
 22
749.9338621799
 32
0.0
 13
1705.4445242235
 23
749.9338621799
 33
0.0
  0
LINE
  5
3DF
330
3DA
100
AcDbEntity
  8
SLD-0_0
100
AcDbLine
 10
1747.1425242235
 20
853.4258621799
 30
0.0
 11
1747.1425242235
 21
748.4258621799
 31
0.0
  0
LINE
  5
3E0
330
3DA
100
AcDbEntity
  8
SLD-0_0
100
AcDbLine
 10
1702.1425242235
 20
758.4258621799
 30
0.0
 11
1702.1425242235
 21
748.4258621799
 31
0.0
  0
LINE
  5
3E1
330
3DA
100
AcDbEntity
  8
SLD-0_0
100
AcDbLine
 10
1747.1425242235
 20
749.4258621799
 30
0.0
 11
1702.1425242235
 21
749.4258621799
 31
0.0
  0
MTEXT
  5
3E2
330
3DA
100
AcDbEntity
  8
SLD-0_0
100
AcDbMText
 10
1721.2011909966
 20
753.9375992691
 30
0.0
 40
3.5
 41
0.0
 71
     1
 72
     1
  1
45
  7
SLDTEXTSTYLE0
 73
     1
 44
1.0
  0
ENDBLK
  5
3DC
330
3DA
100
AcDbEntity
  8
0
100
AcDbBlockEnd
  0
BLOCK
  5
3E5
330
3E4
100
AcDbEntity
  8
0
100
AcDbBlockBegin
  2
_D_22
 70
     0
 10
0.0
 20
0.0
 30
0.0
  3
_D_22
  1

  0
SOLID
  5
3E7
330
3E4
100
AcDbEntity
  8
SLD-0_0
100
AcDbTrace
 10
1685.1425242235
 20
804.4258621799
 30
0.0
 11
1684.6345242235
 21
801.1238621799
 31
0.0
 12
1685.6505242235
 22
801.1238621799
 32
0.0
 13
1685.6505242235
 23
801.1238621799
 33
0.0
  0
SOLID
  5
3E8
330
3E4
100
AcDbEntity
  8
SLD-0_0
100
AcDbTrace
 10
1685.1425242235
 20
759.4258621799
 30
0.0
 11
1685.6505242235
 21
762.7278621799
 31
0.0
 12
1684.6345242235
 22
762.7278621799
 32
0.0
 13
1684.6345242235
 23
762.7278621799
 33
0.0
  0
LINE
  5
3E9
330
3E4
100
AcDbEntity
  8
SLD-0_0
100
AcDbLine
 10
1796.1425242235
 20
804.4258621799
 30
0.0
 11
1684.1425242235
 21
804.4258621799
 31
0.0
  0
LINE
  5
3EA
330
3E4
100
AcDbEntity
  8
SLD-0_0
100
AcDbLine
 10
1701.1425242235
 20
759.4258621799
 30
0.0
 11
1684.1425242235
 21
759.4258621799
 31
0.0
  0
LINE
  5
3EB
330
3E4
100
AcDbEntity
  8
SLD-0_0
100
AcDbLine
 10
1685.1425242235
 20
804.4258621799
 30
0.0
 11
1685.1425242235
 21
759.4258621799
 31
0.0
  0
MTEXT
  5
3EC
330
3E4
100
AcDbEntity
  8
SLD-0_0
100
AcDbMText
 10
1680.6307871343
 20
784.054365834
 30
0.0
 40
3.5
 41
0.0
 71
     1
 72
     1
  1
45
  7
SLDTEXTSTYLE0
 11
-7.044195017643634E-15
 21
1.0
 31
0.0
 73
     1
 44
1.0
  0
ENDBLK
  5
3E6
330
3E4
100
AcDbEntity
  8
0
100
AcDbBlockEnd
  0
BLOCK
  5
3F3
330
3F2
100
AcDbEntity
  8
0
100
AcDbBlockBegin
  2
_D_23
 70
     0
 10
0.0
 20
0.0
 30
0.0
  3
_D_23
  1

  0
SOLID
  5
3F5
330
3F2
100
AcDbEntity
  8
SLD-0_0
100
AcDbTrace
 10
1716.2689275321
 20
684.5970692684
 30
0.0
 11
1715.7609275321
 21
681.2950692684
 31
0.0
 12
1716.7769275321
 22
681.2950692684
 32
0.0
 13
1716.7769275321
 23
681.2950692684
 33
0.0
  0
SOLID
  5
3F6
330
3F2
100
AcDbEntity
  8
SLD-0_0
100
AcDbTrace
 10
1716.2689275321
 20
599.5970692684
 30
0.0
 11
1716.7769275321
 21
602.8990692684
 31
0.0
 12
1715.7609275321
 22
602.8990692684
 32
0.0
 13
1715.7609275321
 23
602.8990692684
 33
0.0
  0
LINE
  5
3F7
330
3F2
100
AcDbEntity
  8
SLD-0_0
100
AcDbLine
 10
1722.6197799206
 20
684.5970692684
 30
0.0
 11
1715.2689275321
 21
684.5970692684
 31
0.0
  0
LINE
  5
3F8
330
3F2
100
AcDbEntity
  8
SLD-0_0
100
AcDbLine
 10
1722.6197799206
 20
599.5970692684
 30
0.0
 11
1715.2689275321
 21
599.5970692684
 31
0.0
  0
LINE
  5
3F9
330
3F2
100
AcDbEntity
  8
SLD-0_0
100
AcDbLine
 10
1716.2689275321
 20
684.5970692684
 30
0.0
 11
1716.2689275321
 21
599.5970692684
 31
0.0
  0
MTEXT
  5
3FA
330
3F2
100
AcDbEntity
  8
SLD-0_0
100
AcDbMText
 10
1711.7571904429
 20
634.3099123949
 30
0.0
 40
3.5
 41
0.0
 71
     1
 72
     1
  1
85
  7
SLDTEXTSTYLE0
 11
-7.044195017643634E-15
 21
1.0
 31
0.0
 73
     1
 44
1.0
  0
ENDBLK
  5
3F4
330
3F2
100
AcDbEntity
  8
0
100
AcDbBlockEnd
  0
BLOCK
  5
3FD
330
3FC
100
AcDbEntity
  8
0
100
AcDbBlockBegin
  2
_D_24
 70
     0
 10
0.0
 20
0.0
 30
0.0
  3
_D_24
  1

  0
SOLID
  5
3FF
330
3FC
100
AcDbEntity
  8
SLD-0_0
100
AcDbTrace
 10
1723.6197799206
 20
589.5970692684
 30
0.0
 11
1726.9217799206
 21
589.0890692684
 31
0.0
 12
1726.9217799206
 22
590.1050692684
 32
0.0
 13
1726.9217799206
 23
590.1050692684
 33
0.0
  0
SOLID
  5
400
330
3FC
100
AcDbEntity
  8
SLD-0_0
100
AcDbTrace
 10
2223.6197799206
 20
589.5970692684
 30
0.0
 11
2220.3177799206
 21
590.1050692684
 31
0.0
 12
2220.3177799206
 22
589.0890692684
 32
0.0
 13
2220.3177799206
 23
589.0890692684
 33
0.0
  0
LINE
  5
401
330
3FC
100
AcDbEntity
  8
SLD-0_0
100
AcDbLine
 10
1723.6197799206
 20
598.5970692684
 30
0.0
 11
1723.6197799206
 21
588.5970692684
 31
0.0
  0
LINE
  5
402
330
3FC
100
AcDbEntity
  8
SLD-0_0
100
AcDbLine
 10
2223.6197799206
 20
598.5970692684
 30
0.0
 11
2223.6197799206
 21
588.5970692684
 31
0.0
  0
LINE
  5
403
330
3FC
100
AcDbEntity
  8
SLD-0_0
100
AcDbLine
 10
1723.6197799206
 20
589.5970692684
 30
0.0
 11
2223.6197799206
 21
589.5970692684
 31
0.0
  0
MTEXT
  5
404
330
3FC
100
AcDbEntity
  8
SLD-0_0
100
AcDbMText
 10
1960.828346439
 20
594.1088063576
 30
0.0
 40
3.5
 41
0.0
 71
     1
 72
     1
  1
500
  7
SLDTEXTSTYLE0
 73
     1
 44
1.0
  0
ENDBLK
  5
3FE
330
3FC
100
AcDbEntity
  8
0
100
AcDbBlockEnd
  0
BLOCK
  5
411
330
410
100
AcDbEntity
  8
0
100
AcDbBlockBegin
  2
_D_25
 70
     0
 10
0.0
 20
0.0
 30
0.0
  3
_D_25
  1

  0
SOLID
  5
413
330
410
100
AcDbEntity
  8
SLD-0_0
100
AcDbTrace
 10
2254.3400980536
 20
284.6475856945
 30
0.0
 11
2251.0380980536
 21
285.1555856945
 31
0.0
 12
2251.0380980536
 22
284.1395856945
 32
0.0
 13
2251.0380980536
 23
284.1395856945
 33
0.0
  0
SOLID
  5
414
330
410
100
AcDbEntity
  8
SLD-0_0
100
AcDbTrace
 10
1894.3400980536
 20
284.6475856945
 30
0.0
 11
1897.6420980536
 21
284.1395856945
 31
0.0
 12
1897.6420980536
 22
285.1555856945
 32
0.0
 13
1897.6420980536
 23
285.1555856945
 33
0.0
  0
LINE
  5
415
330
410
100
AcDbEntity
  8
SLD-0_0
100
AcDbLine
 10
2254.3400980536
 20
306.5672242878
 30
0.0
 11
2254.3400980536
 21
283.6475856945
 31
0.0
  0
LINE
  5
416
330
410
100
AcDbEntity
  8
SLD-0_0
100
AcDbLine
 10
1894.3400980536
 20
306.5672242878
 30
0.0
 11
1894.3400980536
 21
283.6475856945
 31
0.0
  0
LINE
  5
417
330
410
100
AcDbEntity
  8
SLD-0_0
100
AcDbLine
 10
2254.3400980536
 20
284.6475856945
 30
0.0
 11
1894.3400980536
 21
284.6475856945
 31
0.0
  0
MTEXT
  5
418
330
410
100
AcDbEntity
  8
SLD-0_0
100
AcDbMText
 10
2066.3007697235
 20
289.1593227837
 30
0.0
 40
3.5
 41
0.0
 71
     1
 72
     1
  1
360
  7
SLDTEXTSTYLE0
 73
     1
 44
1.0
  0
ENDBLK
  5
412
330
410
100
AcDbEntity
  8
0
100
AcDbBlockEnd
  0
BLOCK
  5
41E
330
41D
100
AcDbEntity
  8
0
100
AcDbBlockBegin
  2
SW_ANGULAR_DIMENSION_0
 70
     0
 10
0.0
 20
0.0
 30
0.0
  3
SW_ANGULAR_DIMENSION_0
  1

  0
ARC
  5
420
330
41D
100
AcDbEntity
  8
CAJETIN
 62
     0
100
AcDbCircle
 10
29.7408411974
 20
12.07680526
 30
0.0
 40
31.89271949713324
100
AcDbArc
 50
180.0
 51
225.0
  0
SOLID
  5
421
330
41D
100
AcDbEntity
  8
CAJETIN
 62
     0
100
AcDbTrace
 10
-2.1518782998
 20
12.07680526
 30
0.0
 11
-2.4889493695
 21
8.7530045599
 31
0.0
 12
-1.4743007859
 22
8.8053901667
 32
0.0
 13
-1.4743007859
 23
8.8053901667
 33
0.0
  0
SOLID
  5
422
330
41D
100
AcDbEntity
  8
CAJETIN
 62
     0
100
AcDbTrace
 10
7.1892829705
 20
-10.4747529669
 30
0.0
 11
5.3551628287
 21
-7.6823935155
 31
0.0
 12
4.600655717
 22
-8.3628161917
 32
0.0
 13
4.600655717
 23
-8.3628161917
 33
0.0
  0
LINE
  5
423
330
41D
100
AcDbEntity
  8
CAJETIN
 62
     0
100
AcDbLine
 10
28.7408411974
 20
12.07680526
 30
0.0
 11
-3.1518782998
 21
12.07680526
 31
0.0
  0
LINE
  5
424
330
41D
100
AcDbEntity
  8
CAJETIN
 62
     0
100
AcDbLine
 10
11.0337344162
 20
-6.6303015212
 30
0.0
 11
6.4821761893
 21
-11.1818597481
 31
0.0
  0
MTEXT
  5
425
330
41D
100
AcDbEntity
  8
CAJETIN
 62
     0
100
AcDbMText
 10
3.9610494335
 20
2.1600599407
 30
0.0
 40
3.5
 41
0.0
 71
     1
 72
     1
  1
45°
  7
SLDTEXTSTYLE0
 11
0.4787645862241374
 21
-0.8779433187727044
 31
0.0
 73
     1
 44
1.0
  0
ENDBLK
  5
41F
330
41D
100
AcDbEntity
  8
0
100
AcDbBlockEnd
  0
BLOCK
  5
42A
330
429
100
AcDbEntity
  8
0
100
AcDbBlockBegin
  2
_D_26
 70
     0
 10
0.0
 20
0.0
 30
0.0
  3
_D_26
  1

  0
SOLID
  5
42C
330
429
100
AcDbEntity
  8
CAJETIN
100
AcDbTrace
 10
1804.0362964322
 20
541.6172242878
 30
0.0
 11
1803.5282964322
 21
538.3152242878
 31
0.0
 12
1804.5442964322
 22
538.3152242878
 32
0.0
 13
1804.5442964322
 23
538.3152242878
 33
0.0
  0
SOLID
  5
42D
330
429
100
AcDbEntity
  8
CAJETIN
100
AcDbTrace
 10
1804.0362964322
 20
307.5672242878
 30
0.0
 11
1804.5442964322
 21
310.8692242878
 31
0.0
 12
1803.5282964322
 22
310.8692242878
 32
0.0
 13
1803.5282964322
 23
310.8692242878
 33
0.0
  0
LINE
  5
42E
330
429
100
AcDbEntity
  8
CAJETIN
100
AcDbLine
 10
1795.0362964322
 20
541.6172242878
 30
0.0
 11
1805.0362964322
 21
541.6172242878
 31
0.0
  0
LINE
  5
42F
330
429
100
AcDbEntity
  8
CAJETIN
100
AcDbLine
 10
1795.0362964322
 20
307.5672242878
 30
0.0
 11
1805.0362964322
 21
307.5672242878
 31
0.0
  0
LINE
  5
430
330
429
100
AcDbEntity
  8
CAJETIN
100
AcDbLine
 10
1804.0362964322
 20
541.6172242878
 30
0.0
 11
1804.0362964322
 21
307.5672242878
 31
0.0
  0
MTEXT
  5
431
330
429
100
AcDbEntity
  8
CAJETIN
100
AcDbMText
 10
1799.524559343
 20
410.6439501079
 30
0.0
 40
3.5
 41
0.0
 71
     1
 72
     1
  1
234.1
  7
SLDTEXTSTYLE0
 11
-1.326144395554451E-14
 21
1.0
 31
0.0
 73
     1
 44
1.0
  0
ENDBLK
  5
42B
330
429
100
AcDbEntity
  8
0
100
AcDbBlockEnd
  0
BLOCK
  5
434
330
433
100
AcDbEntity
  8
0
100
AcDbBlockBegin
  2
_D_27
 70
     0
 10
0.0
 20
0.0
 30
0.0
  3
_D_27
  1

  0
SOLID
  5
436
330
433
100
AcDbEntity
  8
CAJETIN
100
AcDbTrace
 10
1776.0362964322
 20
298.5477066791
 30
0.0
 11
1772.7342964322
 21
299.0557066791
 31
0.0
 12
1772.7342964322
 22
298.0397066791
 32
0.0
 13
1772.7342964322
 23
298.0397066791
 33
0.0
  0
SOLID
  5
437
330
433
100
AcDbEntity
  8
CAJETIN
100
AcDbTrace
 10
1794.0362964322
 20
298.5477066791
 30
0.0
 11
1797.3382964322
 21
298.0397066791
 31
0.0
 12
1797.3382964322
 22
299.0557066791
 32
0.0
 13
1797.3382964322
 23
299.0557066791
 33
0.0
  0
LINE
  5
438
330
433
100
AcDbEntity
  8
CAJETIN
100
AcDbLine
 10
1776.0362964322
 20
324.5672242878
 30
0.0
 11
1776.0362964322
 21
297.5477066791
 31
0.0
  0
LINE
  5
439
330
433
100
AcDbEntity
  8
CAJETIN
100
AcDbLine
 10
1794.0362964322
 20
306.5672242878
 30
0.0
 11
1794.0362964322
 21
297.5477066791
 31
0.0
  0
LINE
  5
43A
330
433
100
AcDbEntity
  8
CAJETIN
100
AcDbLine
 10
1776.0362964322
 20
298.5477066791
 30
0.0
 11
1769.6862964322
 21
298.5477066791
 31
0.0
  0
LINE
  5
43B
330
433
100
AcDbEntity
  8
CAJETIN
100
AcDbLine
 10
1776.0362964322
 20
298.5477066791
 30
0.0
 11
1794.0362964322
 21
298.5477066791
 31
0.0
  0
LINE
  5
43C
330
433
100
AcDbEntity
  8
CAJETIN
100
AcDbLine
 10
1794.0362964322
 20
298.5477066791
 30
0.0
 11
1800.3862964322
 21
298.5477066791
 31
0.0
  0
MTEXT
  5
43D
330
433
100
AcDbEntity
  8
CAJETIN
100
AcDbMText
 10
1781.7507252573
 20
303.0594437683
 30
0.0
 40
3.5
 41
0.0
 71
     1
 72
     1
  1
18
  7
SLDTEXTSTYLE0
 73
     1
 44
1.0
  0
ENDBLK
  5
435
330
433
100
AcDbEntity
  8
0
100
AcDbBlockEnd
  0
ENDSEC
  0
SECTION
  2
ENTITIES
  0
LINE
  5
7B
330
1F
100
AcDbEntity
  8
PREDETERMINADO
100
AcDbLine
 10
2326.3868914068
 20
55.3922002647
 30
0.0
 11
2317.6205776215
 21
55.3922002647
 31
0.0
  0
LINE
  5
7C
330
1F
100
AcDbEntity
  8
PREDETERMINADO
100
AcDbLine
 10
2311.9034164572
 20
26.9969664818
 30
0.0
 11
2317.2394335439
 21
26.9969664818
 31
0.0
  0
LINE
  5
7D
330
1F
100
AcDbEntity
  8
PREDETERMINADO
100
AcDbLine
 10
2347.349815676
 20
55.3922002647
 30
0.0
 11
2339.345790046
 21
55.3922002647
 31
0.0
  0
LINE
  5
7E
330
1F
100
AcDbEntity
  8
PREDETERMINADO
100
AcDbLine
 10
2334.2944881428
 20
29.4744029864
 30
0.0
 11
2342.2260222233
 21
29.4744029864
 31
0.0
  0
LINE
  5
7F
330
1F
100
AcDbEntity
  8
PREDETERMINADO
100
AcDbLine
 10
2077.3204038588
 20
136.545363934
 30
0.0
 11
2077.3204038588
 21
95.1623214457
 31
0.0
  0
LINE
  5
80
330
1F
100
AcDbEntity
  8
PREDETERMINADO
100
AcDbLine
 10
2077.3204038588
 20
95.1623214457
 30
0.0
 11
1590.3445052522
 21
95.1623214457
 31
0.0
  0
LINE
  5
81
330
1F
100
AcDbEntity
  8
PREDETERMINADO
100
AcDbLine
 10
1590.3445052522
 20
95.1623214457
 30
0.0
 11
1590.3445052522
 21
90.9233214457
 31
0.0
  0
LINE
  5
82
330
1F
100
AcDbEntity
  8
PREDETERMINADO
100
AcDbLine
 10
1590.3445052522
 20
90.9233214457
 30
0.0
 11
2081.5594038588
 21
90.9233214457
 31
0.0
  0
LINE
  5
83
330
1F
100
AcDbEntity
  8
PREDETERMINADO
100
AcDbLine
 10
2081.5594038588
 20
90.9233214457
 30
0.0
 11
2081.5594038588
 21
136.545363934
 31
0.0
  0
LINE
  5
84
330
1F
100
AcDbEntity
  8
PREDETERMINADO
100
AcDbLine
 10
2081.5594038588
 20
136.545363934
 30
0.0
 11
2077.3204038588
 21
136.545363934
 31
0.0
  0
LINE
  5
85
330
1F
100
AcDbEntity
  8
PREDETERMINADO
100
AcDbLine
 10
2334.2944881428
 20
29.4744029864
 30
0.0
 11
2342.2260222233
 21
29.4744029864
 31
0.0
  0
LINE
  5
86
330
1F
100
AcDbEntity
  8
PREDETERMINADO
100
AcDbLine
 10
2347.349815676
 20
55.3922002647
 30
0.0
 11
2339.345790046
 21
55.3922002647
 31
0.0
  0
LINE
  5
87
330
1F
100
AcDbEntity
  8
PREDETERMINADO
100
AcDbLine
 10
2326.3868914068
 20
55.3922002647
 30
0.0
 11
2317.6205776215
 21
55.3922002647
 31
0.0
  0
LINE
  5
88
330
1F
100
AcDbEntity
  8
PREDETERMINADO
100
AcDbLine
 10
2311.9034164572
 20
26.9969664818
 30
0.0
 11
2317.2394335439
 21
26.9969664818
 31
0.0
  0
LINE
  5
89
330
1F
100
AcDbEntity
  8
PREDETERMINADO
  6
Continuous
 62
   179
370
    15
100
AcDbLine
 10
1590.3445052522
 20
226.4337645885
 30
0.0
 11
1590.3445052522
 21
140.784363934
 31
0.0
  0
LINE
  5
8A
330
1F
100
AcDbEntity
  8
SLD-0_0
100
AcDbLine
 10
1779.091010637
 20
90.9233214457
 30
0.0
 11
1779.091010637
 21
14.4837645885
 31
0.0
  0
LINE
  5
8B
330
1F
100
AcDbEntity
  8
FORMATO
  6
Continuous
 62
   179
100
AcDbLine
 10
1784.8294038588
 20
140.784363934
 30
0.0
 11
1784.8294038588
 21
226.4337645885
 31
0.0
  0
LINE
  5
8C
330
1F
100
AcDbEntity
  8
FORMATO
  6
Continuous
 62
   179
100
AcDbLine
 10
1704.3365697089
 20
140.784363934
 30
0.0
 11
1784.8294038588
 21
140.784363934
 31
0.0
  0
LINE
  5
8D
330
1F
100
AcDbEntity
  8
FORMATO
  6
Continuous
 62
   179
100
AcDbLine
 10
1704.3365697089
 20
140.784363934
 30
0.0
 11
1704.3365697089
 21
226.4337645885
 31
0.0
  0
LINE
  5
8E
330
1F
100
AcDbEntity
  8
FORMATO
  6
Continuous
 62
   179
100
AcDbLine
 10
1590.3445052522
 20
161.979363934
 30
0.0
 11
1869.6094038588
 21
161.979363934
 31
0.0
  0
LINE
  5
8F
330
1F
100
AcDbEntity
  8
FORMATO
  6
Continuous
 62
   179
100
AcDbLine
 10
1590.3445052522
 20
183.174363934
 30
0.0
 11
1869.6094038588
 21
183.174363934
 31
0.0
  0
LINE
  5
90
330
1F
100
AcDbEntity
  8
FORMATO
  6
Continuous
 62
   179
100
AcDbLine
 10
1869.6094038588
 20
140.784363934
 30
0.0
 11
1869.6094038588
 21
226.4337645885
 31
0.0
  0
LINE
  5
91
330
1F
100
AcDbEntity
  8
FORMATO
  6
Continuous
 62
   179
100
AcDbLine
 10
2357.0944038588
 20
204.369363934
 30
0.0
 11
1590.3445052522
 21
204.369363934
 31
0.0
  0
LINE
  5
92
330
1F
100
AcDbEntity
  8
FORMATO
  6
Continuous
 62
   179
100
AcDbLine
 10
2176.5488016567
 20
226.4337645885
 30
0.0
 11
2176.5488016567
 21
178.732888883
 31
0.0
  0
LINE
  5
93
330
1F
100
AcDbEntity
  8
FORMATO
  6
Continuous
 62
   179
100
AcDbLine
 10
2123.9494038588
 20
226.4337645885
 30
0.0
 11
2123.9494038588
 21
178.732888883
 31
0.0
  0
LINE
  5
94
330
1F
100
AcDbEntity
  8
FORMATO
  6
Continuous
 62
   179
100
AcDbLine
 10
2081.5594038588
 20
178.732888883
 30
0.0
 11
2357.0944038588
 21
178.732888883
 31
0.0
  0
LINE
  5
95
330
1F
100
AcDbEntity
  8
FORMATO
  6
Continuous
 62
   179
100
AcDbLine
 10
2245.9156686259
 20
136.545363934
 30
0.0
 11
2245.9156686259
 21
226.4337645885
 31
0.0
  0
LINE
  5
96
330
1F
100
AcDbEntity
  8
PREDETERMINADO
370
    15
100
AcDbLine
 10
1590.3445052522
 20
95.1623214457
 30
0.0
 11
1590.3445052522
 21
14.4837645885
 31
0.0
  0
LINE
  5
97
330
1F
100
AcDbEntity
  8
FORMATO
  6
Continuous
 62
   179
100
AcDbLine
 10
2208.7294038588
 20
81.2084196758
 30
0.0
 11
2357.0944038588
 21
81.2084196758
 31
0.0
  0
LINE
  5
98
330
1F
100
AcDbEntity
  8
FORMATO
  6
Continuous
 62
   179
100
AcDbLine
 10
2208.7294038588
 20
14.4837645885
 30
0.0
 11
2208.7294038588
 21
136.545363934
 31
0.0
  0
LINE
  5
99
330
1F
100
AcDbEntity
  8
FORMATO
  6
Continuous
 62
   179
370
    15
100
AcDbLine
 10
1586.1055052522
 20
140.784363934
 30
0.0
 11
2077.3204038588
 21
140.784363934
 31
0.0
  0
LINE
  5
9A
330
1F
100
AcDbEntity
  8
FORMATO
  6
Continuous
 62
   179
370
    15
100
AcDbLine
 10
2081.5594038588
 20
90.9233214457
 30
0.0
 11
2081.5594038588
 21
136.545363934
 31
0.0
  0
LINE
  5
9B
330
1F
100
AcDbEntity
  8
FORMATO
  6
Continuous
 62
   179
100
AcDbLine
 10
1940.238174456
 20
90.9233214457
 30
0.0
 11
1940.238174456
 21
14.4837645885
 31
0.0
  0
LINE
  5
9C
330
1F
100
AcDbEntity
  8
SLD-0
  6
Continuous
 62
   179
100
AcDbLine
 10
2339.345790046
 20
55.3922002647
 30
0.0
 11
2347.349815676
 21
55.3922002647
 31
0.0
  0
LINE
  5
9D
330
1F
100
AcDbEntity
  8
SLD-0
  6
Continuous
 62
   179
100
AcDbLine
 10
2334.0097729593
 20
29.4744029864
 30
0.0
 11
2342.2260222233
 21
29.4744029864
 31
0.0
  0
LINE
  5
9E
330
1F
100
AcDbEntity
  8
SLD-0
  6
Continuous
 62
   179
100
AcDbLine
 10
2317.6205776215
 20
55.3922002647
 30
0.0
 11
2326.3868914068
 21
55.3922002647
 31
0.0
  0
LINE
  5
9F
330
1F
100
AcDbEntity
  8
FORMATO
  6
Continuous
 62
   179
100
AcDbLine
 10
1873.2879082551
 20
184.541111847
 30
0.0
 11
1879.9792919007
 21
184.541111847
 31
0.0
  0
LINE
  5
A0
330
1F
100
AcDbEntity
  8
FORMATO
  6
Continuous
 62
   179
100
AcDbLine
 10
1873.2879082551
 20
167.585111847
 30
0.0
 11
1879.9792919007
 21
167.585111847
 31
0.0
  0
LINE
  5
A1
330
1F
100
AcDbEntity
  8
FORMATO
  6
Continuous
 62
   179
100
AcDbLine
 10
1873.2879082551
 20
150.629111847
 30
0.0
 11
1879.9792919007
 21
150.629111847
 31
0.0
  0
LINE
  5
A2
330
1F
100
AcDbEntity
  8
FORMATO
  6
Continuous
 62
   179
100
AcDbLine
 10
2084.2217333106
 20
96.2614866588
 30
0.0
 11
2090.9131169562
 21
96.2614866588
 31
0.0
  0
LINE
  5
A3
330
1F
100
AcDbEntity
  8
FORMATO
  6
Continuous
 62
   179
100
AcDbLine
 10
2084.2217333106
 20
74.5987702522
 30
0.0
 11
2090.9131169562
 21
74.5987702522
 31
0.0
  0
LINE
  5
A4
330
1F
100
AcDbEntity
  8
FORMATO
  6
Continuous
 62
   179
100
AcDbLine
 10
2084.2217333106
 20
52.9360538457
 30
0.0
 11
2090.9131169562
 21
52.9360538457
 31
0.0
  0
LINE
  5
A5
330
1F
100
AcDbEntity
  8
FORMATO
  6
Continuous
 62
   179
100
AcDbLine
 10
2084.2217333106
 20
31.2733374392
 30
0.0
 11
2090.9131169562
 21
31.2733374392
 31
0.0
  0
LINE
  5
A6
330
1F
100
AcDbEntity
  8
PREDETERMINADO
100
AcDbLine
 10
2081.5594038588
 20
136.545363934
 30
0.0
 11
2357.4484632186
 21
136.545363934
 31
0.0
  0
LINE
  5
A7
330
1F
100
AcDbEntity
  8
FORMATO
  6
Continuous
 62
   179
370
    15
100
AcDbLine
 10
1590.3445052522
 20
226.4337645885
 30
0.0
 11
2357.0944038588
 21
226.4337645885
 31
0.0
  0
LINE
  5
A8
330
1F
100
AcDbEntity
  8
FORMATO
  6
Continuous
 62
   179
370
    15
100
AcDbLine
 10
2081.5594038588
 20
90.9233214457
 30
0.0
 11
1590.3445052522
 21
90.9233214457
 31
0.0
  0
LINE
  5
A9
330
1F
100
AcDbEntity
  8
PREDETERMINADO
  6
Continuous
 62
   179
100
AcDbLine
 10
1626.4171105113
 20
222.5853035127
 30
0.0
 11
1626.4171105113
 21
206.249343728
 31
0.0
  0
LINE
  5
AA
330
1F
100
AcDbEntity
  8
PREDETERMINADO
  6
Continuous
 62
   179
100
AcDbLine
 10
1610.0213274981
 20
218.8375233363
 30
0.0
 11
1610.0213274981
 21
209.9971239043
 31
0.0
  0
LINE
  5
AB
330
1F
100
AcDbEntity
  8
PREDETERMINADO
  6
CENTER
 62
   179
100
AcDbLine
 10
1646.5151671081
 20
223.6316247871
 30
0.0
 11
1646.5151671081
 21
205.0190596255
 31
0.0
  0
LINE
  5
AC
330
1F
100
AcDbEntity
  8
PREDETERMINADO
  6
Continuous
 62
   179
100
AcDbLine
 10
1626.4171105113
 20
222.5853035127
 30
0.0
 11
1610.0213274981
 21
218.8375233363
 31
0.0
  0
LINE
  5
AD
330
1F
100
AcDbEntity
  8
PREDETERMINADO
  6
Continuous
 62
   179
100
AcDbLine
 10
1610.0213274981
 20
209.9971239043
 30
0.0
 11
1626.4171105113
 21
206.249343728
 31
0.0
  0
LINE
  5
AE
330
1F
100
AcDbEntity
  8
PREDETERMINADO
  6
CENTER
 62
   179
100
AcDbLine
 10
1656.3437064934
 20
214.4173236203
 30
0.0
 11
1608.3304014588
 21
214.4173236203
 31
0.0
  0
LINE
  5
AF
330
1F
100
AcDbEntity
  8
PREDETERMINADO
370
    15
100
AcDbLine
 10
1590.3445052522
 20
14.4837645885
 30
0.0
 11
2357.0944038588
 21
14.4837645885
 31
0.0
  0
LINE
  5
B0
330
1F
100
AcDbEntity
  8
PREDETERMINADO
370
    15
100
AcDbLine
 10
2357.0944038588
 20
14.4837645885
 30
0.0
 11
2357.0944038588
 21
226.4337645885
 31
0.0
  0
LINE
  5
B1
330
1F
100
AcDbEntity
  8
PREDETERMINADO
370
    15
100
AcDbLine
 10
2077.3204038588
 20
136.545363934
 30
0.0
 11
2081.5594038588
 21
136.545363934
 31
0.0
  0
LINE
  5
B2
330
1F
100
AcDbEntity
  8
PREDETERMINADO
100
AcDbLine
 10
2081.5594038588
 20
136.545363934
 30
0.0
 11
2081.5594038588
 21
226.4337645885
 31
0.0
  0
LINE
  5
B3
330
1F
100
AcDbEntity
  8
PREDETERMINADO
100
AcDbLine
 10
2081.5594038588
 20
90.9233214457
 30
0.0
 11
2081.5594038588
 21
14.4837645885
 31
0.0
  0
LINE
  5
B4
330
1F
100
AcDbEntity
  8
PREDETERMINADO
370
    15
100
AcDbLine
 10
1586.1055052522
 20
140.784363934
 30
0.0
 11
1586.1055052522
 21
95.1623214457
 31
0.0
  0
LINE
  5
B5
330
1F
100
AcDbEntity
  8
PREDETERMINADO
370
    15
100
AcDbLine
 10
1586.1055052522
 20
95.1623214457
 30
0.0
 11
2077.3204038588
 21
95.1623214457
 31
0.0
  0
LINE
  5
B6
330
1F
100
AcDbEntity
  8
PREDETERMINADO
370
    15
100
AcDbLine
 10
2077.3204038588
 20
95.1623214457
 30
0.0
 11
2077.3204038588
 21
140.784363934
 31
0.0
  0
LINE
  5
B7
330
1F
100
AcDbEntity
  8
SLD-0
  6
Continuous
 62
   179
100
AcDbLine
 10
2311.9034164572
 20
26.9969664818
 30
0.0
 11
2317.2394335439
 21
26.9969664818
 31
0.0
  0
LINE
  5
B8
330
1F
100
AcDbEntity
  8
NONPLOT
100
AcDbLine
 10
20.2752616314
 20
271.0131637688
 30
0.0
 11
414.1539079938
 21
271.0131637688
 31
0.0
  0
LINE
  5
B9
330
1F
100
AcDbEntity
  8
NONPLOT
100
AcDbLine
 10
20.2752616314
 20
261.0131637688
 30
0.0
 11
414.1539079938
 21
261.0131637688
 31
0.0
  0
LINE
  5
BA
330
1F
100
AcDbEntity
  8
NONPLOT
100
AcDbLine
 10
20.2752616314
 20
15.5413915315
 30
0.0
 11
414.1539079938
 21
15.5413915315
 31
0.0
  0
LINE
  5
BB
330
1F
100
AcDbEntity
  8
NONPLOT
100
AcDbLine
 10
35.2752616314
 20
271.0131637688
 30
0.0
 11
35.2752616314
 21
261.0131637688
 31
0.0
  0
LINE
  5
BC
330
1F
100
AcDbEntity
  8
NONPLOT
100
AcDbLine
 10
399.1539079938
 20
5.5413915315
 30
0.0
 11
399.1539079938
 21
15.5413915315
 31
0.0
  0
LINE
  5
BD
330
1F
100
AcDbEntity
  8
NONPLOT
  6
Continuous
 62
   179
370
    15
100
AcDbLine
 10
414.1539079938
 20
5.5413915315
 30
0.0
 11
414.1539079938
 21
291.0131637688
 31
0.0
  0
LINE
  5
BE
330
1F
100
AcDbEntity
  8
NONPLOT
  6
Continuous
 62
   179
370
    15
100
AcDbLine
 10
414.1539079938
 20
291.0131637688
 30
0.0
 11
20.2752616314
 21
291.0131637688
 31
0.0
  0
LINE
  5
BF
330
1F
100
AcDbEntity
  8
NONPLOT
  6
Continuous
 62
     7
370
    15
100
AcDbLine
 10
20.2752616314
 20
291.0131637688
 30
0.0
 11
20.2752616314
 21
5.5413915315
 31
0.0
  0
LINE
  5
C0
330
1F
100
AcDbEntity
  8
NONPLOT
  6
Continuous
 62
     7
100
AcDbLine
 10
-0.0123065099
 20
140.7183915315
 30
0.0
 11
20.2752616314
 21
140.7183915315
 31
0.0
  0
LINE
  5
C1
330
1F
100
AcDbEntity
  8
NONPLOT
  6
Continuous
 62
   179
100
AcDbLine
 10
244.5621101288
 20
5.5413915315
 30
0.0
 11
244.5621101288
 21
2.7153915315
 31
0.0
  0
LINE
  5
C2
330
1F
100
AcDbEntity
  8
NONPLOT
  6
Continuous
 62
   179
100
AcDbLine
 10
246.359907498
 20
293.8391637688
 30
0.0
 11
246.359907498
 21
291.0131637688
 31
0.0
  0
LINE
  5
C3
330
1F
100
AcDbEntity
  8
NONPLOT
  6
Continuous
 62
   179
370
    15
100
AcDbLine
 10
20.2752616314
 20
5.5413915315
 30
0.0
 11
414.1539079938
 21
5.5413915315
 31
0.0
  0
LINE
  5
C4
330
1F
100
AcDbEntity
  8
NONPLOT
100
AcDbLine
 10
414.1539079938
 20
5.5413915315
 30
0.0
 11
294.1539079938
 21
5.5413915315
 31
0.0
  0
LINE
  5
C5
330
1F
100
AcDbEntity
  8
NONPLOT
100
AcDbLine
 10
414.1539079938
 20
5.5413915315
 30
0.0
 11
414.1539079938
 21
105.5413915315
 31
0.0
  0
LINE
  5
C6
330
1F
100
AcDbEntity
  8
NONPLOT
100
AcDbLine
 10
414.1539079938
 20
105.5413915315
 30
0.0
 11
294.1539079938
 21
105.5413915315
 31
0.0
  0
LINE
  5
C7
330
1F
100
AcDbEntity
  8
NONPLOT
100
AcDbLine
 10
294.1539079938
 20
5.5413915315
 30
0.0
 11
294.1539079938
 21
105.5413915315
 31
0.0
  0
LINE
  5
C8
330
1F
100
AcDbEntity
  8
NONPLOT
100
AcDbLine
 10
399.1539079938
 20
261.0131637688
 30
0.0
 11
399.1539079938
 21
271.0131637688
 31
0.0
  0
LINE
  5
C9
330
1F
100
AcDbEntity
  8
NONPLOT
100
AcDbLine
 10
35.2752616314
 20
15.5413915315
 30
0.0
 11
35.2752616314
 21
5.5413915315
 31
0.0
  0
ARC
  5
CA
330
1F
100
AcDbEntity
  8
PREDETERMINADO
100
AcDbCircle
 10
2244.247166479
 20
55.3922002647
 30
0.0
 40
73.3734111425301
100
AcDbArc
 50
337.2322750577
 51
0.0
  0
ARC
  5
CB
330
1F
100
AcDbEntity
  8
PREDETERMINADO
100
AcDbCircle
 10
2277.7413933749
 20
55.3922002647
 30
0.0
 40
48.64549803190766
100
AcDbArc
 50
324.2875534854
 51
0.0
  0
ARC
  5
CC
330
1F
100
AcDbEntity
  8
PREDETERMINADO
100
AcDbCircle
 10
2270.3291404731
 20
55.3922002647
 30
0.0
 40
69.01664957284493
100
AcDbArc
 50
337.9429486592
 51
0.0
  0
ARC
  5
CD
330
1F
100
AcDbEntity
  8
PREDETERMINADO
100
AcDbCircle
 10
2279.2376365319
 20
55.3922002647
 30
0.0
 40
68.11217914413874
100
AcDbArc
 50
337.634330245
 51
0.0
  0
ARC
  5
CE
330
1F
100
AcDbEntity
  8
PREDETERMINADO
100
AcDbCircle
 10
2279.2376365319
 20
55.3922002647
 30
0.0
 40
68.11217914413874
100
AcDbArc
 50
337.634330245
 51
0.0
  0
ARC
  5
CF
330
1F
100
AcDbEntity
  8
PREDETERMINADO
100
AcDbCircle
 10
2270.3291404731
 20
55.3922002647
 30
0.0
 40
69.01664957284493
100
AcDbArc
 50
337.9429486592
 51
0.0
  0
ARC
  5
D0
330
1F
100
AcDbEntity
  8
PREDETERMINADO
100
AcDbCircle
 10
2277.7413933749
 20
55.3922002647
 30
0.0
 40
48.64549803190766
100
AcDbArc
 50
324.2875534854
 51
0.0
  0
ARC
  5
D1
330
1F
100
AcDbEntity
  8
PREDETERMINADO
100
AcDbCircle
 10
2244.247166479
 20
55.3922002647
 30
0.0
 40
73.3734111425301
100
AcDbArc
 50
337.2322750577
 51
0.0
  0
CIRCLE
  5
D2
330
1F
100
AcDbEntity
  8
PREDETERMINADO
  6
Continuous
 62
   179
100
AcDbCircle
 10
1646.5151671081
 20
214.4173236203
 30
0.0
 40
8.16797989235628
  0
CIRCLE
  5
D3
330
1F
100
AcDbEntity
  8
PREDETERMINADO
  6
Continuous
 62
   179
100
AcDbCircle
 10
1646.5039427456
 20
214.4173236203
 30
0.0
 40
4.420199715999228
  0
ARC
  5
D4
330
1F
100
AcDbEntity
  8
SLD-0
  6
Continuous
 62
   179
100
AcDbCircle
 10
2270.3291404731
 20
55.3922002647
 30
0.0
 40
69.01664957284493
100
AcDbArc
 50
337.9429486592
 51
0.0
  0
ARC
  5
D5
330
1F
100
AcDbEntity
  8
SLD-0
  6
Continuous
 62
   179
100
AcDbCircle
 10
2279.2376365319
 20
55.3922002647
 30
0.0
 40
68.11217914413874
100
AcDbArc
 50
337.634330245
 51
0.0
  0
ARC
  5
D6
330
1F
100
AcDbEntity
  8
SLD-0
  6
Continuous
 62
   179
100
AcDbCircle
 10
2277.7413933749
 20
55.3922002647
 30
0.0
 40
48.64549803190766
100
AcDbArc
 50
324.2875534854
 51
0.0
  0
ARC
  5
D7
330
1F
100
AcDbEntity
  8
SLD-0
  6
Continuous
 62
   179
100
AcDbCircle
 10
2244.247166479
 20
55.3922002647
 30
0.0
 40
73.3734111425301
100
AcDbArc
 50
337.2322750577
 51
0.0
  0
HATCH
  5
D8
330
1F
100
AcDbEntity
  8
0
  6
Continuous
 62
   179
100
AcDbHatch
 10
0.0
 20
0.0
 30
0.0
210
0.0
220
0.0
230
1.0
  2
ANSI31
 70
     0
 71
     0
 91
        1
 92
        0
 93
        4
 72
     1
 10
2311.903416457192
 20
26.99696648181871
 11
2317.2394335439
 21
26.99696648181871
 72
     2
 10
2277.74139337492
 20
55.39220026465463
 40
48.64549803190743
 50
324.2875534853728
 51
360.0000000000008
 73
     1
 72
     1
 10
2326.386891406828
 20
55.39220026465463
 11
2317.620577621549
 21
55.39220026465463
 72
     2
 10
2244.247166479021
 20
55.39220026465463
 40
73.37341114252966
 50
0.0
 51
22.76772494225697
 73
     0
 97
        0
 75
     0
 76
     1
 52
90.0
 41
0.03125
 77
     0
 78
     1
 53
135.0000000000002
 43
0.0
 44
0.0
 45
-0.0701582509458525
 46
-0.070158250945853
 79
     0
 98
        1
 10
0.0
 20
0.0
  0
HATCH
  5
D9
330
1F
100
AcDbEntity
  8
0
  6
Continuous
 62
   179
100
AcDbHatch
 10
0.0
 20
0.0
 30
0.0
210
0.0
220
0.0
230
1.0
  2
ANSI31
 70
     0
 71
     0
 91
        1
 92
        0
 93
        4
 72
     1
 10
2334.294488142801
 20
29.47440298636239
 11
2342.226022223261
 21
29.47440298636239
 72
     2
 10
2279.237636531893
 20
55.39220026465463
 40
68.11217914413834
 50
337.6343302449529
 51
360.0000000000008
 73
     1
 72
     1
 10
2347.349815676032
 20
55.39220026465463
 11
2339.345790045973
 21
55.39220026465463
 72
     2
 10
2270.329140473128
 20
55.39220026465463
 40
69.01664957284461
 50
0.0
 51
22.05705134075574
 73
     0
 97
        0
 75
     0
 76
     1
 52
90.0
 41
0.03125
 77
     0
 78
     1
 53
135.0000000000002
 43
0.0
 44
0.0
 45
-0.0701582509458525
 46
-0.070158250945853
 79
     0
 98
        1
 10
0.0
 20
0.0
  0
HATCH
  5
DA
330
1F
100
AcDbEntity
  8
0
  6
Continuous
 62
   179
100
AcDbHatch
 10
0.0
 20
0.0
 30
0.0
210
0.0
220
0.0
230
1.0
  2
ANSI31
 70
     0
 71
     0
 91
        1
 92
        0
 93
        6
 72
     1
 10
2081.559403858756
 20
90.92332144566029
 11
2081.559403858756
 21
136.5453639339958
 72
     1
 10
2081.559403858756
 20
136.5453639339958
 11
2077.320403858754
 21
136.5453639339958
 72
     1
 10
2077.320403858754
 20
136.5453639339958
 11
2077.320403858754
 21
95.16232144565994
 72
     1
 10
2077.320403858754
 20
95.16232144565994
 11
1590.344505252188
 21
95.16232144565994
 72
     1
 10
1590.344505252188
 20
95.16232144565994
 11
1590.344505252188
 21
90.92332144566029
 72
     1
 10
1590.344505252188
 20
90.92332144566029
 11
2081.559403858756
 21
90.92332144566029
 97
        0
 75
     0
 76
     1
 52
0.0
 41
0.0625
 77
     0
 78
     1
 53
45.0
 43
0.0
 44
0.0
 45
-0.1403165018917055
 46
0.1403165018917055
 79
     0
 98
        1
 10
0.0
 20
0.0
  0
INSERT
  5
E1
330
1F
100
AcDbEntity
  8
SLD-0_0
100
AcDbBlockReference
  2
SW_NOTE_0
 10
865.5059952228
 20
860.1719484384
 30
0.0
  0
INSERT
  5
E7
330
1F
100
AcDbEntity
  8
SLD-0_0
100
AcDbBlockReference
  2
SW_NOTE_1
 10
1570.7037079833
 20
1606.9853829999
 30
0.0
  0
INSERT
  5
ED
330
1F
100
AcDbEntity
  8
SLD-0_0
100
AcDbBlockReference
  2
SW_NOTE_2
 10
938.5984636837
 20
1613.6424730232
 30
0.0
  0
INSERT
  5
F3
330
1F
100
AcDbEntity
  8
SLD-0_0
100
AcDbBlockReference
  2
SW_NOTE_3
 10
48.6868482558
 20
1620.0118903025
 30
0.0
  0
INSERT
  5
F9
330
1F
100
AcDbEntity
  8
CAJETIN
100
AcDbBlockReference
  2
SW_NOTE_4
 10
1816.2310845853
 20
119.2180786386
 30
0.0
  0
MTEXT
  5
FA
330
1F
100
AcDbEntity
  8
CAJETIN
100
AcDbMText
 10
2090.3194290674
 20
197.209304663
 30
0.0
 40
9.525
 41
0.0
 71
     1
 72
     1
  1
mm
  7
SLDTEXTSTYLE0
 73
     1
 44
1.0
  0
MTEXT
  5
FB
330
1F
100
AcDbEntity
  8
CAJETIN
100
AcDbMText
 10
1796.8324786344
 20
157.6869082218
 30
0.0
 40
9.525
 41
0.0
 71
     1
 72
     1
  1
18/01/2019
  7
SLDTEXTSTYLE0
 73
     1
 44
1.0
  0
MTEXT
  5
FC
330
1F
100
AcDbEntity
  8
CAJETIN
100
AcDbMText
 10
1796.8324786344
 20
178.9631223165
 30
0.0
 40
9.525
 41
0.0
 71
     1
 72
     1
  1
18/01/2019
  7
SLDTEXTSTYLE0
 73
     1
 44
1.0
  0
MTEXT
  5
FD
330
1F
100
AcDbEntity
  8
CAJETIN
100
AcDbMText
 10
1717.8612127376
 20
157.6869082218
 30
0.0
 40
9.525
 41
0.0
 71
     1
 72
     1
  1
J. Serrano
  7
SLDTEXTSTYLE0
 73
     1
 44
1.0
  0
MTEXT
  5
FE
330
1F
100
AcDbEntity
  8
CAJETIN
100
AcDbMText
 10
1717.8612127376
 20
178.9631223165
 30
0.0
 40
9.525
 41
0.0
 71
     1
 72
     1
  1
R. Climent
  7
SLDTEXTSTYLE0
 73
     1
 44
1.0
  0
MTEXT
  5
FF
330
1F
100
AcDbEntity
  8
CAJETIN
100
AcDbMText
 10
1796.8324786344
 20
199.8145515303
 30
0.0
 40
9.525
 41
0.0
 71
     1
 72
     1
  1
18/01/2019
  7
SLDTEXTSTYLE0
 73
     1
 44
1.0
  0
MTEXT
  5
100
330
1F
100
AcDbEntity
  8
CAJETIN
100
AcDbMText
 10
2108.162165289
 20
131.4581188801
 30
0.0
 40
9.525
 41
0.0
 71
     1
 72
     1
  1
MATERIAL
  7
SLDTEXTSTYLE0
 73
     1
 44
1.0
  0
MTEXT
  5
101
330
1F
100
AcDbEntity
  8
CAJETIN
100
AcDbMText
 10
1825.994358571
 20
86.1058371253
 30
0.0
 40
9.525
 41
0.0
 71
     1
 72
     1
  1
SIGNED
  7
SLDTEXTSTYLE0
 73
     1
 44
1.0
  0
MTEXT
  5
102
330
1F
100
AcDbEntity
  8
CAJETIN
100
AcDbMText
 10
2093.7198006162
 20
173.7432764092
 30
0.0
 40
9.525
 41
0.0
 71
     1
 72
     1
  1
DRAWING NUMBER
  7
SLDTEXTSTYLE0
 73
     1
 44
1.0
  0
MTEXT
  5
103
330
1F
100
AcDbEntity
  8
CAJETIN
100
AcDbMText
 10
2278.9369929611
 20
222.8754447289
 30
0.0
 40
9.525
 41
0.0
 71
     1
 72
     1
  1
SCALE
  7
SLDTEXTSTYLE0
 73
     1
 44
1.0
  0
MTEXT
  5
104
330
1F
100
AcDbEntity
  8
CAJETIN
100
AcDbMText
 10
2191.6536353937
 20
221.9191953056
 30
0.0
 40
9.525
 41
0.0
 71
     1
 72
     1
  1
DATE
  7
SLDTEXTSTYLE0
 73
     1
 44
1.0
  0
MTEXT
  5
105
330
1F
100
AcDbEntity
  8
CAJETIN
100
AcDbMText
 10
2128.3508383559
 20
221.9191953056
 30
0.0
 40
9.525
 41
0.0
 71
     1
 72
     1
  1
LEVEL
  7
SLDTEXTSTYLE0
 73
     1
 44
1.0
  0
MTEXT
  5
106
330
1F
100
AcDbEntity
  8
CAJETIN
100
AcDbMText
 10
2084.758804305
 20
221.9191953056
 30
0.0
 40
9.525
 41
0.0
 71
     1
 72
     1
  1
UNIT
  7
SLDTEXTSTYLE0
 73
     1
 44
1.0
  0
MTEXT
  5
107
330
1F
100
AcDbEntity
  8
CAJETIN
100
AcDbMText
 10
1940.5355176722
 20
222.8754447289
 30
0.0
 40
9.525
 41
0.0
 71
     1
 72
     1
  1
NOTES
  7
SLDTEXTSTYLE0
 73
     1
 44
1.0
  0
MTEXT
  5
108
330
1F
100
AcDbEntity
  8
CAJETIN
100
AcDbMText
 10
1951.329047588
 20
86.1058371253
 30
0.0
 40
9.525
 41
0.0
 71
     1
 72
     1
  1
PART NUMBER
  7
SLDTEXTSTYLE0
 73
     1
 44
1.0
  0
MTEXT
  5
109
330
1F
100
AcDbEntity
  8
CAJETIN
100
AcDbMText
 10
1595.4464510851
 20
85.6517916921
 30
0.0
 40
9.525
 41
0.0
 71
     1
 72
     1
  1
MODEL CODE:
  7
SLDTEXTSTYLE0
 73
     1
 44
1.0
  0
MTEXT
  5
10A
330
1F
100
AcDbEntity
  8
CAJETIN
100
AcDbMText
 10
1589.9606861945
 20
135.9232403208
 30
0.0
 40
9.525
 41
0.0
 71
     1
 72
     1
  1
TITLE:
  7
SLDTEXTSTYLE0
 73
     1
 44
1.0
  0
MTEXT
  5
10B
330
1F
100
AcDbEntity
  8
CAJETIN
100
AcDbMText
 10
1595.4464510851
 20
180.0350302131
 30
0.0
 40
9.525
 41
0.0
 71
     1
 72
     1
  1
DRAWN BY
  7
SLDTEXTSTYLE0
 73
     1
 44
1.0
  0
MTEXT
  5
10C
330
1F
100
AcDbEntity
  8
CAJETIN
100
AcDbMText
 10
1595.4464510851
 20
158.7912354645
 30
0.0
 40
9.525
 41
0.0
 71
     1
 72
     1
  1
REVISED BY
  7
SLDTEXTSTYLE0
 73
     1
 44
1.0
  0
MTEXT
  5
10D
330
1F
100
AcDbEntity
  8
CAJETIN
100
AcDbMText
 10
1595.4464510851
 20
200.0397542023
 30
0.0
 40
9.525
 41
0.0
 71
     1
 72
     1
  1
DESIGNED BY
  7
SLDTEXTSTYLE0
 73
     1
 44
1.0
  0
MTEXT
  5
10E
330
1F
100
AcDbEntity
  8
CAJETIN
100
AcDbMText
 10
1814.6758722664
 20
222.8754447289
 30
0.0
 40
9.525
 41
0.0
 71
     1
 72
     1
  1
DATE
  7
SLDTEXTSTYLE0
 73
     1
 44
1.0
  0
MTEXT
  5
10F
330
1F
100
AcDbEntity
  8
CAJETIN
100
AcDbMText
 10
1655.2569581168
 20
222.0051188788
 30
0.0
 40
9.525
 41
0.0
 71
     1
 72
     1
  1
CAD
  7
SLDTEXTSTYLE0
 73
     1
 44
1.0
  0
MTEXT
  5
110
330
1F
100
AcDbEntity
  8
CAJETIN
100
AcDbMText
 10
2273.3823078248
 20
173.7432764092
 30
0.0
 40
9.525
 41
0.0
 71
     1
 72
     1
  1
WEIGHT
  7
SLDTEXTSTYLE0
 73
     1
 44
1.0
  0
MTEXT
  5
111
330
1F
100
AcDbEntity
  8
CAJETIN
100
AcDbMText
 10
1729.4653405198
 20
222.8754447289
 30
0.0
 40
9.525
 41
0.0
 71
     1
 72
     1
  1
NAME
  7
SLDTEXTSTYLE0
 73
     1
 44
1.0
  0
MTEXT
  5
112
330
1F
100
AcDbEntity
  8
CAJETIN
100
AcDbMText
 10
2301.4725805261
 20
198.1253663996
 30
0.0
 40
9.525
 41
0.0
 71
     2
 72
     1
  1
1:1
  7
SLDTEXTSTYLE0
 73
     1
 44
1.0
  0
MTEXT
  5
113
330
1F
100
AcDbEntity
  8
CAJETIN
100
AcDbMText
 10
2128.6519649744
 20
155.5580237844
 30
0.0
 40
9.525
 41
0.0
 71
     1
 72
     1
  1
S-18LEX
  7
SLDTEXTSTYLE0
 73
     1
 44
1.0
  0
MTEXT
  5
114
330
1F
100
AcDbEntity
  8
CAJETIN
100
AcDbMText
 10
2145.4897415184
 20
197.209304663
 30
0.0
 40
9.525
 41
0.0
 71
     1
 72
     1
  1
01
  7
SLDTEXTSTYLE0
 73
     1
 44
1.0
  0
MTEXT
  5
116
330
1F
100
AcDbEntity
  8
PREDETERMINADO
100
AcDbMText
 10
2222.3941530168
 20
58.810923323
 30
0.0
 40
19.05
 41
0.0
 71
     1
 72
     1
  1
beyma
  7
SLDTEXTSTYLE1
 73
     1
 44
1.0
  0
MTEXT
  5
117
330
1F
100
AcDbEntity
  8
CAJETIN
100
AcDbMText
 10
1716.4862139092
 20
199.8145515303
 30
0.0
 40
9.525
 41
0.0
 71
     1
 72
     1
  1
R&D Dep.
  7
SLDTEXTSTYLE0
 73
     1
 44
1.0
  0
MTEXT
  5
118
330
1F
100
AcDbEntity
  8
CAJETIN
100
AcDbMText
 10
2311.9854193863
 20
155.5580237844
 30
0.0
 40
9.525
 41
0.0
 71
     1
 72
     1
  1
g.
  7
SLDTEXTSTYLE0
 73
     1
 44
1.0
  0
INSERT
  5
11E
330
1F
100
AcDbEntity
  8
CAJETIN
100
AcDbBlockReference
  2
SW_NOTE_5
 10
2101.2267675061
 20
99.3857912542
 30
0.0
  0
INSERT
  5
124
330
1F
100
AcDbEntity
  8
SLD-0_0
100
AcDbBlockReference
  2
SW_NOTE_6
 10
1714.0946915019
 20
510.7840134382
 30
0.0
  0
INSERT
  5
12A
330
1F
100
AcDbEntity
  8
SLD-0_0
100
AcDbBlockReference
  2
SW_NOTE_7
 10
1638.8488470427
 20
661.9320037504
 30
0.0
  0
INSERT
  5
130
330
1F
100
AcDbEntity
  8
SLD-0_0
100
AcDbBlockReference
  2
SW_NOTE_8
 10
1638.8488470427
 20
661.9320037504
 30
0.0
  0
INSERT
  5
136
330
1F
100
AcDbEntity
  8
SLD-0_0
100
AcDbBlockReference
  2
SW_NOTE_9
 10
1610.5879491905
 20
959.0751583099
 30
0.0
  0
INSERT
  5
165
330
1F
100
AcDbEntity
  8
CAJETIN
100
AcDbBlockReference
  2
SW_TABLEANNOTATION_0
 10
843.8791069525
 20
242.8003272886
 30
0.0
  0
LINE
  5
166
330
1F
100
AcDbEntity
  8
0
  6
Continuous
 62
     7
100
AcDbLine
 10
788.2523557339
 20
311.0389604646
 30
0.0
 11
782.1905600786
 21
536.3462034212
 31
0.0
  0
ARC
  5
167
330
1F
100
AcDbEntity
  8
0
  6
Continuous
 62
     7
100
AcDbCircle
 10
453.9706742791
 20
62.1939920834
 30
0.0
 40
5.000000000000008
100
AcDbArc
 50
253.7188644571
 51
301.752392528
  0
LINE
  5
168
330
1F
100
AcDbEntity
  8
0
  6
Continuous
 62
     7
100
AcDbLine
 10
217.8669092087
 20
125.9423004253
 30
0.0
 11
452.5689208751
 21
57.3945038405
 31
0.0
  0
LINE
  5
169
330
1F
100
AcDbEntity
  8
0
  6
Continuous
 62
     7
100
AcDbLine
 10
456.601921438
 20
57.942340829
 30
0.0
 11
685.4816251223
 21
199.5906167579
 31
0.0
  0
LINE
  5
16A
330
1F
100
AcDbEntity
  8
0
  6
Continuous
 62
     7
100
AcDbLine
 10
214.1734825408
 20
134.2122303409
 30
0.0
 11
214.2704712713
 21
130.6073144536
 31
0.0
  0
ARC
  5
16B
330
1F
100
AcDbEntity
  8
0
  6
Continuous
 62
     7
100
AcDbCircle
 10
219.2686626128
 20
130.7417886683
 30
0.0
 40
4.99999999999998
100
AcDbArc
 50
181.5411468226
 51
253.7188644571
  0
LINE
  5
16C
330
1F
100
AcDbEntity
  8
0
  6
Continuous
 62
     7
100
AcDbLine
 10
687.8485693049
 20
203.976742227
 30
0.0
 11
687.7515805744
 21
207.5816581143
 31
0.0
  0
ARC
  5
16D
330
1F
100
AcDbEntity
  8
0
  6
Continuous
 62
     7
100
AcDbCircle
 10
682.8503779635
 20
203.8422680123
 30
0.0
 40
4.999999999999954
100
AcDbArc
 50
301.752392528
 51
1.5411468226
  0
ARC
  5
16E
330
1F
100
AcDbEntity
  8
0
  6
Continuous
 62
     7
100
AcDbCircle
 10
205.4334023542
 20
644.9762699486
 30
0.0
 40
4.999999999999977
100
AcDbArc
 50
121.752392528
 51
181.5411468226
  0
LINE
  5
16F
330
1F
100
AcDbEntity
  8
0
  6
Continuous
 62
     7
100
AcDbLine
 10
200.4352110127
 20
644.8417957339
 30
0.0
 11
200.5321997432
 21
641.2368798466
 31
0.0
  0
LINE
  5
170
330
1F
100
AcDbEntity
  8
0
  6
Continuous
 62
     7
100
AcDbLine
 10
431.6818588797
 20
790.8761971318
 30
0.0
 11
202.8021551953
 21
649.227921203
 31
0.0
  0
ARC
  5
171
330
1F
100
AcDbEntity
  8
0
  6
Continuous
 62
     7
100
AcDbCircle
 10
669.0151177049
 20
718.0767492926
 30
0.0
 40
5.000000000000036
100
AcDbArc
 50
1.5411468226
 51
73.7188644571
  0
LINE
  5
172
330
1F
100
AcDbEntity
  8
0
  6
Continuous
 62
     7
100
AcDbLine
 10
674.1102977768
 20
714.6063076199
 30
0.0
 11
674.0133090463
 21
718.2112235072
 31
0.0
  0
LINE
  5
173
330
1F
100
AcDbEntity
  8
0
  6
Continuous
 62
     7
100
AcDbLine
 10
670.4168711089
 20
722.8762375355
 30
0.0
 11
435.7148594426
 21
791.4240341204
 31
0.0
  0
ARC
  5
174
330
1F
100
AcDbEntity
  8
0
  6
Continuous
 62
     7
100
AcDbCircle
 10
434.3131060385
 20
786.6245458774
 30
0.0
 40
4.999999999999936
100
AcDbArc
 50
73.7188644571
 51
121.752392528
  0
LINE
  5
175
330
1F
100
AcDbEntity
  8
0
  6
Continuous
 62
     7
100
AcDbLine
 10
74.7779960148
 20
531.2711941668
 30
0.0
 11
80.8397916701
 21
305.9639512101
 31
0.0
  0
LINE
  5
176
330
1F
100
AcDbEntity
  8
0
  6
Continuous
 62
     7
100
AcDbLine
 10
776.8894547862
 20
538.9732195935
 30
0.0
 11
542.1410407509
 21
393.6929365896
 31
0.0
  0
LINE
  5
177
330
1F
100
AcDbEntity
  8
0
  6
Continuous
 62
     7
100
AcDbLine
 10
780.1267239126
 20
538.0277327441
 30
0.0
 11
776.8894547862
 21
538.9732195935
 31
0.0
  0
LWPOLYLINE
  5
178
330
1F
100
AcDbEntity
  8
0
  6
Continuous
 62
     7
100
AcDbPolyline
 90
        9
 70
   128
 43
0.0
 10
781.2389551452
 20
535.0298706447
 10
781.7336654181
 20
535.4068644405
 10
782.0538562064
 20
535.8147887379
 10
782.1872227576
 20
536.2379672349
 10
782.1286398699
 20
536.6601374192
 10
781.8803588509
 20
537.0650755273
 10
781.4519210009
 20
537.4372200149
 10
780.8597909461
 20
537.7622695779
 10
780.1267239126
 20
538.0277327441
  0
LINE
  5
179
330
1F
100
AcDbEntity
  8
0
  6
Continuous
 62
     7
100
AcDbLine
 10
781.2389551452
 20
535.0298706447
 30
0.0
 11
552.3592514609
 21
393.3815947159
 31
0.0
  0
ARC
  5
17A
330
1F
100
AcDbEntity
  8
0
  6
Continuous
 62
     7
100
AcDbCircle
 10
548.0509603506
 20
402.0674412568
 30
0.0
 40
9.695633162507765
100
AcDbArc
 50
253.9989439313
 51
296.3820003181
  0
LINE
  5
17B
330
1F
100
AcDbEntity
  8
0
  6
Continuous
 62
     7
100
AcDbLine
 10
545.3783098774
 20
392.7474497402
 30
0.0
 11
542.1410407509
 21
393.6929365896
 31
0.0
  0
ARC
  5
17C
330
1F
100
AcDbEntity
  8
0
  6
Continuous
 62
     7
100
AcDbCircle
 10
554.112756006
 20
176.7601983001
 30
0.0
 40
9.695633162507407
100
AcDbArc
 50
253.9989439313
 51
296.3820003181
  0
LINE
  5
17D
330
1F
100
AcDbEntity
  8
0
  6
Continuous
 62
     7
100
AcDbLine
 10
542.1410407509
 20
393.6929365896
 30
0.0
 11
548.2028364063
 21
168.385693633
 31
0.0
  0
LINE
  5
17E
330
1F
100
AcDbEntity
  8
0
  6
Continuous
 62
     7
100
AcDbLine
 10
551.4401055327
 20
167.4402067835
 30
0.0
 11
548.2028364063
 21
168.385693633
 31
0.0
  0
LINE
  5
17F
330
1F
100
AcDbEntity
  8
0
  6
Continuous
 62
     7
100
AcDbLine
 10
558.4210471162
 20
168.0743517593
 30
0.0
 11
787.3007508005
 21
309.7226276881
 31
0.0
  0
ARC
  5
180
330
1F
100
AcDbEntity
  8
0
  6
Continuous
 62
     7
100
AcDbCircle
 10
786.6874183058
 20
311.1681528818
 30
0.0
 40
1.570261072124278
100
AcDbArc
 50
292.991383272
 51
355.2806848959
  0
ARC
  5
181
330
1F
100
AcDbEntity
  8
0
  6
Continuous
 62
     7
100
AcDbCircle
 10
448.218829058
 20
268.9505401051
 30
0.0
 40
9.242840996506947
100
AcDbArc
 50
80.7724234808
 51
117.1244356431
  0
LINE
  5
182
330
1F
100
AcDbEntity
  8
0
  6
Continuous
 62
     7
100
AcDbLine
 10
685.6877444084
 20
209.2631874371
 30
0.0
 11
644.4407343411
 21
221.309916972
 31
0.0
  0
LINE
  5
183
330
1F
100
AcDbEntity
  8
0
  6
Continuous
 62
     7
100
AcDbLine
 10
546.0054445362
 20
250.0592326442
 30
0.0
 11
476.3852036797
 21
270.3927358577
 31
0.0
  0
LWPOLYLINE
  5
184
330
1F
100
AcDbEntity
  8
0
  6
Continuous
 62
     7
100
AcDbPolyline
 90
        9
 70
   128
 43
0.0
 10
686.799975641
 20
206.2653253378
 10
687.294685914
 20
206.6423191336
 10
687.6148767022
 20
207.0502434309
 10
687.7482432534
 20
207.4734219279
 10
687.6896603657
 20
207.8955921122
 10
687.4413793467
 20
208.3005302203
 10
687.0129414967
 20
208.6726747079
 10
686.4208114419
 20
208.997724271
 10
685.6877444084
 20
209.2631874371
  0
LINE
  5
185
330
1F
100
AcDbEntity
  8
0
  6
Continuous
 62
     7
100
AcDbLine
 10
457.9202719567
 20
64.6170494089
 30
0.0
 11
686.799975641
 21
206.2653253378
 31
0.0
  0
ARC
  5
186
330
1F
100
AcDbEntity
  8
0
  6
Continuous
 62
     7
100
AcDbCircle
 10
453.6119808464
 20
73.3028959498
 30
0.0
 40
9.695633162508031
100
AcDbArc
 50
253.9989439313
 51
296.3820003181
  0
LINE
  5
187
330
1F
100
AcDbEntity
  8
0
  6
Continuous
 62
     7
100
AcDbLine
 10
216.2373187068
 20
132.5307010181
 30
0.0
 11
450.9393303732
 21
63.9829044332
 31
0.0
  0
LWPOLYLINE
  5
188
330
1F
100
AcDbEntity
  8
0
  6
Continuous
 62
     7
100
AcDbPolyline
 90
        9
 70
   128
 43
0.0
 10
215.1250874742
 20
135.5285631174
 10
214.6303772013
 20
135.1515693216
 10
214.310186413
 20
134.7436450242
 10
214.1768198618
 20
134.3204665273
 10
214.2354027495
 20
133.898296343
 10
214.4836837685
 20
133.4933582349
 10
214.9121216186
 20
133.1212137473
 10
215.5042516733
 20
132.7961641842
 10
216.2373187068
 20
132.5307010181
  0
LINE
  5
189
330
1F
100
AcDbEntity
  8
0
  6
Continuous
 62
     7
100
AcDbLine
 10
444.0047911586
 20
277.1768390462
 30
0.0
 11
397.6377331645
 21
248.4813552657
 31
0.0
  0
LINE
  5
18A
330
1F
100
AcDbEntity
  8
0
  6
Continuous
 62
     7
100
AcDbLine
 10
308.3164191081
 20
193.2024907089
 30
0.0
 11
215.1250874742
 21
135.5285631174
 31
0.0
  0
ARC
  5
18B
330
1F
100
AcDbEntity
  8
0
  6
Continuous
 62
     7
100
AcDbCircle
 10
439.9706980488
 20
580.3275454555
 30
0.0
 40
9.695633162507407
100
AcDbArc
 50
253.9989439313
 51
296.3820003181
  0
LINE
  5
18C
330
1F
100
AcDbEntity
  8
0
  6
Continuous
 62
     7
100
AcDbLine
 10
202.5960359092
 20
639.5553505237
 30
0.0
 11
437.2980475756
 21
571.0075539389
 31
0.0
  0
LINE
  5
18D
330
1F
100
AcDbEntity
  8
0
  6
Continuous
 62
     7
100
AcDbLine
 10
444.2789891591
 20
571.6416989146
 30
0.0
 11
673.1586928434
 21
713.2899748434
 31
0.0
  0
LWPOLYLINE
  5
18E
330
1F
100
AcDbEntity
  8
0
  6
Continuous
 62
     7
100
AcDbPolyline
 90
        6
 70
   128
 43
0.0
 10
202.5960359092
 20
639.5553505237
 10
201.8629688757
 20
639.8208136899
 10
201.270838821
 20
640.145863253
 10
200.8424009709
 20
640.5180077405
 10
200.5941199519
 20
640.9229458487
 10
200.5321997432
 20
641.2368798466
  0
ARC
  5
18F
330
1F
100
AcDbEntity
  8
0
  6
Continuous
 62
     7
100
AcDbCircle
 10
672.5453603487
 20
714.7355000371
 30
0.0
 40
1.570261072125086
100
AcDbArc
 50
292.991383272
 51
355.2806848959
  0
LINE
  5
190
330
1F
100
AcDbEntity
  8
0
  6
Continuous
 62
     7
100
AcDbLine
 10
241.1148539753
 20
628.3054251961
 30
0.0
 11
80.0791013072
 21
528.6441779945
 31
0.0
  0
LINE
  5
191
330
1F
100
AcDbEntity
  8
0
  6
Continuous
 62
     7
100
AcDbLine
 10
80.0791013072
 20
528.6441779945
 30
0.0
 11
76.8418321808
 21
529.5896648439
 31
0.0
  0
LWPOLYLINE
  5
192
330
1F
100
AcDbEntity
  8
0
  6
Continuous
 62
     7
100
AcDbPolyline
 90
        9
 70
   128
 43
0.0
 10
75.7296009482
 20
532.5875269433
 10
75.2348906752
 20
532.2105331475
 10
74.9146998869
 20
531.8026088501
 10
74.7813333358
 20
531.3794303531
 10
74.8399162234
 20
530.9572601689
 10
75.0881972425
 20
530.5523220607
 10
75.5166350925
 20
530.1801775732
 10
76.1087651472
 20
529.8551280101
 10
76.8418321808
 20
529.5896648439
  0
LINE
  5
193
330
1F
100
AcDbEntity
  8
0
  6
Continuous
 62
     7
100
AcDbLine
 10
233.8309984408
 20
630.4327706074
 30
0.0
 11
75.7296009482
 21
532.5875269433
 31
0.0
  0
LINE
  5
194
330
1F
100
AcDbEntity
  8
0
  6
Continuous
 62
     7
100
AcDbLine
 10
86.1408969625
 20
303.3369350378
 30
0.0
 11
163.0769498085
 21
350.950852161
 31
0.0
  0
LINE
  5
195
330
1F
100
AcDbEntity
  8
0
  6
Continuous
 62
     7
100
AcDbLine
 10
200.2829071325
 20
373.9767457828
 30
0.0
 11
263.2748851617
 21
412.9610023226
 31
0.0
  0
LINE
  5
196
330
1F
100
AcDbEntity
  8
0
  6
Continuous
 62
     7
100
AcDbLine
 10
287.1455244525
 20
427.7339806445
 30
0.0
 11
320.8893109978
 21
448.6172180417
 31
0.0
  0
LINE
  5
197
330
1F
100
AcDbEntity
  8
0
  6
Continuous
 62
     7
100
AcDbLine
 10
80.0791013072
 20
528.6441779945
 30
0.0
 11
86.1408969625
 21
303.3369350378
 31
0.0
  0
LINE
  5
198
330
1F
100
AcDbEntity
  8
0
  6
Continuous
 62
     7
100
AcDbLine
 10
320.8893109978
 20
448.6172180417
 30
0.0
 11
319.961409738
 21
483.1058228153
 31
0.0
  0
LINE
  5
199
330
1F
100
AcDbEntity
  8
0
  6
Continuous
 62
     7
100
AcDbLine
 10
319.3211075061
 20
506.9048320092
 30
0.0
 11
316.6484062029
 21
606.2448619455
 31
0.0
  0
LINE
  5
19A
330
1F
100
AcDbEntity
  8
0
  6
Continuous
 62
     7
100
AcDbLine
 10
86.1408969625
 20
303.3369350378
 30
0.0
 11
82.9036278361
 21
304.2824218873
 31
0.0
  0
LWPOLYLINE
  5
19B
330
1F
100
AcDbEntity
  8
0
  6
Continuous
 62
     7
100
AcDbPolyline
 90
        6
 70
   128
 43
0.0
 10
82.9036278361
 20
304.2824218873
 10
82.1705608026
 20
304.5478850534
 10
81.5784307478
 20
304.8729346165
 10
81.1499928978
 20
305.2450791041
 10
80.9017118788
 20
305.6500172122
 10
80.8397916701
 20
305.9639512101
  0
LINE
  5
19C
330
1F
100
AcDbEntity
  8
0
  6
Continuous
 62
     7
100
AcDbLine
 10
216.8010156797
 20
341.8389013629
 30
0.0
 11
285.7777841267
 21
247.7033877396
 31
0.0
  0
LINE
  5
19D
330
1F
100
AcDbEntity
  8
0
  6
Continuous
 62
     7
100
AcDbLine
 10
304.395022743
 20
396.0487761683
 30
0.0
 11
216.8010156797
 21
341.8389013629
 31
0.0
  0
LINE
  5
19E
330
1F
100
AcDbEntity
  8
0
  6
Continuous
 62
     7
100
AcDbLine
 10
285.7777841267
 20
247.7033877396
 30
0.0
 11
363.4695203327
 21
295.7849795555
 31
0.0
  0
LINE
  5
19F
330
1F
100
AcDbEntity
  8
0
  6
Continuous
 62
     7
100
AcDbLine
 10
216.8010156797
 20
341.8389013629
 30
0.0
 11
217.1096319303
 21
330.3681292501
 31
0.0
  0
LINE
  5
1A0
330
1F
100
AcDbEntity
  8
0
  6
Continuous
 62
     7
100
AcDbLine
 10
217.1096319303
 20
330.3681292501
 30
0.0
 11
275.4768568435
 21
250.711908472
 31
0.0
  0
LINE
  5
1A1
330
1F
100
AcDbEntity
  8
0
  6
Continuous
 62
     7
100
AcDbLine
 10
285.7777841267
 20
247.7033877396
 30
0.0
 11
275.4768568435
 21
250.711908472
 31
0.0
  0
LINE
  5
1A2
330
1F
100
AcDbEntity
  8
0
  6
Continuous
 62
     7
100
AcDbLine
 10
445.0284890932
 20
275.182078477
 30
0.0
 11
543.6868039164
 21
336.2393936333
 31
0.0
  0
LINE
  5
1A3
330
1F
100
AcDbEntity
  8
0
  6
Continuous
 62
     7
100
AcDbLine
 10
543.995420167
 20
324.7686215205
 30
0.0
 11
445.3371053438
 21
263.7113063641
 31
0.0
  0
LINE
  5
1A4
330
1F
100
AcDbEntity
  8
0
  6
Continuous
 62
     7
100
AcDbLine
 10
445.0284890932
 20
275.182078477
 30
0.0
 11
445.3371053438
 21
263.7113063641
 31
0.0
  0
LINE
  5
1A5
330
1F
100
AcDbEntity
  8
0
  6
Continuous
 62
     7
100
AcDbLine
 10
380.0645891715
 20
220.1656913775
 30
0.0
 11
390.3655164547
 21
217.157170645
 31
0.0
  0
LINE
  5
1A6
330
1F
100
AcDbEntity
  8
0
  6
Continuous
 62
     7
100
AcDbLine
 10
380.0645891715
 20
220.1656913775
 30
0.0
 11
445.0284890932
 21
275.182078477
 31
0.0
  0
LINE
  5
1A7
330
1F
100
AcDbEntity
  8
0
  6
Continuous
 62
     7
100
AcDbLine
 10
390.3655164547
 20
217.157170645
 30
0.0
 11
445.3371053438
 21
263.7113063641
 31
0.0
  0
LINE
  5
1A8
330
1F
100
AcDbEntity
  8
0
  6
Continuous
 62
     7
100
AcDbLine
 10
496.0023027706
 20
282.5332979968
 30
0.0
 11
390.3655164547
 21
217.157170645
 31
0.0
  0
LINE
  5
1A9
330
1F
100
AcDbEntity
  8
0
  6
Continuous
 62
     7
100
AcDbLine
 10
544.037274129
 20
323.2129767377
 30
0.0
 11
496.0023027706
 21
282.5332979968
 31
0.0
  0
LINE
  5
1AA
330
1F
100
AcDbEntity
  8
0
  6
Continuous
 62
     7
100
AcDbLine
 10
442.9795619632
 20
351.3374207108
 30
0.0
 11
442.6709457126
 21
362.8081928236
 31
0.0
  0
LINE
  5
1AB
330
1F
100
AcDbEntity
  8
0
  6
Continuous
 62
     7
100
AcDbLine
 10
442.9795619632
 20
351.3374207108
 30
0.0
 11
374.0027935162
 21
445.4729343341
 31
0.0
  0
LINE
  5
1AC
330
1F
100
AcDbEntity
  8
0
  6
Continuous
 62
     7
100
AcDbLine
 10
374.0027935162
 20
445.4729343341
 30
0.0
 11
384.3037207994
 21
442.4644136017
 31
0.0
  0
LINE
  5
1AD
330
1F
100
AcDbEntity
  8
0
  6
Continuous
 62
     7
100
AcDbLine
 10
442.6709457126
 20
362.8081928236
 30
0.0
 11
384.3037207994
 21
442.4644136017
 31
0.0
  0
LINE
  5
1AE
330
1F
100
AcDbEntity
  8
0
  6
Continuous
 62
     7
100
AcDbLine
 10
548.3077320284
 20
428.1843201754
 30
0.0
 11
442.6709457126
 21
362.8081928236
 31
0.0
  0
LINE
  5
1AF
330
1F
100
AcDbEntity
  8
0
  6
Continuous
 62
     7
100
AcDbLine
 10
548.616348279
 20
416.7135480625
 30
0.0
 11
548.3077320284
 21
428.1843201754
 31
0.0
  0
LINE
  5
1B0
330
1F
100
AcDbEntity
  8
0
  6
Continuous
 62
     7
100
AcDbLine
 10
548.616348279
 20
416.7135480625
 30
0.0
 11
442.9795619632
 21
351.3374207108
 31
0.0
  0
LINE
  5
1B1
330
1F
100
AcDbEntity
  8
0
  6
Continuous
 62
     7
100
AcDbLine
 10
489.9405071152
 20
507.8405409534
 30
0.0
 11
384.3037207994
 21
442.4644136017
 31
0.0
  0
LINE
  5
1B2
330
1F
100
AcDbEntity
  8
0
  6
Continuous
 62
     7
100
AcDbLine
 10
489.9405071152
 20
507.8405409534
 30
0.0
 11
548.3077320284
 21
428.1843201754
 31
0.0
  0
LINE
  5
1B3
330
1F
100
AcDbEntity
  8
0
  6
Continuous
 62
     7
100
AcDbLine
 10
479.639579832
 20
510.8490616859
 30
0.0
 11
489.9405071152
 21
507.8405409534
 31
0.0
  0
LINE
  5
1B4
330
1F
100
AcDbEntity
  8
0
  6
Continuous
 62
     7
100
AcDbLine
 10
374.0027935162
 20
445.4729343341
 30
0.0
 11
479.639579832
 21
510.8490616859
 31
0.0
  0
LINE
  5
1B5
330
1F
100
AcDbEntity
  8
0
  6
Continuous
 62
     7
100
AcDbLine
 10
375.051847504
 20
541.3952787804
 30
0.0
 11
269.4150611882
 21
476.0191514287
 31
0.0
  0
LINE
  5
1B6
330
1F
100
AcDbEntity
  8
0
  6
Continuous
 62
     7
100
AcDbLine
 10
385.3527747873
 20
538.386758048
 30
0.0
 11
375.051847504
 21
541.3952787804
 31
0.0
  0
LINE
  5
1B7
330
1F
100
AcDbEntity
  8
0
  6
Continuous
 62
     7
100
AcDbLine
 10
385.3527747873
 20
538.386758048
 30
0.0
 11
279.7159884714
 21
473.0106306962
 31
0.0
  0
LINE
  5
1B8
330
1F
100
AcDbEntity
  8
0
  6
Continuous
 62
     7
100
AcDbLine
 10
279.7159884714
 20
473.0106306962
 30
0.0
 11
269.4150611882
 21
476.0191514287
 31
0.0
  0
LINE
  5
1B9
330
1F
100
AcDbEntity
  8
0
  6
Continuous
 62
     7
100
AcDbLine
 10
279.7159884714
 20
473.0106306962
 30
0.0
 11
241.8678317568
 21
440.9579238341
 31
0.0
  0
LINE
  5
1BA
330
1F
100
AcDbEntity
  8
0
  6
Continuous
 62
     7
100
AcDbLine
 10
320.3888748655
 20
483.3703709485
 30
0.0
 11
385.3527747873
 21
538.386758048
 31
0.0
  0
LINE
  5
1BB
330
1F
100
AcDbEntity
  8
0
  6
Continuous
 62
     7
100
AcDbLine
 10
248.6546517764
 20
438.975744155
 30
0.0
 11
320.3888748655
 21
483.3703709485
 31
0.0
  0
LINE
  5
1BC
330
1F
100
AcDbEntity
  8
0
  6
Continuous
 62
     7
100
AcDbLine
 10
269.4150611882
 20
476.0191514287
 30
0.0
 11
228.2592182161
 21
441.1652434723
 31
0.0
  0
LINE
  5
1BD
330
1F
100
AcDbEntity
  8
0
  6
Continuous
 62
     7
100
AcDbLine
 10
558.417200561
 20
605.8650516203
 30
0.0
 11
565.7010560955
 21
603.7377062091
 31
0.0
  0
LINE
  5
1BE
330
1F
100
AcDbEntity
  8
0
  6
Continuous
 62
     7
100
AcDbLine
 10
558.417200561
 20
605.8650516203
 30
0.0
 11
583.3592195522
 21
621.3010816895
 31
0.0
  0
LINE
  5
1BF
330
1F
100
AcDbEntity
  8
0
  6
Continuous
 62
     7
100
AcDbLine
 10
583.3592195522
 20
621.3010816895
 30
0.0
 11
590.6430750867
 21
619.1737362782
 31
0.0
  0
LINE
  5
1C0
330
1F
100
AcDbEntity
  8
0
  6
Continuous
 62
     7
100
AcDbLine
 10
565.7010560955
 20
603.7377062091
 30
0.0
 11
590.6430750867
 21
619.1737362782
 31
0.0
  0
LINE
  5
1C1
330
1F
100
AcDbEntity
  8
0
  6
Continuous
 62
     7
100
AcDbLine
 10
590.6430750867
 20
619.1737362782
 30
0.0
 11
594.3951019272
 21
479.7169035194
 31
0.0
  0
LINE
  5
1C2
330
1F
100
AcDbEntity
  8
0
  6
Continuous
 62
     7
100
AcDbLine
 10
594.9395138484
 20
459.4819837057
 30
0.0
 11
595.6367518094
 21
433.5667645857
 31
0.0
  0
LINE
  5
1C3
330
1F
100
AcDbEntity
  8
0
  6
Continuous
 62
     7
100
AcDbLine
 10
570.8738033644
 20
411.4749689034
 30
0.0
 11
570.7223554742
 21
417.1040445982
 31
0.0
  0
LINE
  5
1C4
330
1F
100
AcDbEntity
  8
0
  6
Continuous
 62
     7
100
AcDbLine
 10
570.177943553
 20
437.3389644119
 30
0.0
 11
569.3856573243
 21
466.7869755242
 31
0.0
  0
LINE
  5
1C5
330
1F
100
AcDbEntity
  8
0
  6
Continuous
 62
     7
100
AcDbLine
 10
568.8369514114
 20
487.1814961328
 30
0.0
 11
565.7010560955
 21
603.7377062091
 31
0.0
  0
LINE
  5
1C6
330
1F
100
AcDbEntity
  8
0
  6
Continuous
 62
     7
100
AcDbLine
 10
563.7655400745
 20
407.0758316113
 30
0.0
 11
563.4384999398
 21
419.2313900094
 31
0.0
  0
LINE
  5
1C7
330
1F
100
AcDbEntity
  8
0
  6
Continuous
 62
     7
100
AcDbLine
 10
562.8940880185
 20
439.4663098231
 30
0.0
 11
562.1353251686
 21
467.6683105985
 31
0.0
  0
LINE
  5
1C8
330
1F
100
AcDbEntity
  8
0
  6
Continuous
 62
     7
100
AcDbLine
 10
561.553095877
 20
489.308841544
 30
0.0
 11
558.417200561
 21
605.8650516203
 31
0.0
  0
LINE
  5
1C9
330
1F
100
AcDbEntity
  8
0
  6
Continuous
 62
     7
100
AcDbLine
 10
559.9553238109
 20
489.7754918032
 30
0.0
 11
653.3289254845
 21
462.5045084466
 31
0.0
  0
LINE
  5
1CA
330
1F
100
AcDbEntity
  8
0
  6
Continuous
 62
     7
100
AcDbLine
 10
374.7094903018
 20
482.3994945882
 30
0.0
 11
414.7661540391
 21
470.7004212899
 31
0.0
  0
LINE
  5
1CB
330
1F
100
AcDbEntity
  8
0
  6
Continuous
 62
     7
100
AcDbLine
 10
545.0322567925
 20
432.6544997827
 30
0.0
 11
585.8387564494
 21
420.736427083
 31
0.0
  0
LINE
  5
1CC
330
1F
100
AcDbEntity
  8
0
  6
Continuous
 62
     7
100
AcDbLine
 10
374.7094903018
 20
482.3994945882
 30
0.0
 11
442.1996593369
 21
524.1675759518
 31
0.0
  0
LINE
  5
1CD
330
1F
100
AcDbEntity
  8
0
  6
Continuous
 62
     7
100
AcDbLine
 10
442.1996593369
 20
524.1675759518
 30
0.0
 11
552.6714682764
 21
491.9028372145
 31
0.0
  0
LINE
  5
1CE
330
1F
100
AcDbEntity
  8
0
  6
Continuous
 62
     7
100
AcDbLine
 10
527.7294492852
 20
476.4668071453
 30
0.0
 11
552.6714682764
 21
491.9028372145
 31
0.0
  0
LINE
  5
1CF
330
1F
100
AcDbEntity
  8
0
  6
Continuous
 62
     7
100
AcDbLine
 10
527.7294492852
 20
476.4668071453
 30
0.0
 11
535.0133048196
 21
474.3394617341
 31
0.0
  0
LINE
  5
1D0
330
1F
100
AcDbEntity
  8
0
  6
Continuous
 62
     7
100
AcDbLine
 10
535.0133048196
 20
474.3394617341
 30
0.0
 11
559.9553238109
 21
489.7754918032
 31
0.0
  0
LINE
  5
1D1
330
1F
100
AcDbEntity
  8
0
  6
Continuous
 62
     7
100
AcDbLine
 10
432.5329240064
 20
501.597178817
 30
0.0
 11
420.7955033046
 21
494.3331646668
 31
0.0
  0
LWPOLYLINE
  5
1D2
330
1F
100
AcDbEntity
  8
0
  6
Continuous
 62
     7
100
AcDbPolyline
 90
       19
 70
   128
 43
0.0
 10
426.3566594676
 20
479.34385417
 10
424.6490737845
 20
479.8934351825
 10
423.0661449329
 20
480.507937969
 10
421.6199199573
 20
481.1826857921
 10
420.3214055029
 20
481.9125434135
 10
419.1804840489
 20
482.691956176
 10
418.2058386965
 20
483.5149922779
 10
417.4048870851
 20
484.3753879174
 10
416.7837249404
 20
485.2665949643
 10
416.3470796811
 20
486.1818307947
 10
416.0982744415
 20
487.1141299115
 10
416.0392027796
 20
488.0563969552
 10
416.1703142664
 20
489.0014607049
 10
416.4906110644
 20
489.9421286547
 10
416.9976555214
 20
490.8712417535
 10
417.6875887232
 20
491.7817288896
 10
418.5551598613
 20
492.6666607062
 10
419.5937661955
 20
493.5193023378
 10
420.7955033046
 20
494.3331646668
  0
LINE
  5
1D3
330
1F
100
AcDbEntity
  8
0
  6
Continuous
 62
     7
100
AcDbLine
 10
427.9707523286
 20
478.8724372089
 30
0.0
 11
426.3566594676
 21
479.34385417
 31
0.0
  0
LINE
  5
1D4
330
1F
100
AcDbEntity
  8
0
  6
Continuous
 62
     7
100
AcDbLine
 10
519.3322024589
 20
476.2463126662
 30
0.0
 11
515.0381004334
 21
473.5887937216
 31
0.0
  0
LWPOLYLINE
  5
1D5
330
1F
100
AcDbEntity
  8
0
  6
Continuous
 62
     7
100
AcDbPolyline
 90
       19
 70
   128
 43
0.0
 10
513.7710462959
 20
491.235623163
 10
515.4786319791
 20
490.6860421505
 10
517.0615608306
 20
490.071539364
 10
518.5077858063
 20
489.3967915409
 10
519.8063002606
 20
488.6669339195
 10
520.9472217146
 20
487.887521157
 10
521.9218670671
 20
487.0644850551
 10
522.7228186784
 20
486.2040894156
 10
523.3439808232
 20
485.3128823687
 10
523.7806260824
 20
484.3976465383
 10
524.029431322
 20
483.4653474215
 10
524.088502984
 20
482.5230803778
 10
523.9573914971
 20
481.5780166281
 10
523.6370946992
 20
480.6373486783
 10
523.1300502421
 20
479.7082355795
 10
522.4401170403
 20
478.7977484433
 10
521.5725459022
 20
477.9128166267
 10
520.533939568
 20
477.0601749951
 10
519.3322024589
 20
476.2463126662
  0
LINE
  5
1D6
330
1F
100
AcDbEntity
  8
0
  6
Continuous
 62
     7
100
AcDbLine
 10
513.7710462959
 20
491.235623163
 30
0.0
 11
498.9319154269
 21
495.5695856931
 31
0.0
  0
LINE
  5
1D7
330
1F
100
AcDbEntity
  8
0
  6
Continuous
 62
     7
100
AcDbLine
 10
469.0517247848
 20
504.2964867346
 30
0.0
 11
467.4376319238
 21
504.7679036957
 31
0.0
  0
LWPOLYLINE
  5
1D8
330
1F
100
AcDbEntity
  8
0
  6
Continuous
 62
     7
100
AcDbPolyline
 90
       19
 70
   128
 43
0.0
 10
467.4376319238
 20
504.7679036957
 10
465.6183851671
 20
505.2483802909
 10
463.7013229033
 20
505.6560957519
 10
461.7010351337
 20
505.9879471178
 10
459.6327452559
 20
506.2414087992
 10
457.512194205
 20
506.4145517998
 10
455.3555206548
 20
506.5060583969
 10
453.1791381932
 20
506.5152321698
 10
450.999610405
 20
506.4420033007
 10
448.8335248125
 20
506.2869291055
 10
446.6973666352
 20
506.0511897925
 10
444.6073933265
 20
505.7365794801
 10
442.5795108453
 20
505.3454925428
 10
440.6291526019
 20
504.8809053884
 10
438.7711619999
 20
504.3463538056
 10
437.0196794699
 20
503.7459060548
 10
435.3880348515
 20
503.0841319058
 10
433.8886459453
 20
502.3660678595
 10
432.5329240064
 20
501.597178817
  0
LINE
  5
1D9
330
1F
100
AcDbEntity
  8
0
  6
Continuous
 62
     7
100
AcDbLine
 10
537.5418412951
 20
470.9279491381
 30
0.0
 11
525.8044205933
 21
463.6639349879
 31
0.0
  0
ARC
  5
1DA
330
1F
100
AcDbEntity
  8
0
  6
Continuous
 62
     7
100
AcDbCircle
 10
533.3507368799
 20
451.1809018053
 30
0.0
 40
14.58674079203426
100
AcDbArc
 50
121.1540466828
 51
132.242076811
  0
LINE
  5
1DB
330
1F
100
AcDbEntity
  8
0
  6
Continuous
 62
     7
100
AcDbLine
 10
533.8186602441
 20
447.9581693285
 30
0.0
 11
577.6989911284
 21
435.1423439584
 31
0.0
  0
LWPOLYLINE
  5
1DC
330
1F
100
AcDbEntity
  8
0
  6
Continuous
 62
     7
100
AcDbPolyline
 90
       19
 70
   128
 43
0.0
 10
577.6989911284
 20
435.1423439584
 10
579.518237885
 20
434.6618673631
 10
581.4353001489
 20
434.2541519022
 10
583.4355879185
 20
433.9223005363
 10
585.5038777962
 20
433.6688388549
 10
587.6244288471
 20
433.4956958542
 10
589.7811023974
 20
433.4041892572
 10
591.957484859
 20
433.3950154843
 10
594.1370126472
 20
433.4682443534
 10
596.3030982397
 20
433.6233185485
 10
598.439256417
 20
433.8590578616
 10
600.5292297257
 20
434.173668174
 10
602.5571122068
 20
434.5647551112
 10
604.5074704503
 20
435.0293422657
 10
606.3654610522
 20
435.5638938485
 10
608.1169435822
 20
436.1643415993
 10
609.7485882007
 20
436.8261157483
 10
611.2479771069
 20
437.5441797946
 10
612.6036990458
 20
438.3130688371
  0
LINE
  5
1DD
330
1F
100
AcDbEntity
  8
0
  6
Continuous
 62
     7
100
AcDbLine
 10
624.3411197475
 20
445.5770829873
 30
0.0
 11
612.6036990458
 21
438.3130688371
 31
0.0
  0
LWPOLYLINE
  5
1DE
330
1F
100
AcDbEntity
  8
0
  6
Continuous
 62
     7
100
AcDbPolyline
 90
       19
 70
   128
 43
0.0
 10
618.7799635845
 20
460.5663934841
 10
620.4875492677
 20
460.0168124716
 10
622.0704781193
 20
459.4023096851
 10
623.5167030949
 20
458.727561862
 10
624.8152175492
 20
457.9977042406
 10
625.9561390032
 20
457.2182914781
 10
626.9307843557
 20
456.3952553762
 10
627.731735967
 20
455.5348597367
 10
628.3528981118
 20
454.6436526898
 10
628.7895433711
 20
453.7284168593
 10
629.0383486107
 20
452.7961177426
 10
629.0974202726
 20
451.8538506988
 10
628.9663087858
 20
450.9087869492
 10
628.6460119878
 20
449.9681189994
 10
628.1389675307
 20
449.0390059006
 10
627.449034329
 20
448.1285187644
 10
626.5814631909
 20
447.2435869478
 10
625.5428568566
 20
446.3909453162
 10
624.3411197475
 20
445.5770829873
  0
LINE
  5
1DF
330
1F
100
AcDbEntity
  8
0
  6
Continuous
 62
     7
100
AcDbLine
 10
572.4465492125
 20
474.0986740168
 30
0.0
 11
618.7799635845
 21
460.5663934841
 31
0.0
  0
LWPOLYLINE
  5
1E0
330
1F
100
AcDbEntity
  8
0
  6
Continuous
 62
     7
100
AcDbPolyline
 90
       19
 70
   128
 43
0.0
 10
572.4465492125
 20
474.0986740168
 10
570.6273024558
 20
474.579150612
 10
568.7102401919
 20
474.986866073
 10
566.7099524223
 20
475.3187174389
 10
564.6416625446
 20
475.5721791203
 10
562.5211114937
 20
475.7453221209
 10
560.3644379434
 20
475.8368287179
 10
558.1880554819
 20
475.8460024909
 10
556.0085276936
 20
475.7727736218
 10
553.8424421012
 20
475.6176994266
 10
551.7062839238
 20
475.3819601136
 10
549.6163106152
 20
475.0673498012
 10
547.588428134
 20
474.6762628639
 10
545.6380698905
 20
474.2116757095
 10
543.7800792886
 20
473.6771241267
 10
542.0285967586
 20
473.0766763758
 10
540.3969521401
 20
472.4149022269
 10
538.897563234
 20
471.6968381806
 10
537.5418412951
 20
470.9279491381
  0
LINE
  5
1E1
330
1F
100
AcDbEntity
  8
0
  6
Continuous
 62
     7
100
AcDbLine
 10
374.7094903018
 20
482.3994945882
 30
0.0
 11
374.9277149454
 21
474.2884338418
 31
0.0
  0
LINE
  5
1E2
330
1F
100
AcDbEntity
  8
0
  6
Continuous
 62
     7
100
AcDbLine
 10
374.9277149454
 20
474.2884338418
 30
0.0
 11
405.9320610112
 21
465.2332084848
 31
0.0
  0
LINE
  5
1E3
330
1F
100
AcDbEntity
  8
0
  6
Continuous
 62
     7
100
AcDbLine
 10
548.4306778428
 20
423.6146210222
 30
0.0
 11
577.0046634214
 21
415.2692142779
 31
0.0
  0
LWPOLYLINE
  5
1E4
330
1F
100
AcDbEntity
  8
0
  6
Continuous
 62
     7
100
AcDbPolyline
 90
        8
 70
   128
 43
0.0
 10
618.9981882281
 20
452.4553327376
 10
620.7057739113
 20
451.9057517251
 10
622.2887027629
 20
451.2912489387
 10
623.7349277385
 20
450.6165011156
 10
625.0334421928
 20
449.8866434942
 10
626.1743636468
 20
449.1072307317
 10
627.1490089993
 20
448.2841946298
 10
627.3838172966
 20
448.0541307285
  0
LINE
  5
1E5
330
1F
100
AcDbEntity
  8
0
  6
Continuous
 62
     7
100
AcDbLine
 10
572.6647738561
 20
465.9876132703
 30
0.0
 11
618.9981882281
 21
452.4553327376
 31
0.0
  0
LINE
  5
1E6
330
1F
100
AcDbEntity
  8
0
  6
Continuous
 62
     7
100
AcDbLine
 10
537.7600659386
 20
462.8168883916
 30
0.0
 11
527.557641023
 21
456.5028471012
 31
0.0
  0
LWPOLYLINE
  5
1E7
330
1F
100
AcDbEntity
  8
0
  6
Continuous
 62
     7
100
AcDbPolyline
 90
       19
 70
   128
 43
0.0
 10
572.6647738561
 20
465.9876132703
 10
570.8455270994
 20
466.4680898656
 10
568.9284648355
 20
466.8758053266
 10
566.9281770659
 20
467.2076566924
 10
564.8598871882
 20
467.4611183739
 10
562.7393361373
 20
467.6342613745
 10
560.582662587
 20
467.7257679715
 10
558.4062801255
 20
467.7349417445
 10
556.2267523372
 20
467.6617128754
 10
554.0606667448
 20
467.5066386802
 10
551.9245085674
 20
467.2708993671
 10
549.8345352587
 20
466.9562890548
 10
547.8066527776
 20
466.5652021175
 10
545.8562945341
 20
466.1006149631
 10
543.9983039322
 20
465.5660633803
 10
542.2468214022
 20
464.9656156294
 10
540.6151767837
 20
464.3038414804
 10
539.1157878776
 20
463.5857774342
 10
537.7600659386
 20
462.8168883916
  0
LINE
  5
1E8
330
1F
100
AcDbEntity
  8
0
  6
Continuous
 62
     7
100
AcDbLine
 10
552.6714682764
 20
491.9028372145
 30
0.0
 11
552.8470605209
 21
485.3763545112
 31
0.0
  0
LWPOLYLINE
  5
1E9
330
1F
100
AcDbEntity
  8
0
  6
Continuous
 62
     7
100
AcDbPolyline
 90
        8
 70
   128
 43
0.0
 10
513.9892709395
 20
483.1245624165
 10
515.6968566226
 20
482.574981404
 10
517.2797854742
 20
481.9604786176
 10
518.7260104498
 20
481.2857307945
 10
520.0245249042
 20
480.5558731731
 10
521.1654463582
 20
479.7764604106
 10
522.1400917107
 20
478.9534243087
 10
522.374900008
 20
478.7233604074
  0
ARC
  5
1EA
330
1F
100
AcDbEntity
  8
0
  6
Continuous
 62
     7
100
AcDbCircle
 10
427.9773400096
 20
474.5610237499
 30
0.0
 40
13.58207214242358
100
AcDbArc
 50
120.8442544546
 51
137.4535368177
  0
LINE
  5
1EB
330
1F
100
AcDbEntity
  8
0
  6
Continuous
 62
     7
100
AcDbLine
 10
513.9892709395
 20
483.1245624165
 30
0.0
 11
506.433995605
 21
485.3311795354
 31
0.0
  0
LINE
  5
1EC
330
1F
100
AcDbEntity
  8
0
  6
Continuous
 62
     7
100
AcDbLine
 10
432.75114865
 20
493.4861180705
 30
0.0
 11
421.0137279482
 21
486.2221039203
 31
0.0
  0
LWPOLYLINE
  5
1ED
330
1F
100
AcDbEntity
  8
0
  6
Continuous
 62
     7
100
AcDbPolyline
 90
       15
 70
   128
 43
0.0
 10
459.1902009968
 20
498.1934211499
 10
457.7304188486
 20
498.3034910534
 10
455.5737452984
 20
498.3949976504
 10
453.3973628368
 20
498.4041714234
 10
451.2178350485
 20
498.3309425543
 10
449.0517494561
 20
498.1758683591
 10
446.9155912788
 20
497.940129046
 10
444.8256179701
 20
497.6255187337
 10
442.7977354889
 20
497.2344317964
 10
440.8473772455
 20
496.769844642
 10
438.9893866435
 20
496.2352930592
 10
437.2379041135
 20
495.6348453083
 10
435.6062594951
 20
494.9730711593
 10
434.1068705889
 20
494.2550071131
 10
432.75114865
 20
493.4861180705
  0
LINE
  5
1EE
330
1F
100
AcDbEntity
  8
0
  6
Continuous
 62
     7
100
AcDbLine
 10
390.3765219622
 20
318.7826340485
 30
0.0
 11
395.658361278
 21
322.0514404161
 31
0.0
  0
LINE
  5
1EF
330
1F
100
AcDbEntity
  8
0
  6
Continuous
 62
     7
100
AcDbLine
 10
321.3997535152
 20
412.9181476719
 30
0.0
 11
390.3765219622
 21
318.7826340485
 31
0.0
  0
LINE
  5
1F0
330
1F
100
AcDbEntity
  8
0
  6
Continuous
 62
     7
100
AcDbLine
 10
321.3997535152
 20
412.9181476719
 30
0.0
 11
326.681592831
 21
416.1869540395
 31
0.0
  0
LINE
  5
1F1
330
1F
100
AcDbEntity
  8
0
  6
Continuous
 62
     7
100
AcDbLine
 10
326.681592831
 20
416.1869540395
 30
0.0
 11
395.658361278
 21
322.0514404161
 31
0.0
  0
LINE
  5
1F2
330
1F
100
AcDbEntity
  8
0
  6
Continuous
 62
     7
100
AcDbLine
 10
327.4615491705
 20
187.6109047153
 30
0.0
 11
233.1747441257
 21
215.1486010774
 31
0.0
  0
LINE
  5
1F3
330
1F
100
AcDbEntity
  8
0
  6
Continuous
 62
     7
100
AcDbLine
 10
164.1979756787
 20
309.2841147007
 30
0.0
 11
233.1747441257
 21
215.1486010774
 31
0.0
  0
LINE
  5
1F4
330
1F
100
AcDbEntity
  8
0
  6
Continuous
 62
     7
100
AcDbLine
 10
162.1490485487
 20
385.4394569345
 30
0.0
 11
164.1979756787
 21
309.2841147007
 31
0.0
  0
LINE
  5
1F5
330
1F
100
AcDbEntity
  8
0
  6
Continuous
 62
     7
100
AcDbLine
 10
162.1490485487
 20
385.4394569345
 30
0.0
 11
227.1129484704
 21
440.455844034
 31
0.0
  0
LINE
  5
1F6
330
1F
100
AcDbEntity
  8
0
  6
Continuous
 62
     7
100
AcDbLine
 10
321.3997535152
 20
412.9181476719
 30
0.0
 11
227.1129484704
 21
440.455844034
 31
0.0
  0
LINE
  5
1F7
330
1F
100
AcDbEntity
  8
0
  6
Continuous
 62
     7
100
AcDbLine
 10
390.3765219622
 20
318.7826340485
 30
0.0
 11
392.4254490922
 21
242.6272918148
 31
0.0
  0
LINE
  5
1F8
330
1F
100
AcDbEntity
  8
0
  6
Continuous
 62
     7
100
AcDbLine
 10
392.4254490922
 20
242.6272918148
 30
0.0
 11
327.4615491705
 21
187.6109047153
 31
0.0
  0
LWPOLYLINE
  5
1F9
330
1F
100
AcDbEntity
  8
0
  6
Continuous
 62
     7
100
AcDbPolyline
 90
      156
 70
   128
 43
0.0
 10
363.8841979525
 20
288.7416011519
 10
363.7079171445
 20
292.6703206346
 10
363.3896474053
 20
296.6341395585
 10
362.9299116513
 20
300.6265453794
 10
362.3294652272
 20
304.6409785852
 10
361.5892946648
 20
308.6708434726
 10
360.7106160624
 20
312.7095189843
 10
359.6948730868
 20
316.7503695868
 10
358.5437346008
 20
320.7867561733
 10
357.2590919221
 20
324.8120469713
 10
355.8430557151
 20
328.8196284385
 10
354.2979525237
 20
332.8029161291
 10
352.6263209483
 20
336.7553655119
 10
350.8309074752
 20
340.670482723
 10
348.9146619641
 20
344.5418352349
 10
346.8807328013
 20
348.3630624257
 10
344.732461727
 20
352.1278860293
 10
342.473378345
 20
355.8301204502
 10
340.1071943233
 20
359.463682927
 10
337.6377972962
 20
363.0226035262
 10
335.0692444764
 20
366.5010349506
 10
332.4057559894
 20
369.8932621464
 10
329.6517079399
 20
373.1937116932
 10
326.8116252215
 20
376.3969609612
 10
323.8901740828
 20
379.4977470201
 10
320.8921544602
 20
382.4909752867
 10
317.8224920921
 20
385.3717278948
 10
314.6862304258
 20
388.1352717753
 10
311.488522331
 20
390.777066433
 10
308.2346216335
 20
393.2927714062
 10
304.9298744838
 20
395.6782533981
 10
301.5797105727
 20
397.9295930682
 10
298.1896342107
 20
400.0430914713
 10
294.7652152844
 20
402.015276135
 10
291.3120801051
 20
403.8429067652
 10
287.8359021648
 20
405.5229805694
 10
284.3423928148
 20
407.0527371909
 10
280.8372918817
 20
408.4296632436
 10
277.3263582372
 20
409.6514964415
 10
273.8153603361
 20
410.7162293159
 10
270.3100667386
 20
411.6221125136
 10
266.8162366329
 20
412.3676576707
 10
263.3396103728
 20
412.9516398585
 10
259.885900046
 20
413.3730995959
 10
256.4607800895
 20
413.6313444256
 10
253.0698779665
 20
413.7259500521
 10
249.7187649202
 20
413.6567610384
 10
246.4129468206
 20
413.4238910621
 10
243.1578551181
 20
413.0277227279
 10
239.9588379198
 20
412.4689069392
 10
236.8211512026
 20
411.748361829
 10
233.7499501776
 20
410.867271251
 10
230.7502808199
 20
409.8270828346
 10
227.8270715784
 20
408.6295056069
 10
224.9851252783
 20
407.2765071839
 10
222.2291112298
 20
405.7703105385
 10
219.5635575568
 20
404.1133903479
 10
216.992843757
 20
402.3084689275
 10
214.5211935064
 20
400.3585117587
 10
212.1526677198
 20
398.2667226157
 10
209.891157879
 20
396.0365383028
 10
207.7403796386
 20
393.6716230069
 10
205.7038667217
 20
391.1758622776
 10
203.7849651136
 20
388.5533566432
 10
201.9868275646
 20
385.8084148736
 10
200.31240841
 20
382.9455469009
 10
198.7644587161
 20
379.9694564098
 10
197.3455217602
 20
376.885033109
 10
196.0579288519
 20
373.6973446979
 10
194.903795503
 20
370.4116285402
 10
193.8850179516
 20
367.033283059
 10
193.0032700465
 20
363.567858867
 10
192.2600004973
 20
360.021049647
 10
191.6564304937
 20
356.3986827973
 10
191.1935516999
 20
352.7067098572
 10
190.8721246243
 20
348.9511967283
 10
190.6926773709
 20
345.1383137091
 10
190.655504771
 20
341.2743253561
 10
190.7606678991
 20
337.3655801923
 10
191.0079939724
 20
333.4185002755
 10
191.397076635
 20
329.4395706478
 10
191.9272766248
 20
325.4353286801
 10
192.5977228249
 20
321.4123533314
 10
193.4073136938
 20
317.3772543396
 10
194.3547190759
 20
313.3366613618
 10
195.4383823865
 20
309.2972130817
 10
196.6565231698
 20
305.2655463022
 10
198.0071400237
 20
301.2482850411
 10
199.4880138881
 20
297.2520296483
 10
201.0967116912
 20
293.2833459608
 10
202.8305903468
 20
289.3487545154
 10
204.6868010967
 20
285.4547198357
 10
206.6622941916
 20
281.6076398104
 10
208.7538239015
 20
277.8138351818
 10
210.9579538486
 20
274.079539161
 10
213.2710626532
 20
270.4108871865
 10
215.6893498835
 20
266.8139068439
 10
218.2088423001
 20
263.2945079626
 10
220.8254003835
 20
259.8584729054
 10
223.5347251355
 20
256.5114470692
 10
226.3323651429
 20
253.2589296085
 10
229.2137238903
 20
250.1062644009
 10
232.174067313
 20
247.0586312672
 10
235.2085315744
 20
244.1210374605
 10
238.3121310578
 20
241.2983094399
 10
241.4797665573
 20
238.5950849399
 10
244.7062336561
 20
236.0158053513
 10
247.9862312773
 20
233.5647084239
 10
251.3143703934
 20
231.2458213033
 10
254.6851828806
 20
229.062953915
 10
258.0931305027
 20
227.0196927044
 10
261.5326140109
 20
225.1193947443
 10
264.9979823426
 20
223.3651822192
 10
268.483541907
 20
221.7599372958
 10
271.9835659386
 20
220.3062973873
 10
275.4923039073
 20
219.0066508201
 10
279.0039909658
 20
217.8631329102
 10
282.5128574215
 20
216.8776224545
 10
286.0131382159
 20
216.0517386441
 10
289.499082397
 20
215.3868384039
 10
292.9649625676
 20
214.8840141633
 10
296.4050842956
 20
214.5440920612
 10
299.8137954702
 20
214.3676305887
 10
303.1854955878
 20
214.3549196715
 10
306.5146449539
 20
214.5059801937
 10
309.7957737849
 20
214.8205639631
 10
313.0234911948
 20
215.2981541196
 10
316.1924940523
 20
215.9379659837
 10
319.2975756941
 20
216.7389483462
 10
322.333634479
 20
217.6997851952
 10
325.2956821707
 20
218.8188978782
 10
328.1788521324
 20
220.0944476962
 10
330.9784073235
 20
221.524338924
 10
333.6897480821
 20
223.1062222541
 10
336.3084196826
 20
224.8374986564
 10
338.8301196543
 20
226.7153236483
 10
341.2507048508
 20
228.7366119683
 10
343.5661982571
 20
230.8980426449
 10
345.7727955234
 20
233.1960644533
 10
347.8668712164
 20
235.6269017496
 10
349.844984775
 20
238.1865606745
 10
351.703886164
 20
240.8708357153
 10
353.4405212133
 20
243.6753166149
 10
355.052036636
 20
246.5953956186
 10
356.5357847165
 20
249.6262750444
 10
357.8893276606
 20
252.7629751653
 10
359.1104416008
 20
256.0003423912
 10
360.1971202501
 20
259.3330577362
 10
361.1475781984
 20
262.7556455579
 10
361.9602538457
 20
266.2624825534
 10
362.6338119681
 20
269.8478069986
 10
363.1671459113
 20
273.5057282151
 10
363.5593794091
 20
277.2302362478
 10
363.8098680229
 20
281.0152117398
 10
363.9182002005
 20
284.8544359863
 10
363.8841979525
 20
288.7416011519
  0
LWPOLYLINE
  5
1FA
330
1F
100
AcDbEntity
  8
0
  6
Continuous
 62
     7
100
AcDbPolyline
 90
       22
 70
   128
 43
0.0
 10
242.3712696604
 20
415.306843745
 10
242.2807540353
 20
415.886744538
 10
242.0472671974
 20
416.4592241949
 10
241.6915554767
 20
416.973415386
 10
241.2452254207
 20
417.3836299675
 10
240.7479354136
 20
417.6534185735
 10
240.2438718547
 20
417.7588093026
 10
239.7778230034
 20
417.6904377258
 10
239.3911993454
 20
417.454378958
 10
239.1183540892
 20
417.0716078564
 10
238.9835307333
 20
416.5761353132
 10
238.9987089245
 20
416.0119862384
 10
239.1625400139
 20
415.4292877528
 10
239.4604668902
 20
414.879815174
 10
239.8660174431
 20
414.4123915521
 10
240.3431567263
 20
414.068549527
 10
240.8494888204
 20
413.8788409716
 10
241.340023897
 20
413.8601223237
 10
241.7711757618
 20
414.0140568171
 10
242.1046346795
 20
414.3269666966
 10
242.310771362
 20
414.7710485463
 10
242.3712696604
 20
415.306843745
  0
LWPOLYLINE
  5
1FB
330
1F
100
AcDbEntity
  8
0
  6
Continuous
 62
     7
100
AcDbPolyline
 90
       22
 70
   128
 43
0.0
 10
310.6628351616
 20
395.3613975718
 10
310.5723195365
 20
395.9412983648
 10
310.3388326986
 20
396.5137780217
 10
309.9831209779
 20
397.0279692128
 10
309.5367909219
 20
397.4381837943
 10
309.0395009148
 20
397.7079724003
 10
308.5354373559
 20
397.8133631294
 10
308.0693885046
 20
397.7449915526
 10
307.6827648466
 20
397.5089327847
 10
307.4099195904
 20
397.1261616832
 10
307.2750962345
 20
396.63068914
 10
307.2902744257
 20
396.0665400652
 10
307.4541055151
 20
395.4838415796
 10
307.7520323914
 20
394.9343690008
 10
308.1575829443
 20
394.4669453789
 10
308.6347222275
 20
394.1231033538
 10
309.1410543216
 20
393.9333947984
 10
309.6315893982
 20
393.9146761504
 10
310.062741263
 20
394.0686106439
 10
310.3962001807
 20
394.3815205234
 10
310.6023368632
 20
394.8256023731
 10
310.6628351616
 20
395.3613975718
  0
LWPOLYLINE
  5
1FC
330
1F
100
AcDbEntity
  8
0
  6
Continuous
 62
     7
100
AcDbPolyline
 90
       22
 70
   128
 43
0.0
 10
360.3990177196
 20
327.4843253897
 10
360.3085020946
 20
328.0642261826
 10
360.0750152566
 20
328.6367058396
 10
359.719303536
 20
329.1508970307
 10
359.27297348
 20
329.5611116121
 10
358.7756834728
 20
329.8309002182
 10
358.271619914
 20
329.9362909472
 10
357.8055710627
 20
329.8679193705
 10
357.4189474046
 20
329.6318606026
 10
357.1461021484
 20
329.249089501
 10
357.0112787925
 20
328.7536169579
 10
357.0264569837
 20
328.189467883
 10
357.1902880731
 20
327.6067693974
 10
357.4882149495
 20
327.0572968187
 10
357.8937655024
 20
326.5898731967
 10
358.3709047855
 20
326.2460311716
 10
358.8772368797
 20
326.0563226163
 10
359.3677719563
 20
326.0376039683
 10
359.7989238211
 20
326.1915384617
 10
360.1323827388
 20
326.5044483413
 10
360.3385194213
 20
326.948530191
 10
360.3990177196
 20
327.4843253897
  0
LWPOLYLINE
  5
1FD
330
1F
100
AcDbEntity
  8
0
  6
Continuous
 62
     7
100
AcDbPolyline
 90
       22
 70
   128
 43
0.0
 10
362.4450361327
 20
251.4370955087
 10
362.3545205077
 20
252.0169963017
 10
362.1210336697
 20
252.5894759586
 10
361.7653219491
 20
253.1036671497
 10
361.3189918931
 20
253.5138817312
 10
360.8217018859
 20
253.7836703372
 10
360.3176383271
 20
253.8890610663
 10
359.8515894758
 20
253.8206894895
 10
359.4649658177
 20
253.5846307217
 10
359.1921205615
 20
253.2018596201
 10
359.0572972056
 20
252.7063870769
 10
359.0724753968
 20
252.1422380021
 10
359.2363064862
 20
251.5595395165
 10
359.5342333626
 20
251.0100669377
 10
359.9397839155
 20
250.5426433158
 10
360.4169231986
 20
250.1988012907
 10
360.9232552928
 20
250.0090927353
 10
361.4137903694
 20
249.9903740874
 10
361.8449422341
 20
250.1443085808
 10
362.1784011519
 20
250.4572184603
 10
362.3845378344
 20
250.90130031
 10
362.4450361327
 20
251.4370955087
  0
LWPOLYLINE
  5
1FE
330
1F
100
AcDbEntity
  8
0
  6
Continuous
 62
     7
100
AcDbPolyline
 90
       22
 70
   128
 43
0.0
 10
315.6023605633
 20
211.7671438123
 10
315.5118449383
 20
212.3470446053
 10
315.2783581003
 20
212.9195242622
 10
314.9226463796
 20
213.4337154533
 10
314.4763163237
 20
213.8439300348
 10
313.9790263165
 20
214.1137186408
 10
313.4749627577
 20
214.2191093699
 10
313.0089139064
 20
214.1507377931
 10
312.6222902483
 20
213.9146790253
 10
312.3494449921
 20
213.5319079237
 10
312.2146216362
 20
213.0364353805
 10
312.2297998274
 20
212.4722863057
 10
312.3936309168
 20
211.8895878201
 10
312.6915577932
 20
211.3401152413
 10
313.0971083461
 20
210.8726916194
 10
313.5742476292
 20
210.5288495943
 10
314.0805797234
 20
210.3391410389
 10
314.5711147999
 20
210.320422391
 10
315.0022666647
 20
210.4743568844
 10
315.3357255825
 20
210.7872667639
 10
315.5418622649
 20
211.2313486136
 10
315.6023605633
 20
211.7671438123
  0
LWPOLYLINE
  5
1FF
330
1F
100
AcDbEntity
  8
0
  6
Continuous
 62
     7
100
AcDbPolyline
 90
       22
 70
   128
 43
0.0
 10
247.3107950621
 20
231.7125899855
 10
247.2202794371
 20
232.2924907785
 10
246.9867925991
 20
232.8649704355
 10
246.6310808784
 20
233.3791616266
 10
246.1847508225
 20
233.789376208
 10
245.6874608153
 20
234.0591648141
 10
245.1833972565
 20
234.1645555431
 10
244.7173484052
 20
234.0961839664
 10
244.3307247471
 20
233.8601251985
 10
244.0578794909
 20
233.4773540969
 10
243.923056135
 20
232.9818815538
 10
243.9382343262
 20
232.4177324789
 10
244.1020654156
 20
231.8350339933
 10
244.399992292
 20
231.2855614145
 10
244.8055428449
 20
230.8181377926
 10
245.282682128
 20
230.4742957675
 10
245.7890142222
 20
230.2845872122
 10
246.2795492987
 20
230.2658685642
 10
246.7107011635
 20
230.4198030576
 10
247.0441600813
 20
230.7327129372
 10
247.2502967637
 20
231.1767947869
 10
247.3107950621
 20
231.7125899855
  0
LWPOLYLINE
  5
200
330
1F
100
AcDbEntity
  8
0
  6
Continuous
 62
     7
100
AcDbPolyline
 90
       22
 70
   128
 43
0.0
 10
197.574612504
 20
299.5896621677
 10
197.484096879
 20
300.1695629607
 10
197.250610041
 20
300.7420426176
 10
196.8948983204
 20
301.2562338087
 10
196.4485682644
 20
301.6664483902
 10
195.9512782573
 20
301.9362369962
 10
195.4472146984
 20
302.0416277252
 10
194.9811658471
 20
301.9732561485
 10
194.594542189
 20
301.7371973806
 10
194.3216969328
 20
301.354426279
 10
194.1868735769
 20
300.8589537359
 10
194.2020517681
 20
300.294804661
 10
194.3658828575
 20
299.7121061754
 10
194.6638097339
 20
299.1626335967
 10
195.0693602868
 20
298.6952099747
 10
195.54649957
 20
298.3513679497
 10
196.0528316641
 20
298.1616593943
 10
196.5433667407
 20
298.1429407463
 10
196.9745186055
 20
298.2968752397
 10
197.3079775232
 20
298.6097851193
 10
197.5141142057
 20
299.053866969
 10
197.574612504
 20
299.5896621677
  0
LWPOLYLINE
  5
201
330
1F
100
AcDbEntity
  8
0
  6
Continuous
 62
     7
100
AcDbPolyline
 90
       22
 70
   128
 43
0.0
 10
195.5285940909
 20
375.6368920486
 10
195.4380784659
 20
376.2167928416
 10
195.2045916279
 20
376.7892724985
 10
194.8488799073
 20
377.3034636896
 10
194.4025498513
 20
377.7136782711
 10
193.9052598442
 20
377.9834668772
 10
193.4011962853
 20
378.0888576062
 10
192.935147434
 20
378.0204860294
 10
192.5485237759
 20
377.7844272616
 10
192.2756785198
 20
377.40165616
 10
192.1408551638
 20
376.9061836169
 10
192.156033355
 20
376.342034542
 10
192.3198644444
 20
375.7593360564
 10
192.6177913208
 20
375.2098634776
 10
193.0233418737
 20
374.7424398557
 10
193.5004811569
 20
374.3985978306
 10
194.006813251
 20
374.2088892752
 10
194.4973483276
 20
374.1901706273
 10
194.9285001924
 20
374.3441051207
 10
195.2619591101
 20
374.6570150002
 10
195.4680957926
 20
375.1010968499
 10
195.5285940909
 20
375.6368920486
  0
LWPOLYLINE
  5
202
330
1F
100
AcDbEntity
  8
0
  6
Continuous
 62
     7
100
AcDbPolyline
 90
       77
 70
   128
 43
0.0
 10
223.664793241
 20
406.5798946891
 10
222.2746830728
 20
405.5772752951
 10
219.8030328221
 20
403.6273181262
 10
217.4345070356
 20
401.5355289833
 10
215.1729971948
 20
399.3053446704
 10
213.0222189544
 20
396.9404293745
 10
210.9857060375
 20
394.4446686451
 10
209.0668044294
 20
391.8221630108
 10
207.2686668804
 20
389.0772212412
 10
205.5942477258
 20
386.2143532685
 10
204.0462980319
 20
383.2382627774
 10
202.627361076
 20
380.1538394765
 10
201.3397681677
 20
376.9661510655
 10
200.1856348188
 20
373.6804349078
 10
199.1668572674
 20
370.3020894266
 10
198.2851093623
 20
366.8366652346
 10
197.5418398131
 20
363.2898560146
 10
196.9382698095
 20
359.6674891649
 10
196.4753910157
 20
355.9755162247
 10
196.1539639401
 20
352.2200030959
 10
195.9745166867
 20
348.4071200766
 10
195.9373440868
 20
344.5431317237
 10
196.0425072149
 20
340.6343865599
 10
196.2898332882
 20
336.6873066431
 10
196.6789159507
 20
332.7083770154
 10
197.2091159406
 20
328.7041350477
 10
197.8795621407
 20
324.681159699
 10
198.6891530096
 20
320.6460607072
 10
199.6365583917
 20
316.6054677294
 10
200.7202217023
 20
312.5660194493
 10
201.9383624856
 20
308.5343526698
 10
203.2889793395
 20
304.5170914087
 10
204.7698532039
 20
300.5208360159
 10
206.378551007
 20
296.5521523283
 10
208.1124296626
 20
292.617560883
 10
209.9686404125
 20
288.7235262033
 10
211.9441335074
 20
284.876446178
 10
214.0356632173
 20
281.0826415494
 10
216.2397931644
 20
277.3483455286
 10
218.552901969
 20
273.6796935541
 10
220.9711891993
 20
270.0827132115
 10
223.4906816159
 20
266.5633143301
 10
226.1072396993
 20
263.127279273
 10
228.8165644513
 20
259.7802534368
 10
231.6142044587
 20
256.5277359761
 10
234.4955632061
 20
253.3750707685
 10
237.4559066288
 20
250.3274376348
 10
240.4903708902
 20
247.3898438281
 10
243.5939703736
 20
244.5671158074
 10
246.7616058731
 20
241.8638913075
 10
249.9880729719
 20
239.2846117189
 10
253.2680705931
 20
236.8335147915
 10
256.5962097092
 20
234.5146276708
 10
259.9670221964
 20
232.3317602825
 10
263.3749698185
 20
230.2884990719
 10
266.8144533267
 20
228.3882011118
 10
270.2798216584
 20
226.6339885868
 10
273.7653812228
 20
225.0287436634
 10
277.2654052544
 20
223.5751037549
 10
280.7741432231
 20
222.2754571877
 10
284.2858302816
 20
221.1319392778
 10
287.7946967373
 20
220.1464288221
 10
291.2949775317
 20
219.3205450117
 10
294.7809217128
 20
218.6556447715
 10
298.2468018834
 20
218.1528205309
 10
301.6869236114
 20
217.8128984288
 10
305.095634786
 20
217.6364369563
 10
308.4673349036
 20
217.6237260391
 10
311.7964842697
 20
217.7747865613
 10
315.0776131007
 20
218.0893703307
 10
318.3053305106
 20
218.5669604872
 10
321.4743333681
 20
219.2067723513
 10
324.5794150098
 20
220.0077547138
 10
327.6154737948
 20
220.9685915628
 10
330.5775214865
 20
222.0877042458
 10
333.4606914482
 20
223.3632540637
 10
336.1915437157
 20
224.7556604278
  0
LINE
  5
203
330
1F
100
AcDbEntity
  8
0
  6
Continuous
 62
     7
100
AcDbLine
 10
392.4254490922
 20
242.6272918148
 30
0.0
 11
397.707288408
 21
245.8960981824
 31
0.0
  0
LINE
  5
204
330
1F
100
AcDbEntity
  8
0
  6
Continuous
 62
     7
100
AcDbLine
 10
395.658361278
 20
322.0514404161
 30
0.0
 11
397.707288408
 21
245.8960981824
 31
0.0
  0
LINE
  5
205
330
1F
100
AcDbEntity
  8
0
  6
Continuous
 62
     7
100
AcDbLine
 10
227.1129484704
 20
440.455844034
 30
0.0
 11
232.3947877862
 21
443.7246504016
 31
0.0
  0
LINE
  5
206
330
1F
100
AcDbEntity
  8
0
  6
Continuous
 62
     7
100
AcDbLine
 10
326.681592831
 20
416.1869540395
 30
0.0
 11
232.3947877862
 21
443.7246504016
 31
0.0
  0
LINE
  5
207
330
1F
100
AcDbEntity
  8
0
  6
Continuous
 62
     7
100
AcDbLine
 10
327.4615491705
 20
187.6109047153
 30
0.0
 11
332.7433884863
 21
190.8797110828
 31
0.0
  0
LINE
  5
208
330
1F
100
AcDbEntity
  8
0
  6
Continuous
 62
     7
100
AcDbLine
 10
397.707288408
 20
245.8960981824
 30
0.0
 11
332.7433884863
 21
190.8797110828
 31
0.0
  0
LINE
  5
209
330
1F
100
AcDbEntity
  8
0
  6
Continuous
 62
     7
100
AcDbLine
 10
772.2559900752
 20
536.105677049
 30
0.0
 11
769.746391848
 21
629.383426688
 31
0.0
  0
LINE
  5
20A
330
1F
100
AcDbEntity
  8
0
  6
Continuous
 62
     7
100
AcDbLine
 10
769.746391848
 20
629.383426688
 30
0.0
 11
775.0282311637
 21
632.6522330555
 31
0.0
  0
LINE
  5
20B
330
1F
100
AcDbEntity
  8
0
  6
Continuous
 62
     7
100
AcDbLine
 10
777.5538458984
 20
538.7791754672
 30
0.0
 11
775.0282311637
 21
632.6522330555
 31
0.0
  0
LINE
  5
20C
330
1F
100
AcDbEntity
  8
0
  6
Continuous
 62
     7
100
AcDbLine
 10
557.8805124865
 20
467.7248155909
 30
0.0
 11
562.1674912917
 21
466.4727472809
 31
0.0
  0
LINE
  5
20D
330
1F
100
AcDbEntity
  8
0
  6
Continuous
 62
     7
100
AcDbLine
 10
595.009497342
 20
456.8808092562
 30
0.0
 11
626.9169366007
 21
447.5618237038
 31
0.0
  0
LINE
  5
20E
330
1F
100
AcDbEntity
  8
0
  6
Continuous
 62
     7
100
AcDbLine
 10
543.2184069311
 20
632.8729820874
 30
0.0
 11
546.966318675
 21
493.5691008804
 31
0.0
  0
LINE
  5
20F
330
1F
100
AcDbEntity
  8
0
  6
Continuous
 62
     7
100
AcDbLine
 10
769.746391848
 20
629.383426688
 30
0.0
 11
612.0165006384
 21
675.4505073287
 31
0.0
  0
LINE
  5
210
330
1F
100
AcDbEntity
  8
0
  6
Continuous
 62
     7
100
AcDbLine
 10
775.0282311637
 20
632.6522330555
 30
0.0
 11
617.2983399542
 21
678.7193136963
 31
0.0
  0
LINE
  5
211
330
1F
100
AcDbEntity
  8
0
  6
Continuous
 62
     8
370
     0
100
AcDbLine
 10
552.3592514609
 20
393.3815947159
 30
0.0
 11
558.4210471162
 21
168.0743517593
 31
0.0
  0
LINE
  5
212
330
1F
100
AcDbEntity
  8
0
  6
Continuous
 62
     8
370
     0
100
AcDbLine
 10
551.4401055327
 20
167.4402067835
 30
0.0
 11
545.3783098774
 21
392.7474497402
 31
0.0
  0
LINE
  5
213
330
1F
100
AcDbEntity
  8
0
  6
Continuous
 62
     8
370
     0
100
AcDbLine
 10
787.3007508005
 20
309.7226276881
 30
0.0
 11
781.2389551452
 21
535.0298706447
 31
0.0
  0
LINE
  5
214
330
1F
100
AcDbEntity
  8
0
  6
Continuous
 62
     8
370
     0
100
AcDbLine
 10
457.9202719567
 20
64.6170494089
 30
0.0
 11
458.0172606871
 21
61.0121335216
 31
0.0
  0
ARC
  5
215
330
1F
100
AcDbEntity
  8
0
  6
Continuous
 62
     8
370
     0
100
AcDbCircle
 10
453.7089695769
 20
69.6979800625
 30
0.0
 40
9.695633162508093
100
AcDbArc
 50
253.9989439313
 51
296.3820003181
  0
LINE
  5
216
330
1F
100
AcDbEntity
  8
0
  6
Continuous
 62
     8
370
     0
100
AcDbLine
 10
451.0363191037
 20
60.3779885459
 30
0.0
 11
450.9393303732
 21
63.9829044332
 31
0.0
  0
LWPOLYLINE
  5
217
330
1F
100
AcDbEntity
  8
0
  6
Continuous
 62
     8
370
     0
100
AcDbPolyline
 90
        7
 70
   128
 43
0.0
 10
452.5689208751
 20
57.3945038405
 10
452.4412378682
 20
57.4383520559
 10
451.9814985724
 20
57.7235580805
 10
451.5982021835
 20
58.1805603767
 10
451.3060785668
 20
58.7917966027
 10
451.1163538689
 20
59.533777293
 10
451.0363191037
 20
60.3779885459
  0
ARC
  5
218
330
1F
100
AcDbEntity
  8
0
  6
Continuous
 62
     8
370
     0
100
AcDbCircle
 10
454.6560422963
 20
60.7006656263
 30
0.0
 40
3.375618657492762
100
AcDbArc
 50
305.2013181856
 51
5.294204577
  0
LINE
  5
219
330
1F
100
AcDbEntity
  8
0
  6
Continuous
 62
     8
370
     0
100
AcDbLine
 10
216.3343074373
 20
128.9257851307
 30
0.0
 11
451.0363191037
 21
60.3779885459
 31
0.0
  0
LINE
  5
21A
330
1F
100
AcDbEntity
  8
0
  6
Continuous
 62
     8
370
     0
100
AcDbLine
 10
216.2373187068
 20
132.5307010181
 30
0.0
 11
216.3343074373
 21
128.9257851307
 31
0.0
  0
LINE
  5
21B
330
1F
100
AcDbEntity
  8
0
  6
Continuous
 62
     8
370
     0
100
AcDbLine
 10
686.8969643715
 20
202.6604094505
 30
0.0
 11
686.799975641
 21
206.2653253378
 31
0.0
  0
LINE
  5
21C
330
1F
100
AcDbEntity
  8
0
  6
Continuous
 62
     8
370
     0
100
AcDbLine
 10
458.0172606871
 20
61.0121335216
 30
0.0
 11
686.8969643715
 21
202.6604094505
 31
0.0
  0
LWPOLYLINE
  5
21D
330
1F
100
AcDbEntity
  8
0
  6
Continuous
 62
     8
370
     0
100
AcDbPolyline
 90
        7
 70
   128
 43
0.0
 10
216.3343074373
 20
128.9257851307
 10
216.4143422025
 20
128.0815738779
 10
216.6040669004
 20
127.3395931876
 10
216.8961905172
 20
126.7283569616
 10
217.2794869061
 20
126.2713546653
 10
217.7392262018
 20
125.9861486408
 10
217.8669092087
 20
125.9423004253
  0
ARC
  5
21E
330
1F
100
AcDbEntity
  8
0
  6
Continuous
 62
     8
370
     0
100
AcDbCircle
 10
683.5357459807
 20
202.3489415551
 30
0.0
 40
3.375618657492959
100
AcDbArc
 50
305.2013181856
 51
5.294204577
  0
LWPOLYLINE
  5
21F
330
1F
100
AcDbEntity
  8
0
  6
Continuous
 62
     8
370
     0
100
AcDbPolyline
 90
        6
 70
   128
 43
0.0
 10
216.3343074373
 20
128.9257851307
 10
215.6012404038
 20
129.1912482969
 10
215.0091103491
 20
129.51629786
 10
214.580672499
 20
129.8884423476
 10
214.33239148
 20
130.2933804557
 10
214.2704712713
 20
130.6073144536
  0
ARC
  5
220
330
1F
100
AcDbEntity
  8
0
  6
Continuous
 62
     8
370
     0
100
AcDbCircle
 10
686.2836318768
 20
204.1059346441
 30
0.0
 40
1.570261072123293
100
AcDbArc
 50
292.991383272
 51
355.2806848959
  0
ARC
  5
221
330
1F
100
AcDbEntity
  8
0
  6
Continuous
 62
     8
370
     0
100
AcDbCircle
 10
437.8765792059
 20
574.9973511671
 30
0.0
 40
6.310346199290878
100
AcDbArc
 50
2.2638172959
 51
70.1995623262
  0
ARC
  5
222
330
1F
100
AcDbEntity
  8
0
  6
Continuous
 62
     8
370
     0
100
AcDbCircle
 10
439.8737093184
 20
583.9324613428
 30
0.0
 40
9.695633162507992
100
AcDbArc
 50
253.9989439313
 51
296.3820003181
  0
LWPOLYLINE
  5
223
330
1F
100
AcDbEntity
  8
0
  6
Continuous
 62
     8
370
     0
100
AcDbPolyline
 90
        9
 70
   128
 43
0.0
 10
440.0141781074
 20
580.9346182229
 10
439.4440433254
 20
580.493749198
 10
438.9004775315
 20
579.8966539027
 10
438.4043696543
 20
579.1662783742
 10
437.9747848413
 20
578.3306905346
 10
437.628231796
 20
577.4220015558
 10
437.3780283575
 20
576.4751318458
 10
437.2337897037
 20
575.5264690766
 10
437.2010588451
 20
574.6124698262
  0
LINE
  5
224
330
1F
100
AcDbEntity
  8
0
  6
Continuous
 62
     8
370
     0
100
AcDbLine
 10
437.2980475756
 20
571.0075539389
 30
0.0
 11
437.2010588451
 21
574.6124698262
 31
0.0
  0
LINE
  5
225
330
1F
100
AcDbEntity
  8
0
  6
Continuous
 62
     8
370
     0
100
AcDbLine
 10
444.1820004286
 20
575.2466148019
 30
0.0
 11
444.2789891591
 21
571.6416989146
 31
0.0
  0
LINE
  5
226
330
1F
100
AcDbEntity
  8
0
  6
Continuous
 62
     8
370
     0
100
AcDbLine
 10
205.3121664411
 20
649.4824148077
 30
0.0
 11
440.0141781074
 21
580.9346182229
 31
0.0
  0
LINE
  5
227
330
1F
100
AcDbEntity
  8
0
  6
Continuous
 62
     8
370
     0
100
AcDbLine
 10
437.2010588451
 20
574.6124698262
 30
0.0
 11
202.4990471787
 21
643.160266411
 31
0.0
  0
LWPOLYLINE
  5
228
330
1F
100
AcDbEntity
  8
0
  6
Continuous
 62
     8
370
     0
100
AcDbPolyline
 90
        9
 70
   128
 43
0.0
 10
202.4990471787
 20
643.160266411
 10
202.5317780373
 20
644.0742656614
 10
202.6760166911
 20
645.0229284307
 10
202.9262201296
 20
645.9697981407
 10
203.2727731749
 20
646.8784871194
 10
203.7023579879
 20
647.7140749591
 10
204.1984658651
 20
648.4444504875
 10
204.7420316591
 20
649.0415457829
 10
205.3121664411
 20
649.4824148077
  0
LINE
  5
229
330
1F
100
AcDbEntity
  8
0
  6
Continuous
 62
     8
370
     0
100
AcDbLine
 10
440.0141781074
 20
580.9346182229
 30
0.0
 11
668.8938817918
 21
722.5828941517
 31
0.0
  0
ARC
  5
22A
330
1F
100
AcDbEntity
  8
0
  6
Continuous
 62
     8
370
     0
100
AcDbCircle
 10
666.7562828903
 20
716.645627096
 30
0.0
 40
6.310346199290823
100
AcDbArc
 50
2.2638172959
 51
70.1995623262
  0
LINE
  5
22B
330
1F
100
AcDbEntity
  8
0
  6
Continuous
 62
     8
370
     0
100
AcDbLine
 10
673.0617041129
 20
716.8948907308
 30
0.0
 11
444.1820004286
 21
575.2466148019
 31
0.0
  0
LINE
  5
22C
330
1F
100
AcDbEntity
  8
0
  6
Continuous
 62
     8
370
     0
100
AcDbLine
 10
202.4990471787
 20
643.160266411
 30
0.0
 11
202.5960359092
 21
639.5553505237
 31
0.0
  0
LINE
  5
22D
330
1F
100
AcDbEntity
  8
0
  6
Continuous
 62
     8
370
     0
100
AcDbLine
 10
673.1586928434
 20
713.2899748434
 30
0.0
 11
673.0617041129
 21
716.8948907308
 31
0.0
  0
LINE
  5
22E
330
1F
100
AcDbEntity
  8
0
  6
Continuous
 62
     8
370
     0
100
AcDbLine
 10
434.1918701254
 20
791.1306907365
 30
0.0
 11
205.3121664411
 21
649.4824148077
 31
0.0
  0
LINE
  5
22F
330
1F
100
AcDbEntity
  8
0
  6
Continuous
 62
     8
370
     0
100
AcDbLine
 10
668.8938817918
 20
722.5828941517
 30
0.0
 11
434.1918701254
 21
791.1306907365
 31
0.0
  0
ARC
  5
230
330
1F
100
AcDbEntity
  8
0
  6
Continuous
 62
     8
370
     0
100
AcDbCircle
 10
204.3363543389
 20
646.6015472316
 30
0.0
 40
3.041645483950817
100
AcDbArc
 50
71.2876488297
 51
120.2913819379
  0
LWPOLYLINE
  5
231
330
1F
100
AcDbEntity
  8
0
  6
Continuous
 62
     8
370
     0
100
AcDbPolyline
 90
        6
 70
   128
 43
0.0
 10
200.4352110127
 20
644.8417957339
 10
200.4971312214
 20
644.527861736
 10
200.7454122405
 20
644.1229236279
 10
201.1738500905
 20
643.7507791403
 10
201.7659801452
 20
643.4257295772
 10
202.4990471787
 20
643.160266411
  0
ARC
  5
232
330
1F
100
AcDbEntity
  8
0
  6
Continuous
 62
     8
370
     0
100
AcDbCircle
 10
433.2160580233
 20
788.2498231604
 30
0.0
 40
3.041645483950849
100
AcDbArc
 50
71.2876488297
 51
120.2913819379
  0
ARC
  5
233
330
1F
100
AcDbEntity
  8
0
  6
Continuous
 62
     8
370
     0
100
AcDbCircle
 10
669.9763828957
 20
721.0629545821
 30
0.0
 40
1.86601847126236
100
AcDbArc
 50
76.3460153994
 51
125.45847315
  0
ARC
  5
234
330
1F
100
AcDbEntity
  8
0
  6
Continuous
 62
     8
370
     0
100
AcDbCircle
 10
672.4483716182
 20
718.3404159244
 30
0.0
 40
1.570261072125095
100
AcDbArc
 50
292.991383272
 51
355.2806848959
  0
ARC
  5
235
330
1F
100
AcDbEntity
  8
0
  6
Continuous
 62
     8
370
     0
100
AcDbCircle
 10
435.2743712293
 20
789.610751167
 30
0.0
 40
1.866018471261309
100
AcDbArc
 50
76.3460153994
 51
125.45847315
  0
LINE
  5
236
330
1F
100
AcDbEntity
  8
0
  6
Continuous
 62
     8
370
     0
100
AcDbLine
 10
76.8418321808
 20
529.5896648439
 30
0.0
 11
82.9036278361
 21
304.2824218873
 31
0.0
  0
LINE
  5
237
330
1F
100
AcDbEntity
  8
0
  6
Continuous
 62
     8
370
     0
100
AcDbLine
 10
618.7799635845
 20
460.5663934841
 30
0.0
 11
618.9981882281
 21
452.4553327376
 31
0.0
  0
LINE
  5
238
330
1F
100
AcDbEntity
  8
0
  6
Continuous
 62
     8
370
     0
100
AcDbLine
 10
525.8044205933
 20
463.6639349879
 30
0.0
 11
525.9376023454
 21
458.7137824124
 31
0.0
  0
LINE
  5
239
330
1F
100
AcDbEntity
  8
0
  6
Continuous
 62
     8
370
     0
100
AcDbLine
 10
572.4465492125
 20
474.0986740168
 30
0.0
 11
572.6647738561
 21
465.9876132703
 31
0.0
  0
LINE
  5
23A
330
1F
100
AcDbEntity
  8
0
  6
Continuous
 62
     8
370
     0
100
AcDbLine
 10
537.5418412951
 20
470.9279491381
 30
0.0
 11
537.7600659386
 21
462.8168883916
 31
0.0
  0
LINE
  5
23B
330
1F
100
AcDbEntity
  8
0
  6
Continuous
 62
     8
370
     0
100
AcDbLine
 10
513.7710462959
 20
491.235623163
 30
0.0
 11
513.9892709395
 21
483.1245624165
 31
0.0
  0
LINE
  5
23C
330
1F
100
AcDbEntity
  8
0
  6
Continuous
 62
     8
370
     0
100
AcDbLine
 10
420.7955033046
 20
494.3331646668
 30
0.0
 11
421.0137279482
 21
486.2221039203
 31
0.0
  0
LINE
  5
23D
330
1F
100
AcDbEntity
  8
0
  6
Continuous
 62
     8
370
     0
100
AcDbLine
 10
467.4376319238
 20
504.7679036957
 30
0.0
 11
467.4765429356
 21
503.3216436636
 31
0.0
  0
LINE
  5
23E
330
1F
100
AcDbEntity
  8
0
  6
Continuous
 62
     8
370
     0
100
AcDbLine
 10
432.5329240064
 20
501.597178817
 30
0.0
 11
432.75114865
 21
493.4861180705
 31
0.0
  0
INSERT
  5
244
330
1F
100
AcDbEntity
  8
SLD-0_0
100
AcDbBlockReference
  2
SW_NOTE_10
 10
311.0570159379
 20
805.6806762177
 30
0.0
  0
LEADER
  5
24E
330
1F
100
AcDbEntity
  8
SLD-0_0
100
AcDbLeader
  3
SLDDIMSTYLE0
 76
     2
 10
445.4640321088
 20
711.5611740254
 30
0.0
 10
311.0570159379
 20
805.6806762177
 30
0.0
  0
INSERT
  5
254
330
1F
100
AcDbEntity
  8
SLD-0_0
100
AcDbBlockReference
  2
SW_NOTE_11
 10
490.1338303799
 20
544.1579973586
 30
0.0
  0
LEADER
  5
255
330
1F
100
AcDbEntity
  8
SLD-0_0
100
AcDbLeader
  3
SLDDIMSTYLE0
 76
     2
 10
450.2365245558
 20
518.7463307394
 30
0.0
 10
490.1338303799
 20
544.1579973586
 30
0.0
  0
INSERT
  5
25B
330
1F
100
AcDbEntity
  8
SLD-0_0
100
AcDbBlockReference
  2
SW_NOTE_12
 10
696.0948008953
 20
681.5764904836
 30
0.0
  0
LEADER
  5
25C
330
1F
100
AcDbEntity
  8
SLD-0_0
100
AcDbLeader
  3
SLDDIMSTYLE0
 76
     2
 10
584.2882390314
 20
554.5033676315
 30
0.0
 10
696.0948008953
 20
681.5764904836
 30
0.0
  0
INSERT
  5
262
330
1F
100
AcDbEntity
  8
SLD-0_0
100
AcDbBlockReference
  2
SW_NOTE_13
 10
802.5736113458
 20
604.2463143296
 30
0.0
  0
LEADER
  5
263
330
1F
100
AcDbEntity
  8
SLD-0_0
100
AcDbLeader
  3
SLDDIMSTYLE0
 76
     2
 10
723.1640308715
 20
514.5969016357
 30
0.0
 10
802.5736113458
 20
604.2463143296
 30
0.0
  0
INSERT
  5
269
330
1F
100
AcDbEntity
  8
SLD-0_0
100
AcDbBlockReference
  2
SW_NOTE_14
 10
825.5412172935
 20
368.4435680727
 30
0.0
  0
LEADER
  5
26A
330
1F
100
AcDbEntity
  8
SLD-0_0
100
AcDbLeader
  3
SLDDIMSTYLE0
 76
     2
 10
697.2759812019
 20
340.2214797338
 30
0.0
 10
825.5412172935
 20
368.4435680727
 30
0.0
  0
INSERT
  5
270
102
{ACAD_REACTORS
330
271
102
}
330
1F
100
AcDbEntity
  8
SLD-0_0
100
AcDbBlockReference
  2
SW_NOTE_15
 10
127.582216766
 20
217.8791896996
 30
0.0
  0
LEADER
  5
271
330
1F
100
AcDbEntity
  8
SLD-0_0
100
AcDbLeader
  3
SLDDIMSTYLE0
 73
     2
 76
     2
 10
222.4660112062
 20
243.2071783239
 30
0.0
 10
127.582216766
 20
217.8791896996
 30
0.0
340
270
  0
INSERT
  5
277
330
1F
100
AcDbEntity
  8
SLD-0_0
100
AcDbBlockReference
  2
SW_NOTE_16
 10
267.3970863882
 20
84.0510775265
 30
0.0
  0
LEADER
  5
278
330
1F
100
AcDbEntity
  8
SLD-0_0
100
AcDbLeader
  3
SLDDIMSTYLE0
 76
     2
 10
443.1630838035
 20
147.0830267409
 30
0.0
 10
267.3970863882
 20
84.0510775265
 30
0.0
  0
INSERT
  5
27E
330
1F
100
AcDbEntity
  8
SLD-0_0
100
AcDbBlockReference
  2
SW_NOTE_17
 10
94.0448337604
 20
582.6997816501
 30
0.0
  0
LEADER
  5
27F
330
1F
100
AcDbEntity
  8
SLD-0_0
100
AcDbLeader
  3
SLDDIMSTYLE0
 76
     2
 10
157.1978623152
 20
482.3354573464
 30
0.0
 10
94.0448337604
 20
582.6997816501
 30
0.0
  0
INSERT
  5
285
330
1F
100
AcDbEntity
  8
SLD-0_0
100
AcDbBlockReference
  2
SW_NOTE_18
 10
473.4647165875
 20
319.1392280234
 30
0.0
  0
LEADER
  5
286
330
1F
100
AcDbEntity
  8
SLD-0_0
100
AcDbLeader
  3
SLDDIMSTYLE0
 76
     2
 10
465.3649322903
 20
280.3619486031
 30
0.0
 10
473.4647165875
 20
319.1392280234
 30
0.0
  0
LINE
  5
287
330
1F
100
AcDbEntity
  8
0
  6
Continuous
 62
     7
100
AcDbLine
 10
77.4135801889
 20
1604.0106181236
 30
0.0
 11
77.4135801889
 21
1004.0106181236
 31
0.0
  0
LINE
  5
288
330
1F
100
AcDbEntity
  8
0
  6
Continuous
 62
     7
100
AcDbLine
 10
877.4135801889
 20
1604.0106181236
 30
0.0
 11
77.4135801889
 21
1604.0106181236
 31
0.0
  0
LINE
  5
289
330
1F
100
AcDbEntity
  8
0
  6
Continuous
 62
     7
100
AcDbLine
 10
877.4135801889
 20
1004.0106181236
 30
0.0
 11
877.4135801889
 21
1604.0106181236
 31
0.0
  0
LINE
  5
28A
330
1F
100
AcDbEntity
  8
0
  6
Continuous
 62
     7
100
AcDbLine
 10
77.4135801889
 20
1004.0106181236
 30
0.0
 11
877.4135801889
 21
1004.0106181236
 31
0.0
  0
DIMENSION
  5
28B
330
1F
100
AcDbEntity
  8
SLD-0_0
100
AcDbDimension
  2
_D
 10
77.4135801889
 20
1614.3628519269
 30
0.0
 11
490.4312074988
 21
1614.3628519269
 31
0.0
 70
   160
  1
<>
 71
     2
 42
-1.0
  3
SLDDIMSTYLE1
100
AcDbAlignedDimension
 13
877.4135801889
 23
1604.0106181236
 33
0.0
 14
77.4135801889
 24
1604.0106181236
 34
0.0
 50
0.0
100
AcDbRotatedDimension
  0
DIMENSION
  5
296
330
1F
100
AcDbEntity
  8
SLD-0_0
100
AcDbDimension
  2
_D_1
 10
890.8073997517
 20
1604.0106181236
 30
0.0
 11
890.8073997517
 21
1338.0427856054
 31
0.0
 70
   160
  1
<>
 71
     2
 42
-1.0
  3
SLDDIMSTYLE1
100
AcDbAlignedDimension
 13
877.4135801889
 23
1004.0106181236
 33
0.0
 14
877.4135801889
 24
1604.0106181236
 34
0.0
 50
90.0
100
AcDbRotatedDimension
  0
LINE
  5
2A0
330
1F
100
AcDbEntity
  8
0
  6
Continuous
 62
     7
100
AcDbLine
 10
1540.6975930614
 20
1554.0106181236
 30
0.0
 11
2340.6975930614
 21
1554.0106181236
 31
0.0
  0
LINE
  5
2A1
330
1F
100
AcDbEntity
  8
0
  6
Continuous
 62
     7
100
AcDbLine
 10
1540.6975930614
 20
1054.0106181236
 30
0.0
 11
1540.6975930614
 21
1554.0106181236
 31
0.0
  0
LINE
  5
2A2
330
1F
100
AcDbEntity
  8
0
  6
Continuous
 62
     7
100
AcDbLine
 10
2340.6975930614
 20
1054.0106181236
 30
0.0
 11
1540.6975930614
 21
1054.0106181236
 31
0.0
  0
LINE
  5
2A3
330
1F
100
AcDbEntity
  8
0
  6
Continuous
 62
     7
100
AcDbLine
 10
2340.6975930614
 20
1554.0106181236
 30
0.0
 11
2340.6975930614
 21
1054.0106181236
 31
0.0
  0
DIMENSION
  5
2A4
330
1F
100
AcDbEntity
  8
SLD-0_0
100
AcDbDimension
  2
_D_2
 10
2340.6975930614
 20
1564.0452277169
 30
0.0
 11
1940.0875335419
 21
1564.0452277169
 31
0.0
 70
   160
  1
<>
 71
     2
 42
-1.0
  3
SLDDIMSTYLE1
100
AcDbAlignedDimension
 13
1540.6975930614
 23
1554.0106181236
 33
0.0
 14
2340.6975930614
 24
1554.0106181236
 34
0.0
 50
0.0
100
AcDbRotatedDimension
  0
DIMENSION
  5
2AE
330
1F
100
AcDbEntity
  8
SLD-0_0
100
AcDbDimension
  2
_D_3
 10
2350.6975930614
 20
1054.0106181236
 30
0.0
 11
2350.6975930614
 21
1313.3614560687
 31
0.0
 70
   160
  1
<>
 71
     2
 42
-1.0
  3
SLDDIMSTYLE1
100
AcDbAlignedDimension
 13
2340.6975930614
 23
1554.0106181236
 33
0.0
 14
2340.6975930614
 24
1054.0106181236
 34
0.0
 50
90.0
100
AcDbRotatedDimension
  0
LINE
  5
2B8
330
1F
100
AcDbEntity
  8
0
  6
Continuous
 62
     7
100
AcDbLine
 10
1496.4770020808
 20
1054.0106181236
 30
0.0
 11
932.4770020808
 21
1054.0106181236
 31
0.0
  0
LINE
  5
2B9
330
1F
100
AcDbEntity
  8
0
  6
Continuous
 62
     7
100
AcDbLine
 10
1496.4770020808
 20
1554.0106181236
 30
0.0
 11
1496.4770020808
 21
1054.0106181236
 31
0.0
  0
LINE
  5
2BA
330
1F
100
AcDbEntity
  8
0
  6
Continuous
 62
     7
100
AcDbLine
 10
932.4770020808
 20
1554.0106181236
 30
0.0
 11
1496.4770020808
 21
1554.0106181236
 31
0.0
  0
LINE
  5
2BB
330
1F
100
AcDbEntity
  8
0
  6
Continuous
 62
     7
100
AcDbLine
 10
932.4770020808
 20
1054.0106181236
 30
0.0
 11
932.4770020808
 21
1554.0106181236
 31
0.0
  0
DIMENSION
  5
2BC
330
1F
100
AcDbEntity
  8
SLD-0_0
100
AcDbDimension
  2
_D_4
 10
1496.4770020808
 20
1564.7632900027
 30
0.0
 11
1182.7121351681
 21
1564.7632900027
 31
0.0
 70
   160
  1
<>
 71
     2
 42
-1.0
  3
SLDDIMSTYLE1
100
AcDbAlignedDimension
 13
932.4770020808
 23
1554.0106181236
 33
0.0
 14
1496.4770020808
 24
1554.0106181236
 34
0.0
100
AcDbRotatedDimension
  0
DIMENSION
  5
2C6
330
1F
100
AcDbEntity
  8
SLD-0_0
100
AcDbDimension
  2
_D_5
 10
1506.5924443777
 20
1054.0106181236
 30
0.0
 11
1506.5924443777
 21
1334.4476777379
 31
0.0
 70
   160
  1
<>
 71
     2
 42
-1.0
  3
SLDDIMSTYLE1
100
AcDbAlignedDimension
 13
1496.4770020808
 23
1554.0106181236
 33
0.0
 14
1496.4770020808
 24
1054.0106181236
 34
0.0
 50
90.0
100
AcDbRotatedDimension
  0
DIMENSION
  5
2D0
330
1F
100
AcDbEntity
  8
SLD-0_0
100
AcDbDimension
  2
_D_6
 10
932.4770020808
 20
1043.2881422566
 30
0.0
 11
1231.1698624536
 21
1043.2881422566
 31
0.0
 70
   160
  1
<>
 71
     2
 42
-1.0
  3
SLDDIMSTYLE1
100
AcDbAlignedDimension
 13
1496.4770020808
 23
1054.0106181236
 33
0.0
 14
932.4770020808
 24
1054.0106181236
 34
0.0
100
AcDbRotatedDimension
  0
CIRCLE
  5
2DA
330
1F
100
AcDbEntity
  8
0
  6
Continuous
 62
     7
100
AcDbCircle
 10
1112.4991232244
 20
805.7804750584
 30
0.0
 40
4.199999999999818
  0
CIRCLE
  5
2DB
330
1F
100
AcDbEntity
  8
0
  6
Continuous
 62
     7
100
AcDbCircle
 10
1281.2625168974
 20
805.7804750584
 30
0.0
 40
4.200000000000045
  0
CIRCLE
  5
2DC
330
1F
100
AcDbEntity
  8
0
  6
Continuous
 62
     7
100
AcDbCircle
 10
1400.5962569796
 20
686.4467349762
 30
0.0
 40
4.200000000000045
  0
CIRCLE
  5
2DD
330
1F
100
AcDbEntity
  8
0
  6
Continuous
 62
     7
100
AcDbCircle
 10
1400.5962569796
 20
517.6833413032
 30
0.0
 40
4.199999999999818
  0
CIRCLE
  5
2DE
330
1F
100
AcDbEntity
  8
0
  6
Continuous
 62
     7
100
AcDbCircle
 10
1281.2625168974
 20
398.3496012209
 30
0.0
 40
4.199999999999818
  0
CIRCLE
  5
2DF
330
1F
100
AcDbEntity
  8
0
  6
Continuous
 62
     7
100
AcDbCircle
 10
1112.4991232244
 20
398.3496012209
 30
0.0
 40
4.200000000000045
  0
CIRCLE
  5
2E0
330
1F
100
AcDbEntity
  8
0
  6
Continuous
 62
     7
100
AcDbCircle
 10
993.1653831422
 20
517.6833413032
 30
0.0
 40
4.199999999999932
  0
CIRCLE
  5
2E1
330
1F
100
AcDbEntity
  8
0
  6
Continuous
 62
     7
100
AcDbCircle
 10
993.1653831422
 20
686.4467349762
 30
0.0
 40
4.200000000000045
  0
LINE
  5
2E2
330
1F
100
AcDbEntity
  8
0
  6
Continuous
 62
     7
100
AcDbLine
 10
1313.3824779242
 20
352.0650381397
 30
0.0
 11
1080.3791621976
 21
352.0650381397
 31
0.0
  0
CIRCLE
  5
2E3
330
1F
100
AcDbEntity
  8
0
  6
Continuous
 62
     7
100
AcDbCircle
 10
1196.8808200609
 20
602.0650381397
 30
0.0
 40
214.0
  0
LINE
  5
2E4
330
1F
100
AcDbEntity
  8
0
  6
Continuous
 62
     7
100
AcDbLine
 10
914.8808200609
 20
517.5633802764
 30
0.0
 11
1080.3791621976
 21
352.0650381397
 31
0.0
  0
LINE
  5
2E5
330
1F
100
AcDbEntity
  8
0
  6
Continuous
 62
     7
100
AcDbLine
 10
914.8808200609
 20
686.566696003
 30
0.0
 11
914.8808200609
 21
517.5633802764
 31
0.0
  0
LINE
  5
2E6
330
1F
100
AcDbEntity
  8
0
  6
Continuous
 62
     7
100
AcDbLine
 10
914.8808200609
 20
686.566696003
 30
0.0
 11
1080.3791621976
 21
852.0650381397
 31
0.0
  0
LINE
  5
2E7
330
1F
100
AcDbEntity
  8
0
  6
Continuous
 62
     7
100
AcDbLine
 10
1313.3824779242
 20
852.0650381397
 30
0.0
 11
1080.3791621976
 21
852.0650381397
 31
0.0
  0
LINE
  5
2E8
330
1F
100
AcDbEntity
  8
0
  6
Continuous
 62
     7
100
AcDbLine
 10
1313.3824779242
 20
852.0650381397
 30
0.0
 11
1478.8808200609
 21
686.566696003
 31
0.0
  0
LINE
  5
2E9
330
1F
100
AcDbEntity
  8
0
  6
Continuous
 62
     7
100
AcDbLine
 10
1478.8808200609
 20
686.566696003
 30
0.0
 11
1478.8808200609
 21
517.5633802764
 31
0.0
  0
LINE
  5
2EA
330
1F
100
AcDbEntity
  8
0
  6
Continuous
 62
     7
100
AcDbLine
 10
1478.8808200609
 20
517.5633802764
 30
0.0
 11
1313.3824779242
 21
352.0650381397
 31
0.0
  0
DIMENSION
  5
2EB
330
1F
100
AcDbEntity
  8
SLD-0_0
100
AcDbDimension
  2
_D_7
 10
1478.8808200609
 20
869.0650381397
 30
0.0
 11
1192.6814836679
 21
869.0650381397
 31
0.0
 70
   160
  1
<>
 71
     2
 42
-1.0
  3
SLDDIMSTYLE1
100
AcDbAlignedDimension
 13
914.8808200609
 23
686.566696003
 33
0.0
 14
1478.8808200609
 24
686.566696003
 34
0.0
100
AcDbRotatedDimension
  0
DIMENSION
  5
2F5
330
1F
100
AcDbEntity
  8
SLD-0_0
100
AcDbDimension
  2
_D_8
 10
897.8808200609
 20
352.0650381397
 30
0.0
 11
897.8808200609
 21
599.6559725333
 31
0.0
 70
   160
  1
<>
 71
     2
 42
-1.0
  3
SLDDIMSTYLE1
100
AcDbAlignedDimension
 13
1080.3791621976
 23
852.0650381397
 33
0.0
 14
1080.3791621976
 24
352.0650381397
 34
0.0
 50
90.0
100
AcDbRotatedDimension
  0
DIMENSION
  5
2FF
330
1F
100
AcDbEntity
  8
SLD-0_0
100
AcDbDimension
  2
_D_9
 10
1389.9330404206
 20
509.7241467957
 30
0.0
 11
1317.1477639372
 21
544.5388728248
 31
0.0
 70
   163
  1
<>
 71
     1
 42
-1.0
  3
SLDDIMSTYLE2
100
AcDbDiametricDimension
 15
1003.8285997012
 25
694.4059294836
 35
0.0
 40
0.0
  0
DIMENSION
  5
309
330
1F
100
AcDbEntity
  8
SLD-0_0
100
AcDbDimension
  2
_D_10
 10
1281.1342286474
 20
809.9785153304
 30
0.0
 11
1291.8782747256
 21
749.7156714479
 31
0.0
 70
   163
  1
<>
 71
     1
 42
-1.0
  3
SLDDIMSTYLE3
100
AcDbDiametricDimension
 15
1281.3908051474
 25
801.5824347865
 35
0.0
 40
0.0
  0
DIMENSION
  5
317
330
1F
100
AcDbEntity
  8
SLD-0_0
100
AcDbDimension
  2
_D_11
 10
1080.3791621976
 20
342.0650381397
 30
0.0
 11
1204.7923110781
 21
342.0650381397
 31
0.0
 70
   160
  1
<>
 71
     2
 42
-1.0
  3
SLDDIMSTYLE1
100
AcDbAlignedDimension
 13
1313.3824779242
 23
352.0650381397
 33
0.0
 14
1080.3791621976
 24
352.0650381397
 34
0.0
100
AcDbRotatedDimension
  0
DIMENSION
  5
321
330
1F
100
AcDbEntity
  8
SLD-0_0
100
AcDbDimension
  2
_D_12
 10
904.8808200609
 20
517.5633802764
 30
0.0
 11
904.8808200609
 21
600.3927100649
 31
0.0
 70
   160
  1
<>
 71
     2
 42
-1.0
  3
SLDDIMSTYLE1
100
AcDbAlignedDimension
 13
914.8808200609
 23
686.566696003
 33
0.0
 14
914.8808200609
 24
517.5633802764
 34
0.0
 50
90.0
100
AcDbRotatedDimension
  0
DIMENSION
  5
32B
330
1F
100
AcDbEntity
  8
SLD-0_0
100
AcDbDimension
  2
_D_13
 10
1080.3791621976
 20
352.0650381397
 30
0.0
 11
945.5363732593
 21
408.454489778
 31
0.0
 70
   162
  1
<>
 71
     1
 42
-1.0
  3
SLDDIMSTYLE4
100
AcDb2LineAngularDimension
 13
1080.3791621976
 23
352.0650381397
 33
0.0
 14
1313.3824779242
 24
352.0650381397
 34
0.0
 15
914.8808200609
 25
517.5633802764
 35
0.0
 16
945.3461863977
 26
407.9975280836
 36
0.0
  0
INSERT
  5
378
330
1F
100
AcDbEntity
  8
SLD-0_0
100
AcDbBlockReference
  2
SW_CENTERMARKSYMBOL_0
 10
1281.2625168974
 20
805.7804750584
 30
0.0
  0
LINE
  5
379
330
1F
100
AcDbEntity
  8
0
  6
Continuous
 62
     7
100
AcDbLine
 10
1993.1425242235
 20
989.4258621799
 30
0.0
 11
2266.1425242235
 21
989.4258621799
 31
0.0
  0
LINE
  5
37A
330
1F
100
AcDbEntity
  8
0
  6
Continuous
 62
     7
100
AcDbLine
 10
2006.6425242235
 20
894.4258621799
 30
0.0
 11
2006.6425242235
 21
854.4258621799
 31
0.0
  0
LINE
  5
37B
330
1F
100
AcDbEntity
  8
0
  6
Continuous
 62
     7
100
AcDbLine
 10
1747.1425242235
 20
894.4258621799
 30
0.0
 11
1747.1425242235
 21
854.4258621799
 31
0.0
  0
ARC
  5
37C
330
1F
100
AcDbEntity
  8
0
  6
Continuous
 62
     7
100
AcDbCircle
 10
2056.6425242235
 20
854.4258621799
 30
0.0
 40
50.00000000000045
100
AcDbArc
 50
180.0
 51
270.0
  0
LINE
  5
37D
330
1F
100
AcDbEntity
  8
0
  6
Continuous
 62
     7
100
AcDbLine
 10
2056.6425242235
 20
804.4258621799
 30
0.0
 11
2171.1425242235
 21
804.4258621799
 31
0.0
  0
ARC
  5
37E
330
1F
100
AcDbEntity
  8
0
  6
Continuous
 62
     7
100
AcDbCircle
 10
2171.1425242235
 20
854.4258621799
 30
0.0
 40
50.00000000000011
100
AcDbArc
 50
270.0
 51
0.0
  0
LINE
  5
37F
330
1F
100
AcDbEntity
  8
0
  6
Continuous
 62
     7
100
AcDbLine
 10
2221.1425242235
 20
894.4258621799
 30
0.0
 11
2221.1425242235
 21
854.4258621799
 31
0.0
  0
ARC
  5
380
330
1F
100
AcDbEntity
  8
0
  6
Continuous
 62
     7
100
AcDbCircle
 10
2171.1425242235
 20
894.4258621799
 30
0.0
 40
50.0
100
AcDbArc
 50
0.0
 51
90.0
  0
LINE
  5
381
330
1F
100
AcDbEntity
  8
0
  6
Continuous
 62
     7
100
AcDbLine
 10
2056.6425242235
 20
944.4258621799
 30
0.0
 11
2171.1425242235
 21
944.4258621799
 31
0.0
  0
ARC
  5
382
330
1F
100
AcDbEntity
  8
0
  6
Continuous
 62
     7
100
AcDbCircle
 10
2056.6425242235
 20
894.4258621799
 30
0.0
 40
50.00000000000045
100
AcDbArc
 50
90.0
 51
180.0
  0
ARC
  5
383
330
1F
100
AcDbEntity
  8
0
  6
Continuous
 62
     7
100
AcDbCircle
 10
1797.1425242235
 20
854.4258621799
 30
0.0
 40
50.00000000000011
100
AcDbArc
 50
180.0
 51
270.0
  0
LINE
  5
384
330
1F
100
AcDbEntity
  8
0
  6
Continuous
 62
     7
100
AcDbLine
 10
1911.6425242235
 20
804.4258621799
 30
0.0
 11
1797.1425242235
 21
804.4258621799
 31
0.0
  0
ARC
  5
385
330
1F
100
AcDbEntity
  8
0
  6
Continuous
 62
     7
100
AcDbCircle
 10
1911.6425242235
 20
854.4258621799
 30
0.0
 40
50.00000000000011
100
AcDbArc
 50
270.0
 51
0.0
  0
LINE
  5
386
330
1F
100
AcDbEntity
  8
0
  6
Continuous
 62
     7
100
AcDbLine
 10
1961.6425242235
 20
894.4258621799
 30
0.0
 11
1961.6425242235
 21
854.4258621799
 31
0.0
  0
ARC
  5
387
330
1F
100
AcDbEntity
  8
0
  6
Continuous
 62
     7
100
AcDbCircle
 10
1911.6425242235
 20
894.4258621799
 30
0.0
 40
50.0
100
AcDbArc
 50
0.0
 51
90.0
  0
LINE
  5
388
330
1F
100
AcDbEntity
  8
0
  6
Continuous
 62
     7
100
AcDbLine
 10
1911.6425242235
 20
944.4258621799
 30
0.0
 11
1797.1425242235
 21
944.4258621799
 31
0.0
  0
ARC
  5
389
330
1F
100
AcDbEntity
  8
0
  6
Continuous
 62
     7
100
AcDbCircle
 10
1797.1425242235
 20
894.4258621799
 30
0.0
 40
50.0
100
AcDbArc
 50
90.0
 51
180.0
  0
LINE
  5
38A
330
1F
100
AcDbEntity
  8
0
  6
Continuous
 62
     7
100
AcDbLine
 10
2266.1425242235
 20
759.4258621799
 30
0.0
 11
2266.1425242235
 21
989.4258621799
 31
0.0
  0
LINE
  5
38B
330
1F
100
AcDbEntity
  8
0
  6
Continuous
 62
     7
100
AcDbLine
 10
1702.1425242235
 20
759.4258621799
 30
0.0
 11
2266.1425242235
 21
759.4258621799
 31
0.0
  0
LINE
  5
38C
330
1F
100
AcDbEntity
  8
0
  6
Continuous
 62
     7
100
AcDbLine
 10
1702.1425242235
 20
759.4258621799
 30
0.0
 11
1702.1425242235
 21
989.4258621799
 31
0.0
  0
LINE
  5
38D
330
1F
100
AcDbEntity
  8
0
  6
Continuous
 62
     7
100
AcDbLine
 10
1702.1425242235
 20
989.4258621799
 30
0.0
 11
1975.1425242235
 21
989.4258621799
 31
0.0
  0
LINE
  5
38E
330
1F
100
AcDbEntity
  8
0
  6
Continuous
 62
     7
100
AcDbLine
 10
1975.1425242235
 20
904.4258621799
 30
0.0
 11
1975.1425242235
 21
989.4258621799
 31
0.0
  0
LINE
  5
38F
330
1F
100
AcDbEntity
  8
0
  6
Continuous
 62
     7
100
AcDbLine
 10
1975.1425242235
 20
904.4258621799
 30
0.0
 11
1993.1425242235
 21
904.4258621799
 31
0.0
  0
LINE
  5
390
330
1F
100
AcDbEntity
  8
0
  6
Continuous
 62
     7
100
AcDbLine
 10
1993.1425242235
 20
904.4258621799
 30
0.0
 11
1993.1425242235
 21
989.4258621799
 31
0.0
  0
DIMENSION
  5
391
330
1F
100
AcDbEntity
  8
SLD-0_0
100
AcDbDimension
  2
_D_14
 10
2266.1425242235
 20
739.8798168999
 30
0.0
 11
1977.7764819736
 21
739.8798168999
 31
0.0
 70
   160
  1
<>
 71
     2
 42
-1.0
  3
SLDDIMSTYLE1
100
AcDbAlignedDimension
 13
1702.1425242235
 23
759.4258621799
 33
0.0
 14
2266.1425242235
 24
759.4258621799
 34
0.0
100
AcDbRotatedDimension
  0
DIMENSION
  5
39B
330
1F
100
AcDbEntity
  8
SLD-0_0
100
AcDbDimension
  2
_D_15
 10
1961.6425242235
 20
749.4258621799
 30
0.0
 11
1845.4274738405
 21
749.4258621799
 31
0.0
 70
   160
  1
<>
 71
     2
 42
-1.0
  3
SLDDIMSTYLE5
100
AcDbAlignedDimension
 13
1747.1425242235
 23
854.4258621799
 33
0.0
 14
1961.6425242235
 24
854.4258621799
 34
0.0
100
AcDbRotatedDimension
  0
DIMENSION
  5
3A6
330
1F
100
AcDbEntity
  8
SLD-0_0
100
AcDbDimension
  2
_D_16
 10
1685.1425242235
 20
804.4258621799
 30
0.0
 11
1685.1425242235
 21
870.1777535688
 31
0.0
 70
   160
  1
<>
 71
     2
 42
-1.0
  3
SLDDIMSTYLE1
100
AcDbAlignedDimension
 13
1797.1425242235
 23
944.4258621799
 33
0.0
 14
1797.1425242235
 24
804.4258621799
 34
0.0
 50
90.0
100
AcDbRotatedDimension
  0
DIMENSION
  5
3B0
330
1F
100
AcDbEntity
  8
SLD-0_0
100
AcDbDimension
  2
_D_17
 10
1671.1425242235
 20
989.4258621799
 30
0.0
 11
1671.1425242235
 21
870.1777535688
 31
0.0
 70
   160
  1
<>
 71
     2
 42
-1.0
  3
SLDDIMSTYLE1
100
AcDbAlignedDimension
 13
1702.1425242235
 23
759.4258621799
 33
0.0
 14
1702.1425242235
 24
989.4258621799
 34
0.0
 50
90.0
100
AcDbRotatedDimension
  0
DIMENSION
  5
3BA
330
1F
100
AcDbEntity
  8
SLD-0_0
100
AcDbDimension
  2
_D_18
 10
1911.6425242235
 20
854.4258621799
 30
0.0
 11
1974.2712404704
 21
799.2546449748
 31
0.0
 70
   164
  1
<>
 71
     1
 42
-1.0
  3
SLDDIMSTYLE6
100
AcDbRadialDimension
 15
1949.160973359
 25
821.3749019145
 35
0.0
 40
0.0
  0
DIMENSION
  5
3C3
330
1F
100
AcDbEntity
  8
SLD-0_0
100
AcDbDimension
  2
_D_19
 10
2002.9044537051
 20
989.4258621799
 30
0.0
 11
2002.9044537051
 21
944.4055496153
 31
0.0
 70
   160
  1
<>
 71
     2
 42
-1.0
  3
SLDDIMSTYLE1
100
AcDbAlignedDimension
 13
1993.1425242235
 23
904.4258621799
 33
0.0
 14
1993.1425242235
 24
989.4258621799
 34
0.0
 50
90.0
100
AcDbRotatedDimension
  0
DIMENSION
  5
3CC
330
1F
100
AcDbEntity
  8
SLD-0_0
100
AcDbDimension
  2
_D_20
 10
1993.1425242235
 20
997.8603689586
 30
0.0
 11
1984.2557917114
 21
997.8603689586
 31
0.0
 70
   160
  1
<>
 71
     2
 42
-1.0
  3
SLDDIMSTYLE7
100
AcDbAlignedDimension
 13
1975.1425242235
 23
989.4258621799
 33
0.0
 14
1993.1425242235
 24
989.4258621799
 34
0.0
100
AcDbRotatedDimension
  0
DIMENSION
  5
3D9
330
1F
100
AcDbEntity
  8
SLD-0_0
100
AcDbDimension
  2
_D_21
 10
1702.1425242235
 20
749.4258621799
 30
0.0
 11
1723.8748020415
 21
749.4258621799
 31
0.0
 70
   160
  1
<>
 71
     2
 42
-1.0
  3
SLDDIMSTYLE1
100
AcDbAlignedDimension
 13
1747.1425242235
 23
854.4258621799
 33
0.0
 14
1702.1425242235
 24
759.4258621799
 34
0.0
100
AcDbRotatedDimension
  0
DIMENSION
  5
3E3
330
1F
100
AcDbEntity
  8
SLD-0_0
100
AcDbDimension
  2
_D_22
 10
1685.1425242235
 20
759.4258621799
 30
0.0
 11
1685.1425242235
 21
786.7279768789
 31
0.0
 70
   160
  1
<>
 71
     2
 42
-1.0
  3
SLDDIMSTYLE1
100
AcDbAlignedDimension
 13
1797.1425242235
 23
804.4258621799
 33
0.0
 14
1702.1425242235
 24
759.4258621799
 34
0.0
 50
90.0
100
AcDbRotatedDimension
  0
LINE
  5
3ED
330
1F
100
AcDbEntity
  8
0
  6
Continuous
 62
     7
100
AcDbLine
 10
2223.6197799206
 20
599.5970692684
 30
0.0
 11
2223.6197799206
 21
684.5970692684
 31
0.0
  0
LINE
  5
3EE
330
1F
100
AcDbEntity
  8
0
  6
Continuous
 62
     7
100
AcDbLine
 10
1723.6197799206
 20
684.5970692684
 30
0.0
 11
1723.6197799206
 21
599.5970692684
 31
0.0
  0
LINE
  5
3EF
330
1F
100
AcDbEntity
  8
0
  6
Continuous
 62
     7
100
AcDbLine
 10
2223.6197799206
 20
684.5970692684
 30
0.0
 11
1723.6197799206
 21
684.5970692684
 31
0.0
  0
LINE
  5
3F0
330
1F
100
AcDbEntity
  8
0
  6
Continuous
 62
     7
100
AcDbLine
 10
1723.6197799206
 20
599.5970692684
 30
0.0
 11
2223.6197799206
 21
599.5970692684
 31
0.0
  0
DIMENSION
  5
3F1
330
1F
100
AcDbEntity
  8
SLD-0_0
100
AcDbDimension
  2
_D_23
 10
1716.2689275321
 20
599.5970692684
 30
0.0
 11
1716.2689275321
 21
636.9835234398
 31
0.0
 70
   160
  1
<>
 71
     2
 42
-1.0
  3
SLDDIMSTYLE1
100
AcDbAlignedDimension
 13
1723.6197799206
 23
684.5970692684
 33
0.0
 14
1723.6197799206
 24
599.5970692684
 34
0.0
 50
90.0
100
AcDbRotatedDimension
  0
DIMENSION
  5
3FB
330
1F
100
AcDbEntity
  8
SLD-0_0
100
AcDbDimension
  2
_D_24
 10
2223.6197799206
 20
589.5970692684
 30
0.0
 11
1964.8387630063
 21
589.5970692684
 31
0.0
 70
   160
  1
<>
 71
     2
 42
-1.0
  3
SLDDIMSTYLE1
100
AcDbAlignedDimension
 13
1723.6197799206
 23
599.5970692684
 33
0.0
 14
2223.6197799206
 24
599.5970692684
 34
0.0
100
AcDbRotatedDimension
  0
LINE
  5
405
330
1F
100
AcDbEntity
  8
0
  6
Continuous
 62
     7
100
AcDbLine
 10
1894.3400980536
 20
541.6172242878
 30
0.0
 11
2254.3400980536
 21
541.6172242878
 31
0.0
  0
LINE
  5
406
330
1F
100
AcDbEntity
  8
0
  6
Continuous
 62
     7
100
AcDbLine
 10
2254.3400980536
 20
541.6172242878
 30
0.0
 11
2254.3400980536
 21
523.6172242878
 31
0.0
  0
LINE
  5
407
330
1F
100
AcDbEntity
  8
0
  6
Continuous
 62
     7
100
AcDbLine
 10
2254.3400980536
 20
523.6172242878
 30
0.0
 11
1894.3400980536
 21
523.6172242878
 31
0.0
  0
LINE
  5
408
330
1F
100
AcDbEntity
  8
0
  6
Continuous
 62
     7
100
AcDbLine
 10
1894.3400980536
 20
541.6172242878
 30
0.0
 11
1894.3400980536
 21
523.6172242878
 31
0.0
  0
LINE
  5
409
330
1F
100
AcDbEntity
  8
0
  6
Continuous
 62
     7
100
AcDbLine
 10
2254.3400980536
 20
325.5672242878
 30
0.0
 11
1894.3400980536
 21
325.5672242878
 31
0.0
  0
LINE
  5
40A
330
1F
100
AcDbEntity
  8
0
  6
Continuous
 62
     7
100
AcDbLine
 10
2254.3400980536
 20
523.6172242878
 30
0.0
 11
2254.3400980536
 21
325.5672242878
 31
0.0
  0
LINE
  5
40B
330
1F
100
AcDbEntity
  8
0
  6
Continuous
 62
     7
100
AcDbLine
 10
1894.3400980536
 20
325.5672242878
 30
0.0
 11
1894.3400980536
 21
523.6172242878
 31
0.0
  0
LINE
  5
40C
330
1F
100
AcDbEntity
  8
0
  6
Continuous
 62
     7
100
AcDbLine
 10
2254.3400980536
 20
307.5672242878
 30
0.0
 11
1894.3400980536
 21
307.5672242878
 31
0.0
  0
LINE
  5
40D
330
1F
100
AcDbEntity
  8
0
  6
Continuous
 62
     7
100
AcDbLine
 10
2254.3400980536
 20
307.5672242878
 30
0.0
 11
2254.3400980536
 21
325.5672242878
 31
0.0
  0
LINE
  5
40E
330
1F
100
AcDbEntity
  8
0
  6
Continuous
 62
     7
100
AcDbLine
 10
1894.3400980536
 20
307.5672242878
 30
0.0
 11
1894.3400980536
 21
325.5672242878
 31
0.0
  0
DIMENSION
  5
40F
330
1F
100
AcDbEntity
  8
SLD-0_0
100
AcDbDimension
  2
_D_25
 10
1894.3400980536
 20
284.6475856945
 30
0.0
 11
2070.3111862908
 21
284.6475856945
 31
0.0
 70
   160
  1
<>
 71
     2
 42
-1.0
  3
SLDDIMSTYLE1
100
AcDbAlignedDimension
 13
2254.3400980536
 23
307.5672242878
 33
0.0
 14
1894.3400980536
 24
307.5672242878
 34
0.0
 50
0.0
100
AcDbRotatedDimension
  0
LINE
  5
419
330
1F
100
AcDbEntity
  8
0
  6
Continuous
 62
     7
100
AcDbLine
 10
1794.0362964322
 20
307.5672242878
 30
0.0
 11
1776.0362964322
 21
325.5672242878
 31
0.0
  0
LINE
  5
41A
330
1F
100
AcDbEntity
  8
0
  6
Continuous
 62
     7
100
AcDbLine
 10
1776.0362964322
 20
523.6172242878
 30
0.0
 11
1776.0362964322
 21
325.5672242878
 31
0.0
  0
LINE
  5
41B
330
1F
100
AcDbEntity
  8
0
  6
Continuous
 62
     7
100
AcDbLine
 10
1794.0362964322
 20
541.6172242878
 30
0.0
 11
1776.0362964322
 21
523.6172242878
 31
0.0
  0
LINE
  5
41C
330
1F
100
AcDbEntity
  8
0
  6
Continuous
 62
     7
100
AcDbLine
 10
1794.0362964322
 20
541.6172242878
 30
0.0
 11
1794.0362964322
 21
307.5672242878
 31
0.0
  0
INSERT
  5
426
330
1F
100
AcDbEntity
  8
CAJETIN
100
AcDbBlockReference
  2
SW_ANGULAR_DIMENSION_0
 10
1764.2954552348
 20
529.5404190278
 30
0.0
  0
DIMENSION
  5
427
330
1F
100
AcDbEntity
  8
CAJETIN
100
AcDbDimension
  2
_D_26
 10
1804.0362964322
 20
307.5672242878
 30
0.0
 11
1804.0362964322
 21
416.6595749589
 31
0.0
 70
   160
  1
<>
 71
     2
 42
-1.0
  3
SLDDIMSTYLE8
100
AcDbAlignedDimension
 13
1794.0362964322
 23
541.6172242878
 33
0.0
 14
1794.0362964322
 24
307.5672242878
 34
0.0
 50
90.0
100
AcDbRotatedDimension
  0
DIMENSION
  5
432
330
1F
100
AcDbEntity
  8
CAJETIN
100
AcDbDimension
  2
_D_27
 10
1794.0362964322
 20
298.5477066791
 30
0.0
 11
1784.4243363021
 21
298.5477066791
 31
0.0
 70
   160
  1
<>
 71
     2
 42
-1.0
  3
SLDDIMSTYLE7
100
AcDbAlignedDimension
 13
1776.0362964322
 23
325.5672242878
 33
0.0
 14
1794.0362964322
 24
307.5672242878
 34
0.0
 50
0.0
100
AcDbRotatedDimension
  0
ENDSEC
  0
SECTION
  2
OBJECTS
  0
DICTIONARY
  5
C
330
0
100
AcDbDictionary
281
     1
  3
ACAD_GROUP
350
D
  3
ACAD_LAYOUT
350
1A
  3
ACAD_MLINESTYLE
350
17
  3
ACAD_PLOTSETTINGS
350
19
  3
ACAD_PLOTSTYLENAME
350
E
  3
ACAD_SCALELIST
350
47
  0
DICTIONARY
  5
D
102
{ACAD_REACTORS
330
C
102
}
330
C
100
AcDbDictionary
281
     1
  0
DICTIONARY
  5
1A
102
{ACAD_REACTORS
330
C
102
}
330
C
100
AcDbDictionary
281
     1
  3
Layout1
350
1E
  3
Layout2
350
26
  3
Model
350
22
  0
DICTIONARY
  5
17
102
{ACAD_REACTORS
330
C
102
}
330
C
100
AcDbDictionary
281
     1
  3
Standard
350
18
  0
DICTIONARY
  5
19
102
{ACAD_REACTORS
330
C
102
}
330
C
100
AcDbDictionary
281
     1
  0
ACDBDICTIONARYWDFLT
  5
E
102
{ACAD_REACTORS
330
C
102
}
330
C
100
AcDbDictionary
281
     1
  3
Normal
350
F
100
AcDbDictionaryWithDefault
340
F
  0
DICTIONARY
  5
47
102
{ACAD_REACTORS
330
C
102
}
330
C
100
AcDbDictionary
281
     1
  3
A0
350
48
  3
A1
350
49
  3
A2
350
4A
  3
A3
350
4B
  3
A4
350
4C
  3
A5
350
4D
  3
A6
350
4E
  3
A7
350
4F
  3
A8
350
50
  3
A9
350
51
  3
B0
350
52
  3
B1
350
53
  3
B2
350
54
  3
B3
350
55
  3
B4
350
56
  3
B5
350
57
  3
B6
350
58
  3
B7
350
59
  3
B8
350
5A
  3
B9
350
5B
  3
C0
350
5C
  3
C1
350
5D
  3
C2
350
5E
  3
C3
350
5F
  3
C4
350
60
  3
C5
350
61
  3
C6
350
62
  3
C7
350
63
  3
C8
350
64
  3
C9
350
65
  3
D0
350
66
  3
D1
350
67
  3
D2
350
68
  0
LAYOUT
  5
1E
102
{ACAD_REACTORS
330
1A
102
}
330
1A
100
AcDbPlotSettings
  1

  2
none_device
  4

  6

 40
0.0
 41
0.0
 42
0.0
 43
0.0
 44
0.0
 45
0.0
 46
0.0
 47
0.0
 48
0.0
 49
0.0
140
0.0
141
0.0
142
1.0
143
1.0
 70
   688
 72
     1
 73
     0
 74
     5
  7

 75
    16
147
1.0
148
0.0
149
0.0
100
AcDbLayout
  1
Layout1
 70
     1
 71
     1
 10
0.0
 20
0.0
 11
420.0
 21
297.0
 12
0.0
 22
0.0
 32
0.0
 14
1.0000000000E+20
 24
1.0000000000E+20
 34
1.0000000000E+20
 15
-1.0000000000E+20
 25
-1.0000000000E+20
 35
-1.0000000000E+20
146
0.0
 13
0.0
 23
0.0
 33
0.0
 16
1.0
 26
0.0
 36
0.0
 17
0.0
 27
1.0
 37
0.0
 76
     0
330
1B
  0
LAYOUT
  5
26
102
{ACAD_REACTORS
330
1A
102
}
330
1A
100
AcDbPlotSettings
  1

  2
none_device
  4

  6

 40
0.0
 41
0.0
 42
0.0
 43
0.0
 44
0.0
 45
0.0
 46
0.0
 47
0.0
 48
0.0
 49
0.0
140
0.0
141
0.0
142
1.0
143
1.0
 70
   688
 72
     1
 73
     0
 74
     5
  7

 75
    16
147
1.0
148
0.0
149
0.0
100
AcDbLayout
  1
Layout2
 70
     1
 71
     2
 10
0.0
 20
0.0
 11
0.0
 21
0.0
 12
0.0
 22
0.0
 32
0.0
 14
0.0
 24
0.0
 34
0.0
 15
0.0
 25
0.0
 35
0.0
146
0.0
 13
0.0
 23
0.0
 33
0.0
 16
1.0
 26
0.0
 36
0.0
 17
0.0
 27
1.0
 37
0.0
 76
     0
330
23
  0
LAYOUT
  5
22
102
{ACAD_REACTORS
330
1A
102
}
330
1A
100
AcDbPlotSettings
  1

  2
none_device
  4
Letter_(8.50_x_11.00_Inches)
  6

 40
6.35
 41
6.35
 42
6.35000508
 43
6.35000508
 44
215.9
 45
279.4
 46
0.0
 47
0.0
 48
0.0
 49
0.0
140
0.0
141
0.0
142
1.0
143
1.0
 70
  1712
 72
     1
 73
     0
 74
     0
  7

 75
     0
147
1.0
148
0.0
149
0.0
100
AcDbLayout
  1
Model
 70
     1
 71
     0
 10
0.0
 20
0.0
 11
2378.0
 21
1682.0
 12
0.0
 22
0.0
 32
0.0
 14
0.0
 24
0.0
 34
0.0
 15
2378.0
 25
1682.0
 35
0.0
146
0.0
 13
0.0
 23
0.0
 33
0.0
 16
1.0
 26
0.0
 36
0.0
 17
0.0
 27
1.0
 37
0.0
 76
     0
330
1F
331
29
  0
MLINESTYLE
  5
18
102
{ACAD_REACTORS
330
17
102
}
330
17
100
AcDbMlineStyle
  2
Standard
 70
     0
  3

 62
   256
 51
90.0
 52
90.0
 71
     2
 49
0.5
 62
   256
  6
BYLAYER
 49
-0.5
 62
   256
  6
BYLAYER
  0
ACDBPLACEHOLDER
  5
F
102
{ACAD_REACTORS
330
E
102
}
330
E
  0
SCALE
  5
48
102
{ACAD_REACTORS
330
47
102
}
330
47
100
AcDbScale
 70
     0
300
1:1
140
1.0
141
1.0
290
     1
  0
SCALE
  5
49
102
{ACAD_REACTORS
330
47
102
}
330
47
100
AcDbScale
 70
     0
300
1:2
140
1.0
141
2.0
290
     0
  0
SCALE
  5
4A
102
{ACAD_REACTORS
330
47
102
}
330
47
100
AcDbScale
 70
     0
300
1:4
140
1.0
141
4.0
290
     0
  0
SCALE
  5
4B
102
{ACAD_REACTORS
330
47
102
}
330
47
100
AcDbScale
 70
     0
300
1:5
140
1.0
141
5.0
290
     0
  0
SCALE
  5
4C
102
{ACAD_REACTORS
330
47
102
}
330
47
100
AcDbScale
 70
     0
300
1:8
140
1.0
141
8.0
290
     0
  0
SCALE
  5
4D
102
{ACAD_REACTORS
330
47
102
}
330
47
100
AcDbScale
 70
     0
300
1:10
140
1.0
141
10.0
290
     0
  0
SCALE
  5
4E
102
{ACAD_REACTORS
330
47
102
}
330
47
100
AcDbScale
 70
     0
300
1:16
140
1.0
141
16.0
290
     0
  0
SCALE
  5
4F
102
{ACAD_REACTORS
330
47
102
}
330
47
100
AcDbScale
 70
     0
300
1:20
140
1.0
141
20.0
290
     0
  0
SCALE
  5
50
102
{ACAD_REACTORS
330
47
102
}
330
47
100
AcDbScale
 70
     0
300
1:30
140
1.0
141
30.0
290
     0
  0
SCALE
  5
51
102
{ACAD_REACTORS
330
47
102
}
330
47
100
AcDbScale
 70
     0
300
1:40
140
1.0
141
40.0
290
     0
  0
SCALE
  5
52
102
{ACAD_REACTORS
330
47
102
}
330
47
100
AcDbScale
 70
     0
300
1:50
140
1.0
141
50.0
290
     0
  0
SCALE
  5
53
102
{ACAD_REACTORS
330
47
102
}
330
47
100
AcDbScale
 70
     0
300
1:100
140
1.0
141
100.0
290
     0
  0
SCALE
  5
54
102
{ACAD_REACTORS
330
47
102
}
330
47
100
AcDbScale
 70
     0
300
2:1
140
2.0
141
1.0
290
     0
  0
SCALE
  5
55
102
{ACAD_REACTORS
330
47
102
}
330
47
100
AcDbScale
 70
     0
300
4:1
140
4.0
141
1.0
290
     0
  0
SCALE
  5
56
102
{ACAD_REACTORS
330
47
102
}
330
47
100
AcDbScale
 70
     0
300
8:1
140
8.0
141
1.0
290
     0
  0
SCALE
  5
57
102
{ACAD_REACTORS
330
47
102
}
330
47
100
AcDbScale
 70
     0
300
10:1
140
10.0
141
1.0
290
     0
  0
SCALE
  5
58
102
{ACAD_REACTORS
330
47
102
}
330
47
100
AcDbScale
 70
     0
300
100:1
140
100.0
141
1.0
290
     0
  0
SCALE
  5
59
102
{ACAD_REACTORS
330
47
102
}
330
47
100
AcDbScale
 70
     0
300
1/128" = 1'-0"
140
0.0078125
141
12.0
290
     0
  0
SCALE
  5
5A
102
{ACAD_REACTORS
330
47
102
}
330
47
100
AcDbScale
 70
     0
300
1/64" = 1'-0"
140
0.015625
141
12.0
290
     0
  0
SCALE
  5
5B
102
{ACAD_REACTORS
330
47
102
}
330
47
100
AcDbScale
 70
     0
300
1/32" = 1'-0"
140
0.03125
141
12.0
290
     0
  0
SCALE
  5
5C
102
{ACAD_REACTORS
330
47
102
}
330
47
100
AcDbScale
 70
     0
300
1/16" = 1'-0"
140
0.0625
141
12.0
290
     0
  0
SCALE
  5
5D
102
{ACAD_REACTORS
330
47
102
}
330
47
100
AcDbScale
 70
     0
300
3/32" = 1'-0"
140
0.09375
141
12.0
290
     0
  0
SCALE
  5
5E
102
{ACAD_REACTORS
330
47
102
}
330
47
100
AcDbScale
 70
     0
300
1/8" = 1'-0"
140
0.125
141
12.0
290
     0
  0
SCALE
  5
5F
102
{ACAD_REACTORS
330
47
102
}
330
47
100
AcDbScale
 70
     0
300
3/16" = 1'-0"
140
0.1875
141
12.0
290
     0
  0
SCALE
  5
60
102
{ACAD_REACTORS
330
47
102
}
330
47
100
AcDbScale
 70
     0
300
1/4" = 1'-0"
140
0.25
141
12.0
290
     0
  0
SCALE
  5
61
102
{ACAD_REACTORS
330
47
102
}
330
47
100
AcDbScale
 70
     0
300
3/8" = 1'-0"
140
0.375
141
12.0
290
     0
  0
SCALE
  5
62
102
{ACAD_REACTORS
330
47
102
}
330
47
100
AcDbScale
 70
     0
300
1/2" = 1'-0"
140
0.5
141
12.0
290
     0
  0
SCALE
  5
63
102
{ACAD_REACTORS
330
47
102
}
330
47
100
AcDbScale
 70
     0
300
3/4" = 1'-0"
140
0.75
141
12.0
290
     0
  0
SCALE
  5
64
102
{ACAD_REACTORS
330
47
102
}
330
47
100
AcDbScale
 70
     0
300
1" = 1'-0"
140
1.0
141
12.0
290
     0
  0
SCALE
  5
65
102
{ACAD_REACTORS
330
47
102
}
330
47
100
AcDbScale
 70
     0
300
1-1/2" = 1'-0"
140
1.5
141
12.0
290
     0
  0
SCALE
  5
66
102
{ACAD_REACTORS
330
47
102
}
330
47
100
AcDbScale
 70
     0
300
3" = 1'-0"
140
3.0
141
12.0
290
     0
  0
SCALE
  5
67
102
{ACAD_REACTORS
330
47
102
}
330
47
100
AcDbScale
 70
     0
300
6" = 1'-0"
140
6.0
141
12.0
290
     0
  0
SCALE
  5
68
102
{ACAD_REACTORS
330
47
102
}
330
47
100
AcDbScale
 70
     0
300
1'-0" = 1'-0"
140
12.0
141
12.0
290
     0
  0
ENDSEC
  0
EOF
