  0
SECTION
  2
HEADER
  9
$ACADVER
  1
AC1015
  9
$ACADMAINTVER
 70
     6
  9
$DWGCODEPAGE
  3
ANSI_1252
  9
$INSBASE
 10
0.0
 20
0.0
 30
0.0
  9
$EXTMIN
 10
0.0
 20
0.0
 30
0.0
  9
$EXTMAX
 10
3000.0
 20
2000.0
 30
0.0
  9
$LIMMIN
 10
0.0
 20
0.0
  9
$LIMMAX
 10
3000.0
 20
2000.0
  9
$ORTHOMODE
 70
     0
  9
$REGENMODE
 70
     1
  9
$FILLMODE
 70
     1
  9
$QTEXTMODE
 70
     0
  9
$MIRRTEXT
 70
     1
  9
$LTSCALE
 40
1.0
  9
$ATTMODE
 70
     1
  9
$TEXTSIZE
 40
2.5
  9
$TRACEWID
 40
1.0
  9
$TEXTSTYLE
  7
Standard
  9
$CLAYER
  8
0
  9
$CELTYPE
  6
ByLayer
  9
$CECOLOR
 62
   256
  9
$CELTSCALE
 40
1.0
  9
$DISPSILH
 70
     0
  9
$DIMSCALE
 40
1.0
  9
$DIMASZ
 40
3.302
  9
$DIMEXO
 40
1.0
  9
$DIMDLI
 40
3.75
  9
$DIMRND
 40
0.0
  9
$DIMDLE
 40
0.0
  9
$DIMEXE
 40
1.0
  9
$DIMTP
 40
0.0
  9
$DIMTM
 40
0.0
  9
$DIMTXT
 40
3.5
  9
$DIMCEN
 40
2.5
  9
$DIMTSZ
 40
0.0
  9
$DIMTOL
 70
     0
  9
$DIMLIM
 70
     0
  9
$DIMTIH
 70
     1
  9
$DIMTOH
 70
     1
  9
$DIMSE1
 70
     0
  9
$DIMSE2
 70
     0
  9
$DIMTAD
 70
     1
  9
$DIMZIN
 70
     0
  9
$DIMBLK
  1

  9
$DIMASO
 70
     1
  9
$DIMSHO
 70
     1
  9
$DIMPOST
  1

  9
$DIMAPOST
  1

  9
$DIMALT
 70
     0
  9
$DIMALTD
 70
     3
  9
$DIMALTF
 40
0.0393700787
  9
$DIMLFAC
 40
1.0
  9
$DIMTOFL
 70
     1
  9
$DIMTVP
 40
0.0
  9
$DIMTIX
 70
     0
  9
$DIMSOXD
 70
     0
  9
$DIMSAH
 70
     0
  9
$DIMBLK1
  1

  9
$DIMBLK2
  1

  9
$DIMSTYLE
  2
ISO-25
  9
$DIMCLRD
 70
     0
  9
$DIMCLRE
 70
     0
  9
$DIMCLRT
 70
     0
  9
$DIMTFAC
 40
1.0
  9
$DIMGAP
 40
1.524
  9
$DIMJUST
 70
     0
  9
$DIMSD1
 70
     0
  9
$DIMSD2
 70
     0
  9
$DIMTOLJ
 70
     0
  9
$DIMTZIN
 70
     0
  9
$DIMALTZ
 70
     0
  9
$DIMALTTZ
 70
     0
  9
$DIMUPT
 70
     0
  9
$DIMDEC
 70
     2
  9
$DIMTDEC
 70
     2
  9
$DIMALTU
 70
     2
  9
$DIMALTTD
 70
     3
  9
$DIMTXSTY
  7
Standard
  9
$DIMAUNIT
 70
     0
  9
$DIMADEC
 70
     2
  9
$DIMALTRND
 40
0.0
  9
$DIMAZIN
 70
     0
  9
$DIMDSEP
 70
    44
  9
$DIMATFIT
 70
     3
  9
$DIMFRAC
 70
     0
  9
$DIMLDRBLK
  1

  9
$DIMLUNIT
 70
     2
  9
$DIMLWD
 70
    -2
  9
$DIMLWE
 70
    -2
  9
$DIMTMOVE
 70
     0
  9
$LUNITS
 70
     2
  9
$LUPREC
 70
     2
  9
$SKETCHINC
 40
1.0
  9
$FILLETRAD
 40
10.0
  9
$AUNITS
 70
     0
  9
$AUPREC
 70
     2
  9
$MENU
  1
.
  9
$ELEVATION
 40
0.0
  9
$PELEVATION
 40
0.0
  9
$THICKNESS
 40
0.0
  9
$LIMCHECK
 70
     0
  9
$CHAMFERA
 40
0.0
  9
$CHAMFERB
 40
0.0
  9
$CHAMFERC
 40
0.0
  9
$CHAMFERD
 40
0.0
  9
$SKPOLY
 70
     0
  9
$TDCREATE
 40
2458516.497725903
  9
$TDUCREATE
 40
2458516.456059236
  9
$TDUPDATE
 40
2458516.497758356
  9
$TDUUPDATE
 40
2458516.45609169
  9
$TDINDWG
 40
0.0000000116
  9
$TDUSRTIMER
 40
0.0000000116
  9
$USRTIMER
 70
     1
  9
$ANGBASE
 50
0.0
  9
$ANGDIR
 70
     0
  9
$PDMODE
 70
     0
  9
$PDSIZE
 40
-1.0
  9
$PLINEWID
 40
0.0
  9
$SPLFRAME
 70
     0
  9
$SPLINETYPE
 70
     6
  9
$SPLINESEGS
 70
     8
  9
$HANDSEED
  5
479
  9
$SURFTAB1
 70
     6
  9
$SURFTAB2
 70
     6
  9
$SURFTYPE
 70
     6
  9
$SURFU
 70
     6
  9
$SURFV
 70
     6
  9
$UCSBASE
  2

  9
$UCSNAME
  2

  9
$UCSORG
 10
0.0
 20
0.0
 30
0.0
  9
$UCSXDIR
 10
1.0
 20
0.0
 30
0.0
  9
$UCSYDIR
 10
0.0
 20
1.0
 30
0.0
  9
$UCSORTHOREF
  2

  9
$UCSORTHOVIEW
 70
     0
  9
$UCSORGTOP
 10
0.0
 20
0.0
 30
0.0
  9
$UCSORGBOTTOM
 10
0.0
 20
0.0
 30
0.0
  9
$UCSORGLEFT
 10
0.0
 20
0.0
 30
0.0
  9
$UCSORGRIGHT
 10
0.0
 20
0.0
 30
0.0
  9
$UCSORGFRONT
 10
0.0
 20
0.0
 30
0.0
  9
$UCSORGBACK
 10
0.0
 20
0.0
 30
0.0
  9
$PUCSBASE
  2

  9
$PUCSNAME
  2

  9
$PUCSORG
 10
0.0
 20
0.0
 30
0.0
  9
$PUCSXDIR
 10
1.0
 20
0.0
 30
0.0
  9
$PUCSYDIR
 10
0.0
 20
1.0
 30
0.0
  9
$PUCSORTHOREF
  2

  9
$PUCSORTHOVIEW
 70
     0
  9
$PUCSORGTOP
 10
0.0
 20
0.0
 30
0.0
  9
$PUCSORGBOTTOM
 10
0.0
 20
0.0
 30
0.0
  9
$PUCSORGLEFT
 10
0.0
 20
0.0
 30
0.0
  9
$PUCSORGRIGHT
 10
0.0
 20
0.0
 30
0.0
  9
$PUCSORGFRONT
 10
0.0
 20
0.0
 30
0.0
  9
$PUCSORGBACK
 10
0.0
 20
0.0
 30
0.0
  9
$USERI1
 70
     0
  9
$USERI2
 70
     0
  9
$USERI3
 70
     0
  9
$USERI4
 70
     0
  9
$USERI5
 70
     0
  9
$USERR1
 40
0.0
  9
$USERR2
 40
0.0
  9
$USERR3
 40
0.0
  9
$USERR4
 40
0.0
  9
$USERR5
 40
0.0
  9
$WORLDVIEW
 70
     1
  9
$SHADEDGE
 70
     3
  9
$SHADEDIF
 70
    70
  9
$TILEMODE
 70
     1
  9
$MAXACTVP
 70
    64
  9
$PINSBASE
 10
0.0
 20
0.0
 30
0.0
  9
$PLIMCHECK
 70
     0
  9
$PEXTMIN
 10
1.0000000000E+20
 20
1.0000000000E+20
 30
1.0000000000E+20
  9
$PEXTMAX
 10
-1.0000000000E+20
 20
-1.0000000000E+20
 30
-1.0000000000E+20
  9
$PLIMMIN
 10
0.0
 20
0.0
  9
$PLIMMAX
 10
420.0
 20
297.0
  9
$UNITMODE
 70
     0
  9
$VISRETAIN
 70
     1
  9
$PLINEGEN
 70
     0
  9
$PSLTSCALE
 70
     1
  9
$TREEDEPTH
 70
  3020
  9
$CMLSTYLE
  2
Standard
  9
$CMLJUST
 70
     0
  9
$CMLSCALE
 40
20.0
  9
$PROXYGRAPHICS
 70
     1
  9
$MEASUREMENT
 70
     1
  9
$CELWEIGHT
370
    -1
  9
$ENDCAPS
280
     0
  9
$JOINSTYLE
280
     0
  9
$LWDISPLAY
290
     1
  9
$INSUNITS
 70
     4
  9
$HYPERLINKBASE
  1

  9
$STYLESHEET
  1

  9
$XEDIT
290
     1
  9
$CEPSNTYPE
380
     0
  9
$PSTYLEMODE
290
     1
  9
$FINGERPRINTGUID
  2
{52E1D20D-4DDC-4EF3-9762-1BAFFFB6C86B}
  9
$VERSIONGUID
  2
{FAEB1C32-E019-11D5-929B-00C0DF256EC4}
  9
$EXTNAMES
290
     1
  9
$PSVPSCALE
 40
0.0
  9
$OLESTARTUP
290
     0
  0
ENDSEC
  0
SECTION
  2
CLASSES
  0
CLASS
  1
ACDBDICTIONARYWDFLT
  2
AcDbDictionaryWithDefault
  3
ObjectDBX Classes
 90
        0
280
     0
281
     0
  0
CLASS
  1
VISUALSTYLE
  2
AcDbVisualStyle
  3
ObjectDBX Classes
 90
     4095
280
     0
281
     0
  0
CLASS
  1
MATERIAL
  2
AcDbMaterial
  3
ObjectDBX Classes
 90
     1153
280
     0
281
     0
  0
CLASS
  1
SCALE
  2
AcDbScale
  3
ObjectDBX Classes
 90
     1153
280
     0
281
     0
  0
CLASS
  1
TABLESTYLE
  2
AcDbTableStyle
  3
ObjectDBX Classes
 90
     4095
280
     0
281
     0
  0
CLASS
  1
MLEADERSTYLE
  2
AcDbMLeaderStyle
  3
ACDB_MLEADERSTYLE_CLASS
 90
     4095
280
     0
281
     0
  0
CLASS
  1
SUN
  2
AcDbSun
  3
SCENEOE
 90
     1153
280
     0
281
     0
  0
CLASS
  1
ACDBPLACEHOLDER
  2
AcDbPlaceHolder
  3
ObjectDBX Classes
 90
        0
280
     0
281
     0
  0
CLASS
  1
LAYOUT
  2
AcDbLayout
  3
ObjectDBX Classes
 90
        0
280
     0
281
     0
  0
ENDSEC
  0
SECTION
  2
TABLES
  0
TABLE
  2
VPORT
  5
8
330
0
100
AcDbSymbolTable
 70
     1
  0
VPORT
  5
29
330
8
100
AcDbSymbolTableRecord
100
AcDbViewportTableRecord
  2
*Active
 70
     0
 10
0.0
 20
0.0
 11
1.0
 21
1.0
 12
1500.0
 22
1000.0
 13
0.0
 23
0.0
 14
10.0
 24
10.0
 15
10.0
 25
10.0
 16
0.0
 26
0.0
 36
1.0
 17
0.0
 27
0.0
 37
0.0
 40
2000.0
 41
1.5
 42
50.0
 43
0.0
 44
0.0
 50
0.0
 51
0.0
 71
     0
 72
  2000
 73
     1
 74
     3
 75
     0
 76
     0
 77
     0
 78
     0
281
     0
 65
     1
110
0.0
120
0.0
130
0.0
111
1.0
121
0.0
131
0.0
112
0.0
122
1.0
132
0.0
 79
     0
146
0.0
  0
ENDTAB
  0
TABLE
  2
LTYPE
  5
5
330
0
100
AcDbSymbolTable
 70
     6
  0
LTYPE
  5
14
330
5
100
AcDbSymbolTableRecord
100
AcDbLinetypeTableRecord
  2
ByBlock
 70
     0
  3

 72
    65
 73
     0
 40
0.0
  0
LTYPE
  5
15
330
5
100
AcDbSymbolTableRecord
100
AcDbLinetypeTableRecord
  2
ByLayer
 70
     0
  3

 72
    65
 73
     0
 40
0.0
  0
LTYPE
  5
16
330
5
100
AcDbSymbolTableRecord
100
AcDbLinetypeTableRecord
  2
Continuous
 70
     0
  3
Solid line
 72
    65
 73
     0
 40
0.0
  0
LTYPE
  5
6E
330
5
100
AcDbSymbolTableRecord
100
AcDbLinetypeTableRecord
  2
HIDDEN
 70
     0
  3
Hidden __ __ __ __ __ __ __ __ __ __ __ __ __ __
 72
    65
 73
     2
 40
1.905
 49
1.27
 74
     0
 49
-0.635
 74
     0
  0
LTYPE
  5
6F
330
5
100
AcDbSymbolTableRecord
100
AcDbLinetypeTableRecord
  2
PHANTOM
 70
     0
  3
Phantom ______  __  __  ______  __  __  ______
 72
    65
 73
     6
 40
12.7
 49
6.35
 74
     0
 49
-1.27
 74
     0
 49
1.27
 74
     0
 49
-1.27
 74
     0
 49
1.27
 74
     0
 49
-1.27
 74
     0
  0
LTYPE
  5
70
330
5
100
AcDbSymbolTableRecord
100
AcDbLinetypeTableRecord
  2
CENTER
 70
     0
  3
Center ____ _ ____ _ ____ _ ____ _ ____ _ ____
 72
    65
 73
     4
 40
10.16
 49
6.35
 74
     0
 49
-1.27
 74
     0
 49
1.27
 74
     0
 49
-1.27
 74
     0
  0
LTYPE
  5
71
330
5
100
AcDbSymbolTableRecord
100
AcDbLinetypeTableRecord
  2
CENTERX2
 70
     0
  3
Center (2x) ________  __  ________  __  _____
 72
    65
 73
     4
 40
20.32
 49
12.7
 74
     0
 49
-2.54
 74
     0
 49
2.54
 74
     0
 49
-2.54
 74
     0
  0
LTYPE
  5
72
330
5
100
AcDbSymbolTableRecord
100
AcDbLinetypeTableRecord
  2
DOT2
 70
     0
  3
Dot (.5x) ........................................
 72
    65
 73
     2
 40
0.635
 49
0.0
 74
     0
 49
-0.635
 74
     0
  0
ENDTAB
  0
TABLE
  2
LAYER
  5
2
330
0
100
AcDbSymbolTable
 70
     8
  0
LAYER
  5
10
330
2
100
AcDbSymbolTableRecord
100
AcDbLayerTableRecord
  2
0
 70
     0
 62
     7
  6
Continuous
370
    -3
390
F
  0
LAYER
  5
73
330
2
100
AcDbSymbolTableRecord
100
AcDbLayerTableRecord
  2
SLD-0_0
 70
     0
 62
   179
  6
Continuous
370
    -3
390
F
  0
LAYER
  5
74
330
2
100
AcDbSymbolTableRecord
100
AcDbLayerTableRecord
  2
SLD-0
 70
     0
 62
   179
  6
Continuous
370
    -3
390
F
  0
LAYER
  5
75
330
2
100
AcDbSymbolTableRecord
100
AcDbLayerTableRecord
  2
PREDETERMINADO
 70
     0
 62
   179
  6
Continuous
370
    -3
390
F
  0
LAYER
  5
76
330
2
100
AcDbSymbolTableRecord
100
AcDbLayerTableRecord
  2
CAJETIN
 70
     0
 62
   179
  6
Continuous
370
    -3
390
F
  0
LAYER
  5
77
330
2
100
AcDbSymbolTableRecord
100
AcDbLayerTableRecord
  2
FORMATO
 70
     0
 62
   179
  6
Continuous
370
    -3
390
F
  0
LAYER
  5
78
330
2
100
AcDbSymbolTableRecord
100
AcDbLayerTableRecord
  2
NONPLOT
 70
     0
 62
    -1
  6
DOT2
290
     0
370
    -3
390
F
  0
LAYER
  5
79
330
2
100
AcDbSymbolTableRecord
100
AcDbLayerTableRecord
  2
TEXTOS
 70
     0
 62
   142
  6
Continuous
370
    -3
390
F
  0
ENDTAB
  0
TABLE
  2
STYLE
  5
3
330
0
100
AcDbSymbolTable
 70
     6
  0
STYLE
  5
11
330
3
100
AcDbSymbolTableRecord
100
AcDbTextStyleTableRecord
  2
Standard
 70
     0
 40
0.0
 41
1.0
 50
0.0
 71
     0
 42
2.5
  3
txt
  4

  0
STYLE
  5
CB
330
3
100
AcDbSymbolTableRecord
100
AcDbTextStyleTableRecord
  2
SLDTEXTSTYLE0
 70
     0
 40
0.0
 41
0.605
 50
0.0
 71
     0
 42
2.5
  3
TXT
  4

  0
STYLE
  5
D1
330
3
100
AcDbSymbolTableRecord
100
AcDbTextStyleTableRecord
  2
SLDTEXTSTYLE1
 70
     0
 40
0.0
 41
0.5636394322
 50
0.0
 71
     0
 42
2.5
  3
TXT
  4

  0
STYLE
  5
13D
330
3
100
AcDbSymbolTableRecord
100
AcDbTextStyleTableRecord
  2
SLDTEXTSTYLE2
 70
     0
 40
0.0
 41
0.75
 50
0.0
 71
     0
 42
2.5
  3
TXT
  4

  0
STYLE
  5
142
330
3
100
AcDbSymbolTableRecord
100
AcDbTextStyleTableRecord
  2
SLDTEXTSTYLE3
 70
     0
 40
0.0
 41
0.575
 50
0.0
 71
     0
 42
2.5
  3
TXT
  4

  0
STYLE
  5
155
330
3
100
AcDbSymbolTableRecord
100
AcDbTextStyleTableRecord
  2
SLDTEXTSTYLE4
 70
     0
 40
0.0
 41
0.5726923077
 50
0.0
 71
     0
 42
2.5
  3
TXT
  4

  0
ENDTAB
  0
TABLE
  2
VIEW
  5
6
330
0
100
AcDbSymbolTable
 70
     0
  0
ENDTAB
  0
TABLE
  2
UCS
  5
7
330
0
100
AcDbSymbolTable
 70
     0
  0
ENDTAB
  0
TABLE
  2
APPID
  5
9
330
0
100
AcDbSymbolTable
 70
     1
  0
APPID
  5
12
330
9
100
AcDbSymbolTableRecord
100
AcDbRegAppTableRecord
  2
ACAD
 70
     0
  0
ENDTAB
  0
TABLE
  2
DIMSTYLE
  5
A
330
0
100
AcDbSymbolTable
 70
     8
100
AcDbDimStyleTable
  0
DIMSTYLE
105
27
330
A
100
AcDbSymbolTableRecord
100
AcDbDimStyleTableRecord
  2
ISO-25
 70
     0
 41
2.5
 42
0.625
 43
3.75
 44
1.25
 73
     0
 74
     0
 77
     1
 78
     8
140
2.5
141
2.5
143
0.0393700787
147
0.625
171
     3
172
     1
178
     0
271
     2
272
     2
274
     3
278
    44
283
     0
284
     8
340
11
  0
DIMSTYLE
105
256
330
A
100
AcDbSymbolTableRecord
100
AcDbDimStyleTableRecord
  2
SLDDIMSTYLE0
 70
     0
 41
1.016
 44
0.0
 45
0.000000001
146
1.016
147
0.0
173
     1
178
     0
271
     0
272
     0
276
     2
340
11
341
257
343
257
344
257
  0
DIMSTYLE
105
2B2
102
{ACAD_REACTORS
330
2B1
330
2BC
330
2CA
330
2D4
330
2E2
330
2EC
330
304
330
30E
330
318
330
3A9
330
3BE
330
3C8
330
3D2
330
3E4
330
3EE
330
400
330
40A
330
420
330
42E
330
438
330
446
330
450
330
46E
102
}
330
A
100
AcDbSymbolTableRecord
100
AcDbDimStyleTableRecord
  2
SLDDIMSTYLE1
 70
     0
 41
3.302
 44
0.0
 45
0.000000001
 73
     0
 74
     0
 77
     1
 78
    12
 79
     3
140
3.5
147
0.875
173
     1
178
     0
271
     2
272
     2
276
     2
284
    12
340
CB
  0
DIMSTYLE
105
323
102
{ACAD_REACTORS
330
322
330
32C
102
}
330
A
100
AcDbSymbolTableRecord
100
AcDbDimStyleTableRecord
  2
SLDDIMSTYLE2
 70
     0
 41
3.302
 44
0.0
 45
0.000000001
 73
     0
 74
     0
 77
     1
 78
    12
 79
     3
140
3.5
141
0.0
147
0.875
172
     1
173
     1
178
     0
271
     2
272
     2
276
     2
284
    12
340
CB
  0
DIMSTYLE
105
337
102
{ACAD_REACTORS
330
336
102
}
330
A
100
AcDbSymbolTableRecord
100
AcDbDimStyleTableRecord
  2
SLDDIMSTYLE3
 70
     0
 41
3.302
 44
0.0
 45
0.000000001
 78
     4
 79
     1
140
3.5
141
0.0
147
0.875
173
     1
178
     0
271
     2
272
     2
276
     2
284
    12
340
CB
  0
DIMSTYLE
105
39D
102
{ACAD_REACTORS
330
39C
330
414
330
45E
102
}
330
A
100
AcDbSymbolTableRecord
100
AcDbDimStyleTableRecord
  2
SLDDIMSTYLE4
 70
     0
 41
3.302
 44
0.0
 45
0.000000001
 73
     0
 74
     0
 77
     1
 78
    12
 79
     3
140
3.5
147
0.875
172
     1
173
     1
178
     0
271
     2
272
     2
276
     2
284
    12
289
     0
340
CB
  0
DIMSTYLE
105
3B4
102
{ACAD_REACTORS
330
3B3
102
}
330
A
100
AcDbSymbolTableRecord
100
AcDbDimStyleTableRecord
  2
SLDDIMSTYLE5
 70
     0
 41
3.302
 44
0.0
 45
0.000000001
 73
     0
 74
     0
 77
     1
 78
     4
 79
     1
140
3.5
147
0.875
173
     1
178
     0
271
     2
272
     2
276
     2
284
    12
340
CB
  0
DIMSTYLE
105
3DD
102
{ACAD_REACTORS
330
3DC
102
}
330
A
100
AcDbSymbolTableRecord
100
AcDbDimStyleTableRecord
  2
SLDDIMSTYLE6
 70
     0
 41
3.302
 44
0.0
 45
0.000000001
 73
     0
 74
     0
 77
     1
 78
    12
 79
     3
140
3.5
141
0.0
147
0.875
173
     1
178
     0
271
     2
272
     2
276
     2
284
    12
340
CB
  0
ENDTAB
  0
TABLE
  2
BLOCK_RECORD
  5
1
330
0
100
AcDbSymbolTable
 70
    58
  0
BLOCK_RECORD
  5
1F
330
1
100
AcDbSymbolTableRecord
100
AcDbBlockTableRecord
  2
*Model_Space
340
22
  0
BLOCK_RECORD
  5
1B
330
1
100
AcDbSymbolTableRecord
100
AcDbBlockTableRecord
  2
*Paper_Space
340
1E
  0
BLOCK_RECORD
  5
23
330
1
100
AcDbSymbolTableRecord
100
AcDbBlockTableRecord
  2
*Paper_Space0
340
26
  0
BLOCK_RECORD
  5
C8
330
1
100
AcDbSymbolTableRecord
100
AcDbBlockTableRecord
  2
SW_NOTE_0
340
0
102
{BLKREFS
331
CE
102
}
  0
BLOCK_RECORD
  5
EE
330
1
100
AcDbSymbolTableRecord
100
AcDbBlockTableRecord
  2
SW_NOTE_1
340
0
102
{BLKREFS
331
F3
102
}
  0
BLOCK_RECORD
  5
F4
330
1
100
AcDbSymbolTableRecord
100
AcDbBlockTableRecord
  2
SW_NOTE_2
340
0
102
{BLKREFS
331
F9
102
}
  0
BLOCK_RECORD
  5
FA
330
1
100
AcDbSymbolTableRecord
100
AcDbBlockTableRecord
  2
SW_NOTE_3
340
0
102
{BLKREFS
331
FF
102
}
  0
BLOCK_RECORD
  5
100
330
1
100
AcDbSymbolTableRecord
100
AcDbBlockTableRecord
  2
SW_NOTE_4
340
0
102
{BLKREFS
331
105
102
}
  0
BLOCK_RECORD
  5
106
330
1
100
AcDbSymbolTableRecord
100
AcDbBlockTableRecord
  2
SW_NOTE_5
340
0
102
{BLKREFS
331
10B
102
}
  0
BLOCK_RECORD
  5
10C
330
1
100
AcDbSymbolTableRecord
100
AcDbBlockTableRecord
  2
SW_NOTE_6
340
0
102
{BLKREFS
331
111
102
}
  0
BLOCK_RECORD
  5
112
330
1
100
AcDbSymbolTableRecord
100
AcDbBlockTableRecord
  2
SW_NOTE_7
340
0
102
{BLKREFS
331
117
102
}
  0
BLOCK_RECORD
  5
118
330
1
100
AcDbSymbolTableRecord
100
AcDbBlockTableRecord
  2
SW_NOTE_8
340
0
102
{BLKREFS
331
11D
102
}
  0
BLOCK_RECORD
  5
11E
330
1
100
AcDbSymbolTableRecord
100
AcDbBlockTableRecord
  2
SW_NOTE_9
340
0
102
{BLKREFS
331
123
102
}
  0
BLOCK_RECORD
  5
124
330
1
100
AcDbSymbolTableRecord
100
AcDbBlockTableRecord
  2
SW_NOTE_10
340
0
102
{BLKREFS
331
129
102
}
  0
BLOCK_RECORD
  5
12A
330
1
100
AcDbSymbolTableRecord
100
AcDbBlockTableRecord
  2
SW_TABLEANNOTATION_0
340
0
102
{BLKREFS
331
15B
102
}
  0
BLOCK_RECORD
  5
250
330
1
100
AcDbSymbolTableRecord
100
AcDbBlockTableRecord
  2
SW_NOTE_11
340
0
102
{BLKREFS
331
255
102
}
  0
BLOCK_RECORD
  5
257
330
1
100
AcDbSymbolTableRecord
100
AcDbBlockTableRecord
  2
_DOT
340
0
  0
BLOCK_RECORD
  5
260
330
1
100
AcDbSymbolTableRecord
100
AcDbBlockTableRecord
  2
SW_NOTE_12
340
0
102
{BLKREFS
331
265
102
}
  0
BLOCK_RECORD
  5
267
330
1
100
AcDbSymbolTableRecord
100
AcDbBlockTableRecord
  2
SW_NOTE_13
340
0
102
{BLKREFS
331
26C
102
}
  0
BLOCK_RECORD
  5
26E
330
1
100
AcDbSymbolTableRecord
100
AcDbBlockTableRecord
  2
SW_NOTE_14
340
0
102
{BLKREFS
331
273
102
}
  0
BLOCK_RECORD
  5
275
330
1
100
AcDbSymbolTableRecord
100
AcDbBlockTableRecord
  2
SW_NOTE_15
340
0
102
{BLKREFS
331
27A
102
}
  0
BLOCK_RECORD
  5
27C
330
1
100
AcDbSymbolTableRecord
100
AcDbBlockTableRecord
  2
SW_NOTE_16
340
0
102
{BLKREFS
331
281
102
}
  0
BLOCK_RECORD
  5
283
330
1
100
AcDbSymbolTableRecord
100
AcDbBlockTableRecord
  2
SW_NOTE_17
340
0
102
{BLKREFS
331
288
102
}
  0
BLOCK_RECORD
  5
28A
330
1
100
AcDbSymbolTableRecord
100
AcDbBlockTableRecord
  2
SW_NOTE_18
340
0
102
{BLKREFS
331
28F
102
}
  0
BLOCK_RECORD
  5
291
330
1
100
AcDbSymbolTableRecord
100
AcDbBlockTableRecord
  2
SW_NOTE_19
340
0
102
{BLKREFS
331
296
102
}
  0
BLOCK_RECORD
  5
298
330
1
100
AcDbSymbolTableRecord
100
AcDbBlockTableRecord
  2
SW_NOTE_20
340
0
102
{BLKREFS
331
29D
102
}
  0
BLOCK_RECORD
  5
29F
330
1
100
AcDbSymbolTableRecord
100
AcDbBlockTableRecord
  2
SW_NOTE_21
340
0
102
{BLKREFS
331
2A4
102
}
  0
BLOCK_RECORD
  5
2A6
330
1
100
AcDbSymbolTableRecord
100
AcDbBlockTableRecord
  2
SW_NOTE_22
340
0
102
{BLKREFS
331
2AB
102
}
  0
BLOCK_RECORD
  5
2B3
330
1
100
AcDbSymbolTableRecord
100
AcDbBlockTableRecord
  2
_D
340
0
  0
BLOCK_RECORD
  5
2BD
330
1
100
AcDbSymbolTableRecord
100
AcDbBlockTableRecord
  2
_D_1
340
0
  0
BLOCK_RECORD
  5
2CB
330
1
100
AcDbSymbolTableRecord
100
AcDbBlockTableRecord
  2
_D_2
340
0
  0
BLOCK_RECORD
  5
2D5
330
1
100
AcDbSymbolTableRecord
100
AcDbBlockTableRecord
  2
_D_3
340
0
  0
BLOCK_RECORD
  5
2E3
330
1
100
AcDbSymbolTableRecord
100
AcDbBlockTableRecord
  2
_D_4
340
0
  0
BLOCK_RECORD
  5
2ED
330
1
100
AcDbSymbolTableRecord
100
AcDbBlockTableRecord
  2
_D_5
340
0
  0
BLOCK_RECORD
  5
305
330
1
100
AcDbSymbolTableRecord
100
AcDbBlockTableRecord
  2
_D_6
340
0
  0
BLOCK_RECORD
  5
30F
330
1
100
AcDbSymbolTableRecord
100
AcDbBlockTableRecord
  2
_D_7
340
0
  0
BLOCK_RECORD
  5
319
330
1
100
AcDbSymbolTableRecord
100
AcDbBlockTableRecord
  2
_D_8
340
0
  0
BLOCK_RECORD
  5
324
330
1
100
AcDbSymbolTableRecord
100
AcDbBlockTableRecord
  2
_D_9
340
0
  0
BLOCK_RECORD
  5
32D
330
1
100
AcDbSymbolTableRecord
100
AcDbBlockTableRecord
  2
_D_10
340
0
  0
BLOCK_RECORD
  5
338
330
1
100
AcDbSymbolTableRecord
100
AcDbBlockTableRecord
  2
_D_11
340
0
  0
BLOCK_RECORD
  5
340
330
1
100
AcDbSymbolTableRecord
100
AcDbBlockTableRecord
  2
SW_CENTERMARKSYMBOL_0
340
0
102
{BLKREFS
331
383
102
}
  0
BLOCK_RECORD
  5
39E
330
1
100
AcDbSymbolTableRecord
100
AcDbBlockTableRecord
  2
_D_12
340
0
  0
BLOCK_RECORD
  5
3AA
330
1
100
AcDbSymbolTableRecord
100
AcDbBlockTableRecord
  2
_D_13
340
0
  0
BLOCK_RECORD
  5
3B5
330
1
100
AcDbSymbolTableRecord
100
AcDbBlockTableRecord
  2
_D_14
340
0
  0
BLOCK_RECORD
  5
3BF
330
1
100
AcDbSymbolTableRecord
100
AcDbBlockTableRecord
  2
_D_15
340
0
  0
BLOCK_RECORD
  5
3C9
330
1
100
AcDbSymbolTableRecord
100
AcDbBlockTableRecord
  2
_D_16
340
0
  0
BLOCK_RECORD
  5
3D3
330
1
100
AcDbSymbolTableRecord
100
AcDbBlockTableRecord
  2
_D_17
340
0
  0
BLOCK_RECORD
  5
3DE
330
1
100
AcDbSymbolTableRecord
100
AcDbBlockTableRecord
  2
_D_18
340
0
  0
BLOCK_RECORD
  5
3E5
330
1
100
AcDbSymbolTableRecord
100
AcDbBlockTableRecord
  2
_D_19
340
0
  0
BLOCK_RECORD
  5
3EF
330
1
100
AcDbSymbolTableRecord
100
AcDbBlockTableRecord
  2
_D_20
340
0
  0
BLOCK_RECORD
  5
401
330
1
100
AcDbSymbolTableRecord
100
AcDbBlockTableRecord
  2
_D_21
340
0
  0
BLOCK_RECORD
  5
40B
330
1
100
AcDbSymbolTableRecord
100
AcDbBlockTableRecord
  2
_D_22
340
0
  0
BLOCK_RECORD
  5
415
330
1
100
AcDbSymbolTableRecord
100
AcDbBlockTableRecord
  2
_D_23
340
0
  0
BLOCK_RECORD
  5
421
330
1
100
AcDbSymbolTableRecord
100
AcDbBlockTableRecord
  2
_D_24
340
0
  0
BLOCK_RECORD
  5
42F
330
1
100
AcDbSymbolTableRecord
100
AcDbBlockTableRecord
  2
_D_25
340
0
  0
BLOCK_RECORD
  5
439
330
1
100
AcDbSymbolTableRecord
100
AcDbBlockTableRecord
  2
_D_26
340
0
  0
BLOCK_RECORD
  5
447
330
1
100
AcDbSymbolTableRecord
100
AcDbBlockTableRecord
  2
_D_27
340
0
  0
BLOCK_RECORD
  5
451
330
1
100
AcDbSymbolTableRecord
100
AcDbBlockTableRecord
  2
_D_28
340
0
  0
BLOCK_RECORD
  5
45F
330
1
100
AcDbSymbolTableRecord
100
AcDbBlockTableRecord
  2
_D_29
340
0
  0
BLOCK_RECORD
  5
46F
330
1
100
AcDbSymbolTableRecord
100
AcDbBlockTableRecord
  2
_D_30
340
0
  0
ENDTAB
  0
ENDSEC
  0
SECTION
  2
BLOCKS
  0
BLOCK
  5
20
330
1F
100
AcDbEntity
  8
0
100
AcDbBlockBegin
  2
*Model_Space
 70
     0
 10
0.0
 20
0.0
 30
0.0
  3
*Model_Space
  1

  0
ENDBLK
  5
21
330
1F
100
AcDbEntity
  8
0
100
AcDbBlockEnd
  0
BLOCK
  5
1C
330
1B
100
AcDbEntity
 67
     1
  8
0
100
AcDbBlockBegin
  2
*Paper_Space
 70
     0
 10
0.0
 20
0.0
 30
0.0
  3
*Paper_Space
  1

  0
ENDBLK
  5
1D
330
1B
100
AcDbEntity
 67
     1
  8
0
100
AcDbBlockEnd
  0
BLOCK
  5
24
330
23
100
AcDbEntity
  8
0
100
AcDbBlockBegin
  2
*Paper_Space0
 70
     0
 10
0.0
 20
0.0
 30
0.0
  3
*Paper_Space0
  1

  0
ENDBLK
  5
25
330
23
100
AcDbEntity
  8
0
100
AcDbBlockEnd
  0
BLOCK
  5
C9
330
C8
100
AcDbEntity
  8
0
100
AcDbBlockBegin
  2
SW_NOTE_0
 70
     0
 10
0.0
 20
0.0
 30
0.0
  3
SW_NOTE_0
  1

  0
MTEXT
  5
CC
330
C8
100
AcDbEntity
  8
CAJETIN
 62
     0
100
AcDbMText
 10
0.0
 20
12.2400402414
 30
0.0
 40
9.525
 41
0.0
 71
     1
 72
     1
  1
Birch Plywood
  7
SLDTEXTSTYLE0
 73
     1
 44
1.0
  0
MTEXT
  5
CD
330
C8
100
AcDbEntity
  8
CAJETIN
 62
     0
100
AcDbMText
 10
0.0
 20
-0.4599596051
 30
0.0
 40
9.525
 41
0.0
 71
     1
 72
     1
  1
18mm
  7
SLDTEXTSTYLE0
 73
     1
 44
1.0
  0
ENDBLK
  5
CA
330
C8
100
AcDbEntity
  8
0
100
AcDbBlockEnd
  0
BLOCK
  5
EF
330
EE
100
AcDbEntity
  8
0
100
AcDbBlockBegin
  2
SW_NOTE_1
 70
     0
 10
0.0
 20
0.0
 30
0.0
  3
SW_NOTE_1
  1

  0
MTEXT
  5
F1
330
EE
100
AcDbEntity
  8
CAJETIN
 62
     0
100
AcDbMText
 10
29.46796875
 20
12.2400402414
 30
0.0
 40
9.525
 41
0.0
 71
     2
 72
     1
  1
S-215LEX
  7
SLDTEXTSTYLE0
 73
     1
 44
1.0
  0
MTEXT
  5
F2
330
EE
100
AcDbEntity
  8
CAJETIN
 62
     0
100
AcDbMText
 10
31.9760147631
 20
-0.4599596051
 30
0.0
 40
9.525
 41
0.0
 71
     2
 72
     1
  1
DIRECT RADIATION SUBWOOFER
  7
SLDTEXTSTYLE0
 73
     1
 44
1.0
  0
ENDBLK
  5
F0
330
EE
100
AcDbEntity
  8
0
100
AcDbBlockEnd
  0
BLOCK
  5
F5
330
F4
100
AcDbEntity
  8
0
100
AcDbBlockBegin
  2
SW_NOTE_2
 70
     0
 10
0.0
 20
0.0
 30
0.0
  3
SW_NOTE_2
  1

  0
CIRCLE
  5
F7
330
F4
100
AcDbEntity
  8
SLD-0_0
 62
     0
100
AcDbCircle
 10
4.6394893461
 20
9.5478672926
 30
0.0
 40
10.1220726501989
  0
MTEXT
  5
F8
330
F4
100
AcDbEntity
  8
SLD-0_0
 62
     0
100
AcDbMText
 10
0.0
 20
16.3200536553
 30
0.0
 40
12.7
 41
0.0
 71
     1
 72
     1
  1
4
  7
SLDTEXTSTYLE0
 73
     1
 44
1.0
  0
ENDBLK
  5
F6
330
F4
100
AcDbEntity
  8
0
100
AcDbBlockEnd
  0
BLOCK
  5
FB
330
FA
100
AcDbEntity
  8
0
100
AcDbBlockBegin
  2
SW_NOTE_3
 70
     0
 10
0.0
 20
0.0
 30
0.0
  3
SW_NOTE_3
  1

  0
CIRCLE
  5
FD
330
FA
100
AcDbEntity
  8
SLD-0_0
 62
     0
100
AcDbCircle
 10
4.6488029029
 20
9.5503495497
 30
0.0
 40
10.14578452466601
  0
MTEXT
  5
FE
330
FA
100
AcDbEntity
  8
SLD-0_0
 62
     0
100
AcDbMText
 10
0.0
 20
16.3200536553
 30
0.0
 40
12.7
 41
0.0
 71
     1
 72
     1
  1
3
  7
SLDTEXTSTYLE0
 73
     1
 44
1.0
  0
ENDBLK
  5
FC
330
FA
100
AcDbEntity
  8
0
100
AcDbBlockEnd
  0
BLOCK
  5
101
330
100
100
AcDbEntity
  8
0
100
AcDbBlockBegin
  2
SW_NOTE_4
 70
     0
 10
0.0
 20
0.0
 30
0.0
  3
SW_NOTE_4
  1

  0
CIRCLE
  5
103
330
100
100
AcDbEntity
  8
SLD-0_0
 62
     0
100
AcDbCircle
 10
4.6439554593
 20
9.5503495497
 30
0.0
 40
10.1457845246659
  0
MTEXT
  5
104
330
100
100
AcDbEntity
  8
SLD-0_0
 62
     0
100
AcDbMText
 10
0.0
 20
16.3200536553
 30
0.0
 40
12.7
 41
0.0
 71
     1
 72
     1
  1
2
  7
SLDTEXTSTYLE0
 73
     1
 44
1.0
  0
ENDBLK
  5
102
330
100
100
AcDbEntity
  8
0
100
AcDbBlockEnd
  0
BLOCK
  5
107
330
106
100
AcDbEntity
  8
0
100
AcDbBlockBegin
  2
SW_NOTE_5
 70
     0
 10
0.0
 20
0.0
 30
0.0
  3
SW_NOTE_5
  1

  0
CIRCLE
  5
109
330
106
100
AcDbEntity
  8
SLD-0_0
 62
     0
100
AcDbCircle
 10
4.6610655414
 20
9.5717525427
 30
0.0
 40
10.12207265019895
  0
MTEXT
  5
10A
330
106
100
AcDbEntity
  8
SLD-0_0
 62
     0
100
AcDbMText
 10
0.0
 20
16.3200536553
 30
0.0
 40
12.7
 41
0.0
 71
     1
 72
     1
  1
1
  7
SLDTEXTSTYLE0
 73
     1
 44
1.0
  0
ENDBLK
  5
108
330
106
100
AcDbEntity
  8
0
100
AcDbBlockEnd
  0
BLOCK
  5
10D
330
10C
100
AcDbEntity
  8
0
100
AcDbBlockBegin
  2
SW_NOTE_6
 70
     0
 10
0.0
 20
0.0
 30
0.0
  3
SW_NOTE_6
  1

  0
CIRCLE
  5
10F
330
10C
100
AcDbEntity
  8
SLD-0_0
 62
     0
100
AcDbCircle
 10
4.674958155
 20
9.6199061903
 30
0.0
 40
10.1220726501988
  0
MTEXT
  5
110
330
10C
100
AcDbEntity
  8
SLD-0_0
 62
     0
100
AcDbMText
 10
0.0
 20
16.3200536553
 30
0.0
 40
12.7
 41
0.0
 71
     1
 72
     1
  1
7
  7
SLDTEXTSTYLE0
 73
     1
 44
1.0
  0
ENDBLK
  5
10E
330
10C
100
AcDbEntity
  8
0
100
AcDbBlockEnd
  0
BLOCK
  5
113
330
112
100
AcDbEntity
  8
0
100
AcDbBlockBegin
  2
SW_NOTE_7
 70
     0
 10
0.0
 20
0.0
 30
0.0
  3
SW_NOTE_7
  1

  0
CIRCLE
  5
115
330
112
100
AcDbEntity
  8
SLD-0_0
 62
     0
100
AcDbCircle
 10
4.6311256121
 20
9.5845488386
 30
0.0
 40
10.07693081960974
  0
MTEXT
  5
116
330
112
100
AcDbEntity
  8
SLD-0_0
 62
     0
100
AcDbMText
 10
0.0
 20
16.3200536553
 30
0.0
 40
12.7
 41
0.0
 71
     1
 72
     1
  1
6
  7
SLDTEXTSTYLE0
 73
     1
 44
1.0
  0
ENDBLK
  5
114
330
112
100
AcDbEntity
  8
0
100
AcDbBlockEnd
  0
BLOCK
  5
119
330
118
100
AcDbEntity
  8
0
100
AcDbBlockBegin
  2
SW_NOTE_8
 70
     0
 10
0.0
 20
0.0
 30
0.0
  3
SW_NOTE_8
  1

  0
CIRCLE
  5
11B
330
118
100
AcDbEntity
  8
SLD-0_0
 62
     0
100
AcDbCircle
 10
4.6432392729
 20
9.5884893566
 30
0.0
 40
10.1220726501989
  0
MTEXT
  5
11C
330
118
100
AcDbEntity
  8
SLD-0_0
 62
     0
100
AcDbMText
 10
0.0
 20
16.3200536553
 30
0.0
 40
12.7
 41
0.0
 71
     1
 72
     1
  1
5
  7
SLDTEXTSTYLE0
 73
     1
 44
1.0
  0
ENDBLK
  5
11A
330
118
100
AcDbEntity
  8
0
100
AcDbBlockEnd
  0
BLOCK
  5
11F
330
11E
100
AcDbEntity
  8
0
100
AcDbBlockBegin
  2
SW_NOTE_9
 70
     0
 10
0.0
 20
0.0
 30
0.0
  3
SW_NOTE_9
  1

  0
CIRCLE
  5
121
330
11E
100
AcDbEntity
  8
SLD-0_0
 62
     0
100
AcDbCircle
 10
4.6870718158
 20
9.5728783087
 30
0.0
 40
10.122072650199
  0
MTEXT
  5
122
330
11E
100
AcDbEntity
  8
SLD-0_0
 62
     0
100
AcDbMText
 10
0.0
 20
16.3200536553
 30
0.0
 40
12.7
 41
0.0
 71
     1
 72
     1
  1
6
  7
SLDTEXTSTYLE0
 73
     1
 44
1.0
  0
ENDBLK
  5
120
330
11E
100
AcDbEntity
  8
0
100
AcDbBlockEnd
  0
BLOCK
  5
125
330
124
100
AcDbEntity
  8
0
100
AcDbBlockBegin
  2
SW_NOTE_10
 70
     0
 10
0.0
 20
0.0
 30
0.0
  3
SW_NOTE_10
  1

  0
CIRCLE
  5
127
330
124
100
AcDbEntity
  8
SLD-0_0
 62
     0
100
AcDbCircle
 10
4.675649679
 20
9.6210070734
 30
0.0
 40
10.122072650199
  0
MTEXT
  5
128
330
124
100
AcDbEntity
  8
SLD-0_0
 62
     0
100
AcDbMText
 10
0.0
 20
16.3200536553
 30
0.0
 40
12.7
 41
0.0
 71
     1
 72
     1
  1
8
  7
SLDTEXTSTYLE0
 73
     1
 44
1.0
  0
ENDBLK
  5
126
330
124
100
AcDbEntity
  8
0
100
AcDbBlockEnd
  0
BLOCK
  5
12B
330
12A
100
AcDbEntity
  8
0
100
AcDbBlockBegin
  2
SW_TABLEANNOTATION_0
 70
     0
 10
0.0
 20
0.0
 30
0.0
  3
SW_TABLEANNOTATION_0
  1

  0
LINE
  5
12D
330
12A
100
AcDbEntity
  8
CAJETIN
 62
     0
100
AcDbLine
 10
0.0
 20
0.0
 30
0.0
 11
0.0
 21
-256.4403935502
 31
0.0
  0
LINE
  5
12E
330
12A
100
AcDbEntity
  8
CAJETIN
 62
     0
100
AcDbLine
 10
0.0
 20
-256.4403935502
 30
0.0
 11
479.274911898
 21
-256.4403935502
 31
0.0
  0
LINE
  5
12F
330
12A
100
AcDbEntity
  8
CAJETIN
 62
     0
100
AcDbLine
 10
479.274911898
 20
-256.4403935502
 30
0.0
 11
479.274911898
 21
0.0
 31
0.0
  0
LINE
  5
130
330
12A
100
AcDbEntity
  8
CAJETIN
 62
     0
100
AcDbLine
 10
479.274911898
 20
0.0
 30
0.0
 11
0.0
 21
0.0
 31
0.0
  0
LINE
  5
131
330
12A
100
AcDbEntity
  8
CAJETIN
 62
     0
100
AcDbLine
 10
101.7260768305
 20
0.0
 30
0.0
 11
101.7260768305
 21
-50.7869892081
 31
0.0
  0
LINE
  5
132
330
12A
100
AcDbEntity
  8
CAJETIN
 62
     0
100
AcDbLine
 10
395.0513682445
 20
0.0
 30
0.0
 11
395.0513682445
 21
-50.7869892081
 31
0.0
  0
LINE
  5
133
330
12A
100
AcDbEntity
  8
CAJETIN
 62
     0
100
AcDbLine
 10
101.7260768305
 20
-50.7869892081
 30
0.0
 11
101.7260768305
 21
-256.4403935502
 31
0.0
  0
LINE
  5
134
330
12A
100
AcDbEntity
  8
CAJETIN
 62
     0
100
AcDbLine
 10
395.0513682445
 20
-50.7869892081
 30
0.0
 11
395.0513682445
 21
-256.4403935502
 31
0.0
  0
LINE
  5
135
330
12A
100
AcDbEntity
  8
CAJETIN
 62
     0
100
AcDbLine
 10
0.0
 20
-76.4936647508
 30
0.0
 11
479.274911898
 21
-76.4936647508
 31
0.0
  0
LINE
  5
136
330
12A
100
AcDbEntity
  8
CAJETIN
 62
     0
100
AcDbLine
 10
0.0
 20
-102.2003402936
 30
0.0
 11
479.274911898
 21
-102.2003402936
 31
0.0
  0
LINE
  5
137
330
12A
100
AcDbEntity
  8
CAJETIN
 62
     0
100
AcDbLine
 10
0.0
 20
-127.9070158363
 30
0.0
 11
479.274911898
 21
-127.9070158363
 31
0.0
  0
LINE
  5
138
330
12A
100
AcDbEntity
  8
CAJETIN
 62
     0
100
AcDbLine
 10
0.0
 20
-153.6136913791
 30
0.0
 11
479.274911898
 21
-153.6136913791
 31
0.0
  0
LINE
  5
139
330
12A
100
AcDbEntity
  8
CAJETIN
 62
     0
100
AcDbLine
 10
0.0
 20
-179.3203669219
 30
0.0
 11
479.274911898
 21
-179.3203669219
 31
0.0
  0
LINE
  5
13A
330
12A
100
AcDbEntity
  8
CAJETIN
 62
     0
100
AcDbLine
 10
0.0
 20
-205.0270424646
 30
0.0
 11
479.274911898
 21
-205.0270424646
 31
0.0
  0
LINE
  5
13B
330
12A
100
AcDbEntity
  8
CAJETIN
 62
     0
100
AcDbLine
 10
0.0
 20
-230.7337180074
 30
0.0
 11
479.274911898
 21
-230.7337180074
 31
0.0
  0
LINE
  5
13C
330
12A
100
AcDbEntity
  8
CAJETIN
 62
     0
100
AcDbLine
 10
0.0
 20
-50.7869892081
 30
0.0
 11
479.274911898
 21
-50.7869892081
 31
0.0
  0
MTEXT
  5
13E
330
12A
100
AcDbEntity
  8
CAJETIN
 62
     0
100
AcDbMText
 10
14.6092433875
 20
-19.0486339008
 30
0.0
 40
12.7
 41
0.0
 71
     1
 72
     1
  1
ITEM NO.
  7
SLDTEXTSTYLE2
 73
     1
 44
1.0
  0
MTEXT
  5
13F
330
12A
100
AcDbEntity
  8
CAJETIN
 62
     0
100
AcDbMText
 10
163.7220531687
 20
-19.0486339008
 30
0.0
 40
12.7
 41
0.0
 71
     1
 72
     1
  1
PARTS DIMENSIONS
  7
SLDTEXTSTYLE0
 73
     1
 44
1.0
  0
MTEXT
  5
140
330
12A
100
AcDbEntity
  8
CAJETIN
 62
     0
100
AcDbMText
 10
418.7834182807
 20
-19.0486339008
 30
0.0
 40
12.7
 41
0.0
 71
     1
 72
     1
  1
QTY.
  7
SLDTEXTSTYLE2
 73
     1
 44
1.0
  0
MTEXT
  5
141
330
12A
100
AcDbEntity
  8
CAJETIN
 62
     0
100
AcDbMText
 10
46.1710939577
 20
-57.2954662762
 30
0.0
 40
12.7
 41
0.0
 71
     1
 72
     1
  1
1
  7
SLDTEXTSTYLE2
 73
     1
 44
1.0
  0
MTEXT
  5
143
330
12A
100
AcDbEntity
  8
CAJETIN
 62
     0
100
AcDbMText
 10
195.2956686125
 20
-57.2954662762
 30
0.0
 40
12.7
 41
0.0
 71
     1
 72
     1
  1
975 x 604 x 18
  7
SLDTEXTSTYLE3
 73
     1
 44
1.0
  0
MTEXT
  5
144
330
12A
100
AcDbEntity
  8
CAJETIN
 62
     0
100
AcDbMText
 10
432.4711956136
 20
-57.2954662762
 30
0.0
 40
12.7
 41
0.0
 71
     1
 72
     1
  1
2
  7
SLDTEXTSTYLE2
 73
     1
 44
1.0
  0
MTEXT
  5
145
330
12A
100
AcDbEntity
  8
CAJETIN
 62
     0
100
AcDbMText
 10
46.1710939577
 20
-83.002141819
 30
0.0
 40
12.7
 41
0.0
 71
     1
 72
     1
  1
2
  7
SLDTEXTSTYLE2
 73
     1
 44
1.0
  0
MTEXT
  5
146
330
12A
100
AcDbEntity
  8
CAJETIN
 62
     0
100
AcDbMText
 10
192.8850188837
 20
-83.002141819
 30
0.0
 40
12.7
 41
0.0
 71
     1
 72
     1
  1
604 x 440 x 18
  7
SLDTEXTSTYLE3
 73
     1
 44
1.0
  0
MTEXT
  5
147
330
12A
100
AcDbEntity
  8
CAJETIN
 62
     0
100
AcDbMText
 10
432.4711956136
 20
-83.002141819
 30
0.0
 40
12.7
 41
0.0
 71
     1
 72
     1
  1
2
  7
SLDTEXTSTYLE2
 73
     1
 44
1.0
  0
MTEXT
  5
148
330
12A
100
AcDbEntity
  8
CAJETIN
 62
     0
100
AcDbMText
 10
46.1710939577
 20
-108.7088173617
 30
0.0
 40
12.7
 41
0.0
 71
     1
 72
     1
  1
3
  7
SLDTEXTSTYLE2
 73
     1
 44
1.0
  0
MTEXT
  5
149
330
12A
100
AcDbEntity
  8
CAJETIN
 62
     0
100
AcDbMText
 10
192.8850188837
 20
-108.7088173617
 30
0.0
 40
12.7
 41
0.0
 71
     1
 72
     1
  1
939 x 440 x 18
  7
SLDTEXTSTYLE3
 73
     1
 44
1.0
  0
MTEXT
  5
14A
330
12A
100
AcDbEntity
  8
CAJETIN
 62
     0
100
AcDbMText
 10
432.4711956136
 20
-108.7088173617
 30
0.0
 40
12.7
 41
0.0
 71
     1
 72
     1
  1
1
  7
SLDTEXTSTYLE2
 73
     1
 44
1.0
  0
MTEXT
  5
14B
330
12A
100
AcDbEntity
  8
CAJETIN
 62
     0
100
AcDbMText
 10
46.1710939577
 20
-134.4154929045
 30
0.0
 40
12.7
 41
0.0
 71
     1
 72
     1
  1
4
  7
SLDTEXTSTYLE2
 73
     1
 44
1.0
  0
MTEXT
  5
14C
330
12A
100
AcDbEntity
  8
CAJETIN
 62
     0
100
AcDbMText
 10
192.8850188837
 20
-134.4154929045
 30
0.0
 40
12.7
 41
0.0
 71
     1
 72
     1
  1
256 x 939 x 18
  7
SLDTEXTSTYLE3
 73
     1
 44
1.0
  0
MTEXT
  5
14D
330
12A
100
AcDbEntity
  8
CAJETIN
 62
     0
100
AcDbMText
 10
432.4711956136
 20
-134.4154929045
 30
0.0
 40
12.7
 41
0.0
 71
     1
 72
     1
  1
1
  7
SLDTEXTSTYLE2
 73
     1
 44
1.0
  0
MTEXT
  5
14E
330
12A
100
AcDbEntity
  8
CAJETIN
 62
     0
100
AcDbMText
 10
46.1710939577
 20
-160.1221684473
 30
0.0
 40
12.7
 41
0.0
 71
     1
 72
     1
  1
5
  7
SLDTEXTSTYLE2
 73
     1
 44
1.0
  0
MTEXT
  5
14F
330
12A
100
AcDbEntity
  8
CAJETIN
 62
     0
100
AcDbMText
 10
192.8850188837
 20
-160.1221684473
 30
0.0
 40
12.7
 41
0.0
 71
     1
 72
     1
  1
400 x 100 x 18
  7
SLDTEXTSTYLE3
 73
     1
 44
1.0
  0
MTEXT
  5
150
330
12A
100
AcDbEntity
  8
CAJETIN
 62
     0
100
AcDbMText
 10
432.4711956136
 20
-160.1221684473
 30
0.0
 40
12.7
 41
0.0
 71
     1
 72
     1
  1
1
  7
SLDTEXTSTYLE2
 73
     1
 44
1.0
  0
MTEXT
  5
151
330
12A
100
AcDbEntity
  8
CAJETIN
 62
     0
100
AcDbMText
 10
46.1710939577
 20
-185.82884399
 30
0.0
 40
12.7
 41
0.0
 71
     1
 72
     1
  1
6
  7
SLDTEXTSTYLE2
 73
     1
 44
1.0
  0
MTEXT
  5
152
330
12A
100
AcDbEntity
  8
CAJETIN
 62
     0
100
AcDbMText
 10
192.8850188837
 20
-185.82884399
 30
0.0
 40
12.7
 41
0.0
 71
     1
 72
     1
  1
195 x 440 x 18
  7
SLDTEXTSTYLE3
 73
     1
 44
1.0
  0
MTEXT
  5
153
330
12A
100
AcDbEntity
  8
CAJETIN
 62
     0
100
AcDbMText
 10
432.4711956136
 20
-185.82884399
 30
0.0
 40
12.7
 41
0.0
 71
     1
 72
     1
  1
2
  7
SLDTEXTSTYLE2
 73
     1
 44
1.0
  0
MTEXT
  5
154
330
12A
100
AcDbEntity
  8
CAJETIN
 62
     0
100
AcDbMText
 10
46.1710939577
 20
-211.5355195328
 30
0.0
 40
12.7
 41
0.0
 71
     1
 72
     1
  1
7
  7
SLDTEXTSTYLE2
 73
     1
 44
1.0
  0
MTEXT
  5
156
330
12A
100
AcDbEntity
  8
CAJETIN
 62
     0
100
AcDbMText
 10
197.5887231514
 20
-211.5355195328
 30
0.0
 40
12.7
 41
0.0
 71
     1
 72
     1
  1
195 x 85 x 18
  7
SLDTEXTSTYLE4
 73
     1
 44
1.0
  0
MTEXT
  5
157
330
12A
100
AcDbEntity
  8
CAJETIN
 62
     0
100
AcDbMText
 10
432.4711956136
 20
-211.5355195328
 30
0.0
 40
12.7
 41
0.0
 71
     1
 72
     1
  1
1
  7
SLDTEXTSTYLE2
 73
     1
 44
1.0
  0
MTEXT
  5
158
330
12A
100
AcDbEntity
  8
CAJETIN
 62
     0
100
AcDbMText
 10
46.1710939577
 20
-237.2421950755
 30
0.0
 40
12.7
 41
0.0
 71
     1
 72
     1
  1
8
  7
SLDTEXTSTYLE2
 73
     1
 44
1.0
  0
MTEXT
  5
159
330
12A
100
AcDbEntity
  8
CAJETIN
 62
     0
100
AcDbMText
 10
195.2956686125
 20
-237.2421950755
 30
0.0
 40
12.7
 41
0.0
 71
     1
 72
     1
  1
409 x 440 x 18
  7
SLDTEXTSTYLE3
 73
     1
 44
1.0
  0
MTEXT
  5
15A
330
12A
100
AcDbEntity
  8
CAJETIN
 62
     0
100
AcDbMText
 10
432.4711956136
 20
-237.2421950755
 30
0.0
 40
12.7
 41
0.0
 71
     1
 72
     1
  1
2
  7
SLDTEXTSTYLE2
 73
     1
 44
1.0
  0
ENDBLK
  5
12C
330
12A
100
AcDbEntity
  8
0
100
AcDbBlockEnd
  0
BLOCK
  5
251
330
250
100
AcDbEntity
  8
0
100
AcDbBlockBegin
  2
SW_NOTE_11
 70
     0
 10
0.0
 20
0.0
 30
0.0
  3
SW_NOTE_11
  1

  0
CIRCLE
  5
253
330
250
100
AcDbEntity
  8
SLD-0_0
 62
     0
100
AcDbCircle
 10
-4.4243243618
 20
17.5539230243
 30
0.0
 40
18.10289644229626
  0
MTEXT
  5
254
330
250
100
AcDbEntity
  8
SLD-0_0
 62
     0
100
AcDbMText
 10
-4.3655281639
 20
24.7292877914
 30
0.0
 40
12.7
 41
0.0
 71
     2
 72
     1
  1
2
  7
SLDTEXTSTYLE0
 73
     1
 44
1.0
  0
ENDBLK
  5
252
330
250
100
AcDbEntity
  8
0
100
AcDbBlockEnd
  0
BLOCK
  5
258
330
257
100
AcDbEntity
  8
0
100
AcDbBlockBegin
  2
_DOT
 70
     0
 10
0.0
 20
0.0
 30
0.0
  3
_DOT
  1

  0
POLYLINE
  5
25A
330
257
100
AcDbEntity
  8
0
  6
ByBlock
 62
     0
100
AcDb2dPolyline
 66
     1
 10
0.0
 20
0.0
 30
0.0
 70
     1
 40
0.5
 41
0.5
  0
VERTEX
  5
25C
330
25A
100
AcDbEntity
  8
0
  6
ByBlock
 62
     0
100
AcDbVertex
100
AcDb2dVertex
 10
-0.25
 20
0.0
 30
0.0
 42
1.0
  0
VERTEX
  5
25D
330
25A
100
AcDbEntity
  8
0
  6
ByBlock
 62
     0
100
AcDbVertex
100
AcDb2dVertex
 10
0.25
 20
0.0
 30
0.0
 42
1.0
  0
SEQEND
  5
25E
330
25A
100
AcDbEntity
  8
0
  6
ByBlock
 62
     0
  0
LINE
  5
25B
330
257
100
AcDbEntity
  8
0
  6
ByBlock
 62
     0
370
    -2
100
AcDbLine
 10
-0.5
 20
0.0
 30
0.0
 11
-1.0
 21
0.0
 31
0.0
  0
ENDBLK
  5
259
330
257
100
AcDbEntity
  8
0
100
AcDbBlockEnd
  0
BLOCK
  5
261
330
260
100
AcDbEntity
  8
0
100
AcDbBlockBegin
  2
SW_NOTE_12
 70
     0
 10
0.0
 20
0.0
 30
0.0
  3
SW_NOTE_12
  1

  0
CIRCLE
  5
263
330
260
100
AcDbEntity
  8
SLD-0_0
 62
     0
100
AcDbCircle
 10
8.608591378
 20
15.9250436133
 30
0.0
 40
18.10289644229631
  0
MTEXT
  5
264
330
260
100
AcDbEntity
  8
SLD-0_0
 62
     0
100
AcDbMText
 10
8.6673875759
 20
23.1004083805
 30
0.0
 40
12.7
 41
0.0
 71
     2
 72
     1
  1
1
  7
SLDTEXTSTYLE0
 73
     1
 44
1.0
  0
ENDBLK
  5
262
330
260
100
AcDbEntity
  8
0
100
AcDbBlockEnd
  0
BLOCK
  5
268
330
267
100
AcDbEntity
  8
0
100
AcDbBlockBegin
  2
SW_NOTE_13
 70
     0
 10
0.0
 20
0.0
 30
0.0
  3
SW_NOTE_13
  1

  0
CIRCLE
  5
26A
330
267
100
AcDbEntity
  8
SLD-0_0
 62
     0
100
AcDbCircle
 10
12.8925796847
 20
12.7081174323
 30
0.0
 40
18.10289644229621
  0
MTEXT
  5
26B
330
267
100
AcDbEntity
  8
SLD-0_0
 62
     0
100
AcDbMText
 10
12.9513758826
 20
19.8834821995
 30
0.0
 40
12.7
 41
0.0
 71
     2
 72
     1
  1
5
  7
SLDTEXTSTYLE0
 73
     1
 44
1.0
  0
ENDBLK
  5
269
330
267
100
AcDbEntity
  8
0
100
AcDbBlockEnd
  0
BLOCK
  5
26F
330
26E
100
AcDbEntity
  8
0
100
AcDbBlockBegin
  2
SW_NOTE_14
 70
     0
 10
0.0
 20
0.0
 30
0.0
  3
SW_NOTE_14
  1

  0
CIRCLE
  5
271
330
26E
100
AcDbEntity
  8
SLD-0_0
 62
     0
100
AcDbCircle
 10
15.7979276115
 20
8.839702641
 30
0.0
 40
18.10289644229631
  0
MTEXT
  5
272
330
26E
100
AcDbEntity
  8
SLD-0_0
 62
     0
100
AcDbMText
 10
15.8567238094
 20
16.0150674082
 30
0.0
 40
12.7
 41
0.0
 71
     2
 72
     1
  1
3
  7
SLDTEXTSTYLE0
 73
     1
 44
1.0
  0
ENDBLK
  5
270
330
26E
100
AcDbEntity
  8
0
100
AcDbBlockEnd
  0
BLOCK
  5
276
330
275
100
AcDbEntity
  8
0
100
AcDbBlockBegin
  2
SW_NOTE_15
 70
     0
 10
0.0
 20
0.0
 30
0.0
  3
SW_NOTE_15
  1

  0
CIRCLE
  5
278
330
275
100
AcDbEntity
  8
SLD-0_0
 62
     0
100
AcDbCircle
 10
-14.8695248844
 20
-10.3253130371
 30
0.0
 40
18.10289644229626
  0
MTEXT
  5
279
330
275
100
AcDbEntity
  8
SLD-0_0
 62
     0
100
AcDbMText
 10
-14.8107286865
 20
-3.1499482699
 30
0.0
 40
12.7
 41
0.0
 71
     2
 72
     1
  1
8
  7
SLDTEXTSTYLE0
 73
     1
 44
1.0
  0
ENDBLK
  5
277
330
275
100
AcDbEntity
  8
0
100
AcDbBlockEnd
  0
BLOCK
  5
27D
330
27C
100
AcDbEntity
  8
0
100
AcDbBlockBegin
  2
SW_NOTE_16
 70
     0
 10
0.0
 20
0.0
 30
0.0
  3
SW_NOTE_16
  1

  0
CIRCLE
  5
27F
330
27C
100
AcDbEntity
  8
SLD-0_0
 62
     0
100
AcDbCircle
 10
12.4437045427
 20
-13.1479685448
 30
0.0
 40
18.10289644229631
  0
MTEXT
  5
280
330
27C
100
AcDbEntity
  8
SLD-0_0
 62
     0
100
AcDbMText
 10
12.5025007406
 20
-5.9726037777
 30
0.0
 40
12.7
 41
0.0
 71
     2
 72
     1
  1
6
  7
SLDTEXTSTYLE0
 73
     1
 44
1.0
  0
ENDBLK
  5
27E
330
27C
100
AcDbEntity
  8
0
100
AcDbBlockEnd
  0
BLOCK
  5
284
330
283
100
AcDbEntity
  8
0
100
AcDbBlockBegin
  2
SW_NOTE_17
 70
     0
 10
0.0
 20
0.0
 30
0.0
  3
SW_NOTE_17
  1

  0
CIRCLE
  5
286
330
283
100
AcDbEntity
  8
SLD-0_0
 62
     0
100
AcDbCircle
 10
-2.7975878087
 20
17.8854231723
 30
0.0
 40
18.10289644229631
  0
MTEXT
  5
287
330
283
100
AcDbEntity
  8
SLD-0_0
 62
     0
100
AcDbMText
 10
-2.7387916108
 20
25.0607879395
 30
0.0
 40
12.7
 41
0.0
 71
     2
 72
     1
  1
6
  7
SLDTEXTSTYLE0
 73
     1
 44
1.0
  0
ENDBLK
  5
285
330
283
100
AcDbEntity
  8
0
100
AcDbBlockEnd
  0
BLOCK
  5
28B
330
28A
100
AcDbEntity
  8
0
100
AcDbBlockBegin
  2
SW_NOTE_18
 70
     0
 10
0.0
 20
0.0
 30
0.0
  3
SW_NOTE_18
  1

  0
CIRCLE
  5
28D
330
28A
100
AcDbEntity
  8
SLD-0_0
 62
     0
100
AcDbCircle
 10
-2.959189822
 20
17.8593968319
 30
0.0
 40
18.10289644229631
  0
MTEXT
  5
28E
330
28A
100
AcDbEntity
  8
SLD-0_0
 62
     0
100
AcDbMText
 10
-2.9003936241
 20
25.034761599
 30
0.0
 40
12.7
 41
0.0
 71
     2
 72
     1
  1
7
  7
SLDTEXTSTYLE0
 73
     1
 44
1.0
  0
ENDBLK
  5
28C
330
28A
100
AcDbEntity
  8
0
100
AcDbBlockEnd
  0
BLOCK
  5
292
330
291
100
AcDbEntity
  8
0
100
AcDbBlockBegin
  2
SW_NOTE_19
 70
     0
 10
0.0
 20
0.0
 30
0.0
  3
SW_NOTE_19
  1

  0
CIRCLE
  5
294
330
291
100
AcDbEntity
  8
SLD-0_0
 62
     0
100
AcDbCircle
 10
11.0957015467
 20
14.3038549625
 30
0.0
 40
18.10289644229621
  0
MTEXT
  5
295
330
291
100
AcDbEntity
  8
SLD-0_0
 62
     0
100
AcDbMText
 10
11.1544977446
 20
21.4792197296
 30
0.0
 40
12.7
 41
0.0
 71
     2
 72
     1
  1
4
  7
SLDTEXTSTYLE0
 73
     1
 44
1.0
  0
ENDBLK
  5
293
330
291
100
AcDbEntity
  8
0
100
AcDbBlockEnd
  0
BLOCK
  5
299
330
298
100
AcDbEntity
  8
0
100
AcDbBlockBegin
  2
SW_NOTE_20
 70
     0
 10
0.0
 20
0.0
 30
0.0
  3
SW_NOTE_20
  1

  0
CIRCLE
  5
29B
330
298
100
AcDbEntity
  8
SLD-0_0
 62
     0
100
AcDbCircle
 10
17.9197007272
 20
2.568887979
 30
0.0
 40
18.10289644229631
  0
MTEXT
  5
29C
330
298
100
AcDbEntity
  8
SLD-0_0
 62
     0
100
AcDbMText
 10
17.9784969251
 20
9.7442527461
 30
0.0
 40
12.7
 41
0.0
 71
     2
 72
     1
  1
2
  7
SLDTEXTSTYLE0
 73
     1
 44
1.0
  0
ENDBLK
  5
29A
330
298
100
AcDbEntity
  8
0
100
AcDbBlockEnd
  0
BLOCK
  5
2A0
330
29F
100
AcDbEntity
  8
0
100
AcDbBlockBegin
  2
SW_NOTE_21
 70
     0
 10
0.0
 20
0.0
 30
0.0
  3
SW_NOTE_21
  1

  0
CIRCLE
  5
2A2
330
29F
100
AcDbEntity
  8
SLD-0_0
 62
     0
100
AcDbCircle
 10
15.9789745331
 20
-8.5080686688
 30
0.0
 40
18.10289644229621
  0
MTEXT
  5
2A3
330
29F
100
AcDbEntity
  8
SLD-0_0
 62
     0
100
AcDbMText
 10
16.037770731
 20
-1.3327039016
 30
0.0
 40
12.7
 41
0.0
 71
     2
 72
     1
  1
1
  7
SLDTEXTSTYLE0
 73
     1
 44
1.0
  0
ENDBLK
  5
2A1
330
29F
100
AcDbEntity
  8
0
100
AcDbBlockEnd
  0
BLOCK
  5
2A7
330
2A6
100
AcDbEntity
  8
0
100
AcDbBlockBegin
  2
SW_NOTE_22
 70
     0
 10
0.0
 20
0.0
 30
0.0
  3
SW_NOTE_22
  1

  0
CIRCLE
  5
2A9
330
2A6
100
AcDbEntity
  8
SLD-0_0
 62
     0
100
AcDbCircle
 10
-17.4535969335
 20
-4.8048739509
 30
0.0
 40
18.10289644229631
  0
MTEXT
  5
2AA
330
2A6
100
AcDbEntity
  8
SLD-0_0
 62
     0
100
AcDbMText
 10
-17.3948007356
 20
2.3704908162
 30
0.0
 40
12.7
 41
0.0
 71
     2
 72
     1
  1
8
  7
SLDTEXTSTYLE0
 73
     1
 44
1.0
  0
ENDBLK
  5
2A8
330
2A6
100
AcDbEntity
  8
0
100
AcDbBlockEnd
  0
BLOCK
  5
2B4
330
2B3
100
AcDbEntity
  8
0
100
AcDbBlockBegin
  2
_D
 70
     0
 10
0.0
 20
0.0
 30
0.0
  3
_D
  1

  0
SOLID
  5
2B6
330
2B3
100
AcDbEntity
  8
SLD-0_0
100
AcDbTrace
 10
199.1412221696
 20
1217.9955086861
 30
0.0
 11
202.4432221696
 21
1217.4875086861
 31
0.0
 12
202.4432221696
 22
1218.5035086861
 32
0.0
 13
202.4432221696
 23
1218.5035086861
 33
0.0
  0
SOLID
  5
2B7
330
2B3
100
AcDbEntity
  8
SLD-0_0
100
AcDbTrace
 10
1174.1412221696
 20
1217.9955086861
 30
0.0
 11
1170.8392221696
 21
1218.5035086861
 31
0.0
 12
1170.8392221696
 22
1217.4875086861
 32
0.0
 13
1170.8392221696
 23
1217.4875086861
 33
0.0
  0
LINE
  5
2B8
330
2B3
100
AcDbEntity
  8
SLD-0_0
100
AcDbLine
 10
199.1412221696
 20
1226.9955086861
 30
0.0
 11
199.1412221696
 21
1216.9955086861
 31
0.0
  0
LINE
  5
2B9
330
2B3
100
AcDbEntity
  8
SLD-0_0
100
AcDbLine
 10
1174.1412221696
 20
1226.9955086861
 30
0.0
 11
1174.1412221696
 21
1216.9955086861
 31
0.0
  0
LINE
  5
2BA
330
2B3
100
AcDbEntity
  8
SLD-0_0
100
AcDbLine
 10
199.1412221696
 20
1217.9955086861
 30
0.0
 11
1174.1412221696
 21
1217.9955086861
 31
0.0
  0
MTEXT
  5
2BB
330
2B3
100
AcDbEntity
  8
SLD-0_0
100
AcDbMText
 10
711.5558599808
 20
1222.5072457753
 30
0.0
 40
3.5
 41
0.0
 71
     1
 72
     1
  1
975
  7
SLDTEXTSTYLE0
 73
     1
 44
1.0
  0
ENDBLK
  5
2B5
330
2B3
100
AcDbEntity
  8
0
100
AcDbBlockEnd
  0
BLOCK
  5
2BE
330
2BD
100
AcDbEntity
  8
0
100
AcDbBlockBegin
  2
_D_1
 70
     0
 10
0.0
 20
0.0
 30
0.0
  3
_D_1
  1

  0
SOLID
  5
2C0
330
2BD
100
AcDbEntity
  8
SLD-0_0
100
AcDbTrace
 10
186.9129496531
 20
1227.9955086861
 30
0.0
 11
187.4209496531
 21
1231.2975086861
 31
0.0
 12
186.4049496531
 22
1231.2975086861
 32
0.0
 13
186.4049496531
 23
1231.2975086861
 33
0.0
  0
SOLID
  5
2C1
330
2BD
100
AcDbEntity
  8
SLD-0_0
100
AcDbTrace
 10
186.9129496531
 20
1831.9955086861
 30
0.0
 11
186.4049496531
 21
1828.6935086861
 31
0.0
 12
187.4209496531
 22
1828.6935086861
 32
0.0
 13
187.4209496531
 23
1828.6935086861
 33
0.0
  0
LINE
  5
2C2
330
2BD
100
AcDbEntity
  8
SLD-0_0
100
AcDbLine
 10
198.1412221696
 20
1227.9955086861
 30
0.0
 11
185.9129496531
 21
1227.9955086861
 31
0.0
  0
LINE
  5
2C3
330
2BD
100
AcDbEntity
  8
SLD-0_0
100
AcDbLine
 10
198.1412221696
 20
1831.9955086861
 30
0.0
 11
185.9129496531
 21
1831.9955086861
 31
0.0
  0
LINE
  5
2C4
330
2BD
100
AcDbEntity
  8
SLD-0_0
100
AcDbLine
 10
186.9129496531
 20
1227.9955086861
 30
0.0
 11
186.9129496531
 21
1831.9955086861
 31
0.0
  0
MTEXT
  5
2C5
330
2BD
100
AcDbEntity
  8
SLD-0_0
100
AcDbMText
 10
182.4012125639
 20
1526.0026314038
 30
0.0
 40
3.5
 41
0.0
 71
     1
 72
     1
  1
604
  7
SLDTEXTSTYLE0
 11
-3.713525943768165E-15
 21
1.0
 31
0.0
 73
     1
 44
1.0
  0
ENDBLK
  5
2BF
330
2BD
100
AcDbEntity
  8
0
100
AcDbBlockEnd
  0
BLOCK
  5
2CC
330
2CB
100
AcDbEntity
  8
0
100
AcDbBlockBegin
  2
_D_2
 70
     0
 10
0.0
 20
0.0
 30
0.0
  3
_D_2
  1

  0
SOLID
  5
2CE
330
2CB
100
AcDbEntity
  8
SLD-0_0
100
AcDbTrace
 10
1350.4427156491
 20
1831.9955086861
 30
0.0
 11
1349.9347156491
 21
1828.6935086861
 31
0.0
 12
1350.9507156491
 22
1828.6935086861
 32
0.0
 13
1350.9507156491
 23
1828.6935086861
 33
0.0
  0
SOLID
  5
2CF
330
2CB
100
AcDbEntity
  8
SLD-0_0
100
AcDbTrace
 10
1350.4427156491
 20
1227.9955086861
 30
0.0
 11
1350.9507156491
 21
1231.2975086861
 31
0.0
 12
1349.9347156491
 22
1231.2975086861
 32
0.0
 13
1349.9347156491
 23
1231.2975086861
 33
0.0
  0
LINE
  5
2D0
330
2CB
100
AcDbEntity
  8
SLD-0_0
100
AcDbLine
 10
1357.5046131663
 20
1831.9955086861
 30
0.0
 11
1349.4427156491
 21
1831.9955086861
 31
0.0
  0
LINE
  5
2D1
330
2CB
100
AcDbEntity
  8
SLD-0_0
100
AcDbLine
 10
1357.5046131663
 20
1227.9955086861
 30
0.0
 11
1349.4427156491
 21
1227.9955086861
 31
0.0
  0
LINE
  5
2D2
330
2CB
100
AcDbEntity
  8
SLD-0_0
100
AcDbLine
 10
1350.4427156491
 20
1831.9955086861
 30
0.0
 11
1350.4427156491
 21
1227.9955086861
 31
0.0
  0
MTEXT
  5
2D3
330
2CB
100
AcDbEntity
  8
SLD-0_0
100
AcDbMText
 10
1345.9309785599
 20
1521.6585200779
 30
0.0
 40
3.5
 41
0.0
 71
     1
 72
     1
  1
604
  7
SLDTEXTSTYLE0
 11
-1.059690869644414E-14
 21
1.0
 31
0.0
 73
     1
 44
1.0
  0
ENDBLK
  5
2CD
330
2CB
100
AcDbEntity
  8
0
100
AcDbBlockEnd
  0
BLOCK
  5
2D6
330
2D5
100
AcDbEntity
  8
0
100
AcDbBlockBegin
  2
_D_3
 70
     0
 10
0.0
 20
0.0
 30
0.0
  3
_D_3
  1

  0
SOLID
  5
2D8
330
2D5
100
AcDbEntity
  8
SLD-0_0
100
AcDbTrace
 10
1358.5046131663
 20
1217.677419026
 30
0.0
 11
1361.8066131663
 21
1217.169419026
 31
0.0
 12
1361.8066131663
 22
1218.185419026
 32
0.0
 13
1361.8066131663
 23
1218.185419026
 33
0.0
  0
SOLID
  5
2D9
330
2D5
100
AcDbEntity
  8
SLD-0_0
100
AcDbTrace
 10
1798.5046131663
 20
1217.677419026
 30
0.0
 11
1795.2026131663
 21
1218.185419026
 31
0.0
 12
1795.2026131663
 22
1217.169419026
 32
0.0
 13
1795.2026131663
 23
1217.169419026
 33
0.0
  0
LINE
  5
2DA
330
2D5
100
AcDbEntity
  8
SLD-0_0
100
AcDbLine
 10
1358.5046131663
 20
1226.9955086861
 30
0.0
 11
1358.5046131663
 21
1216.677419026
 31
0.0
  0
LINE
  5
2DB
330
2D5
100
AcDbEntity
  8
SLD-0_0
100
AcDbLine
 10
1798.5046131663
 20
1226.9955086861
 30
0.0
 11
1798.5046131663
 21
1216.677419026
 31
0.0
  0
LINE
  5
2DC
330
2D5
100
AcDbEntity
  8
SLD-0_0
100
AcDbLine
 10
1358.5046131663
 20
1217.677419026
 30
0.0
 11
1798.5046131663
 21
1217.677419026
 31
0.0
  0
MTEXT
  5
2DD
330
2D5
100
AcDbEntity
  8
SLD-0_0
100
AcDbMText
 10
1555.2696479394
 20
1222.1891561152
 30
0.0
 40
3.5
 41
0.0
 71
     1
 72
     1
  1
440
  7
SLDTEXTSTYLE0
 73
     1
 44
1.0
  0
ENDBLK
  5
2D7
330
2D5
100
AcDbEntity
  8
0
100
AcDbBlockEnd
  0
BLOCK
  5
2E4
330
2E3
100
AcDbEntity
  8
0
100
AcDbBlockBegin
  2
_D_4
 70
     0
 10
0.0
 20
0.0
 30
0.0
  3
_D_4
  1

  0
SOLID
  5
2E6
330
2E3
100
AcDbEntity
  8
SLD-0_0
100
AcDbTrace
 10
2914.6360005685
 20
1764.1434259803
 30
0.0
 11
2911.3340005685
 21
1764.6514259803
 31
0.0
 12
2911.3340005685
 22
1763.6354259803
 32
0.0
 13
2911.3340005685
 23
1763.6354259803
 33
0.0
  0
SOLID
  5
2E7
330
2E3
100
AcDbEntity
  8
SLD-0_0
100
AcDbTrace
 10
1975.6360005685
 20
1764.1434259803
 30
0.0
 11
1978.9380005685
 21
1763.6354259803
 31
0.0
 12
1978.9380005685
 22
1764.6514259803
 32
0.0
 13
1978.9380005685
 23
1764.6514259803
 33
0.0
  0
LINE
  5
2E8
330
2E3
100
AcDbEntity
  8
SLD-0_0
100
AcDbLine
 10
2914.6360005685
 20
1757.6124613433
 30
0.0
 11
2914.6360005685
 21
1765.1434259803
 31
0.0
  0
LINE
  5
2E9
330
2E3
100
AcDbEntity
  8
SLD-0_0
100
AcDbLine
 10
1975.6360005685
 20
1757.6124613433
 30
0.0
 11
1975.6360005685
 21
1765.1434259803
 31
0.0
  0
LINE
  5
2EA
330
2E3
100
AcDbEntity
  8
SLD-0_0
100
AcDbLine
 10
2914.6360005685
 20
1764.1434259803
 30
0.0
 11
1975.6360005685
 21
1764.1434259803
 31
0.0
  0
MTEXT
  5
2EB
330
2E3
100
AcDbEntity
  8
SLD-0_0
100
AcDbMText
 10
2413.0865182724
 20
1768.6551630695
 30
0.0
 40
3.5
 41
0.0
 71
     1
 72
     1
  1
939
  7
SLDTEXTSTYLE0
 73
     1
 44
1.0
  0
ENDBLK
  5
2E5
330
2E3
100
AcDbEntity
  8
0
100
AcDbBlockEnd
  0
BLOCK
  5
2EE
330
2ED
100
AcDbEntity
  8
0
100
AcDbBlockBegin
  2
_D_5
 70
     0
 10
0.0
 20
0.0
 30
0.0
  3
_D_5
  1

  0
SOLID
  5
2F0
330
2ED
100
AcDbEntity
  8
SLD-0_0
100
AcDbTrace
 10
1964.9833165052
 20
1756.6124613433
 30
0.0
 11
1964.4753165052
 21
1753.3104613433
 31
0.0
 12
1965.4913165052
 22
1753.3104613433
 32
0.0
 13
1965.4913165052
 23
1753.3104613433
 33
0.0
  0
SOLID
  5
2F1
330
2ED
100
AcDbEntity
  8
SLD-0_0
100
AcDbTrace
 10
1964.9833165052
 20
1316.6124613433
 30
0.0
 11
1965.4913165052
 21
1319.9144613433
 31
0.0
 12
1964.4753165052
 22
1319.9144613433
 32
0.0
 13
1964.4753165052
 23
1319.9144613433
 33
0.0
  0
LINE
  5
2F2
330
2ED
100
AcDbEntity
  8
SLD-0_0
100
AcDbLine
 10
1974.6360005685
 20
1756.6124613433
 30
0.0
 11
1963.9833165052
 21
1756.6124613433
 31
0.0
  0
LINE
  5
2F3
330
2ED
100
AcDbEntity
  8
SLD-0_0
100
AcDbLine
 10
1974.6360005685
 20
1316.6124613433
 30
0.0
 11
1963.9833165052
 21
1316.6124613433
 31
0.0
  0
LINE
  5
2F4
330
2ED
100
AcDbEntity
  8
SLD-0_0
100
AcDbLine
 10
1964.9833165052
 20
1756.6124613433
 30
0.0
 11
1964.9833165052
 21
1316.6124613433
 31
0.0
  0
MTEXT
  5
2F5
330
2ED
100
AcDbEntity
  8
SLD-0_0
100
AcDbMText
 10
1960.471579416
 20
1543.8626002324
 30
0.0
 40
3.5
 41
0.0
 71
     1
 72
     1
  1
440
  7
SLDTEXTSTYLE0
 11
-7.044195017643634E-15
 21
1.0
 31
0.0
 73
     1
 44
1.0
  0
ENDBLK
  5
2EF
330
2ED
100
AcDbEntity
  8
0
100
AcDbBlockEnd
  0
BLOCK
  5
306
330
305
100
AcDbEntity
  8
0
100
AcDbBlockBegin
  2
_D_6
 70
     0
 10
0.0
 20
0.0
 30
0.0
  3
_D_6
  1

  0
SOLID
  5
308
330
305
100
AcDbEntity
  8
SLD-0_0
100
AcDbTrace
 10
1206.4316451247
 20
1030.3464180136
 30
0.0
 11
1209.7336451247
 21
1029.8384180136
 31
0.0
 12
1209.7336451247
 22
1030.8544180136
 32
0.0
 13
1209.7336451247
 23
1030.8544180136
 33
0.0
  0
SOLID
  5
309
330
305
100
AcDbEntity
  8
SLD-0_0
100
AcDbTrace
 10
1615.4316451247
 20
1030.3464180136
 30
0.0
 11
1612.1296451247
 21
1030.8544180136
 31
0.0
 12
1612.1296451247
 22
1029.8384180136
 32
0.0
 13
1612.1296451247
 23
1029.8384180136
 33
0.0
  0
LINE
  5
30A
330
305
100
AcDbEntity
  8
SLD-0_0
100
AcDbLine
 10
1206.4316451247
 20
1021.3464180136
 30
0.0
 11
1206.4316451247
 21
1031.3464180136
 31
0.0
  0
LINE
  5
30B
330
305
100
AcDbEntity
  8
SLD-0_0
100
AcDbLine
 10
1615.4316451247
 20
1021.3464180136
 30
0.0
 11
1615.4316451247
 21
1031.3464180136
 31
0.0
  0
LINE
  5
30C
330
305
100
AcDbEntity
  8
SLD-0_0
100
AcDbLine
 10
1206.4316451247
 20
1030.3464180136
 30
0.0
 11
1615.4316451247
 21
1030.3464180136
 31
0.0
  0
MTEXT
  5
30D
330
305
100
AcDbEntity
  8
SLD-0_0
100
AcDbMText
 10
1406.9212285574
 20
1034.8581551028
 30
0.0
 40
3.5
 41
0.0
 71
     1
 72
     1
  1
409
  7
SLDTEXTSTYLE0
 73
     1
 44
1.0
  0
ENDBLK
  5
307
330
305
100
AcDbEntity
  8
0
100
AcDbBlockEnd
  0
BLOCK
  5
310
330
30F
100
AcDbEntity
  8
0
100
AcDbBlockBegin
  2
_D_7
 70
     0
 10
0.0
 20
0.0
 30
0.0
  3
_D_7
  1

  0
SOLID
  5
312
330
30F
100
AcDbEntity
  8
SLD-0_0
100
AcDbTrace
 10
1196.4316451247
 20
1020.3464180136
 30
0.0
 11
1195.9236451247
 21
1017.0444180136
 31
0.0
 12
1196.9396451247
 22
1017.0444180136
 32
0.0
 13
1196.9396451247
 23
1017.0444180136
 33
0.0
  0
SOLID
  5
313
330
30F
100
AcDbEntity
  8
SLD-0_0
100
AcDbTrace
 10
1196.4316451247
 20
580.3464180136
 30
0.0
 11
1196.9396451247
 21
583.6484180136
 31
0.0
 12
1195.9236451247
 22
583.6484180136
 32
0.0
 13
1195.9236451247
 23
583.6484180136
 33
0.0
  0
LINE
  5
314
330
30F
100
AcDbEntity
  8
SLD-0_0
100
AcDbLine
 10
1205.4316451247
 20
1020.3464180136
 30
0.0
 11
1195.4316451247
 21
1020.3464180136
 31
0.0
  0
LINE
  5
315
330
30F
100
AcDbEntity
  8
SLD-0_0
100
AcDbLine
 10
1205.4316451247
 20
580.3464180136
 30
0.0
 11
1195.4316451247
 21
580.3464180136
 31
0.0
  0
LINE
  5
316
330
30F
100
AcDbEntity
  8
SLD-0_0
100
AcDbLine
 10
1196.4316451247
 20
1020.3464180136
 30
0.0
 11
1196.4316451247
 21
580.3464180136
 31
0.0
  0
MTEXT
  5
317
330
30F
100
AcDbEntity
  8
SLD-0_0
100
AcDbMText
 10
1191.9199080355
 20
791.1441326582
 30
0.0
 40
3.5
 41
0.0
 71
     1
 72
     1
  1
440
  7
SLDTEXTSTYLE0
 11
-7.044195017643634E-15
 21
1.0
 31
0.0
 73
     1
 44
1.0
  0
ENDBLK
  5
311
330
30F
100
AcDbEntity
  8
0
100
AcDbBlockEnd
  0
BLOCK
  5
31A
330
319
100
AcDbEntity
  8
0
100
AcDbBlockBegin
  2
_D_8
 70
     0
 10
0.0
 20
0.0
 30
0.0
  3
_D_8
  1

  0
SOLID
  5
31C
330
319
100
AcDbEntity
  8
SLD-0_0
100
AcDbTrace
 10
1206.4316451247
 20
563.3464180136
 30
0.0
 11
1209.7336451247
 21
562.8384180136
 31
0.0
 12
1209.7336451247
 22
563.8544180136
 32
0.0
 13
1209.7336451247
 23
563.8544180136
 33
0.0
  0
SOLID
  5
31D
330
319
100
AcDbEntity
  8
SLD-0_0
100
AcDbTrace
 10
1615.4316451247
 20
563.3464180136
 30
0.0
 11
1612.1296451247
 21
563.8544180136
 31
0.0
 12
1612.1296451247
 22
562.8384180136
 32
0.0
 13
1612.1296451247
 23
562.8384180136
 33
0.0
  0
LINE
  5
31E
330
319
100
AcDbEntity
  8
SLD-0_0
100
AcDbLine
 10
1206.4316451247
 20
579.3464180136
 30
0.0
 11
1206.4316451247
 21
562.3464180136
 31
0.0
  0
LINE
  5
31F
330
319
100
AcDbEntity
  8
SLD-0_0
100
AcDbLine
 10
1615.4316451247
 20
579.3464180136
 30
0.0
 11
1615.4316451247
 21
562.3464180136
 31
0.0
  0
LINE
  5
320
330
319
100
AcDbEntity
  8
SLD-0_0
100
AcDbLine
 10
1206.4316451247
 20
563.3464180136
 30
0.0
 11
1615.4316451247
 21
563.3464180136
 31
0.0
  0
MTEXT
  5
321
330
319
100
AcDbEntity
  8
SLD-0_0
100
AcDbMText
 10
1406.9212285574
 20
567.8581551028
 30
0.0
 40
3.5
 41
0.0
 71
     1
 72
     1
  1
409
  7
SLDTEXTSTYLE0
 73
     1
 44
1.0
  0
ENDBLK
  5
31B
330
319
100
AcDbEntity
  8
0
100
AcDbBlockEnd
  0
BLOCK
  5
325
330
324
100
AcDbEntity
  8
0
100
AcDbBlockBegin
  2
_D_9
 70
     0
 10
0.0
 20
0.0
 30
0.0
  3
_D_9
  1

  0
SOLID
  5
327
330
324
100
AcDbEntity
  8
SLD-0_0
100
AcDbTrace
 10
1547.7304814244
 20
911.0806872668
 30
0.0
 11
1544.8443293435
 21
909.3980125609
 31
0.0
 12
1545.4835680796
 22
908.6083101877
 32
0.0
 13
1545.4835680796
 23
908.6083101877
 33
0.0
  0
SOLID
  5
328
330
324
100
AcDbEntity
  8
SLD-0_0
100
AcDbTrace
 10
1274.1328088249
 20
689.6121487604
 30
0.0
 11
1277.0189609059
 21
691.2948234663
 31
0.0
 12
1276.3797221697
 22
692.0845258395
 32
0.0
 13
1276.3797221697
 23
692.0845258395
 33
0.0
  0
LINE
  5
329
330
324
100
AcDbEntity
  8
SLD-0_0
100
AcDbLine
 10
1274.1328088249
 20
689.6121487604
 30
0.0
 11
1547.7304814244
 21
911.0806872668
 31
0.0
  0
MTEXT
  5
32A
330
324
100
AcDbEntity
  8
SLD-0_0
100
AcDbMText
 10
1353.2565636253
 20
759.4615822336
 30
0.0
 40
3.5
 41
0.0
 71
     1
 72
     1
  1
%%c
  7
SLDTEXTSTYLE0
 11
0.777266115339417
 21
0.6291719843931165
 31
0.0
 73
     1
 44
1.0
  0
MTEXT
  5
32B
330
324
100
AcDbEntity
  8
SLD-0_0
100
AcDbMText
 10
1357.2076225115
 20
762.6911083469
 30
0.0
 40
3.5
 41
0.0
 71
     1
 72
     1
  1
352
  7
SLDTEXTSTYLE0
 11
0.777266115339417
 21
0.6291719843931165
 31
0.0
 73
     1
 44
1.0
  0
ENDBLK
  5
326
330
324
100
AcDbEntity
  8
0
100
AcDbBlockEnd
  0
BLOCK
  5
32E
330
32D
100
AcDbEntity
  8
0
100
AcDbBlockBegin
  2
_D_10
 70
     0
 10
0.0
 20
0.0
 30
0.0
  3
_D_10
  1

  0
ARC
  5
330
330
32D
100
AcDbEntity
  8
SLD-0_0
100
AcDbCircle
 10
1410.9316451247
 20
800.3464180136
 30
0.0
 40
186.717031895861
100
AcDbArc
 50
329.455422626
 51
338.8020507525
  0
SOLID
  5
331
330
32D
100
AcDbEntity
  8
SLD-0_0
100
AcDbTrace
 10
1249.8056073201
 20
894.2647332743
 30
0.0
 11
1252.4025385409
 21
892.1630158255
 31
0.0
 12
1252.9141793361
 22
893.0407855542
 32
0.0
 13
1252.9141793361
 23
893.0407855542
 33
0.0
  0
SOLID
  5
332
330
32D
100
AcDbEntity
  8
SLD-0_0
100
AcDbTrace
 10
1572.0576829293
 20
706.428102753
 30
0.0
 11
1569.4607517085
 21
708.5298202017
 31
0.0
 12
1568.9491109133
 22
707.652050473
 32
0.0
 13
1568.9491109133
 23
707.652050473
 33
0.0
  0
LINE
  5
333
330
32D
100
AcDbEntity
  8
SLD-0_0
100
AcDbLine
 10
1572.0576829293
 20
706.428102753
 30
0.0
 11
1249.8056073201
 21
894.2647332743
 31
0.0
  0
MTEXT
  5
334
330
32D
100
AcDbEntity
  8
SLD-0_0
100
AcDbMText
 10
1476.6287382772
 20
767.2727391463
 30
0.0
 40
3.5
 41
0.0
 71
     1
 72
     1
  1
%%c
  7
SLDTEXTSTYLE0
 11
0.8639465834025379
 21
-0.5035834598426377
 31
0.0
 73
     1
 44
1.0
  0
MTEXT
  5
335
330
32D
100
AcDbEntity
  8
SLD-0_0
100
AcDbMText
 10
1481.0496557566
 20
764.7239759406
 30
0.0
 40
3.5
 41
0.0
 71
     1
 72
     1
  1
373
  7
SLDTEXTSTYLE0
 11
0.8639465834025379
 21
-0.5035834598426377
 31
0.0
 73
     1
 44
1.0
  0
ENDBLK
  5
32F
330
32D
100
AcDbEntity
  8
0
100
AcDbBlockEnd
  0
BLOCK
  5
339
330
338
100
AcDbEntity
  8
0
100
AcDbBlockBegin
  2
_D_11
 70
     0
 10
0.0
 20
0.0
 30
0.0
  3
_D_11
  1

  0
SOLID
  5
33B
330
338
100
AcDbEntity
  8
SLD-0_0
100
AcDbTrace
 10
1336.4961587043
 20
973.87290376
 30
0.0
 11
1333.6175354616
 21
975.5684261653
 31
0.0
 12
1333.241014195
 22
974.6247695881
 32
0.0
 13
1333.241014195
 23
974.6247695881
 33
0.0
  0
LINE
  5
33C
330
338
100
AcDbEntity
  8
SLD-0_0
100
AcDbLine
 10
1336.4961587043
 20
973.87290376
 30
0.0
 11
1281.5887673243
 21
995.7810863029
 31
0.0
  0
LINE
  5
33D
330
338
100
AcDbEntity
  8
SLD-0_0
100
AcDbLine
 10
1281.5887673243
 20
995.7810863029
 30
0.0
 11
1265.5406775876
 21
995.7810863029
 31
0.0
  0
MTEXT
  5
33E
330
338
100
AcDbEntity
  8
SLD-0_0
100
AcDbMText
 10
1265.5406775876
 20
1000.2928233921
 30
0.0
 40
3.5
 41
0.0
 71
     1
 72
     1
  1
%%c
  7
SLDTEXTSTYLE0
 73
     1
 44
1.0
  0
MTEXT
  5
33F
330
338
100
AcDbEntity
  8
SLD-0_0
100
AcDbMText
 10
1270.6436291329
 20
1000.3171290486
 30
0.0
 40
3.5
 41
0.0
 71
     1
 72
     1
  1
6.60
  7
SLDTEXTSTYLE0
 73
     1
 44
1.0
  0
ENDBLK
  5
33A
330
338
100
AcDbEntity
  8
0
100
AcDbBlockEnd
  0
BLOCK
  5
341
330
340
100
AcDbEntity
  8
0
100
AcDbBlockBegin
  2
SW_CENTERMARKSYMBOL_0
 70
     0
 10
0.0
 20
0.0
 30
0.0
  3
SW_CENTERMARKSYMBOL_0
  1

  0
ARC
  5
343
330
340
100
AcDbEntity
  8
SLD-0_0
 62
     0
100
AcDbCircle
 10
-71.3704601361
 20
-172.3035328134
 30
0.0
 40
186.5
100
AcDbArc
 50
67.5
 51
68.2680399399
  0
ARC
  5
344
330
340
100
AcDbEntity
  8
SLD-0_0
 62
     0
100
AcDbCircle
 10
-71.3704601361
 20
-172.3035328134
 30
0.0
 40
186.5000000000001
100
AcDbArc
 50
66.7319600601
 51
67.5
  0
ARC
  5
345
330
340
100
AcDbEntity
  8
SLD-0_0
 62
     0
100
AcDbCircle
 10
-71.3704601361
 20
-172.3035328134
 30
0.0
 40
186.5
100
AcDbArc
 50
112.5
 51
113.2680399399
  0
ARC
  5
346
330
340
100
AcDbEntity
  8
SLD-0_0
 62
     0
100
AcDbCircle
 10
-71.3704601361
 20
-172.3035328134
 30
0.0
 40
186.5000000000001
100
AcDbArc
 50
111.7319600601
 51
112.5
  0
ARC
  5
347
330
340
100
AcDbEntity
  8
SLD-0_0
 62
     0
100
AcDbCircle
 10
-71.3704601361
 20
-172.3035328134
 30
0.0
 40
186.5000000000001
100
AcDbArc
 50
22.5
 51
23.2680399399
  0
ARC
  5
348
330
340
100
AcDbEntity
  8
SLD-0_0
 62
     0
100
AcDbCircle
 10
-71.3704601361
 20
-172.3035328134
 30
0.0
 40
186.5000000000001
100
AcDbArc
 50
21.7319600601
 51
22.5
  0
ARC
  5
349
330
340
100
AcDbEntity
  8
SLD-0_0
 62
     0
100
AcDbCircle
 10
-71.3704601361
 20
-172.3035328134
 30
0.0
 40
186.5000000000001
100
AcDbArc
 50
337.5
 51
338.2680399399
  0
ARC
  5
34A
330
340
100
AcDbEntity
  8
SLD-0_0
 62
     0
100
AcDbCircle
 10
-71.3704601361
 20
-172.3035328134
 30
0.0
 40
186.5000000000001
100
AcDbArc
 50
336.7319600601
 51
337.5
  0
ARC
  5
34B
330
340
100
AcDbEntity
  8
SLD-0_0
 62
     0
100
AcDbCircle
 10
-71.3704601361
 20
-172.3035328134
 30
0.0
 40
186.5
100
AcDbArc
 50
292.5
 51
293.2680399399
  0
ARC
  5
34C
330
340
100
AcDbEntity
  8
SLD-0_0
 62
     0
100
AcDbCircle
 10
-71.3704601361
 20
-172.3035328134
 30
0.0
 40
186.5
100
AcDbArc
 50
291.7319600601
 51
292.5
  0
ARC
  5
34D
330
340
100
AcDbEntity
  8
SLD-0_0
 62
     0
100
AcDbCircle
 10
-71.3704601361
 20
-172.3035328134
 30
0.0
 40
186.5000000000001
100
AcDbArc
 50
247.5
 51
248.2680399399
  0
ARC
  5
34E
330
340
100
AcDbEntity
  8
SLD-0_0
 62
     0
100
AcDbCircle
 10
-71.3704601361
 20
-172.3035328134
 30
0.0
 40
186.5000000000001
100
AcDbArc
 50
246.7319600601
 51
247.5
  0
ARC
  5
34F
330
340
100
AcDbEntity
  8
SLD-0_0
 62
     0
100
AcDbCircle
 10
-71.3704601361
 20
-172.3035328134
 30
0.0
 40
186.5000000000001
100
AcDbArc
 50
202.5
 51
203.2680399399
  0
ARC
  5
350
330
340
100
AcDbEntity
  8
SLD-0_0
 62
     0
100
AcDbCircle
 10
-71.3704601361
 20
-172.3035328134
 30
0.0
 40
186.5000000000001
100
AcDbArc
 50
201.7319600601
 51
202.5
  0
ARC
  5
351
330
340
100
AcDbEntity
  8
SLD-0_0
 62
     0
100
AcDbCircle
 10
-71.3704601361
 20
-172.3035328134
 30
0.0
 40
186.5000000000001
100
AcDbArc
 50
157.5
 51
158.2680399399
  0
ARC
  5
352
330
340
100
AcDbEntity
  8
SLD-0_0
 62
     0
100
AcDbCircle
 10
-71.3704601361
 20
-172.3035328134
 30
0.0
 40
186.5000000000001
100
AcDbArc
 50
156.7319600601
 51
157.5
  0
ARC
  5
353
330
340
100
AcDbEntity
  8
SLD-0_0
 62
     0
100
AcDbCircle
 10
-71.3704601361
 20
-172.3035328134
 30
0.0
 40
186.5
100
AcDbArc
 50
24.0360798797
 51
65.9639201203
  0
ARC
  5
354
330
340
100
AcDbEntity
  8
SLD-0_0
 62
     0
100
AcDbCircle
 10
-71.3704601361
 20
-172.3035328134
 30
0.0
 40
186.5000000000001
100
AcDbArc
 50
69.0360798797
 51
110.9639201203
  0
ARC
  5
355
330
340
100
AcDbEntity
  8
SLD-0_0
 62
     0
100
AcDbCircle
 10
-71.3704601361
 20
-172.3035328134
 30
0.0
 40
186.5000000000001
100
AcDbArc
 50
114.0360798797
 51
155.9639201203
  0
ARC
  5
356
330
340
100
AcDbEntity
  8
SLD-0_0
 62
     0
100
AcDbCircle
 10
-71.3704601361
 20
-172.3035328134
 30
0.0
 40
186.5000000000001
100
AcDbArc
 50
159.0360798797
 51
200.9639201203
  0
ARC
  5
357
330
340
100
AcDbEntity
  8
SLD-0_0
 62
     0
100
AcDbCircle
 10
-71.3704601361
 20
-172.3035328134
 30
0.0
 40
186.5000000000001
100
AcDbArc
 50
204.0360798797
 51
245.9639201203
  0
ARC
  5
358
330
340
100
AcDbEntity
  8
SLD-0_0
 62
     0
100
AcDbCircle
 10
-71.3704601361
 20
-172.3035328134
 30
0.0
 40
186.4999999999999
100
AcDbArc
 50
249.0360798797
 51
290.9639201203
  0
ARC
  5
359
330
340
100
AcDbEntity
  8
SLD-0_0
 62
     0
100
AcDbCircle
 10
-71.3704601361
 20
-172.3035328134
 30
0.0
 40
186.5
100
AcDbArc
 50
294.0360798797
 51
335.9639201203
  0
ARC
  5
35A
330
340
100
AcDbEntity
  8
SLD-0_0
 62
     0
100
AcDbCircle
 10
-71.3704601361
 20
-172.3035328134
 30
0.0
 40
186.5000000000001
100
AcDbArc
 50
339.0360798797
 51
20.9639201203
  0
LINE
  5
35B
330
340
100
AcDbEntity
  8
SLD-0_0
 62
     0
100
AcDbLine
 10
0.0
 20
0.0
 30
0.0
 11
0.9567085809
 21
2.3096988313
 31
0.0
  0
LINE
  5
35C
330
340
100
AcDbEntity
  8
SLD-0_0
 62
     0
100
AcDbLine
 10
0.0
 20
0.0
 30
0.0
 11
-0.9567085809
 21
-2.3096988313
 31
0.0
  0
LINE
  5
35D
330
340
100
AcDbEntity
  8
SLD-0_0
 62
     0
100
AcDbLine
 10
1.9134171618
 20
4.6193976626
 30
0.0
 11
2.2195639077
 21
5.3585012886
 31
0.0
  0
LINE
  5
35E
330
340
100
AcDbEntity
  8
SLD-0_0
 62
     0
100
AcDbLine
 10
-1.9134171618
 20
-4.6193976626
 30
0.0
 11
-2.2195639077
 21
-5.3585012886
 31
0.0
  0
LINE
  5
35F
330
340
100
AcDbEntity
  8
SLD-0_0
 62
     0
100
AcDbLine
 10
-71.3704601361
 20
-172.3035328134
 30
0.0
 11
-71.3704601361
 21
-169.8035328134
 31
0.0
  0
LINE
  5
360
330
340
100
AcDbEntity
  8
SLD-0_0
 62
     0
100
AcDbLine
 10
-71.3704601361
 20
-172.3035328134
 30
0.0
 11
-73.8704601361
 21
-172.3035328134
 31
0.0
  0
LINE
  5
361
330
340
100
AcDbEntity
  8
SLD-0_0
 62
     0
100
AcDbLine
 10
-71.3704601361
 20
-172.3035328134
 30
0.0
 11
-71.3704601361
 21
-174.8035328134
 31
0.0
  0
LINE
  5
362
330
340
100
AcDbEntity
  8
SLD-0_0
 62
     0
100
AcDbLine
 10
-71.3704601361
 20
-172.3035328134
 30
0.0
 11
-68.8704601361
 21
-172.3035328134
 31
0.0
  0
LINE
  5
363
330
340
100
AcDbEntity
  8
SLD-0_0
 62
     0
100
AcDbLine
 10
-71.3704601361
 20
-167.3035328134
 30
0.0
 11
-71.3704601361
 21
16.6964671866
 31
0.0
  0
LINE
  5
364
330
340
100
AcDbEntity
  8
SLD-0_0
 62
     0
100
AcDbLine
 10
-76.3704601361
 20
-172.3035328134
 30
0.0
 11
-260.3704601361
 21
-172.3035328134
 31
0.0
  0
LINE
  5
365
330
340
100
AcDbEntity
  8
SLD-0_0
 62
     0
100
AcDbLine
 10
-71.3704601361
 20
-177.3035328134
 30
0.0
 11
-71.3704601361
 21
-361.3035328134
 31
0.0
  0
LINE
  5
366
330
340
100
AcDbEntity
  8
SLD-0_0
 62
     0
100
AcDbLine
 10
-66.3704601361
 20
-172.3035328134
 30
0.0
 11
117.6295398639
 21
-172.3035328134
 31
0.0
  0
LINE
  5
367
330
340
100
AcDbEntity
  8
SLD-0_0
 62
     0
100
AcDbLine
 10
-142.7409202722
 20
0.0
 30
0.0
 11
-143.6976288531
 21
2.3096988313
 31
0.0
  0
LINE
  5
368
330
340
100
AcDbEntity
  8
SLD-0_0
 62
     0
100
AcDbLine
 10
-142.7409202722
 20
0.0
 30
0.0
 11
-141.7842116913
 21
-2.3096988313
 31
0.0
  0
LINE
  5
369
330
340
100
AcDbEntity
  8
SLD-0_0
 62
     0
100
AcDbLine
 10
-144.654337434
 20
4.6193976626
 30
0.0
 11
-144.9604841799
 21
5.3585012886
 31
0.0
  0
LINE
  5
36A
330
340
100
AcDbEntity
  8
SLD-0_0
 62
     0
100
AcDbLine
 10
-140.8275031104
 20
-4.6193976626
 30
0.0
 11
-140.5213563645
 21
-5.3585012886
 31
0.0
  0
LINE
  5
36B
330
340
100
AcDbEntity
  8
SLD-0_0
 62
     0
100
AcDbLine
 10
100.9330726773
 20
-100.9330726773
 30
0.0
 11
103.2427715085
 21
-99.9763640964
 31
0.0
  0
LINE
  5
36C
330
340
100
AcDbEntity
  8
SLD-0_0
 62
     0
100
AcDbLine
 10
100.9330726773
 20
-100.9330726773
 30
0.0
 11
98.623373846
 21
-101.8897812582
 31
0.0
  0
LINE
  5
36D
330
340
100
AcDbEntity
  8
SLD-0_0
 62
     0
100
AcDbLine
 10
105.5524703398
 20
-99.0196555154
 30
0.0
 11
106.2915739658
 21
-98.7135087695
 31
0.0
  0
LINE
  5
36E
330
340
100
AcDbEntity
  8
SLD-0_0
 62
     0
100
AcDbLine
 10
96.3136750147
 20
-102.8464898391
 30
0.0
 11
95.5745713887
 21
-103.152636585
 31
0.0
  0
LINE
  5
36F
330
340
100
AcDbEntity
  8
SLD-0_0
 62
     0
100
AcDbLine
 10
100.9330726773
 20
-243.6739929494
 30
0.0
 11
103.2427715085
 21
-244.6307015304
 31
0.0
  0
LINE
  5
370
330
340
100
AcDbEntity
  8
SLD-0_0
 62
     0
100
AcDbLine
 10
100.9330726773
 20
-243.6739929494
 30
0.0
 11
98.623373846
 21
-242.7172843685
 31
0.0
  0
LINE
  5
371
330
340
100
AcDbEntity
  8
SLD-0_0
 62
     0
100
AcDbLine
 10
105.5524703398
 20
-245.5874101113
 30
0.0
 11
106.2915739658
 21
-245.8935568572
 31
0.0
  0
LINE
  5
372
330
340
100
AcDbEntity
  8
SLD-0_0
 62
     0
100
AcDbLine
 10
96.3136750147
 20
-241.7605757876
 30
0.0
 11
95.5745713887
 21
-241.4544290417
 31
0.0
  0
LINE
  5
373
330
340
100
AcDbEntity
  8
SLD-0_0
 62
     0
100
AcDbLine
 10
0.0
 20
-344.6070656267
 30
0.0
 11
0.9567085809
 21
-346.916764458
 31
0.0
  0
LINE
  5
374
330
340
100
AcDbEntity
  8
SLD-0_0
 62
     0
100
AcDbLine
 10
0.0
 20
-344.6070656267
 30
0.0
 11
-0.9567085809
 21
-342.2973667954
 31
0.0
  0
LINE
  5
375
330
340
100
AcDbEntity
  8
SLD-0_0
 62
     0
100
AcDbLine
 10
1.9134171618
 20
-349.2264632893
 30
0.0
 11
2.2195639077
 21
-349.9655669153
 31
0.0
  0
LINE
  5
376
330
340
100
AcDbEntity
  8
SLD-0_0
 62
     0
100
AcDbLine
 10
-1.9134171618
 20
-339.9876679642
 30
0.0
 11
-2.2195639077
 21
-339.2485643381
 31
0.0
  0
LINE
  5
377
330
340
100
AcDbEntity
  8
SLD-0_0
 62
     0
100
AcDbLine
 10
-142.7409202722
 20
-344.6070656267
 30
0.0
 11
-143.6976288531
 21
-346.916764458
 31
0.0
  0
LINE
  5
378
330
340
100
AcDbEntity
  8
SLD-0_0
 62
     0
100
AcDbLine
 10
-142.7409202722
 20
-344.6070656267
 30
0.0
 11
-141.7842116913
 21
-342.2973667954
 31
0.0
  0
LINE
  5
379
330
340
100
AcDbEntity
  8
SLD-0_0
 62
     0
100
AcDbLine
 10
-144.654337434
 20
-349.2264632893
 30
0.0
 11
-144.9604841799
 21
-349.9655669153
 31
0.0
  0
LINE
  5
37A
330
340
100
AcDbEntity
  8
SLD-0_0
 62
     0
100
AcDbLine
 10
-140.8275031104
 20
-339.9876679642
 30
0.0
 11
-140.5213563645
 21
-339.2485643381
 31
0.0
  0
LINE
  5
37B
330
340
100
AcDbEntity
  8
SLD-0_0
 62
     0
100
AcDbLine
 10
-243.6739929494
 20
-243.6739929494
 30
0.0
 11
-245.9836917807
 21
-244.6307015304
 31
0.0
  0
LINE
  5
37C
330
340
100
AcDbEntity
  8
SLD-0_0
 62
     0
100
AcDbLine
 10
-243.6739929494
 20
-243.6739929494
 30
0.0
 11
-241.3642941182
 21
-242.7172843685
 31
0.0
  0
LINE
  5
37D
330
340
100
AcDbEntity
  8
SLD-0_0
 62
     0
100
AcDbLine
 10
-248.293390612
 20
-245.5874101113
 30
0.0
 11
-249.032494238
 21
-245.8935568572
 31
0.0
  0
LINE
  5
37E
330
340
100
AcDbEntity
  8
SLD-0_0
 62
     0
100
AcDbLine
 10
-239.0545952869
 20
-241.7605757876
 30
0.0
 11
-238.3154916609
 21
-241.4544290417
 31
0.0
  0
LINE
  5
37F
330
340
100
AcDbEntity
  8
SLD-0_0
 62
     0
100
AcDbLine
 10
-243.6739929494
 20
-100.9330726773
 30
0.0
 11
-245.9836917807
 21
-99.9763640963
 31
0.0
  0
LINE
  5
380
330
340
100
AcDbEntity
  8
SLD-0_0
 62
     0
100
AcDbLine
 10
-243.6739929494
 20
-100.9330726773
 30
0.0
 11
-241.3642941182
 21
-101.8897812582
 31
0.0
  0
LINE
  5
381
330
340
100
AcDbEntity
  8
SLD-0_0
 62
     0
100
AcDbLine
 10
-248.293390612
 20
-99.0196555154
 30
0.0
 11
-249.032494238
 21
-98.7135087695
 31
0.0
  0
LINE
  5
382
330
340
100
AcDbEntity
  8
SLD-0_0
 62
     0
100
AcDbLine
 10
-239.0545952869
 20
-102.8464898391
 30
0.0
 11
-238.3154916609
 21
-103.152636585
 31
0.0
  0
ENDBLK
  5
342
330
340
100
AcDbEntity
  8
0
100
AcDbBlockEnd
  0
BLOCK
  5
39F
330
39E
100
AcDbEntity
  8
0
100
AcDbBlockBegin
  2
_D_12
 70
     0
 10
0.0
 20
0.0
 30
0.0
  3
_D_12
  1

  0
SOLID
  5
3A1
330
39E
100
AcDbEntity
  8
SLD-0_0
100
AcDbTrace
 10
2436.3497150339
 20
1161.8497712209
 30
0.0
 11
2433.0477150339
 21
1162.3577712209
 31
0.0
 12
2433.0477150339
 22
1161.3417712209
 32
0.0
 13
2433.0477150339
 23
1161.3417712209
 33
0.0
  0
SOLID
  5
3A2
330
39E
100
AcDbEntity
  8
SLD-0_0
100
AcDbTrace
 10
2454.3497150339
 20
1161.8497712209
 30
0.0
 11
2457.6517150339
 21
1161.3417712209
 31
0.0
 12
2457.6517150339
 22
1162.3577712209
 32
0.0
 13
2457.6517150339
 23
1162.3577712209
 33
0.0
  0
LINE
  5
3A3
330
39E
100
AcDbEntity
  8
SLD-0_0
100
AcDbLine
 10
2436.3497150339
 20
1156.0405960418
 30
0.0
 11
2436.3497150339
 21
1162.8497712209
 31
0.0
  0
LINE
  5
3A4
330
39E
100
AcDbEntity
  8
SLD-0_0
100
AcDbLine
 10
2454.3497150339
 20
1156.0405960418
 30
0.0
 11
2454.3497150339
 21
1162.8497712209
 31
0.0
  0
LINE
  5
3A5
330
39E
100
AcDbEntity
  8
SLD-0_0
100
AcDbLine
 10
2436.3497150339
 20
1161.8497712209
 30
0.0
 11
2429.9997150339
 21
1161.8497712209
 31
0.0
  0
LINE
  5
3A6
330
39E
100
AcDbEntity
  8
SLD-0_0
100
AcDbLine
 10
2436.3497150339
 20
1161.8497712209
 30
0.0
 11
2454.3497150339
 21
1161.8497712209
 31
0.0
  0
LINE
  5
3A7
330
39E
100
AcDbEntity
  8
SLD-0_0
100
AcDbLine
 10
2454.3497150339
 20
1161.8497712209
 30
0.0
 11
2460.6997150339
 21
1161.8497712209
 31
0.0
  0
MTEXT
  5
3A8
330
39E
100
AcDbEntity
  8
SLD-0_0
100
AcDbMText
 10
2440.6362554938
 20
1166.3615083101
 30
0.0
 40
3.5
 41
0.0
 71
     1
 72
     1
  1
18
  7
SLDTEXTSTYLE0
 73
     1
 44
1.0
  0
ENDBLK
  5
3A0
330
39E
100
AcDbEntity
  8
0
100
AcDbBlockEnd
  0
BLOCK
  5
3AB
330
3AA
100
AcDbEntity
  8
0
100
AcDbBlockBegin
  2
_D_13
 70
     0
 10
0.0
 20
0.0
 30
0.0
  3
_D_13
  1

  0
SOLID
  5
3AD
330
3AA
100
AcDbEntity
  8
SLD-0_0
100
AcDbTrace
 10
2156.6839054611
 20
1105.0405960418
 30
0.0
 11
2157.1919054611
 21
1108.3425960418
 31
0.0
 12
2156.1759054611
 22
1108.3425960418
 32
0.0
 13
2156.1759054611
 23
1108.3425960418
 33
0.0
  0
SOLID
  5
3AE
330
3AA
100
AcDbEntity
  8
SLD-0_0
100
AcDbTrace
 10
2156.6839054611
 20
1155.0405960418
 30
0.0
 11
2156.1759054611
 21
1151.7385960418
 31
0.0
 12
2157.1919054611
 22
1151.7385960418
 32
0.0
 13
2157.1919054611
 23
1151.7385960418
 33
0.0
  0
LINE
  5
3AF
330
3AA
100
AcDbEntity
  8
SLD-0_0
100
AcDbLine
 10
2435.3497150339
 20
1105.0405960418
 30
0.0
 11
2155.6839054611
 21
1105.0405960418
 31
0.0
  0
LINE
  5
3B0
330
3AA
100
AcDbEntity
  8
SLD-0_0
100
AcDbLine
 10
2453.3497150339
 20
1155.0405960418
 30
0.0
 11
2155.6839054611
 21
1155.0405960418
 31
0.0
  0
LINE
  5
3B1
330
3AA
100
AcDbEntity
  8
SLD-0_0
100
AcDbLine
 10
2156.6839054611
 20
1105.0405960418
 30
0.0
 11
2156.6839054611
 21
1155.0405960418
 31
0.0
  0
MTEXT
  5
3B2
330
3AA
100
AcDbEntity
  8
SLD-0_0
100
AcDbMText
 10
2152.1721683719
 20
1126.7908438391
 30
0.0
 40
3.5
 41
0.0
 71
     1
 72
     1
  1
50
  7
SLDTEXTSTYLE0
 11
-2.825347524068039E-15
 21
1.0
 31
0.0
 73
     1
 44
1.0
  0
ENDBLK
  5
3AC
330
3AA
100
AcDbEntity
  8
0
100
AcDbBlockEnd
  0
BLOCK
  5
3B6
330
3B5
100
AcDbEntity
  8
0
100
AcDbBlockBegin
  2
_D_14
 70
     0
 10
0.0
 20
0.0
 30
0.0
  3
_D_14
  1

  0
SOLID
  5
3B8
330
3B5
100
AcDbEntity
  8
SLD-0_0
100
AcDbTrace
 10
2020.8497150339
 20
890.5487417739
 30
0.0
 11
2024.1517150339
 21
890.0407417739
 31
0.0
 12
2024.1517150339
 22
891.0567417739
 32
0.0
 13
2024.1517150339
 23
891.0567417739
 33
0.0
  0
SOLID
  5
3B9
330
3B5
100
AcDbEntity
  8
SLD-0_0
100
AcDbTrace
 10
2400.3497150339
 20
890.5487417739
 30
0.0
 11
2397.0477150339
 21
891.0567417739
 31
0.0
 12
2397.0477150339
 22
890.0407417739
 32
0.0
 13
2397.0477150339
 23
890.0407417739
 33
0.0
  0
LINE
  5
3BA
330
3B5
100
AcDbEntity
  8
SLD-0_0
100
AcDbLine
 10
2020.8497150339
 20
1018.0405960418
 30
0.0
 11
2020.8497150339
 21
889.5487417739
 31
0.0
  0
LINE
  5
3BB
330
3B5
100
AcDbEntity
  8
SLD-0_0
100
AcDbLine
 10
2400.3497150339
 20
1018.0405960418
 30
0.0
 11
2400.3497150339
 21
889.5487417739
 31
0.0
  0
LINE
  5
3BC
330
3B5
100
AcDbEntity
  8
SLD-0_0
100
AcDbLine
 10
2020.8497150339
 20
890.5487417739
 30
0.0
 11
2400.3497150339
 21
890.5487417739
 31
0.0
  0
MTEXT
  5
3BD
330
3B5
100
AcDbEntity
  8
SLD-0_0
100
AcDbMText
 10
2204.8879107303
 20
895.0604788631
 30
0.0
 40
3.5
 41
0.0
 71
     1
 72
     1
  1
379.50
  7
SLDTEXTSTYLE0
 73
     1
 44
1.0
  0
ENDBLK
  5
3B7
330
3B5
100
AcDbEntity
  8
0
100
AcDbBlockEnd
  0
BLOCK
  5
3C0
330
3BF
100
AcDbEntity
  8
0
100
AcDbBlockBegin
  2
_D_15
 70
     0
 10
0.0
 20
0.0
 30
0.0
  3
_D_15
  1

  0
SOLID
  5
3C2
330
3BF
100
AcDbEntity
  8
SLD-0_0
100
AcDbTrace
 10
2020.8497150339
 20
890.548741774
 30
0.0
 11
2017.5477150339
 21
891.056741774
 31
0.0
 12
2017.5477150339
 22
890.040741774
 32
0.0
 13
2017.5477150339
 23
890.040741774
 33
0.0
  0
SOLID
  5
3C3
330
3BF
100
AcDbEntity
  8
SLD-0_0
100
AcDbTrace
 10
1975.8497150339
 20
890.548741774
 30
0.0
 11
1979.1517150339
 21
890.040741774
 31
0.0
 12
1979.1517150339
 22
891.056741774
 32
0.0
 13
1979.1517150339
 23
891.056741774
 33
0.0
  0
LINE
  5
3C4
330
3BF
100
AcDbEntity
  8
SLD-0_0
100
AcDbLine
 10
2020.8497150339
 20
1018.0405960418
 30
0.0
 11
2020.8497150339
 21
889.548741774
 31
0.0
  0
LINE
  5
3C5
330
3BF
100
AcDbEntity
  8
SLD-0_0
100
AcDbLine
 10
1975.8497150339
 20
898.0405960418
 30
0.0
 11
1975.8497150339
 21
889.548741774
 31
0.0
  0
LINE
  5
3C6
330
3BF
100
AcDbEntity
  8
SLD-0_0
100
AcDbLine
 10
2020.8497150339
 20
890.548741774
 30
0.0
 11
1975.8497150339
 21
890.548741774
 31
0.0
  0
MTEXT
  5
3C7
330
3BF
100
AcDbEntity
  8
SLD-0_0
100
AcDbMText
 10
1988.5938511183
 20
895.0604788632
 30
0.0
 40
3.5
 41
0.0
 71
     1
 72
     1
  1
45
  7
SLDTEXTSTYLE0
 73
     1
 44
1.0
  0
ENDBLK
  5
3C1
330
3BF
100
AcDbEntity
  8
0
100
AcDbBlockEnd
  0
BLOCK
  5
3CA
330
3C9
100
AcDbEntity
  8
0
100
AcDbBlockBegin
  2
_D_16
 70
     0
 10
0.0
 20
0.0
 30
0.0
  3
_D_16
  1

  0
SOLID
  5
3CC
330
3C9
100
AcDbEntity
  8
SLD-0_0
100
AcDbTrace
 10
1969.7906326201
 20
1110.0405960418
 30
0.0
 11
1969.2826326201
 21
1106.7385960418
 31
0.0
 12
1970.2986326201
 22
1106.7385960418
 32
0.0
 13
1970.2986326201
 23
1106.7385960418
 33
0.0
  0
SOLID
  5
3CD
330
3C9
100
AcDbEntity
  8
SLD-0_0
100
AcDbTrace
 10
1969.7906326201
 20
944.0405960418
 30
0.0
 11
1970.2986326201
 21
947.3425960418
 31
0.0
 12
1969.2826326201
 22
947.3425960418
 32
0.0
 13
1969.2826326201
 23
947.3425960418
 33
0.0
  0
LINE
  5
3CE
330
3C9
100
AcDbEntity
  8
SLD-0_0
100
AcDbLine
 10
2094.8497150339
 20
1110.0405960418
 30
0.0
 11
1968.7906326201
 21
1110.0405960418
 31
0.0
  0
LINE
  5
3CF
330
3C9
100
AcDbEntity
  8
SLD-0_0
100
AcDbLine
 10
2094.8497150339
 20
944.0405960418
 30
0.0
 11
1968.7906326201
 21
944.0405960418
 31
0.0
  0
LINE
  5
3D0
330
3C9
100
AcDbEntity
  8
SLD-0_0
100
AcDbLine
 10
1969.7906326201
 20
1110.0405960418
 30
0.0
 11
1969.7906326201
 21
944.0405960418
 31
0.0
  0
MTEXT
  5
3D1
330
3C9
100
AcDbEntity
  8
SLD-0_0
100
AcDbMText
 10
1965.2788955309
 20
1005.9851998838
 30
0.0
 40
3.5
 41
0.0
 71
     1
 72
     1
  1
166
  7
SLDTEXTSTYLE0
 11
-7.044195017643634E-15
 21
1.0
 31
0.0
 73
     1
 44
1.0
  0
ENDBLK
  5
3CB
330
3C9
100
AcDbEntity
  8
0
100
AcDbBlockEnd
  0
BLOCK
  5
3D4
330
3D3
100
AcDbEntity
  8
0
100
AcDbBlockBegin
  2
_D_17
 70
     0
 10
0.0
 20
0.0
 30
0.0
  3
_D_17
  1

  0
SOLID
  5
3D6
330
3D3
100
AcDbEntity
  8
SLD-0_0
100
AcDbTrace
 10
1969.7906326201
 20
1110.0405960418
 30
0.0
 11
1970.2986326201
 21
1113.3425960418
 31
0.0
 12
1969.2826326201
 22
1113.3425960418
 32
0.0
 13
1969.2826326201
 23
1113.3425960418
 33
0.0
  0
SOLID
  5
3D7
330
3D3
100
AcDbEntity
  8
SLD-0_0
100
AcDbTrace
 10
1969.7906326201
 20
1155.0405960418
 30
0.0
 11
1969.2826326201
 21
1151.7385960418
 31
0.0
 12
1970.2986326201
 22
1151.7385960418
 32
0.0
 13
1970.2986326201
 23
1151.7385960418
 33
0.0
  0
LINE
  5
3D8
330
3D3
100
AcDbEntity
  8
SLD-0_0
100
AcDbLine
 10
2094.8497150339
 20
1110.0405960418
 30
0.0
 11
1968.7906326201
 21
1110.0405960418
 31
0.0
  0
LINE
  5
3D9
330
3D3
100
AcDbEntity
  8
SLD-0_0
100
AcDbLine
 10
1974.8497150339
 20
1155.0405960418
 30
0.0
 11
1968.7906326201
 21
1155.0405960418
 31
0.0
  0
LINE
  5
3DA
330
3D3
100
AcDbEntity
  8
SLD-0_0
100
AcDbLine
 10
1969.7906326201
 20
1110.0405960418
 30
0.0
 11
1969.7906326201
 21
1155.0405960418
 31
0.0
  0
MTEXT
  5
3DB
330
3D3
100
AcDbEntity
  8
SLD-0_0
100
AcDbMText
 10
1965.2788955309
 20
1133.3856614132
 30
0.0
 40
3.5
 41
0.0
 71
     1
 72
     1
  1
45
  7
SLDTEXTSTYLE0
 11
6.123233995736766E-17
 21
1.0
 31
0.0
 73
     1
 44
1.0
  0
ENDBLK
  5
3D5
330
3D3
100
AcDbEntity
  8
0
100
AcDbBlockEnd
  0
BLOCK
  5
3DF
330
3DE
100
AcDbEntity
  8
0
100
AcDbBlockBegin
  2
_D_18
 70
     0
 10
0.0
 20
0.0
 30
0.0
  3
_D_18
  1

  0
SOLID
  5
3E1
330
3DE
100
AcDbEntity
  8
SLD-0_0
100
AcDbTrace
 10
2047.5455647618
 20
1092.4140138107
 30
0.0
 11
2049.2836262014
 21
1089.5608733599
 31
0.0
 12
2050.0608447674
 22
1090.2152335823
 32
0.0
 13
2050.0608447674
 23
1090.2152335823
 33
0.0
  0
LINE
  5
3E2
330
3DE
100
AcDbEntity
  8
SLD-0_0
100
AcDbLine
 10
2047.5455647618
 20
1092.4140138107
 30
0.0
 11
2095.8497150339
 21
1035.0405960418
 31
0.0
  0
MTEXT
  5
3E3
330
3DE
100
AcDbEntity
  8
SLD-0_0
100
AcDbMText
 10
2068.7963613776
 20
1074.1704108221
 30
0.0
 40
3.5
 41
0.0
 71
     1
 72
     1
  1
R75
  7
SLDTEXTSTYLE0
 11
0.6440553369618126
 21
-0.7649789035855865
 31
0.0
 73
     1
 44
1.0
  0
ENDBLK
  5
3E0
330
3DE
100
AcDbEntity
  8
0
100
AcDbBlockEnd
  0
BLOCK
  5
3E6
330
3E5
100
AcDbEntity
  8
0
100
AcDbBlockBegin
  2
_D_19
 70
     0
 10
0.0
 20
0.0
 30
0.0
  3
_D_19
  1

  0
SOLID
  5
3E8
330
3E5
100
AcDbEntity
  8
SLD-0_0
100
AcDbTrace
 10
1975.8497150339
 20
880.7391744653
 30
0.0
 11
1979.1517150339
 21
880.2311744653
 31
0.0
 12
1979.1517150339
 22
881.2471744653
 32
0.0
 13
1979.1517150339
 23
881.2471744653
 33
0.0
  0
SOLID
  5
3E9
330
3E5
100
AcDbEntity
  8
SLD-0_0
100
AcDbTrace
 10
2914.8497150339
 20
880.7391744653
 30
0.0
 11
2911.5477150339
 21
881.2471744653
 31
0.0
 12
2911.5477150339
 22
880.2311744653
 32
0.0
 13
2911.5477150339
 23
880.2311744653
 33
0.0
  0
LINE
  5
3EA
330
3E5
100
AcDbEntity
  8
SLD-0_0
100
AcDbLine
 10
1975.8497150339
 20
898.0405960418
 30
0.0
 11
1975.8497150339
 21
879.7391744653
 31
0.0
  0
LINE
  5
3EB
330
3E5
100
AcDbEntity
  8
SLD-0_0
100
AcDbLine
 10
2914.8497150339
 20
898.0405960418
 30
0.0
 11
2914.8497150339
 21
879.7391744653
 31
0.0
  0
LINE
  5
3EC
330
3E5
100
AcDbEntity
  8
SLD-0_0
100
AcDbLine
 10
1975.8497150339
 20
880.7391744653
 30
0.0
 11
2914.8497150339
 21
880.7391744653
 31
0.0
  0
MTEXT
  5
3ED
330
3E5
100
AcDbEntity
  8
SLD-0_0
100
AcDbMText
 10
2442.2908634269
 20
885.2509115545
 30
0.0
 40
3.5
 41
0.0
 71
     1
 72
     1
  1
939
  7
SLDTEXTSTYLE0
 73
     1
 44
1.0
  0
ENDBLK
  5
3E7
330
3E5
100
AcDbEntity
  8
0
100
AcDbBlockEnd
  0
BLOCK
  5
3F0
330
3EF
100
AcDbEntity
  8
0
100
AcDbBlockBegin
  2
_D_20
 70
     0
 10
0.0
 20
0.0
 30
0.0
  3
_D_20
  1

  0
SOLID
  5
3F2
330
3EF
100
AcDbEntity
  8
SLD-0_0
100
AcDbTrace
 10
2924.0437711119
 20
899.0405960418
 30
0.0
 11
2924.5517711119
 21
902.3425960418
 31
0.0
 12
2923.5357711119
 22
902.3425960418
 32
0.0
 13
2923.5357711119
 23
902.3425960418
 33
0.0
  0
SOLID
  5
3F3
330
3EF
100
AcDbEntity
  8
SLD-0_0
100
AcDbTrace
 10
2924.0437711119
 20
1155.0405960418
 30
0.0
 11
2923.5357711119
 21
1151.7385960418
 31
0.0
 12
2924.5517711119
 22
1151.7385960418
 32
0.0
 13
2924.5517711119
 23
1151.7385960418
 33
0.0
  0
LINE
  5
3F4
330
3EF
100
AcDbEntity
  8
SLD-0_0
100
AcDbLine
 10
2915.8497150339
 20
899.0405960418
 30
0.0
 11
2925.0437711119
 21
899.0405960418
 31
0.0
  0
LINE
  5
3F5
330
3EF
100
AcDbEntity
  8
SLD-0_0
100
AcDbLine
 10
2915.8497150339
 20
1155.0405960418
 30
0.0
 11
2925.0437711119
 21
1155.0405960418
 31
0.0
  0
LINE
  5
3F6
330
3EF
100
AcDbEntity
  8
SLD-0_0
100
AcDbLine
 10
2924.0437711119
 20
899.0405960418
 30
0.0
 11
2924.0437711119
 21
1155.0405960418
 31
0.0
  0
MTEXT
  5
3F7
330
3EF
100
AcDbEntity
  8
SLD-0_0
100
AcDbMText
 10
2919.5320340227
 20
1024.8857747418
 30
0.0
 40
3.5
 41
0.0
 71
     1
 72
     1
  1
256
  7
SLDTEXTSTYLE0
 11
-5.045793573318353E-15
 21
1.0
 31
0.0
 73
     1
 44
1.0
  0
ENDBLK
  5
3F1
330
3EF
100
AcDbEntity
  8
0
100
AcDbBlockEnd
  0
BLOCK
  5
402
330
401
100
AcDbEntity
  8
0
100
AcDbBlockBegin
  2
_D_21
 70
     0
 10
0.0
 20
0.0
 30
0.0
  3
_D_21
  1

  0
SOLID
  5
404
330
401
100
AcDbEntity
  8
SLD-0_0
100
AcDbTrace
 10
1926.2595237106
 20
685.7289830987
 30
0.0
 11
1929.5615237106
 21
685.2209830987
 31
0.0
 12
1929.5615237106
 22
686.2369830987
 32
0.0
 13
1929.5615237106
 23
686.2369830987
 33
0.0
  0
SOLID
  5
405
330
401
100
AcDbEntity
  8
SLD-0_0
100
AcDbTrace
 10
2366.2595237106
 20
685.7289830987
 30
0.0
 11
2362.9575237106
 21
686.2369830987
 31
0.0
 12
2362.9575237106
 22
685.2209830987
 32
0.0
 13
2362.9575237106
 23
685.2209830987
 33
0.0
  0
LINE
  5
406
330
401
100
AcDbEntity
  8
SLD-0_0
100
AcDbLine
 10
1926.2595237106
 20
696.6149826494
 30
0.0
 11
1926.2595237106
 21
684.7289830987
 31
0.0
  0
LINE
  5
407
330
401
100
AcDbEntity
  8
SLD-0_0
100
AcDbLine
 10
2366.2595237106
 20
696.6149826494
 30
0.0
 11
2366.2595237106
 21
684.7289830987
 31
0.0
  0
LINE
  5
408
330
401
100
AcDbEntity
  8
SLD-0_0
100
AcDbLine
 10
1926.2595237106
 20
685.7289830987
 30
0.0
 11
2366.2595237106
 21
685.7289830987
 31
0.0
  0
MTEXT
  5
409
330
401
100
AcDbEntity
  8
SLD-0_0
100
AcDbMText
 10
2141.3422783265
 20
690.2407201879
 30
0.0
 40
3.5
 41
0.0
 71
     1
 72
     1
  1
440
  7
SLDTEXTSTYLE0
 73
     1
 44
1.0
  0
ENDBLK
  5
403
330
401
100
AcDbEntity
  8
0
100
AcDbBlockEnd
  0
BLOCK
  5
40C
330
40B
100
AcDbEntity
  8
0
100
AcDbBlockBegin
  2
_D_22
 70
     0
 10
0.0
 20
0.0
 30
0.0
  3
_D_22
  1

  0
SOLID
  5
40E
330
40B
100
AcDbEntity
  8
SLD-0_0
100
AcDbTrace
 10
2376.9589940568
 20
697.6149826494
 30
0.0
 11
2377.4669940568
 21
700.9169826494
 31
0.0
 12
2376.4509940568
 22
700.9169826494
 32
0.0
 13
2376.4509940568
 23
700.9169826494
 33
0.0
  0
SOLID
  5
40F
330
40B
100
AcDbEntity
  8
SLD-0_0
100
AcDbTrace
 10
2376.9589940568
 20
797.6149826494
 30
0.0
 11
2376.4509940568
 21
794.3129826494
 31
0.0
 12
2377.4669940568
 22
794.3129826494
 32
0.0
 13
2377.4669940568
 23
794.3129826494
 33
0.0
  0
LINE
  5
410
330
40B
100
AcDbEntity
  8
SLD-0_0
100
AcDbLine
 10
2367.2595237106
 20
697.6149826494
 30
0.0
 11
2377.9589940568
 21
697.6149826494
 31
0.0
  0
LINE
  5
411
330
40B
100
AcDbEntity
  8
SLD-0_0
100
AcDbLine
 10
2367.2595237106
 20
797.6149826494
 30
0.0
 11
2377.9589940568
 21
797.6149826494
 31
0.0
  0
LINE
  5
412
330
40B
100
AcDbEntity
  8
SLD-0_0
100
AcDbLine
 10
2376.9589940568
 20
697.6149826494
 30
0.0
 11
2376.9589940568
 21
797.6149826494
 31
0.0
  0
MTEXT
  5
413
330
40B
100
AcDbEntity
  8
SLD-0_0
100
AcDbMText
 10
2372.4472569676
 20
744.3021267103
 30
0.0
 40
3.5
 41
0.0
 71
     1
 72
     1
  1
100
  7
SLDTEXTSTYLE0
 11
6.123233995736766E-17
 21
1.0
 31
0.0
 73
     1
 44
1.0
  0
ENDBLK
  5
40D
330
40B
100
AcDbEntity
  8
0
100
AcDbBlockEnd
  0
BLOCK
  5
416
330
415
100
AcDbEntity
  8
0
100
AcDbBlockBegin
  2
_D_23
 70
     0
 10
0.0
 20
0.0
 30
0.0
  3
_D_23
  1

  0
SOLID
  5
418
330
415
100
AcDbEntity
  8
SLD-0_0
100
AcDbTrace
 10
2137.2595237106
 20
805.5199781807
 30
0.0
 11
2133.9575237106
 21
806.0279781807
 31
0.0
 12
2133.9575237106
 22
805.0119781807
 32
0.0
 13
2133.9575237106
 23
805.0119781807
 33
0.0
  0
SOLID
  5
419
330
415
100
AcDbEntity
  8
SLD-0_0
100
AcDbTrace
 10
2155.2595237106
 20
805.5199781807
 30
0.0
 11
2158.5615237106
 21
805.0119781807
 31
0.0
 12
2158.5615237106
 22
806.0279781807
 32
0.0
 13
2158.5615237106
 23
806.0279781807
 33
0.0
  0
LINE
  5
41A
330
415
100
AcDbEntity
  8
SLD-0_0
100
AcDbLine
 10
2137.2595237106
 20
798.6149826494
 30
0.0
 11
2137.2595237106
 21
806.5199781807
 31
0.0
  0
LINE
  5
41B
330
415
100
AcDbEntity
  8
SLD-0_0
100
AcDbLine
 10
2155.2595237106
 20
798.6149826494
 30
0.0
 11
2155.2595237106
 21
806.5199781807
 31
0.0
  0
LINE
  5
41C
330
415
100
AcDbEntity
  8
SLD-0_0
100
AcDbLine
 10
2137.2595237106
 20
805.5199781807
 30
0.0
 11
2130.9095237106
 21
805.5199781807
 31
0.0
  0
LINE
  5
41D
330
415
100
AcDbEntity
  8
SLD-0_0
100
AcDbLine
 10
2137.2595237106
 20
805.5199781807
 30
0.0
 11
2155.2595237106
 21
805.5199781807
 31
0.0
  0
LINE
  5
41E
330
415
100
AcDbEntity
  8
SLD-0_0
100
AcDbLine
 10
2155.2595237106
 20
805.5199781807
 30
0.0
 11
2161.6095237106
 21
805.5199781807
 31
0.0
  0
MTEXT
  5
41F
330
415
100
AcDbEntity
  8
SLD-0_0
100
AcDbMText
 10
2141.8178185548
 20
810.0317152699
 30
0.0
 40
3.5
 41
0.0
 71
     1
 72
     1
  1
18
  7
SLDTEXTSTYLE0
 73
     1
 44
1.0
  0
ENDBLK
  5
417
330
415
100
AcDbEntity
  8
0
100
AcDbBlockEnd
  0
BLOCK
  5
422
330
421
100
AcDbEntity
  8
0
100
AcDbBlockBegin
  2
_D_24
 70
     0
 10
0.0
 20
0.0
 30
0.0
  3
_D_24
  1

  0
SOLID
  5
424
330
421
100
AcDbEntity
  8
SLD-0_0
100
AcDbTrace
 10
2107.264644678
 20
797.6149826494
 30
0.0
 11
2106.756644678
 21
794.3129826494
 31
0.0
 12
2107.772644678
 22
794.3129826494
 32
0.0
 13
2107.772644678
 23
794.3129826494
 33
0.0
  0
SOLID
  5
425
330
421
100
AcDbEntity
  8
SLD-0_0
100
AcDbTrace
 10
2107.264644678
 20
747.6149826494
 30
0.0
 11
2107.772644678
 21
750.9169826494
 31
0.0
 12
2106.756644678
 22
750.9169826494
 32
0.0
 13
2106.756644678
 23
750.9169826494
 33
0.0
  0
LINE
  5
426
330
421
100
AcDbEntity
  8
SLD-0_0
100
AcDbLine
 10
2154.2595237106
 20
797.6149826494
 30
0.0
 11
2106.264644678
 21
797.6149826494
 31
0.0
  0
LINE
  5
427
330
421
100
AcDbEntity
  8
SLD-0_0
100
AcDbLine
 10
2136.2595237106
 20
747.6149826494
 30
0.0
 11
2106.264644678
 21
747.6149826494
 31
0.0
  0
LINE
  5
428
330
421
100
AcDbEntity
  8
SLD-0_0
100
AcDbLine
 10
2107.264644678
 20
797.6149826494
 30
0.0
 11
2107.264644678
 21
747.6149826494
 31
0.0
  0
MTEXT
  5
429
330
421
100
AcDbEntity
  8
SLD-0_0
100
AcDbMText
 10
2102.7529075888
 20
768.1673189662
 30
0.0
 40
3.5
 41
0.0
 71
     1
 72
     1
  1
50
  7
SLDTEXTSTYLE0
 11
-7.044195017643634E-15
 21
1.0
 31
0.0
 73
     1
 44
1.0
  0
ENDBLK
  5
423
330
421
100
AcDbEntity
  8
0
100
AcDbBlockEnd
  0
BLOCK
  5
430
330
42F
100
AcDbEntity
  8
0
100
AcDbBlockBegin
  2
_D_25
 70
     0
 10
0.0
 20
0.0
 30
0.0
  3
_D_25
  1

  0
SOLID
  5
432
330
42F
100
AcDbEntity
  8
SLD-0_0
100
AcDbTrace
 10
2112.2219240257
 20
348.6197634475
 30
0.0
 11
2108.9199240257
 21
349.1277634475
 31
0.0
 12
2108.9199240257
 22
348.1117634475
 32
0.0
 13
2108.9199240257
 23
348.1117634475
 33
0.0
  0
SOLID
  5
433
330
42F
100
AcDbEntity
  8
SLD-0_0
100
AcDbTrace
 10
2027.2219240257
 20
348.6197634475
 30
0.0
 11
2030.5239240257
 21
348.1117634475
 31
0.0
 12
2030.5239240257
 22
349.1277634475
 32
0.0
 13
2030.5239240257
 23
349.1277634475
 33
0.0
  0
LINE
  5
434
330
42F
100
AcDbEntity
  8
SLD-0_0
100
AcDbLine
 10
2112.2219240257
 20
357.6197634475
 30
0.0
 11
2112.2219240257
 21
347.6197634475
 31
0.0
  0
LINE
  5
435
330
42F
100
AcDbEntity
  8
SLD-0_0
100
AcDbLine
 10
2027.2219240257
 20
357.6197634475
 30
0.0
 11
2027.2219240257
 21
347.6197634475
 31
0.0
  0
LINE
  5
436
330
42F
100
AcDbEntity
  8
SLD-0_0
100
AcDbLine
 10
2112.2219240257
 20
348.6197634475
 30
0.0
 11
2027.2219240257
 21
348.6197634475
 31
0.0
  0
MTEXT
  5
437
330
42F
100
AcDbEntity
  8
SLD-0_0
100
AcDbMText
 10
2067.119653969
 20
353.1315005367
 30
0.0
 40
3.5
 41
0.0
 71
     1
 72
     1
  1
85
  7
SLDTEXTSTYLE0
 73
     1
 44
1.0
  0
ENDBLK
  5
431
330
42F
100
AcDbEntity
  8
0
100
AcDbBlockEnd
  0
BLOCK
  5
43A
330
439
100
AcDbEntity
  8
0
100
AcDbBlockBegin
  2
_D_26
 70
     0
 10
0.0
 20
0.0
 30
0.0
  3
_D_26
  1

  0
SOLID
  5
43C
330
439
100
AcDbEntity
  8
SLD-0_0
100
AcDbTrace
 10
2120.9418126471
 20
358.6197634475
 30
0.0
 11
2121.4498126471
 21
361.9217634475
 31
0.0
 12
2120.4338126471
 22
361.9217634475
 32
0.0
 13
2120.4338126471
 23
361.9217634475
 33
0.0
  0
SOLID
  5
43D
330
439
100
AcDbEntity
  8
SLD-0_0
100
AcDbTrace
 10
2120.9418126471
 20
553.6197634475
 30
0.0
 11
2120.4338126471
 21
550.3177634475
 31
0.0
 12
2121.4498126471
 22
550.3177634475
 32
0.0
 13
2121.4498126471
 23
550.3177634475
 33
0.0
  0
LINE
  5
43E
330
439
100
AcDbEntity
  8
SLD-0_0
100
AcDbLine
 10
2113.2219240257
 20
358.6197634475
 30
0.0
 11
2121.9418126471
 21
358.6197634475
 31
0.0
  0
LINE
  5
43F
330
439
100
AcDbEntity
  8
SLD-0_0
100
AcDbLine
 10
2113.2219240257
 20
553.6197634475
 30
0.0
 11
2121.9418126471
 21
553.6197634475
 31
0.0
  0
LINE
  5
440
330
439
100
AcDbEntity
  8
SLD-0_0
100
AcDbLine
 10
2120.9418126471
 20
358.6197634475
 30
0.0
 11
2120.9418126471
 21
553.6197634475
 31
0.0
  0
MTEXT
  5
441
330
439
100
AcDbEntity
  8
SLD-0_0
100
AcDbMText
 10
2116.4300755579
 20
449.2567980822
 30
0.0
 40
3.5
 41
0.0
 71
     1
 72
     1
  1
195
  7
SLDTEXTSTYLE0
 11
6.123233995736766E-17
 21
1.0
 31
0.0
 73
     1
 44
1.0
  0
ENDBLK
  5
43B
330
439
100
AcDbEntity
  8
0
100
AcDbBlockEnd
  0
BLOCK
  5
448
330
447
100
AcDbEntity
  8
0
100
AcDbBlockBegin
  2
_D_27
 70
     0
 10
0.0
 20
0.0
 30
0.0
  3
_D_27
  1

  0
SOLID
  5
44A
330
447
100
AcDbEntity
  8
SLD-0_0
100
AcDbTrace
 10
2596.5090898149
 20
736.0395307443
 30
0.0
 11
2596.0010898149
 21
732.7375307443
 31
0.0
 12
2597.0170898149
 22
732.7375307443
 32
0.0
 13
2597.0170898149
 23
732.7375307443
 33
0.0
  0
SOLID
  5
44B
330
447
100
AcDbEntity
  8
SLD-0_0
100
AcDbTrace
 10
2596.5090898149
 20
296.0395307443
 30
0.0
 11
2597.0170898149
 21
299.3415307443
 31
0.0
 12
2596.0010898149
 22
299.3415307443
 32
0.0
 13
2596.0010898149
 23
299.3415307443
 33
0.0
  0
LINE
  5
44C
330
447
100
AcDbEntity
  8
SLD-0_0
100
AcDbLine
 10
2605.5090898149
 20
736.0395307443
 30
0.0
 11
2595.5090898149
 21
736.0395307443
 31
0.0
  0
LINE
  5
44D
330
447
100
AcDbEntity
  8
SLD-0_0
100
AcDbLine
 10
2605.5090898149
 20
296.0395307443
 30
0.0
 11
2595.5090898149
 21
296.0395307443
 31
0.0
  0
LINE
  5
44E
330
447
100
AcDbEntity
  8
SLD-0_0
100
AcDbLine
 10
2596.5090898149
 20
736.0395307443
 30
0.0
 11
2596.5090898149
 21
296.0395307443
 31
0.0
  0
MTEXT
  5
44F
330
447
100
AcDbEntity
  8
SLD-0_0
100
AcDbMText
 10
2591.9973527257
 20
512.0291141769
 30
0.0
 40
3.5
 41
0.0
 71
     1
 72
     1
  1
440
  7
SLDTEXTSTYLE0
 11
-7.044195017643634E-15
 21
1.0
 31
0.0
 73
     1
 44
1.0
  0
ENDBLK
  5
449
330
447
100
AcDbEntity
  8
0
100
AcDbBlockEnd
  0
BLOCK
  5
452
330
451
100
AcDbEntity
  8
0
100
AcDbBlockBegin
  2
_D_28
 70
     0
 10
0.0
 20
0.0
 30
0.0
  3
_D_28
  1

  0
SOLID
  5
454
330
451
100
AcDbEntity
  8
SLD-0_0
100
AcDbTrace
 10
2606.5090898149
 20
286.0395307443
 30
0.0
 11
2609.8110898149
 21
285.5315307443
 31
0.0
 12
2609.8110898149
 22
286.5475307443
 32
0.0
 13
2609.8110898149
 23
286.5475307443
 33
0.0
  0
SOLID
  5
455
330
451
100
AcDbEntity
  8
SLD-0_0
100
AcDbTrace
 10
2801.5090898149
 20
286.0395307443
 30
0.0
 11
2798.2070898149
 21
286.5475307443
 31
0.0
 12
2798.2070898149
 22
285.5315307443
 32
0.0
 13
2798.2070898149
 23
285.5315307443
 33
0.0
  0
LINE
  5
456
330
451
100
AcDbEntity
  8
SLD-0_0
100
AcDbLine
 10
2606.5090898149
 20
295.0395307443
 30
0.0
 11
2606.5090898149
 21
285.0395307443
 31
0.0
  0
LINE
  5
457
330
451
100
AcDbEntity
  8
SLD-0_0
100
AcDbLine
 10
2801.5090898149
 20
295.0395307443
 30
0.0
 11
2801.5090898149
 21
285.0395307443
 31
0.0
  0
LINE
  5
458
330
451
100
AcDbEntity
  8
SLD-0_0
100
AcDbLine
 10
2606.5090898149
 20
286.0395307443
 30
0.0
 11
2801.5090898149
 21
286.0395307443
 31
0.0
  0
MTEXT
  5
459
330
451
100
AcDbEntity
  8
SLD-0_0
100
AcDbMText
 10
2699.9986732476
 20
290.5512678335
 30
0.0
 40
3.5
 41
0.0
 71
     1
 72
     1
  1
195
  7
SLDTEXTSTYLE0
 73
     1
 44
1.0
  0
ENDBLK
  5
453
330
451
100
AcDbEntity
  8
0
100
AcDbBlockEnd
  0
BLOCK
  5
460
330
45F
100
AcDbEntity
  8
0
100
AcDbBlockBegin
  2
_D_29
 70
     0
 10
0.0
 20
0.0
 30
0.0
  3
_D_29
  1

  0
SOLID
  5
462
330
45F
100
AcDbEntity
  8
CAJETIN
100
AcDbTrace
 10
2873.6171730371
 20
286.0395307443
 30
0.0
 11
2870.3151730371
 21
286.5475307443
 31
0.0
 12
2870.3151730371
 22
285.5315307443
 32
0.0
 13
2870.3151730371
 23
285.5315307443
 33
0.0
  0
SOLID
  5
463
330
45F
100
AcDbEntity
  8
CAJETIN
100
AcDbTrace
 10
2891.6171730371
 20
286.0395307443
 30
0.0
 11
2894.9191730371
 21
285.5315307443
 31
0.0
 12
2894.9191730371
 22
286.5475307443
 32
0.0
 13
2894.9191730371
 23
286.5475307443
 33
0.0
  0
LINE
  5
464
330
45F
100
AcDbEntity
  8
CAJETIN
100
AcDbLine
 10
2873.6171730371
 20
295.0395307443
 30
0.0
 11
2873.6171730371
 21
285.0395307443
 31
0.0
  0
LINE
  5
465
330
45F
100
AcDbEntity
  8
CAJETIN
100
AcDbLine
 10
2891.6171730371
 20
295.0395307443
 30
0.0
 11
2891.6171730371
 21
285.0395307443
 31
0.0
  0
LINE
  5
466
330
45F
100
AcDbEntity
  8
CAJETIN
100
AcDbLine
 10
2873.6171730371
 20
286.0395307443
 30
0.0
 11
2867.2671730371
 21
286.0395307443
 31
0.0
  0
LINE
  5
467
330
45F
100
AcDbEntity
  8
CAJETIN
100
AcDbLine
 10
2873.6171730371
 20
286.0395307443
 30
0.0
 11
2891.6171730371
 21
286.0395307443
 31
0.0
  0
LINE
  5
468
330
45F
100
AcDbEntity
  8
CAJETIN
100
AcDbLine
 10
2891.6171730371
 20
286.0395307443
 30
0.0
 11
2897.9671730371
 21
286.0395307443
 31
0.0
  0
MTEXT
  5
469
330
45F
100
AcDbEntity
  8
CAJETIN
100
AcDbMText
 10
2878.6730138263
 20
290.5512678335
 30
0.0
 40
3.5
 41
0.0
 71
     1
 72
     1
  1
18
  7
SLDTEXTSTYLE0
 73
     1
 44
1.0
  0
ENDBLK
  5
461
330
45F
100
AcDbEntity
  8
0
100
AcDbBlockEnd
  0
BLOCK
  5
470
330
46F
100
AcDbEntity
  8
0
100
AcDbBlockBegin
  2
_D_30
 70
     0
 10
0.0
 20
0.0
 30
0.0
  3
_D_30
  1

  0
SOLID
  5
472
330
46F
100
AcDbEntity
  8
CAJETIN
100
AcDbTrace
 10
2245.5504405789
 20
348.6197634475
 30
0.0
 11
2242.2484405789
 21
349.1277634475
 31
0.0
 12
2242.2484405789
 22
348.1117634475
 32
0.0
 13
2242.2484405789
 23
348.1117634475
 33
0.0
  0
SOLID
  5
473
330
46F
100
AcDbEntity
  8
CAJETIN
100
AcDbTrace
 10
2227.5504405789
 20
348.6197634475
 30
0.0
 11
2230.8524405789
 21
348.1117634475
 31
0.0
 12
2230.8524405789
 22
349.1277634475
 32
0.0
 13
2230.8524405789
 23
349.1277634475
 33
0.0
  0
LINE
  5
474
330
46F
100
AcDbEntity
  8
CAJETIN
100
AcDbLine
 10
2245.5504405789
 20
357.6197634475
 30
0.0
 11
2245.5504405789
 21
347.6197634475
 31
0.0
  0
LINE
  5
475
330
46F
100
AcDbEntity
  8
CAJETIN
100
AcDbLine
 10
2227.5504405789
 20
357.6197634475
 30
0.0
 11
2227.5504405789
 21
347.6197634475
 31
0.0
  0
LINE
  5
476
330
46F
100
AcDbEntity
  8
CAJETIN
100
AcDbLine
 10
2245.5504405789
 20
348.6197634475
 30
0.0
 11
2267.0168355819
 21
348.6197634475
 31
0.0
  0
LINE
  5
477
330
46F
100
AcDbEntity
  8
CAJETIN
100
AcDbLine
 10
2245.5504405789
 20
348.6197634475
 30
0.0
 11
2227.5504405789
 21
348.6197634475
 31
0.0
  0
MTEXT
  5
478
330
46F
100
AcDbEntity
  8
CAJETIN
100
AcDbMText
 10
2261.6696134922
 20
353.1315005367
 30
0.0
 40
3.5
 41
0.0
 71
     1
 72
     1
  1
18
  7
SLDTEXTSTYLE0
 73
     1
 44
1.0
  0
ENDBLK
  5
471
330
46F
100
AcDbEntity
  8
0
100
AcDbBlockEnd
  0
ENDSEC
  0
SECTION
  2
ENTITIES
  0
LINE
  5
7A
330
1F
100
AcDbEntity
  8
PREDETERMINADO
100
AcDbLine
 10
2953.7805788193
 20
57.3214178067
 30
0.0
 11
2945.0142650341
 21
57.3214178067
 31
0.0
  0
LINE
  5
7B
330
1F
100
AcDbEntity
  8
PREDETERMINADO
100
AcDbLine
 10
2939.2971038697
 20
28.9261840238
 30
0.0
 11
2944.6331209564
 21
28.9261840238
 31
0.0
  0
LINE
  5
7C
330
1F
100
AcDbEntity
  8
PREDETERMINADO
100
AcDbLine
 10
2974.7435030885
 20
57.3214178067
 30
0.0
 11
2966.7394774585
 21
57.3214178067
 31
0.0
  0
LINE
  5
7D
330
1F
100
AcDbEntity
  8
PREDETERMINADO
100
AcDbLine
 10
2961.6881755553
 20
31.4036205284
 30
0.0
 11
2969.6197096358
 21
31.4036205284
 31
0.0
  0
LINE
  5
7E
330
1F
100
AcDbEntity
  8
PREDETERMINADO
100
AcDbLine
 10
2704.7140912713
 20
138.474581476
 30
0.0
 11
2704.7140912713
 21
97.0915389877
 31
0.0
  0
LINE
  5
7F
330
1F
100
AcDbEntity
  8
PREDETERMINADO
100
AcDbLine
 10
2704.7140912713
 20
97.0915389877
 30
0.0
 11
2217.7381926647
 21
97.0915389877
 31
0.0
  0
LINE
  5
80
330
1F
100
AcDbEntity
  8
PREDETERMINADO
100
AcDbLine
 10
2217.7381926647
 20
97.0915389877
 30
0.0
 11
2217.7381926647
 21
92.8525389877
 31
0.0
  0
LINE
  5
81
330
1F
100
AcDbEntity
  8
PREDETERMINADO
100
AcDbLine
 10
2217.7381926647
 20
92.8525389877
 30
0.0
 11
2708.9530912713
 21
92.8525389877
 31
0.0
  0
LINE
  5
82
330
1F
100
AcDbEntity
  8
PREDETERMINADO
100
AcDbLine
 10
2708.9530912713
 20
92.8525389877
 30
0.0
 11
2708.9530912713
 21
138.474581476
 31
0.0
  0
LINE
  5
83
330
1F
100
AcDbEntity
  8
PREDETERMINADO
100
AcDbLine
 10
2708.9530912713
 20
138.474581476
 30
0.0
 11
2704.7140912713
 21
138.474581476
 31
0.0
  0
LINE
  5
84
330
1F
100
AcDbEntity
  8
PREDETERMINADO
100
AcDbLine
 10
2961.6881755553
 20
31.4036205284
 30
0.0
 11
2969.6197096358
 21
31.4036205284
 31
0.0
  0
LINE
  5
85
330
1F
100
AcDbEntity
  8
PREDETERMINADO
100
AcDbLine
 10
2974.7435030885
 20
57.3214178067
 30
0.0
 11
2966.7394774585
 21
57.3214178067
 31
0.0
  0
LINE
  5
86
330
1F
100
AcDbEntity
  8
PREDETERMINADO
100
AcDbLine
 10
2953.7805788193
 20
57.3214178067
 30
0.0
 11
2945.0142650341
 21
57.3214178067
 31
0.0
  0
LINE
  5
87
330
1F
100
AcDbEntity
  8
PREDETERMINADO
100
AcDbLine
 10
2939.2971038697
 20
28.9261840238
 30
0.0
 11
2944.6331209564
 21
28.9261840238
 31
0.0
  0
LINE
  5
88
330
1F
100
AcDbEntity
  8
PREDETERMINADO
  6
Continuous
 62
   179
370
    15
100
AcDbLine
 10
2217.7381926647
 20
228.3629821305
 30
0.0
 11
2217.7381926647
 21
142.713581476
 31
0.0
  0
LINE
  5
89
330
1F
100
AcDbEntity
  8
SLD-0_0
100
AcDbLine
 10
2406.4846980495
 20
92.8525389877
 30
0.0
 11
2406.4846980495
 21
16.4129821305
 31
0.0
  0
LINE
  5
8A
330
1F
100
AcDbEntity
  8
FORMATO
  6
Continuous
 62
   179
100
AcDbLine
 10
2412.2230912713
 20
142.713581476
 30
0.0
 11
2412.2230912713
 21
228.3629821305
 31
0.0
  0
LINE
  5
8B
330
1F
100
AcDbEntity
  8
FORMATO
  6
Continuous
 62
   179
100
AcDbLine
 10
2331.7302571214
 20
142.713581476
 30
0.0
 11
2412.2230912713
 21
142.713581476
 31
0.0
  0
LINE
  5
8C
330
1F
100
AcDbEntity
  8
FORMATO
  6
Continuous
 62
   179
100
AcDbLine
 10
2331.7302571214
 20
142.713581476
 30
0.0
 11
2331.7302571214
 21
228.3629821305
 31
0.0
  0
LINE
  5
8D
330
1F
100
AcDbEntity
  8
FORMATO
  6
Continuous
 62
   179
100
AcDbLine
 10
2217.7381926647
 20
163.908581476
 30
0.0
 11
2497.0030912713
 21
163.908581476
 31
0.0
  0
LINE
  5
8E
330
1F
100
AcDbEntity
  8
FORMATO
  6
Continuous
 62
   179
100
AcDbLine
 10
2217.7381926647
 20
185.103581476
 30
0.0
 11
2497.0030912713
 21
185.103581476
 31
0.0
  0
LINE
  5
8F
330
1F
100
AcDbEntity
  8
FORMATO
  6
Continuous
 62
   179
100
AcDbLine
 10
2497.0030912713
 20
142.713581476
 30
0.0
 11
2497.0030912713
 21
228.3629821305
 31
0.0
  0
LINE
  5
90
330
1F
100
AcDbEntity
  8
FORMATO
  6
Continuous
 62
   179
100
AcDbLine
 10
2984.4880912713
 20
206.298581476
 30
0.0
 11
2217.7381926647
 21
206.298581476
 31
0.0
  0
LINE
  5
91
330
1F
100
AcDbEntity
  8
FORMATO
  6
Continuous
 62
   179
100
AcDbLine
 10
2803.9424890692
 20
228.3629821305
 30
0.0
 11
2803.9424890692
 21
180.662106425
 31
0.0
  0
LINE
  5
92
330
1F
100
AcDbEntity
  8
FORMATO
  6
Continuous
 62
   179
100
AcDbLine
 10
2751.3430912713
 20
228.3629821305
 30
0.0
 11
2751.3430912713
 21
180.662106425
 31
0.0
  0
LINE
  5
93
330
1F
100
AcDbEntity
  8
FORMATO
  6
Continuous
 62
   179
100
AcDbLine
 10
2708.9530912713
 20
180.662106425
 30
0.0
 11
2984.4880912713
 21
180.662106425
 31
0.0
  0
LINE
  5
94
330
1F
100
AcDbEntity
  8
FORMATO
  6
Continuous
 62
   179
100
AcDbLine
 10
2873.3093560384
 20
138.474581476
 30
0.0
 11
2873.3093560384
 21
228.3629821305
 31
0.0
  0
LINE
  5
95
330
1F
100
AcDbEntity
  8
PREDETERMINADO
370
    15
100
AcDbLine
 10
2217.7381926647
 20
97.0915389877
 30
0.0
 11
2217.7381926647
 21
16.4129821305
 31
0.0
  0
LINE
  5
96
330
1F
100
AcDbEntity
  8
FORMATO
  6
Continuous
 62
   179
100
AcDbLine
 10
2836.1230912713
 20
83.1376372178
 30
0.0
 11
2984.4880912713
 21
83.1376372178
 31
0.0
  0
LINE
  5
97
330
1F
100
AcDbEntity
  8
FORMATO
  6
Continuous
 62
   179
100
AcDbLine
 10
2836.1230912713
 20
16.4129821305
 30
0.0
 11
2836.1230912713
 21
138.474581476
 31
0.0
  0
LINE
  5
98
330
1F
100
AcDbEntity
  8
FORMATO
  6
Continuous
 62
   179
370
    15
100
AcDbLine
 10
2213.4991926647
 20
142.713581476
 30
0.0
 11
2704.7140912713
 21
142.713581476
 31
0.0
  0
LINE
  5
99
330
1F
100
AcDbEntity
  8
FORMATO
  6
Continuous
 62
   179
370
    15
100
AcDbLine
 10
2708.9530912713
 20
92.8525389877
 30
0.0
 11
2708.9530912713
 21
138.474581476
 31
0.0
  0
LINE
  5
9A
330
1F
100
AcDbEntity
  8
FORMATO
  6
Continuous
 62
   179
100
AcDbLine
 10
2567.6318618685
 20
92.8525389877
 30
0.0
 11
2567.6318618685
 21
16.4129821305
 31
0.0
  0
LINE
  5
9B
330
1F
100
AcDbEntity
  8
SLD-0
  6
Continuous
 62
   179
100
AcDbLine
 10
2966.7394774585
 20
57.3214178067
 30
0.0
 11
2974.7435030885
 21
57.3214178067
 31
0.0
  0
LINE
  5
9C
330
1F
100
AcDbEntity
  8
SLD-0
  6
Continuous
 62
   179
100
AcDbLine
 10
2961.4034603718
 20
31.4036205284
 30
0.0
 11
2969.6197096358
 21
31.4036205284
 31
0.0
  0
LINE
  5
9D
330
1F
100
AcDbEntity
  8
SLD-0
  6
Continuous
 62
   179
100
AcDbLine
 10
2945.0142650341
 20
57.3214178067
 30
0.0
 11
2953.7805788193
 21
57.3214178067
 31
0.0
  0
LINE
  5
9E
330
1F
100
AcDbEntity
  8
FORMATO
  6
Continuous
 62
   179
100
AcDbLine
 10
2500.6815956676
 20
186.4703293891
 30
0.0
 11
2507.3729793132
 21
186.4703293891
 31
0.0
  0
LINE
  5
9F
330
1F
100
AcDbEntity
  8
FORMATO
  6
Continuous
 62
   179
100
AcDbLine
 10
2500.6815956676
 20
169.5143293891
 30
0.0
 11
2507.3729793132
 21
169.5143293891
 31
0.0
  0
LINE
  5
A0
330
1F
100
AcDbEntity
  8
FORMATO
  6
Continuous
 62
   179
100
AcDbLine
 10
2500.6815956676
 20
152.5583293891
 30
0.0
 11
2507.3729793132
 21
152.5583293891
 31
0.0
  0
LINE
  5
A1
330
1F
100
AcDbEntity
  8
FORMATO
  6
Continuous
 62
   179
100
AcDbLine
 10
2711.6154207231
 20
98.1907042008
 30
0.0
 11
2718.3068043687
 21
98.1907042008
 31
0.0
  0
LINE
  5
A2
330
1F
100
AcDbEntity
  8
FORMATO
  6
Continuous
 62
   179
100
AcDbLine
 10
2711.6154207231
 20
76.5279877943
 30
0.0
 11
2718.3068043687
 21
76.5279877943
 31
0.0
  0
LINE
  5
A3
330
1F
100
AcDbEntity
  8
FORMATO
  6
Continuous
 62
   179
100
AcDbLine
 10
2711.6154207231
 20
54.8652713877
 30
0.0
 11
2718.3068043687
 21
54.8652713877
 31
0.0
  0
LINE
  5
A4
330
1F
100
AcDbEntity
  8
FORMATO
  6
Continuous
 62
   179
100
AcDbLine
 10
2711.6154207231
 20
33.2025549812
 30
0.0
 11
2718.3068043687
 21
33.2025549812
 31
0.0
  0
LINE
  5
A5
330
1F
100
AcDbEntity
  8
PREDETERMINADO
100
AcDbLine
 10
2708.9530912713
 20
138.474581476
 30
0.0
 11
2984.8421506311
 21
138.474581476
 31
0.0
  0
LINE
  5
A6
330
1F
100
AcDbEntity
  8
FORMATO
  6
Continuous
 62
   179
370
    15
100
AcDbLine
 10
2217.7381926647
 20
228.3629821305
 30
0.0
 11
2984.4880912713
 21
228.3629821305
 31
0.0
  0
LINE
  5
A7
330
1F
100
AcDbEntity
  8
FORMATO
  6
Continuous
 62
   179
370
    15
100
AcDbLine
 10
2708.9530912713
 20
92.8525389877
 30
0.0
 11
2217.7381926647
 21
92.8525389877
 31
0.0
  0
LINE
  5
A8
330
1F
100
AcDbEntity
  8
PREDETERMINADO
  6
Continuous
 62
   179
100
AcDbLine
 10
2253.8107979238
 20
224.5145210547
 30
0.0
 11
2253.8107979238
 21
208.17856127
 31
0.0
  0
LINE
  5
A9
330
1F
100
AcDbEntity
  8
PREDETERMINADO
  6
Continuous
 62
   179
100
AcDbLine
 10
2237.4150149106
 20
220.7667408783
 30
0.0
 11
2237.4150149106
 21
211.9263414463
 31
0.0
  0
LINE
  5
AA
330
1F
100
AcDbEntity
  8
PREDETERMINADO
  6
CENTER
 62
   179
100
AcDbLine
 10
2273.9088545206
 20
225.5608423291
 30
0.0
 11
2273.9088545206
 21
206.9482771675
 31
0.0
  0
LINE
  5
AB
330
1F
100
AcDbEntity
  8
PREDETERMINADO
  6
Continuous
 62
   179
100
AcDbLine
 10
2253.8107979238
 20
224.5145210547
 30
0.0
 11
2237.4150149106
 21
220.7667408783
 31
0.0
  0
LINE
  5
AC
330
1F
100
AcDbEntity
  8
PREDETERMINADO
  6
Continuous
 62
   179
100
AcDbLine
 10
2237.4150149106
 20
211.9263414463
 30
0.0
 11
2253.8107979238
 21
208.17856127
 31
0.0
  0
LINE
  5
AD
330
1F
100
AcDbEntity
  8
PREDETERMINADO
  6
CENTER
 62
   179
100
AcDbLine
 10
2283.7373939059
 20
216.3465411623
 30
0.0
 11
2235.7240888713
 21
216.3465411623
 31
0.0
  0
LINE
  5
AE
330
1F
100
AcDbEntity
  8
PREDETERMINADO
370
    15
100
AcDbLine
 10
2217.7381926647
 20
16.4129821305
 30
0.0
 11
2984.4880912713
 21
16.4129821305
 31
0.0
  0
LINE
  5
AF
330
1F
100
AcDbEntity
  8
PREDETERMINADO
370
    15
100
AcDbLine
 10
2984.4880912713
 20
16.4129821305
 30
0.0
 11
2984.4880912713
 21
228.3629821305
 31
0.0
  0
LINE
  5
B0
330
1F
100
AcDbEntity
  8
PREDETERMINADO
370
    15
100
AcDbLine
 10
2704.7140912713
 20
138.474581476
 30
0.0
 11
2708.9530912713
 21
138.474581476
 31
0.0
  0
LINE
  5
B1
330
1F
100
AcDbEntity
  8
PREDETERMINADO
100
AcDbLine
 10
2708.9530912713
 20
138.474581476
 30
0.0
 11
2708.9530912713
 21
228.3629821305
 31
0.0
  0
LINE
  5
B2
330
1F
100
AcDbEntity
  8
PREDETERMINADO
100
AcDbLine
 10
2708.9530912713
 20
92.8525389877
 30
0.0
 11
2708.9530912713
 21
16.4129821305
 31
0.0
  0
LINE
  5
B3
330
1F
100
AcDbEntity
  8
PREDETERMINADO
370
    15
100
AcDbLine
 10
2213.4991926647
 20
142.713581476
 30
0.0
 11
2213.4991926647
 21
97.0915389877
 31
0.0
  0
LINE
  5
B4
330
1F
100
AcDbEntity
  8
PREDETERMINADO
370
    15
100
AcDbLine
 10
2213.4991926647
 20
97.0915389877
 30
0.0
 11
2704.7140912713
 21
97.0915389877
 31
0.0
  0
LINE
  5
B5
330
1F
100
AcDbEntity
  8
PREDETERMINADO
370
    15
100
AcDbLine
 10
2704.7140912713
 20
97.0915389877
 30
0.0
 11
2704.7140912713
 21
142.713581476
 31
0.0
  0
LINE
  5
B6
330
1F
100
AcDbEntity
  8
SLD-0
  6
Continuous
 62
   179
100
AcDbLine
 10
2939.2971038697
 20
28.9261840238
 30
0.0
 11
2944.6331209564
 21
28.9261840238
 31
0.0
  0
ARC
  5
B7
330
1F
100
AcDbEntity
  8
PREDETERMINADO
100
AcDbCircle
 10
2871.6408538915
 20
57.3214178067
 30
0.0
 40
73.37341114253053
100
AcDbArc
 50
337.2322750577
 51
0.0
  0
ARC
  5
B8
330
1F
100
AcDbEntity
  8
PREDETERMINADO
100
AcDbCircle
 10
2905.1350807874
 20
57.3214178067
 30
0.0
 40
48.64549803190766
100
AcDbArc
 50
324.2875534854
 51
0.0
  0
ARC
  5
B9
330
1F
100
AcDbEntity
  8
PREDETERMINADO
100
AcDbCircle
 10
2897.7228278856
 20
57.3214178067
 30
0.0
 40
69.01664957284447
100
AcDbArc
 50
337.9429486592
 51
0.0
  0
ARC
  5
BA
330
1F
100
AcDbEntity
  8
PREDETERMINADO
100
AcDbCircle
 10
2906.6313239444
 20
57.3214178067
 30
0.0
 40
68.11217914413874
100
AcDbArc
 50
337.634330245
 51
0.0
  0
ARC
  5
BB
330
1F
100
AcDbEntity
  8
PREDETERMINADO
100
AcDbCircle
 10
2906.6313239444
 20
57.3214178067
 30
0.0
 40
68.11217914413874
100
AcDbArc
 50
337.634330245
 51
0.0
  0
ARC
  5
BC
330
1F
100
AcDbEntity
  8
PREDETERMINADO
100
AcDbCircle
 10
2897.7228278856
 20
57.3214178067
 30
0.0
 40
69.01664957284447
100
AcDbArc
 50
337.9429486592
 51
0.0
  0
ARC
  5
BD
330
1F
100
AcDbEntity
  8
PREDETERMINADO
100
AcDbCircle
 10
2905.1350807874
 20
57.3214178067
 30
0.0
 40
48.64549803190766
100
AcDbArc
 50
324.2875534854
 51
0.0
  0
ARC
  5
BE
330
1F
100
AcDbEntity
  8
PREDETERMINADO
100
AcDbCircle
 10
2871.6408538915
 20
57.3214178067
 30
0.0
 40
73.37341114253053
100
AcDbArc
 50
337.2322750577
 51
0.0
  0
CIRCLE
  5
BF
330
1F
100
AcDbEntity
  8
PREDETERMINADO
  6
Continuous
 62
   179
100
AcDbCircle
 10
2273.9088545206
 20
216.3465411623
 30
0.0
 40
8.16797989235628
  0
CIRCLE
  5
C0
330
1F
100
AcDbEntity
  8
PREDETERMINADO
  6
Continuous
 62
   179
100
AcDbCircle
 10
2273.8976301581
 20
216.3465411623
 30
0.0
 40
4.420199715998793
  0
ARC
  5
C1
330
1F
100
AcDbEntity
  8
SLD-0
  6
Continuous
 62
   179
100
AcDbCircle
 10
2897.7228278856
 20
57.3214178067
 30
0.0
 40
69.01664957284447
100
AcDbArc
 50
337.9429486592
 51
0.0
  0
ARC
  5
C2
330
1F
100
AcDbEntity
  8
SLD-0
  6
Continuous
 62
   179
100
AcDbCircle
 10
2906.6313239444
 20
57.3214178067
 30
0.0
 40
68.11217914413874
100
AcDbArc
 50
337.634330245
 51
0.0
  0
ARC
  5
C3
330
1F
100
AcDbEntity
  8
SLD-0
  6
Continuous
 62
   179
100
AcDbCircle
 10
2905.1350807874
 20
57.3214178067
 30
0.0
 40
48.64549803190766
100
AcDbArc
 50
324.2875534854
 51
0.0
  0
ARC
  5
C4
330
1F
100
AcDbEntity
  8
SLD-0
  6
Continuous
 62
   179
100
AcDbCircle
 10
2871.6408538915
 20
57.3214178067
 30
0.0
 40
73.37341114253053
100
AcDbArc
 50
337.2322750577
 51
0.0
  0
HATCH
  5
C5
330
1F
100
AcDbEntity
  8
0
  6
Continuous
 62
   179
100
AcDbHatch
 10
0.0
 20
0.0
 30
0.0
210
0.0
220
0.0
230
1.0
  2
ANSI31
 70
     0
 71
     0
 91
        1
 92
        0
 93
        4
 72
     1
 10
2939.297103869709
 20
28.92618402383318
 11
2944.633120956416
 21
28.92618402383318
 72
     2
 10
2905.135080787436
 20
57.3214178066691
 40
48.64549803190743
 50
324.2875534853725
 51
360.0000000000008
 73
     1
 72
     1
 10
2953.780578819344
 20
57.3214178066691
 11
2945.014265034066
 21
57.3214178066691
 72
     2
 10
2871.640853891537
 20
57.3214178066691
 40
73.37341114252966
 50
0.0
 51
22.76772494225683
 73
     0
 97
        0
 75
     0
 76
     1
 52
90.0
 41
0.03125
 77
     0
 78
     1
 53
135.0000000000002
 43
0.0
 44
0.0
 45
-0.0701582509458525
 46
-0.070158250945853
 79
     0
 98
        1
 10
0.0
 20
0.0
  0
HATCH
  5
C6
330
1F
100
AcDbEntity
  8
0
  6
Continuous
 62
   179
100
AcDbHatch
 10
0.0
 20
0.0
 30
0.0
210
0.0
220
0.0
230
1.0
  2
ANSI31
 70
     0
 71
     0
 91
        1
 92
        0
 93
        4
 72
     1
 10
2961.688175555317
 20
31.40362052837686
 11
2969.619709635777
 21
31.40362052837686
 72
     2
 10
2906.631323944409
 20
57.3214178066691
 40
68.11217914413834
 50
337.6343302449529
 51
360.0000000000008
 73
     1
 72
     1
 10
2974.743503088548
 20
57.3214178066691
 11
2966.739477458489
 21
57.3214178066691
 72
     2
 10
2897.722827885644
 20
57.3214178066691
 40
69.01664957284461
 50
0.0
 51
22.05705134075574
 73
     0
 97
        0
 75
     0
 76
     1
 52
90.0
 41
0.03125
 77
     0
 78
     1
 53
135.0000000000002
 43
0.0
 44
0.0
 45
-0.0701582509458525
 46
-0.070158250945853
 79
     0
 98
        1
 10
0.0
 20
0.0
  0
HATCH
  5
C7
330
1F
100
AcDbEntity
  8
0
  6
Continuous
 62
   179
100
AcDbHatch
 10
0.0
 20
0.0
 30
0.0
210
0.0
220
0.0
230
1.0
  2
ANSI31
 70
     0
 71
     0
 91
        1
 92
        0
 93
        6
 72
     1
 10
2708.953091271272
 20
92.85253898767476
 11
2708.953091271272
 21
138.4745814760103
 72
     1
 10
2708.953091271272
 20
138.4745814760103
 11
2704.71409127127
 21
138.4745814760103
 72
     1
 10
2704.71409127127
 20
138.4745814760103
 11
2704.71409127127
 21
97.09153898767443
 72
     1
 10
2704.71409127127
 20
97.09153898767443
 11
2217.738192664704
 21
97.09153898767443
 72
     1
 10
2217.738192664704
 20
97.09153898767443
 11
2217.738192664704
 21
92.85253898767476
 72
     1
 10
2217.738192664704
 20
92.85253898767476
 11
2708.953091271272
 21
92.85253898767476
 97
        0
 75
     0
 76
     1
 52
0.0
 41
0.0625
 77
     0
 78
     1
 53
45.0
 43
0.0
 44
0.0
 45
-0.1403165018917055
 46
0.1403165018917055
 79
     0
 98
        1
 10
0.0
 20
0.0
  0
INSERT
  5
CE
330
1F
100
AcDbEntity
  8
CAJETIN
100
AcDbBlockReference
  2
SW_NOTE_0
 10
2728.6204549186
 20
101.3150087962
 30
0.0
  0
MTEXT
  5
CF
330
1F
100
AcDbEntity
  8
CAJETIN
100
AcDbMText
 10
2939.3791067988
 20
157.4872413264
 30
0.0
 40
9.525
 41
0.0
 71
     1
 72
     1
  1
g.
  7
SLDTEXTSTYLE0
 73
     1
 44
1.0
  0
MTEXT
  5
D0
330
1F
100
AcDbEntity
  8
CAJETIN
100
AcDbMText
 10
2343.8799013218
 20
201.7437690723
 30
0.0
 40
9.525
 41
0.0
 71
     1
 72
     1
  1
R&D Dep.
  7
SLDTEXTSTYLE0
 73
     1
 44
1.0
  0
MTEXT
  5
D2
330
1F
100
AcDbEntity
  8
PREDETERMINADO
100
AcDbMText
 10
2849.7878404293
 20
60.740140865
 30
0.0
 40
19.05
 41
0.0
 71
     1
 72
     1
  1
beyma
  7
SLDTEXTSTYLE1
 73
     1
 44
1.0
  0
MTEXT
  5
D3
330
1F
100
AcDbEntity
  8
CAJETIN
100
AcDbMText
 10
2772.883428931
 20
199.1385222051
 30
0.0
 40
9.525
 41
0.0
 71
     1
 72
     1
  1
01
  7
SLDTEXTSTYLE0
 73
     1
 44
1.0
  0
MTEXT
  5
D4
330
1F
100
AcDbEntity
  8
CAJETIN
100
AcDbMText
 10
2756.0456523869
 20
157.4872413264
 30
0.0
 40
9.525
 41
0.0
 71
     1
 72
     1
  1
S-215LEX
  7
SLDTEXTSTYLE0
 73
     1
 44
1.0
  0
MTEXT
  5
D5
330
1F
100
AcDbEntity
  8
CAJETIN
100
AcDbMText
 10
2928.8662679386
 20
200.0545839416
 30
0.0
 40
9.525
 41
0.0
 71
     2
 72
     1
  1
1:1
  7
SLDTEXTSTYLE0
 73
     1
 44
1.0
  0
MTEXT
  5
D6
330
1F
100
AcDbEntity
  8
CAJETIN
100
AcDbMText
 10
2356.8590279323
 20
224.804662271
 30
0.0
 40
9.525
 41
0.0
 71
     1
 72
     1
  1
NAME
  7
SLDTEXTSTYLE0
 73
     1
 44
1.0
  0
MTEXT
  5
D7
330
1F
100
AcDbEntity
  8
CAJETIN
100
AcDbMText
 10
2900.7759952373
 20
175.6724939512
 30
0.0
 40
9.525
 41
0.0
 71
     1
 72
     1
  1
WEIGHT
  7
SLDTEXTSTYLE0
 73
     1
 44
1.0
  0
MTEXT
  5
D8
330
1F
100
AcDbEntity
  8
CAJETIN
100
AcDbMText
 10
2282.6506455293
 20
223.9343364208
 30
0.0
 40
9.525
 41
0.0
 71
     1
 72
     1
  1
CAD
  7
SLDTEXTSTYLE0
 73
     1
 44
1.0
  0
MTEXT
  5
D9
330
1F
100
AcDbEntity
  8
CAJETIN
100
AcDbMText
 10
2442.0695596789
 20
224.804662271
 30
0.0
 40
9.525
 41
0.0
 71
     1
 72
     1
  1
DATE
  7
SLDTEXTSTYLE0
 73
     1
 44
1.0
  0
MTEXT
  5
DA
330
1F
100
AcDbEntity
  8
CAJETIN
100
AcDbMText
 10
2222.8401384976
 20
201.9689717443
 30
0.0
 40
9.525
 41
0.0
 71
     1
 72
     1
  1
DESIGNED BY
  7
SLDTEXTSTYLE0
 73
     1
 44
1.0
  0
MTEXT
  5
DB
330
1F
100
AcDbEntity
  8
CAJETIN
100
AcDbMText
 10
2222.8401384976
 20
160.7204530065
 30
0.0
 40
9.525
 41
0.0
 71
     1
 72
     1
  1
REVISED BY
  7
SLDTEXTSTYLE0
 73
     1
 44
1.0
  0
MTEXT
  5
DC
330
1F
100
AcDbEntity
  8
CAJETIN
100
AcDbMText
 10
2222.8401384976
 20
181.9642477551
 30
0.0
 40
9.525
 41
0.0
 71
     1
 72
     1
  1
DRAWN BY
  7
SLDTEXTSTYLE0
 73
     1
 44
1.0
  0
MTEXT
  5
DD
330
1F
100
AcDbEntity
  8
CAJETIN
100
AcDbMText
 10
2217.3543736071
 20
137.8524578628
 30
0.0
 40
9.525
 41
0.0
 71
     1
 72
     1
  1
TITLE:
  7
SLDTEXTSTYLE0
 73
     1
 44
1.0
  0
MTEXT
  5
DE
330
1F
100
AcDbEntity
  8
CAJETIN
100
AcDbMText
 10
2222.8401384976
 20
87.5810092341
 30
0.0
 40
9.525
 41
0.0
 71
     1
 72
     1
  1
MODEL CODE:
  7
SLDTEXTSTYLE0
 73
     1
 44
1.0
  0
MTEXT
  5
DF
330
1F
100
AcDbEntity
  8
CAJETIN
100
AcDbMText
 10
2578.7227350005
 20
88.0350546673
 30
0.0
 40
9.525
 41
0.0
 71
     1
 72
     1
  1
PART NUMBER
  7
SLDTEXTSTYLE0
 73
     1
 44
1.0
  0
MTEXT
  5
E0
330
1F
100
AcDbEntity
  8
CAJETIN
100
AcDbMText
 10
2567.9292050847
 20
224.804662271
 30
0.0
 40
9.525
 41
0.0
 71
     1
 72
     1
  1
NOTES
  7
SLDTEXTSTYLE0
 73
     1
 44
1.0
  0
MTEXT
  5
E1
330
1F
100
AcDbEntity
  8
CAJETIN
100
AcDbMText
 10
2712.1524917175
 20
223.8484128476
 30
0.0
 40
9.525
 41
0.0
 71
     1
 72
     1
  1
UNIT
  7
SLDTEXTSTYLE0
 73
     1
 44
1.0
  0
MTEXT
  5
E2
330
1F
100
AcDbEntity
  8
CAJETIN
100
AcDbMText
 10
2755.7445257684
 20
223.8484128476
 30
0.0
 40
9.525
 41
0.0
 71
     1
 72
     1
  1
LEVEL
  7
SLDTEXTSTYLE0
 73
     1
 44
1.0
  0
MTEXT
  5
E3
330
1F
100
AcDbEntity
  8
CAJETIN
100
AcDbMText
 10
2819.0473228062
 20
223.8484128476
 30
0.0
 40
9.525
 41
0.0
 71
     1
 72
     1
  1
DATE
  7
SLDTEXTSTYLE0
 73
     1
 44
1.0
  0
MTEXT
  5
E4
330
1F
100
AcDbEntity
  8
CAJETIN
100
AcDbMText
 10
2906.3306803736
 20
224.804662271
 30
0.0
 40
9.525
 41
0.0
 71
     1
 72
     1
  1
SCALE
  7
SLDTEXTSTYLE0
 73
     1
 44
1.0
  0
MTEXT
  5
E5
330
1F
100
AcDbEntity
  8
CAJETIN
100
AcDbMText
 10
2721.1134880288
 20
175.6724939512
 30
0.0
 40
9.525
 41
0.0
 71
     1
 72
     1
  1
DRAWING NUMBER
  7
SLDTEXTSTYLE0
 73
     1
 44
1.0
  0
MTEXT
  5
E6
330
1F
100
AcDbEntity
  8
CAJETIN
100
AcDbMText
 10
2453.3880459835
 20
88.0350546673
 30
0.0
 40
9.525
 41
0.0
 71
     1
 72
     1
  1
SIGNED
  7
SLDTEXTSTYLE0
 73
     1
 44
1.0
  0
MTEXT
  5
E7
330
1F
100
AcDbEntity
  8
CAJETIN
100
AcDbMText
 10
2735.5558527015
 20
133.3873364221
 30
0.0
 40
9.525
 41
0.0
 71
     1
 72
     1
  1
MATERIAL
  7
SLDTEXTSTYLE0
 73
     1
 44
1.0
  0
MTEXT
  5
E8
330
1F
100
AcDbEntity
  8
CAJETIN
100
AcDbMText
 10
2424.2261660469
 20
201.7437690723
 30
0.0
 40
9.525
 41
0.0
 71
     1
 72
     1
  1
18/01/2019
  7
SLDTEXTSTYLE0
 73
     1
 44
1.0
  0
MTEXT
  5
E9
330
1F
100
AcDbEntity
  8
CAJETIN
100
AcDbMText
 10
2345.2549001502
 20
180.8923398585
 30
0.0
 40
9.525
 41
0.0
 71
     1
 72
     1
  1
R. Climent
  7
SLDTEXTSTYLE0
 73
     1
 44
1.0
  0
MTEXT
  5
EA
330
1F
100
AcDbEntity
  8
CAJETIN
100
AcDbMText
 10
2345.2549001502
 20
159.6161257638
 30
0.0
 40
9.525
 41
0.0
 71
     1
 72
     1
  1
J. Serrano
  7
SLDTEXTSTYLE0
 73
     1
 44
1.0
  0
MTEXT
  5
EB
330
1F
100
AcDbEntity
  8
CAJETIN
100
AcDbMText
 10
2424.2261660469
 20
180.8923398585
 30
0.0
 40
9.525
 41
0.0
 71
     1
 72
     1
  1
18/01/2019
  7
SLDTEXTSTYLE0
 73
     1
 44
1.0
  0
MTEXT
  5
EC
330
1F
100
AcDbEntity
  8
CAJETIN
100
AcDbMText
 10
2424.2261660469
 20
159.6161257638
 30
0.0
 40
9.525
 41
0.0
 71
     1
 72
     1
  1
18/01/2019
  7
SLDTEXTSTYLE0
 73
     1
 44
1.0
  0
MTEXT
  5
ED
330
1F
100
AcDbEntity
  8
CAJETIN
100
AcDbMText
 10
2717.7131164799
 20
199.1385222051
 30
0.0
 40
9.525
 41
0.0
 71
     1
 72
     1
  1
mm
  7
SLDTEXTSTYLE0
 73
     1
 44
1.0
  0
INSERT
  5
F3
330
1F
100
AcDbEntity
  8
CAJETIN
100
AcDbBlockReference
  2
SW_NOTE_1
 10
2440.0969965909
 20
121.1472961806
 30
0.0
  0
INSERT
  5
F9
330
1F
100
AcDbEntity
  8
SLD-0_0
100
AcDbBlockReference
  2
SW_NOTE_2
 10
1899.9476666172
 20
1130.9815312802
 30
0.0
  0
INSERT
  5
FF
330
1F
100
AcDbEntity
  8
SLD-0_0
100
AcDbBlockReference
  2
SW_NOTE_3
 10
1981.5387608076
 20
1860.9484679835
 30
0.0
  0
INSERT
  5
105
330
1F
100
AcDbEntity
  8
SLD-0_0
100
AcDbBlockReference
  2
SW_NOTE_4
 10
1349.4335165081
 20
1860.9484679835
 30
0.0
  0
INSERT
  5
10B
330
1F
100
AcDbEntity
  8
SLD-0_0
100
AcDbBlockReference
  2
SW_NOTE_5
 10
139.4775685054
 20
1873.9749752861
 30
0.0
  0
INSERT
  5
111
330
1F
100
AcDbEntity
  8
SLD-0_0
100
AcDbBlockReference
  2
SW_NOTE_6
 10
1990.6359490825
 20
537.8411947272
 30
0.0
  0
INSERT
  5
117
330
1F
100
AcDbEntity
  8
SLD-0_0
100
AcDbBlockReference
  2
SW_NOTE_7
 10
2543.6869172013
 20
712.9530046782
 30
0.0
  0
INSERT
  5
11D
330
1F
100
AcDbEntity
  8
SLD-0_0
100
AcDbBlockReference
  2
SW_NOTE_8
 10
1889.8521735711
 20
802.3986054446
 30
0.0
  0
INSERT
  5
123
330
1F
100
AcDbEntity
  8
SLD-0_0
100
AcDbBlockReference
  2
SW_NOTE_9
 10
1336.8012054523
 20
627.2867954935
 30
0.0
  0
INSERT
  5
129
330
1F
100
AcDbEntity
  8
SLD-0_0
100
AcDbBlockReference
  2
SW_NOTE_10
 10
1126.4150740723
 20
1019.0837227941
 30
0.0
  0
INSERT
  5
15B
330
1F
100
AcDbEntity
  8
CAJETIN
100
AcDbBlockReference
  2
SW_TABLEANNOTATION_0
 10
1126.1195170451
 20
342.6684072761
 30
0.0
  0
ARC
  5
15C
330
1F
100
AcDbEntity
  8
0
  6
Continuous
 62
     7
100
AcDbCircle
 10
668.2500515996
 20
117.265564545
 30
0.0
 40
5.000000000000091
100
AcDbArc
 50
255.8914026996
 51
303.5884550614
  0
LINE
  5
15D
330
1F
100
AcDbEntity
  8
0
  6
Continuous
 62
     7
100
AcDbLine
 10
271.6084109961
 20
211.8028186082
 30
0.0
 11
667.031248902
 21
112.4163872968
 31
0.0
  0
LINE
  5
15E
330
1F
100
AcDbEntity
  8
0
  6
Continuous
 62
     7
100
AcDbLine
 10
671.0161701332
 20
113.1004008918
 30
0.0
 11
834.303938139
 21
221.5411151103
 31
0.0
  0
LINE
  5
15F
330
1F
100
AcDbEntity
  8
0
  6
Continuous
 62
     7
100
AcDbLine
 10
836.5331761796
 20
225.9217148248
 30
0.0
 11
836.3770806752
 21
229.5411307192
 31
0.0
  0
ARC
  5
160
330
1F
100
AcDbEntity
  8
0
  6
Continuous
 62
     7
100
AcDbCircle
 10
831.5378196054
 20
225.7062787636
 30
0.0
 40
5.000000000000023
100
AcDbArc
 50
303.5884550614
 51
2.4694799163
  0
LINE
  5
161
330
1F
100
AcDbEntity
  8
0
  6
Continuous
 62
     7
100
AcDbLine
 10
267.675761615
 20
220.0559756896
 30
0.0
 11
267.8318571194
 21
216.4365597952
 31
0.0
  0
ARC
  5
162
330
1F
100
AcDbEntity
  8
0
  6
Continuous
 62
     7
100
AcDbCircle
 10
272.8272136936
 20
216.6519958564
 30
0.0
 40
5.000000000000046
100
AcDbArc
 50
182.4694799163
 51
255.8914026996
  0
ARC
  5
163
330
1F
100
AcDbEntity
  8
0
  6
Continuous
 62
     7
100
AcDbCircle
 10
809.1051305772
 20
745.8572691897
 30
0.0
 40
5.00000000000005
100
AcDbArc
 50
2.4694799163
 51
75.8914026996
  0
LINE
  5
164
330
1F
100
AcDbEntity
  8
0
  6
Continuous
 62
     7
100
AcDbLine
 10
814.2565826558
 20
742.4532893565
 30
0.0
 11
814.1004871514
 21
746.0727052509
 31
0.0
  0
LINE
  5
165
330
1F
100
AcDbEntity
  8
0
  6
Continuous
 62
     7
100
AcDbLine
 10
810.3239332747
 20
750.7064464379
 30
0.0
 11
414.9010953688
 21
850.0928777493
 31
0.0
  0
ARC
  5
166
330
1F
100
AcDbEntity
  8
0
  6
Continuous
 62
     7
100
AcDbCircle
 10
250.3945246654
 20
736.8029862826
 30
0.0
 40
5.000000000000023
100
AcDbArc
 50
123.5884550614
 51
182.4694799163
  0
LINE
  5
167
330
1F
100
AcDbEntity
  8
0
  6
Continuous
 62
     7
100
AcDbLine
 10
245.3991680912
 20
736.5875502214
 30
0.0
 11
245.5552635956
 21
732.968134327
 31
0.0
  0
LINE
  5
168
330
1F
100
AcDbEntity
  8
0
  6
Continuous
 62
     7
100
AcDbLine
 10
410.9161741377
 20
849.4088641543
 30
0.0
 11
247.6284061318
 21
740.9681499358
 31
0.0
  0
ARC
  5
169
330
1F
100
AcDbEntity
  8
0
  6
Continuous
 62
     7
100
AcDbCircle
 10
413.6822926713
 20
845.2437005011
 30
0.0
 40
5.000000000000165
100
AcDbArc
 50
75.8914026996
 51
123.5884550614
  0
LINE
  5
16A
330
1F
100
AcDbEntity
  8
0
  6
Continuous
 62
     7
100
AcDbLine
 10
146.2114481669
 20
571.5550356422
 30
0.0
 11
154.7967009098
 21
372.4871614501
 31
0.0
  0
LINE
  5
16B
330
1F
100
AcDbEntity
  8
0
  6
Continuous
 62
     7
100
AcDbLine
 10
959.843126762
 20
322.5688261644
 30
0.0
 11
951.2578740191
 21
521.6367003565
 31
0.0
  0
LWPOLYLINE
  5
16C
330
1F
100
AcDbEntity
  8
0
  6
Continuous
 62
     7
100
AcDbPolyline
 90
        9
 70
   128
 43
0.0
 10
835.5222773775
 20
228.2849990421
 10
835.9881949176
 20
228.6672514333
 10
836.2770883676
 20
229.0748074283
 10
836.3778557142
 20
229.4920048789
 10
836.2866245247
 20
229.9028111209
 10
836.0069007626
 20
230.291439101
 10
835.5494340553
 20
230.6429540636
 10
834.9318045917
 20
230.9438474861
 10
834.1777475258
 20
231.1825562028
  0
LINE
  5
16D
330
1F
100
AcDbEntity
  8
0
  6
Continuous
 62
     7
100
AcDbLine
 10
835.5222773775
 20
228.2849990421
 30
0.0
 11
672.2345093716
 21
119.8442848236
 31
0.0
  0
ARC
  5
16E
330
1F
100
AcDbEntity
  8
0
  6
Continuous
 62
     7
100
AcDbCircle
 10
667.6998740459
 20
128.4990618975
 30
0.0
 40
9.770777028295793
100
AcDbArc
 50
255.7691634382
 51
297.6521083563
  0
LINE
  5
16F
330
1F
100
AcDbEntity
  8
0
  6
Continuous
 62
     7
100
AcDbLine
 10
665.2979326704
 20
119.0281188946
 30
0.0
 11
269.8750947645
 21
218.414550206
 31
0.0
  0
LWPOLYLINE
  5
170
330
1F
100
AcDbEntity
  8
0
  6
Continuous
 62
     7
100
AcDbPolyline
 90
        9
 70
   128
 43
0.0
 10
268.5305649127
 20
221.3121073667
 10
268.0646473726
 20
220.9298549755
 10
267.7757539226
 20
220.5222989805
 10
267.6749865761
 20
220.1051015299
 10
267.7662177655
 20
219.6942952879
 10
268.0459415276
 20
219.3056673078
 10
268.5034082349
 20
218.9541523452
 10
269.1210376985
 20
218.6532589227
 10
269.8750947645
 20
218.414550206
  0
LINE
  5
171
330
1F
100
AcDbEntity
  8
0
  6
Continuous
 62
     7
100
AcDbLine
 10
268.5305649127
 20
221.3121073667
 30
0.0
 11
325.9104723824
 21
259.4185633725
 31
0.0
  0
LINE
  5
172
330
1F
100
AcDbEntity
  8
0
  6
Continuous
 62
     7
100
AcDbLine
 10
365.4410787662
 20
285.6711556034
 30
0.0
 11
408.5859880101
 21
314.3240353043
 31
0.0
  0
LINE
  5
173
330
1F
100
AcDbEntity
  8
0
  6
Continuous
 62
     7
100
AcDbLine
 10
425.7403424721
 20
325.7163794617
 30
0.0
 11
431.8183329186
 21
329.7528215852
 31
0.0
  0
ARC
  5
174
330
1F
100
AcDbEntity
  8
0
  6
Continuous
 62
     7
100
AcDbCircle
 10
436.3529682443
 20
321.0980445113
 30
0.0
 40
9.77077702829602
100
AcDbArc
 50
75.7691634382
 51
117.6521083563
  0
LINE
  5
175
330
1F
100
AcDbEntity
  8
0
  6
Continuous
 62
     7
100
AcDbLine
 10
438.7549096198
 20
330.5689875142
 30
0.0
 11
528.4877255414
 21
308.0153474837
 31
0.0
  0
LINE
  5
176
330
1F
100
AcDbEntity
  8
0
  6
Continuous
 62
     7
100
AcDbLine
 10
582.1294540074
 20
294.5329194332
 30
0.0
 11
784.1199464402
 21
243.7641921941
 31
0.0
  0
LINE
  5
177
330
1F
100
AcDbEntity
  8
0
  6
Continuous
 62
     7
100
AcDbLine
 10
826.266409857
 20
233.1710089233
 30
0.0
 11
834.1777475258
 21
231.1825562028
 31
0.0
  0
ARC
  5
178
330
1F
100
AcDbEntity
  8
0
  6
Continuous
 62
     7
100
AcDbCircle
 10
645.5793760265
 20
641.4112205349
 30
0.0
 40
9.770777028294967
100
AcDbArc
 50
255.7691634382
 51
297.6521083563
  0
LINE
  5
179
330
1F
100
AcDbEntity
  8
0
  6
Continuous
 62
     7
100
AcDbLine
 10
643.177434651
 20
631.9402775319
 30
0.0
 11
247.7545967451
 21
731.3267088433
 31
0.0
  0
LINE
  5
17A
330
1F
100
AcDbEntity
  8
0
  6
Continuous
 62
     7
100
AcDbLine
 10
813.4017793581
 20
741.1971576795
 30
0.0
 11
650.1140113522
 21
632.7564434609
 31
0.0
  0
ARC
  5
17B
330
1F
100
AcDbEntity
  8
0
  6
Continuous
 62
     7
100
AcDbCircle
 10
812.7859136063
 20
742.5351717111
 30
0.0
 40
1.47294676524506
100
AcDbArc
 50
294.7158342655
 51
356.8132364239
  0
LWPOLYLINE
  5
17C
330
1F
100
AcDbEntity
  8
0
  6
Continuous
 62
     7
100
AcDbPolyline
 90
        6
 70
   128
 43
0.0
 10
247.7545967451
 20
731.3267088433
 10
247.0005396791
 20
731.5654175601
 10
246.3829102155
 20
731.8663109825
 10
245.9254435082
 20
732.2178259452
 10
245.6457197461
 20
732.6064539252
 10
245.5552635956
 20
732.968134327
  0
ARC
  5
17D
330
1F
100
AcDbEntity
  8
0
  6
Continuous
 62
     7
100
AcDbCircle
 10
314.8886547962
 20
672.5971044638
 30
0.0
 40
9.770777028296841
100
AcDbArc
 50
75.7691634382
 51
117.6521083563
  0
LINE
  5
17E
330
1F
100
AcDbEntity
  8
0
  6
Continuous
 62
     7
100
AcDbLine
 10
320.603038793
 20
681.2354909741
 30
0.0
 11
317.2905961718
 21
682.0680474668
 31
0.0
  0
LINE
  5
17F
330
1F
100
AcDbEntity
  8
0
  6
Continuous
 62
     7
100
AcDbLine
 10
320.603038793
 20
681.2354909741
 30
0.0
 11
151.7232239376
 21
569.0810536659
 31
0.0
  0
LINE
  5
180
330
1F
100
AcDbEntity
  8
0
  6
Continuous
 62
     7
100
AcDbLine
 10
151.7232239376
 20
569.0810536659
 30
0.0
 11
148.4107813164
 21
569.9136101586
 31
0.0
  0
LWPOLYLINE
  5
181
330
1F
100
AcDbEntity
  8
0
  6
Continuous
 62
     7
100
AcDbPolyline
 90
        9
 70
   128
 43
0.0
 10
147.0662514647
 20
572.8111673192
 10
146.6003339245
 20
572.4289149281
 10
146.3114404746
 20
572.021358933
 10
146.210673128
 20
571.6041614825
 10
146.3019043175
 20
571.1933552404
 10
146.5816280795
 20
570.8047272604
 10
147.0390947869
 20
570.4532122977
 10
147.6567242505
 20
570.1523188753
 10
148.4107813164
 20
569.9136101586
  0
LINE
  5
182
330
1F
100
AcDbEntity
  8
0
  6
Continuous
 62
     7
100
AcDbLine
 10
310.3540194705
 20
681.2518815378
 30
0.0
 11
147.0662514647
 21
572.8111673192
 31
0.0
  0
LINE
  5
183
330
1F
100
AcDbEntity
  8
0
  6
Continuous
 62
     7
100
AcDbLine
 10
151.7232239376
 20
569.0810536659
 30
0.0
 11
160.3084766805
 21
370.0131794739
 31
0.0
  0
LINE
  5
184
330
1F
100
AcDbEntity
  8
0
  6
Continuous
 62
     7
100
AcDbLine
 10
160.3084766805
 20
370.0131794739
 30
0.0
 11
156.9960340593
 21
370.8457359665
 31
0.0
  0
LINE
  5
185
330
1F
100
AcDbEntity
  8
0
  6
Continuous
 62
     7
100
AcDbLine
 10
329.1882915359
 20
482.1676167821
 30
0.0
 11
320.603038793
 21
681.2354909741
 31
0.0
  0
LINE
  5
186
330
1F
100
AcDbEntity
  8
0
  6
Continuous
 62
     7
100
AcDbLine
 10
160.3084766805
 20
370.0131794739
 30
0.0
 11
188.311664895
 21
388.6103209957
 31
0.0
  0
LINE
  5
187
330
1F
100
AcDbEntity
  8
0
  6
Continuous
 62
     7
100
AcDbLine
 10
204.9521586947
 20
399.6614061726
 30
0.0
 11
279.3568714757
 21
449.0741717075
 31
0.0
  0
LINE
  5
188
330
1F
100
AcDbEntity
  8
0
  6
Continuous
 62
     7
100
AcDbLine
 10
305.0957151498
 20
466.1675438888
 30
0.0
 11
329.1882915359
 21
482.1676167821
 31
0.0
  0
LWPOLYLINE
  5
189
330
1F
100
AcDbEntity
  8
0
  6
Continuous
 62
     7
100
AcDbPolyline
 90
        6
 70
   128
 43
0.0
 10
156.9960340593
 20
370.8457359665
 10
156.2419769933
 20
371.0844446832
 10
155.6243475297
 20
371.3853381057
 10
155.1668808224
 20
371.7368530684
 10
154.8871570603
 20
372.1254810484
 10
154.7967009098
 20
372.4871614501
  0
ARC
  5
18A
330
1F
100
AcDbEntity
  8
0
  6
Continuous
 62
     7
100
AcDbCircle
 10
782.5806673899
 20
420.5946315348
 30
0.0
 40
9.770777028296886
100
AcDbArc
 50
255.7691634382
 51
297.6521083563
  0
LINE
  5
18B
330
1F
100
AcDbEntity
  8
0
  6
Continuous
 62
     7
100
AcDbLine
 10
780.1787260143
 20
411.1236885319
 30
0.0
 11
776.8662833931
 21
411.9562450246
 31
0.0
  0
LINE
  5
18C
330
1F
100
AcDbEntity
  8
0
  6
Continuous
 62
     7
100
AcDbLine
 10
945.7460982485
 20
524.1106823328
 30
0.0
 11
776.8662833931
 21
411.9562450246
 31
0.0
  0
LINE
  5
18D
330
1F
100
AcDbEntity
  8
0
  6
Continuous
 62
     7
100
AcDbLine
 10
949.0585408697
 20
523.2781258401
 30
0.0
 11
945.7460982485
 21
524.1106823328
 31
0.0
  0
LWPOLYLINE
  5
18E
330
1F
100
AcDbEntity
  8
0
  6
Continuous
 62
     7
100
AcDbPolyline
 90
        9
 70
   128
 43
0.0
 10
950.4030707214
 20
520.3805686794
 10
950.8689882616
 20
520.7628210706
 10
951.1578817115
 20
521.1703770656
 10
951.2586490581
 20
521.5875745162
 10
951.1674178686
 20
521.9983807582
 10
950.8876941066
 20
522.3870087383
 10
950.4302273992
 20
522.7385237009
 10
949.8125979356
 20
523.0394171234
 10
949.0585408697
 20
523.2781258401
  0
LINE
  5
18F
330
1F
100
AcDbEntity
  8
0
  6
Continuous
 62
     7
100
AcDbLine
 10
950.4030707214
 20
520.3805686794
 30
0.0
 11
787.1153027156
 21
411.9398544609
 31
0.0
  0
ARC
  5
190
330
1F
100
AcDbEntity
  8
0
  6
Continuous
 62
     7
100
AcDbCircle
 10
791.1659201327
 20
221.5267573428
 30
0.0
 40
9.770777028294788
100
AcDbArc
 50
255.7691634382
 51
297.6521083563
  0
LINE
  5
191
330
1F
100
AcDbEntity
  8
0
  6
Continuous
 62
     7
100
AcDbLine
 10
776.8662833931
 20
411.9562450246
 30
0.0
 11
785.451536136
 21
212.8883708325
 31
0.0
  0
LINE
  5
192
330
1F
100
AcDbEntity
  8
0
  6
Continuous
 62
     7
100
AcDbLine
 10
788.7639787572
 20
212.0558143399
 30
0.0
 11
785.451536136
 21
212.8883708325
 31
0.0
  0
LINE
  5
193
330
1F
100
AcDbEntity
  8
0
  6
Continuous
 62
     7
100
AcDbLine
 10
795.7005554584
 20
212.8719802689
 30
0.0
 11
958.9883234643
 21
321.3126944874
 31
0.0
  0
ARC
  5
194
330
1F
100
AcDbEntity
  8
0
  6
Continuous
 62
     7
100
AcDbCircle
 10
958.3724577125
 20
322.6507085191
 30
0.0
 40
1.472946765243527
100
AcDbArc
 50
294.7158342654
 51
356.813236424
  0
LINE
  5
195
330
1F
100
AcDbEntity
  8
0
  6
Continuous
 62
     7
100
AcDbLine
 10
521.1782629377
 20
477.5012351553
 30
0.0
 11
528.6312588354
 21
475.6279830468
 31
0.0
  0
LINE
  5
196
330
1F
100
AcDbEntity
  8
0
  6
Continuous
 62
     7
100
AcDbLine
 10
521.1782629377
 20
477.5012351553
 30
0.0
 11
575.7007197205
 21
513.7100352796
 31
0.0
  0
LINE
  5
197
330
1F
100
AcDbEntity
  8
0
  6
Continuous
 62
     7
100
AcDbLine
 10
575.7007197205
 20
513.7100352796
 30
0.0
 11
583.1537156182
 21
511.8367831711
 31
0.0
  0
LINE
  5
198
330
1F
100
AcDbEntity
  8
0
  6
Continuous
 62
     7
100
AcDbLine
 10
528.6312588354
 20
475.6279830468
 30
0.0
 11
583.1537156182
 21
511.8367831711
 31
0.0
  0
LINE
  5
199
330
1F
100
AcDbEntity
  8
0
  6
Continuous
 62
     7
100
AcDbLine
 10
529.7635156806
 20
278.4333609632
 30
0.0
 11
537.2165115783
 21
276.5601088547
 31
0.0
  0
LINE
  5
19A
330
1F
100
AcDbEntity
  8
0
  6
Continuous
 62
     7
100
AcDbLine
 10
529.7635156806
 20
278.4333609632
 30
0.0
 11
525.4611346633
 21
378.1934808707
 31
0.0
  0
LINE
  5
19B
330
1F
100
AcDbEntity
  8
0
  6
Continuous
 62
     7
100
AcDbLine
 10
524.0403481225
 20
411.1375262976
 30
0.0
 11
521.1782629377
 21
477.5012351553
 31
0.0
  0
LINE
  5
19C
330
1F
100
AcDbEntity
  8
0
  6
Continuous
 62
     7
100
AcDbLine
 10
537.2165115783
 20
276.5601088547
 30
0.0
 11
533.1335310794
 21
371.2329475718
 31
0.0
  0
LINE
  5
19D
330
1F
100
AcDbEntity
  8
0
  6
Continuous
 62
     7
100
AcDbLine
 10
531.4933440202
 20
409.2642741891
 30
0.0
 11
528.6312588354
 21
475.6279830468
 31
0.0
  0
LINE
  5
19E
330
1F
100
AcDbEntity
  8
0
  6
Continuous
 62
     7
100
AcDbLine
 10
591.7389683611
 20
312.7689089791
 30
0.0
 11
581.6324481493
 21
306.057087981
 31
0.0
  0
LINE
  5
19F
330
1F
100
AcDbEntity
  8
0
  6
Continuous
 62
     7
100
AcDbLine
 10
566.6125780588
 20
296.0822719861
 30
0.0
 11
537.2165115783
 21
276.5601088547
 31
0.0
  0
LINE
  5
1A0
330
1F
100
AcDbEntity
  8
0
  6
Continuous
 62
     7
100
AcDbLine
 10
583.1537156182
 20
511.8367831711
 30
0.0
 11
591.7389683611
 21
312.7689089791
 31
0.0
  0
LINE
  5
1A1
330
1F
100
AcDbEntity
  8
0
  6
Continuous
 62
     7
100
AcDbLine
 10
371.3463857332
 20
515.1603032326
 30
0.0
 11
378.7993816309
 21
513.2870511242
 31
0.0
  0
LINE
  5
1A2
330
1F
100
AcDbEntity
  8
0
  6
Continuous
 62
     7
100
AcDbLine
 10
371.3463857332
 20
515.1603032326
 30
0.0
 11
425.8688425159
 21
551.369103357
 31
0.0
  0
LINE
  5
1A3
330
1F
100
AcDbEntity
  8
0
  6
Continuous
 62
     7
100
AcDbLine
 10
425.8688425159
 20
551.369103357
 30
0.0
 11
433.3218384136
 21
549.4958512485
 31
0.0
  0
LINE
  5
1A4
330
1F
100
AcDbEntity
  8
0
  6
Continuous
 62
     7
100
AcDbLine
 10
378.7993816309
 20
513.2870511242
 30
0.0
 11
433.3218384136
 21
549.4958512485
 31
0.0
  0
LINE
  5
1A5
330
1F
100
AcDbEntity
  8
0
  6
Continuous
 62
     7
100
AcDbLine
 10
441.9070911565
 20
350.4279770565
 30
0.0
 11
424.3869382449
 21
338.7927032196
 31
0.0
  0
LINE
  5
1A6
330
1F
100
AcDbEntity
  8
0
  6
Continuous
 62
     7
100
AcDbLine
 10
408.0000605197
 20
327.9100465085
 30
0.0
 11
387.3846343737
 21
314.2191769321
 31
0.0
  0
LINE
  5
1A7
330
1F
100
AcDbEntity
  8
0
  6
Continuous
 62
     7
100
AcDbLine
 10
387.3846343737
 20
314.2191769321
 30
0.0
 11
378.7993816309
 21
513.2870511242
 31
0.0
  0
LINE
  5
1A8
330
1F
100
AcDbEntity
  8
0
  6
Continuous
 62
     7
100
AcDbLine
 10
433.3218384136
 20
549.4958512485
 30
0.0
 11
438.3601063069
 21
432.6725835873
 31
0.0
  0
LINE
  5
1A9
330
1F
100
AcDbEntity
  8
0
  6
Continuous
 62
     7
100
AcDbLine
 10
440.3808797418
 20
385.8165289133
 30
0.0
 11
441.9070911565
 21
350.4279770565
 31
0.0
  0
LINE
  5
1AA
330
1F
100
AcDbEntity
  8
0
  6
Continuous
 62
     7
100
AcDbLine
 10
379.931638476
 20
316.0924290406
 30
0.0
 11
387.3846343737
 21
314.2191769321
 31
0.0
  0
LINE
  5
1AB
330
1F
100
AcDbEntity
  8
0
  6
Continuous
 62
     7
100
AcDbLine
 10
379.931638476
 20
316.0924290406
 30
0.0
 11
371.3463857332
 21
515.1603032326
 31
0.0
  0
LINE
  5
1AC
330
1F
100
AcDbEntity
  8
0
  6
Continuous
 62
     7
100
AcDbLine
 10
463.117109713
 20
397.6671372103
 30
0.0
 11
476.7046462963
 21
394.2520163779
 31
0.0
  0
LINE
  5
1AD
330
1F
100
AcDbEntity
  8
0
  6
Continuous
 62
     7
100
AcDbLine
 10
496.0324002288
 20
439.3067292368
 30
0.0
 11
472.9512698409
 21
423.9783657298
 31
0.0
  0
LINE
  5
1AE
330
1F
100
AcDbEntity
  8
0
  6
Continuous
 62
     7
100
AcDbLine
 10
523.1190991582
 20
432.498699744
 30
0.0
 11
496.0324002288
 21
439.3067292368
 31
0.0
  0
LINE
  5
1AF
330
1F
100
AcDbEntity
  8
0
  6
Continuous
 62
     7
100
AcDbLine
 10
476.7046462963
 20
394.2520163779
 30
0.0
 11
482.5154072362
 21
398.1109892464
 31
0.0
  0
LINE
  5
1B0
330
1F
100
AcDbEntity
  8
0
  6
Continuous
 62
     7
100
AcDbLine
 10
508.1459726912
 20
415.1324529953
 30
0.0
 11
523.4302970651
 21
425.2828951974
 31
0.0
  0
LINE
  5
1B1
330
1F
100
AcDbEntity
  8
0
  6
Continuous
 62
     7
100
AcDbLine
 10
476.7046462963
 20
394.2520163779
 30
0.0
 11
477.0558611812
 21
386.1083306155
 31
0.0
  0
LINE
  5
1B2
330
1F
100
AcDbEntity
  8
0
  6
Continuous
 62
     7
100
AcDbLine
 10
449.6018622733
 20
393.0086780794
 30
0.0
 11
477.0558611812
 21
386.1083306155
 31
0.0
  0
LINE
  5
1B3
330
1F
100
AcDbEntity
  8
0
  6
Continuous
 62
     7
100
AcDbLine
 10
477.0558611812
 20
386.1083306155
 30
0.0
 11
492.1231572027
 21
396.114642551
 31
0.0
  0
LINE
  5
1B4
330
1F
100
AcDbEntity
  8
0
  6
Continuous
 62
     7
100
AcDbLine
 10
517.2965858579
 20
412.8325180908
 30
0.0
 11
523.7815119501
 21
417.139209435
 31
0.0
  0
LINE
  5
1B5
330
1F
100
AcDbEntity
  8
0
  6
Continuous
 62
     7
100
AcDbLine
 10
629.5998214721
 20
613.5080874696
 30
0.0
 11
637.0528173698
 21
611.6348353611
 31
0.0
  0
LINE
  5
1B6
330
1F
100
AcDbEntity
  8
0
  6
Continuous
 62
     7
100
AcDbLine
 10
629.5998214721
 20
613.5080874696
 30
0.0
 11
657.5600557196
 21
632.076702918
 31
0.0
  0
LINE
  5
1B7
330
1F
100
AcDbEntity
  8
0
  6
Continuous
 62
     7
100
AcDbLine
 10
657.5600557196
 20
632.076702918
 30
0.0
 11
665.0130516173
 21
630.2034508095
 31
0.0
  0
LINE
  5
1B8
330
1F
100
AcDbEntity
  8
0
  6
Continuous
 62
     7
100
AcDbLine
 10
637.0528173698
 20
611.6348353611
 30
0.0
 11
665.0130516173
 21
630.2034508095
 31
0.0
  0
LINE
  5
1B9
330
1F
100
AcDbEntity
  8
0
  6
Continuous
 62
     7
100
AcDbLine
 10
665.0130516173
 20
630.2034508095
 30
0.0
 11
670.8801709297
 21
494.1614490049
 31
0.0
  0
LINE
  5
1BA
330
1F
100
AcDbEntity
  8
0
  6
Continuous
 62
     7
100
AcDbLine
 10
671.7335818242
 20
474.3732496724
 30
0.0
 11
673.2349122193
 21
439.5616187097
 31
0.0
  0
LINE
  5
1BB
330
1F
100
AcDbEntity
  8
0
  6
Continuous
 62
     7
100
AcDbLine
 10
661.3212900189
 20
422.9823130883
 30
0.0
 11
645.6380701126
 21
412.5669611691
 31
0.0
  0
LINE
  5
1BC
330
1F
100
AcDbEntity
  8
0
  6
Continuous
 62
     7
100
AcDbLine
 10
645.6380701126
 20
412.5669611691
 30
0.0
 11
645.0120977338
 21
427.0815007512
 31
0.0
  0
LINE
  5
1BD
330
1F
100
AcDbEntity
  8
0
  6
Continuous
 62
     7
100
AcDbLine
 10
644.1586868392
 20
446.8697000837
 30
0.0
 11
642.7473682616
 21
479.5942100615
 31
0.0
  0
LINE
  5
1BE
330
1F
100
AcDbEntity
  8
0
  6
Continuous
 62
     7
100
AcDbLine
 10
641.8039455496
 20
501.4695303788
 30
0.0
 11
641.5210511837
 21
508.0290553839
 31
0.0
  0
LINE
  5
1BF
330
1F
100
AcDbEntity
  8
0
  6
Continuous
 62
     7
100
AcDbLine
 10
641.5210511837
 20
508.0290553839
 30
0.0
 11
655.5011683074
 21
517.3133631081
 31
0.0
  0
LINE
  5
1C0
330
1F
100
AcDbEntity
  8
0
  6
Continuous
 62
     7
100
AcDbLine
 10
655.5011683074
 20
517.3133631081
 30
0.0
 11
655.1499534225
 21
525.4570488705
 31
0.0
  0
LINE
  5
1C1
330
1F
100
AcDbEntity
  8
0
  6
Continuous
 62
     7
100
AcDbLine
 10
655.1499534225
 20
525.4570488705
 30
0.0
 11
641.1698362987
 21
516.1727411463
 31
0.0
  0
LINE
  5
1C2
330
1F
100
AcDbEntity
  8
0
  6
Continuous
 62
     7
100
AcDbLine
 10
641.1698362987
 20
516.1727411463
 30
0.0
 11
637.0528173698
 21
611.6348353611
 31
0.0
  0
LINE
  5
1C3
330
1F
100
AcDbEntity
  8
0
  6
Continuous
 62
     7
100
AcDbLine
 10
633.716840401
 20
518.0459932548
 30
0.0
 11
641.1698362987
 21
516.1727411463
 31
0.0
  0
LINE
  5
1C4
330
1F
100
AcDbEntity
  8
0
  6
Continuous
 62
     7
100
AcDbLine
 10
633.716840401
 20
518.0459932548
 30
0.0
 11
629.5998214721
 21
613.5080874696
 31
0.0
  0
LINE
  5
1C5
330
1F
100
AcDbEntity
  8
0
  6
Continuous
 62
     7
100
AcDbLine
 10
634.068055286
 20
509.9023074924
 30
0.0
 11
641.5210511837
 21
508.0290553839
 31
0.0
  0
LINE
  5
1C6
330
1F
100
AcDbEntity
  8
0
  6
Continuous
 62
     7
100
AcDbLine
 10
648.0481724097
 20
519.1866152166
 30
0.0
 11
655.5011683074
 21
517.3133631081
 31
0.0
  0
LINE
  5
1C7
330
1F
100
AcDbEntity
  8
0
  6
Continuous
 62
     7
100
AcDbLine
 10
634.068055286
 20
509.9023074924
 30
0.0
 11
648.0481724097
 21
519.1866152166
 31
0.0
  0
LINE
  5
1C8
330
1F
100
AcDbEntity
  8
0
  6
Continuous
 62
     7
100
AcDbLine
 10
638.1850742149
 20
414.4402132776
 30
0.0
 11
645.6380701126
 21
412.5669611691
 31
0.0
  0
LINE
  5
1C9
330
1F
100
AcDbEntity
  8
0
  6
Continuous
 62
     7
100
AcDbLine
 10
638.1850742149
 20
414.4402132776
 30
0.0
 11
637.5591018361
 21
428.9547528597
 31
0.0
  0
LINE
  5
1CA
330
1F
100
AcDbEntity
  8
0
  6
Continuous
 62
     7
100
AcDbLine
 10
636.7056909415
 20
448.7429521922
 30
0.0
 11
635.3826914596
 21
479.4195906442
 31
0.0
  0
LINE
  5
1CB
330
1F
100
AcDbEntity
  8
0
  6
Continuous
 62
     7
100
AcDbLine
 10
634.3509496519
 20
503.3427824873
 30
0.0
 11
634.068055286
 21
509.9023074924
 31
0.0
  0
LINE
  5
1CC
330
1F
100
AcDbEntity
  8
0
  6
Continuous
 62
     7
100
AcDbLine
 10
648.0481724097
 20
519.1866152166
 30
0.0
 11
647.9830151965
 21
520.6974278071
 31
0.0
  0
LINE
  5
1CD
330
1F
100
AcDbEntity
  8
0
  6
Continuous
 62
     7
100
AcDbLine
 10
611.3026366747
 20
496.3376947219
 30
0.0
 11
603.849640777
 21
498.2109468304
 31
0.0
  0
LINE
  5
1CE
330
1F
100
AcDbEntity
  8
0
  6
Continuous
 62
     7
100
AcDbLine
 10
611.3026366747
 20
496.3376947219
 30
0.0
 11
625.2827537985
 21
505.6220024461
 31
0.0
  0
LINE
  5
1CF
330
1F
100
AcDbEntity
  8
0
  6
Continuous
 62
     7
100
AcDbLine
 10
815.9552321814
 20
457.6979693372
 30
0.0
 11
625.2827537985
 21
505.6220024461
 31
0.0
  0
LINE
  5
1D0
330
1F
100
AcDbEntity
  8
0
  6
Continuous
 62
     7
100
AcDbLine
 10
744.3770325076
 20
410.1623137894
 30
0.0
 11
815.9552321814
 21
457.6979693372
 31
0.0
  0
LINE
  5
1D1
330
1F
100
AcDbEntity
  8
0
  6
Continuous
 62
     7
100
AcDbLine
 10
744.3770325076
 20
410.1623137894
 30
0.0
 11
585.8199460749
 21
450.0143948253
 31
0.0
  0
LINE
  5
1D2
330
1F
100
AcDbEntity
  8
0
  6
Continuous
 62
     7
100
AcDbLine
 10
521.6683106859
 20
466.138405613
 30
0.0
 11
435.9880688703
 21
487.6734629027
 31
0.0
  0
LINE
  5
1D3
330
1F
100
AcDbEntity
  8
0
  6
Continuous
 62
     7
100
AcDbLine
 10
371.8364334814
 20
503.7974736904
 30
0.0
 11
355.5790798441
 21
507.8836321155
 31
0.0
  0
LINE
  5
1D4
330
1F
100
AcDbEntity
  8
0
  6
Continuous
 62
     7
100
AcDbLine
 10
355.5790798441
 20
507.8836321155
 30
0.0
 11
427.1572795179
 21
555.4192876633
 31
0.0
  0
LINE
  5
1D5
330
1F
100
AcDbEntity
  8
0
  6
Continuous
 62
     7
100
AcDbLine
 10
617.8297579008
 20
507.4952545545
 30
0.0
 11
427.1572795179
 21
555.4192876633
 31
0.0
  0
LINE
  5
1D6
330
1F
100
AcDbEntity
  8
0
  6
Continuous
 62
     7
100
AcDbLine
 10
603.849640777
 20
498.2109468304
 30
0.0
 11
617.8297579008
 21
507.4952545545
 31
0.0
  0
LINE
  5
1D7
330
1F
100
AcDbEntity
  8
0
  6
Continuous
 62
     7
100
AcDbLine
 10
658.6607897562
 20
485.7144041586
 30
0.0
 11
753.6864874519
 21
461.8304397754
 31
0.0
  0
LWPOLYLINE
  5
1D8
330
1F
100
AcDbEntity
  8
0
  6
Continuous
 62
     7
100
AcDbPolyline
 90
       23
 70
   128
 43
0.0
 10
658.6607897562
 20
485.7144041586
 10
656.3919824864
 20
486.2357389445
 10
654.0278773299
 20
486.6834510719
 10
651.5805212247
 20
487.0552591023
 10
649.0623853365
 20
487.3492683872
 10
646.4863015085
 20
487.5639807228
 10
643.8653968735
 20
487.6983019841
 10
641.2130269607
 20
487.7515477009
 10
638.5427076393
 20
487.7234465451
 10
635.8680462443
 20
487.6141417138
 10
633.2026722372
 20
487.4241901994
 10
630.560167753
 20
487.1545599512
 10
627.9539983887
 20
486.8066249432
 10
625.3974445862
 20
486.3821581724
 10
622.9035339574
 20
485.8833226242
 10
620.4849748995
 20
485.3126602502
 10
618.1540918348
 20
484.6730790151
 10
615.9227624094
 20
483.9678380782
 10
613.8023569663
 20
483.2005311857
 10
611.8036806057
 20
482.3750683576
 10
609.9369181243
 20
481.4956559633
 10
608.2115821157
 20
480.5667752868
 10
606.6364644968
 20
479.593159691
  0
LINE
  5
1D9
330
1F
100
AcDbEntity
  8
0
  6
Continuous
 62
     7
100
AcDbLine
 10
606.6364644968
 20
479.593159691
 30
0.0
 11
602.1628270172
 21
476.6221812193
 31
0.0
  0
LWPOLYLINE
  5
1DA
330
1F
100
AcDbEntity
  8
0
  6
Continuous
 62
     7
100
AcDbPolyline
 90
       23
 70
   128
 43
0.0
 10
602.1628270172
 20
476.6221812193
 10
600.7459542262
 20
475.6087920262
 10
599.4945463222
 20
474.5607932348
 10
598.4149801929
 20
473.4835252068
 10
597.51275706
 20
472.3824774531
 10
596.7924744456
 20
471.2632606605
 10
596.257802745
 20
470.1315781015
 10
595.9114665225
 20
468.9931965709
 10
595.755230628
 20
467.8539169999
 10
595.789891204
 20
466.7195448963
 10
596.0152716281
 20
465.5958607601
 10
596.4302234133
 20
464.4885906283
 10
597.0326320604
 20
463.4033768954
 10
597.8194278331
 20
462.3457495621
 10
598.7866014003
 20
461.3210980548
 10
599.9292242674
 20
460.3346437626
 10
601.2414738901
 20
459.3914134305
 10
602.7166633451
 20
458.4962135441
 10
604.3472754051
 20
457.6536058368
 10
606.1250008448
 20
456.8678840443
 10
608.0407807829
 20
456.1430520249
 10
610.084852844
 20
455.4828033562
 10
612.2468009052
 20
454.8905025143
  0
LINE
  5
1DB
330
1F
100
AcDbEntity
  8
0
  6
Continuous
 62
     7
100
AcDbLine
 10
612.2468009052
 20
454.8905025143
 30
0.0
 11
707.272498601
 21
431.0065381311
 31
0.0
  0
LWPOLYLINE
  5
1DC
330
1F
100
AcDbEntity
  8
0
  6
Continuous
 62
     7
100
AcDbPolyline
 90
       23
 70
   128
 43
0.0
 10
707.272498601
 20
431.0065381311
 10
709.5413058708
 20
430.4852033452
 10
711.9054110273
 20
430.0374912178
 10
714.3527671325
 20
429.6656831874
 10
716.8709030207
 20
429.3716739025
 10
719.4469868487
 20
429.1569615669
 10
722.0678914837
 20
429.0226403056
 10
724.7202613965
 20
428.9693945888
 10
727.3905807179
 20
428.9974957446
 10
730.0652421129
 20
429.1068005759
 10
732.73061612
 20
429.2967520903
 10
735.3731206042
 20
429.5663823385
 10
737.9792899685
 20
429.9143173465
 10
740.535843771
 20
430.3387841173
 10
743.0297543997
 20
430.8376196655
 10
745.4483134577
 20
431.4082820395
 10
747.7791965223
 20
432.0478632746
 10
750.0105259478
 20
432.7531042115
 10
752.1309313909
 20
433.520411104
 10
754.1296077514
 20
434.3458739321
 10
755.9963702329
 20
435.2252863264
 10
757.7217062415
 20
436.1541670029
 10
759.2968238604
 20
437.1277825987
  0
LINE
  5
1DD
330
1F
100
AcDbEntity
  8
0
  6
Continuous
 62
     7
100
AcDbLine
 10
763.77046134
 20
440.0987610704
 30
0.0
 11
759.2968238604
 21
437.1277825987
 31
0.0
  0
LWPOLYLINE
  5
1DE
330
1F
100
AcDbEntity
  8
0
  6
Continuous
 62
     7
100
AcDbPolyline
 90
       23
 70
   128
 43
0.0
 10
753.6864874519
 20
461.8304397754
 10
755.8484355132
 20
461.2381389334
 10
757.8925075743
 20
460.5778902648
 10
759.8082875124
 20
459.8530582454
 10
761.5860129521
 20
459.0673364529
 10
763.2166250121
 20
458.2247287456
 10
764.6918144671
 20
457.3295288592
 10
766.0040640898
 20
456.3862985271
 10
767.1466869569
 20
455.3998442349
 10
768.1138605241
 20
454.3751927276
 10
768.9006562968
 20
453.3175653943
 10
769.5030649439
 20
452.2323516614
 10
769.9180167291
 20
451.1250815296
 10
770.1433971531
 20
450.0013973934
 10
770.1780577292
 20
448.8670252898
 10
770.0218218347
 20
447.7277457188
 10
769.6754856122
 20
446.5893641882
 10
769.1408139115
 20
445.4576816292
 10
768.4205312972
 20
444.3384648366
 10
767.5183081643
 20
443.2374170829
 10
766.438742035
 20
442.1601490549
 10
765.187334131
 20
441.1121502635
 10
763.77046134
 20
440.0987610704
  0
LINE
  5
1DF
330
1F
100
AcDbEntity
  8
0
  6
Continuous
 62
     7
100
AcDbLine
 10
559.2875111202
 20
510.6910989384
 30
0.0
 11
464.2618134245
 21
534.5750633217
 31
0.0
  0
ARC
  5
1E0
330
1F
100
AcDbEntity
  8
0
  6
Continuous
 62
     7
100
AcDbCircle
 10
446.0839168611
 20
455.5353455281
 30
0.0
 40
81.10310051009282
100
AcDbArc
 50
77.0480881897
 51
98.6287261849
  0
LINE
  5
1E1
330
1F
100
AcDbEntity
  8
0
  6
Continuous
 62
     7
100
AcDbLine
 10
512.8735222692
 20
479.8671972941
 30
0.0
 11
435.4858728607
 21
499.3179764728
 31
0.0
  0
ARC
  5
1E2
330
1F
100
AcDbEntity
  8
0
  6
Continuous
 62
     7
100
AcDbCircle
 10
528.8368777693
 20
544.6212183653
 30
0.0
 40
66.6926679905753
100
AcDbArc
 50
256.1514081665
 51
264.3790771577
  0
ARC
  5
1E3
330
1F
100
AcDbEntity
  8
0
  6
Continuous
 62
     7
100
AcDbCircle
 10
549.2583053769
 20
469.3247563887
 30
0.0
 40
42.56476552007729
100
AcDbArc
 50
65.2556192088
 51
76.371695
  0
LINE
  5
1E4
330
1F
100
AcDbEntity
  8
0
  6
Continuous
 62
     7
100
AcDbLine
 10
816.3064470663
 20
449.5542835748
 30
0.0
 11
815.9552321814
 21
457.6979693372
 31
0.0
  0
LINE
  5
1E5
330
1F
100
AcDbEntity
  8
0
  6
Continuous
 62
     7
100
AcDbLine
 10
744.7282473925
 20
402.018628027
 30
0.0
 11
816.3064470663
 21
449.5542835748
 31
0.0
  0
LINE
  5
1E6
330
1F
100
AcDbEntity
  8
0
  6
Continuous
 62
     7
100
AcDbLine
 10
744.7282473925
 20
402.018628027
 30
0.0
 11
744.3770325076
 21
410.1623137894
 31
0.0
  0
LINE
  5
1E7
330
1F
100
AcDbEntity
  8
0
  6
Continuous
 62
     7
100
AcDbLine
 10
744.7282473925
 20
402.018628027
 30
0.0
 11
586.1711609598
 21
441.8707090629
 31
0.0
  0
LINE
  5
1E8
330
1F
100
AcDbEntity
  8
0
  6
Continuous
 62
     7
100
AcDbLine
 10
522.0195255709
 20
457.9947198506
 30
0.0
 11
436.3392837552
 21
479.5297771403
 31
0.0
  0
LINE
  5
1E9
330
1F
100
AcDbEntity
  8
0
  6
Continuous
 62
     7
100
AcDbLine
 10
372.1876483663
 20
495.653787928
 30
0.0
 11
355.930294729
 21
499.7399463531
 31
0.0
  0
LINE
  5
1EA
330
1F
100
AcDbEntity
  8
0
  6
Continuous
 62
     7
100
AcDbLine
 10
355.930294729
 20
499.7399463531
 30
0.0
 11
355.5790798441
 21
507.8836321155
 31
0.0
  0
LWPOLYLINE
  5
1EB
330
1F
100
AcDbEntity
  8
0
  6
Continuous
 62
     7
100
AcDbPolyline
 90
       11
 70
   128
 43
0.0
 10
754.0377023369
 20
453.686754013
 10
756.1996503982
 20
453.094453171
 10
758.2437224592
 20
452.4342045024
 10
760.1595023973
 20
451.709372483
 10
761.937227837
 20
450.9236506905
 10
763.567839897
 20
450.0810429832
 10
765.043029352
 20
449.1858430968
 10
766.3552789747
 20
448.2426127647
 10
767.4979018418
 20
447.2561584725
 10
768.4650754091
 20
446.2315069652
 10
769.1049467443
 20
445.3939041028
  0
ARC
  5
1EC
330
1F
100
AcDbEntity
  8
0
  6
Continuous
 62
     7
100
AcDbCircle
 10
610.995313103
 20
454.5995777181
 30
0.0
 40
16.2651873270655
100
AcDbArc
 50
121.4286950246
 51
148.1471807297
  0
LINE
  5
1ED
330
1F
100
AcDbEntity
  8
0
  6
Continuous
 62
     7
100
AcDbLine
 10
659.0120046412
 20
477.5707183962
 30
0.0
 11
754.0377023369
 21
453.686754013
 31
0.0
  0
LWPOLYLINE
  5
1EE
330
1F
100
AcDbEntity
  8
0
  6
Continuous
 62
     7
100
AcDbPolyline
 90
       23
 70
   128
 43
0.0
 10
659.0120046412
 20
477.5707183962
 10
656.7431973714
 20
478.0920531821
 10
654.3790922149
 20
478.5397653095
 10
651.9317361096
 20
478.9115733399
 10
649.4136002214
 20
479.2055826248
 10
646.8375163934
 20
479.4202949604
 10
644.2166117584
 20
479.5546162217
 10
641.5642418457
 20
479.6078619385
 10
638.8939225242
 20
479.5797607827
 10
636.2192611292
 20
479.4704559514
 10
633.5538871221
 20
479.280504437
 10
630.9113826379
 20
479.0108741888
 10
628.3052132737
 20
478.6629391808
 10
625.7486594711
 20
478.23847241
 10
623.2547488424
 20
477.7396368618
 10
620.8361897844
 20
477.1689744878
 10
618.5053067198
 20
476.5293932527
 10
616.2739772943
 20
475.8241523158
 10
614.1535718512
 20
475.0568454233
 10
612.1548954907
 20
474.2313825952
 10
610.2881330093
 20
473.3519702009
 10
608.5627970007
 20
472.4230895244
 10
606.9876793817
 20
471.4494739286
  0
LINE
  5
1EF
330
1F
100
AcDbEntity
  8
0
  6
Continuous
 62
     7
100
AcDbLine
 10
606.9876793817
 20
471.4494739286
 30
0.0
 11
602.5140419021
 21
468.4784954569
 31
0.0
  0
LINE
  5
1F0
330
1F
100
AcDbEntity
  8
0
  6
Continuous
 62
     7
100
AcDbLine
 10
618.1158155724
 20
500.8623813827
 30
0.0
 11
617.8297579008
 21
507.4952545545
 31
0.0
  0
LINE
  5
1F1
330
1F
100
AcDbEntity
  8
0
  6
Continuous
 62
     7
100
AcDbLine
 10
559.0972181427
 20
502.6835169334
 30
0.0
 11
464.6130283094
 21
526.4313775593
 31
0.0
  0
ARC
  5
1F2
330
1F
100
AcDbEntity
  8
0
  6
Continuous
 62
     7
100
AcDbCircle
 10
446.435131746
 20
447.3916597657
 30
0.0
 40
81.10310051008632
100
AcDbArc
 50
77.0480881897
 51
98.6287261849
  0
LINE
  5
1F3
330
1F
100
AcDbEntity
  8
0
  6
Continuous
 62
     7
100
AcDbLine
 10
361.7851635122
 20
250.4017409131
 30
0.0
 11
366.8180056768
 21
253.7440916938
 31
0.0
  0
LINE
  5
1F4
330
1F
100
AcDbEntity
  8
0
  6
Continuous
 62
     7
100
AcDbLine
 10
361.7851635122
 20
250.4017409131
 30
0.0
 11
353.1999107693
 21
449.4696151051
 31
0.0
  0
LINE
  5
1F5
330
1F
100
AcDbEntity
  8
0
  6
Continuous
 62
     7
100
AcDbLine
 10
353.1999107693
 20
449.4696151051
 30
0.0
 11
358.2327529339
 21
452.8119658858
 31
0.0
  0
LINE
  5
1F6
330
1F
100
AcDbEntity
  8
0
  6
Continuous
 62
     7
100
AcDbLine
 10
366.8180056768
 20
253.7440916938
 30
0.0
 11
358.2327529339
 21
452.8119658858
 31
0.0
  0
LINE
  5
1F7
330
1F
100
AcDbEntity
  8
0
  6
Continuous
 62
     7
100
AcDbLine
 10
353.1999107693
 20
449.4696151051
 30
0.0
 11
183.8512817604
 21
492.0340657924
 31
0.0
  0
LINE
  5
1F8
330
1F
100
AcDbEntity
  8
0
  6
Continuous
 62
     7
100
AcDbLine
 10
183.8512817604
 20
492.0340657924
 30
0.0
 11
188.884123925
 21
495.3764165731
 31
0.0
  0
LINE
  5
1F9
330
1F
100
AcDbEntity
  8
0
  6
Continuous
 62
     7
100
AcDbLine
 10
358.2327529339
 20
452.8119658858
 30
0.0
 11
188.884123925
 21
495.3764165731
 31
0.0
  0
LINE
  5
1FA
330
1F
100
AcDbEntity
  8
0
  6
Continuous
 62
     7
100
AcDbLine
 10
192.4365345033
 20
292.9661916004
 30
0.0
 11
361.7851635122
 21
250.4017409131
 31
0.0
  0
LINE
  5
1FB
330
1F
100
AcDbEntity
  8
0
  6
Continuous
 62
     7
100
AcDbLine
 10
183.8512817604
 20
492.0340657924
 30
0.0
 11
192.4365345033
 21
292.9661916004
 31
0.0
  0
LWPOLYLINE
  5
1FC
330
1F
100
AcDbEntity
  8
0
  6
Continuous
 62
     7
100
AcDbPolyline
 90
      150
 70
   128
 43
0.0
 10
354.3871221834
 20
350.716199721
 10
354.1525654575
 20
354.4917576823
 10
353.7733992382
 20
358.2970541202
 10
353.2502976692
 20
362.1253233566
 10
352.584190806
 20
365.9697588684
 10
351.7762629623
 20
369.8235253895
 10
350.8279506044
 20
373.6797710638
 10
349.7409397969
 20
377.5316396271
 10
348.5171632054
 20
381.3722825977
 10
347.1587966601
 20
385.1948714526
 10
345.6682552871
 20
388.9926097683
 10
344.0481892145
 20
392.7587453047
 10
342.3014788608
 20
396.4865820101
 10
340.4312298131
 20
400.169491927
 10
338.4407673061
 20
403.8009269759
 10
336.3336303095
 20
407.3744305979
 10
334.1135652358
 20
410.883649234
 10
331.7845192799
 20
414.3223436213
 10
329.3506334004
 20
417.6843998869
 10
326.8162349576
 20
420.9638404174
 10
324.1858300194
 20
424.1548344871
 10
321.4640953499
 20
427.2517086251
 10
318.6558700939
 20
430.2489567021
 10
315.7661471735
 20
433.1412497206
 10
312.8000644105
 20
435.9234452889
 10
309.762895392
 20
438.590596765
 10
306.6600400935
 20
441.1379620508
 10
303.4970152785
 20
443.5610120239
 10
300.2794446898
 20
445.8554385898
 10
297.0130490505
 20
448.0171623417
 10
293.7036358927
 20
450.0423398138
 10
290.3570892323
 20
451.9273703145
 10
286.9793591071
 20
453.6689023282
 10
283.5764509981
 20
455.2638394746
 10
280.1544151517
 20
456.7093460136
 10
276.7193358227
 20
458.0028518875
 10
273.2773204568
 20
459.1420572899
 10
269.8344888317
 20
460.1249367552
 10
266.3969621765
 20
460.9497427596
 10
262.970852288
 20
461.6150088282
 10
259.5622506646
 20
462.1195521421
 10
256.1772176757
 20
462.4624756416
 10
252.8217717863
 20
462.6431696215
 10
249.5018788567
 20
462.6613128143
 10
246.2234415356
 20
462.5168729621
 10
242.9922887647
 20
462.2101068738
 10
239.8141654158
 20
461.7415599681
 10
236.6947220762
 20
461.1120653045
 10
233.6395050023
 20
460.3227421014
 10
230.6539462587
 20
459.3749937468
 10
227.7433540597
 20
458.2705053025
 10
224.9129033322
 20
457.0112405088
 10
222.1676265142
 20
455.5994382925
 10
219.5124046077
 20
454.0376087864
 10
216.9519585003
 20
452.3285288664
 10
214.4908405719
 20
450.4752372141
 10
212.1334266002
 20
448.4810289146
 10
209.8839079814
 20
446.3494495975
 10
207.7462842773
 20
444.0842891328
 10
205.7243561049
 20
441.6895748934
 10
203.8217183788
 20
439.1695645937
 10
202.0417539193
 20
436.5287387201
 10
200.3876274384
 20
433.7717925646
 10
198.8622799126
 20
430.9036278768
 10
197.468423354
 20
427.9293441489
 10
196.2085359888
 20
424.8542295489
 10
195.0848578507
 20
421.6837515183
 10
194.0993867986
 20
418.4235470512
 10
193.2538749638
 20
415.0794126724
 10
192.5498256357
 20
411.6572941306
 10
191.9884905882
 20
408.1632758278
 10
191.5708678545
 20
404.6035700009
 10
191.2976999528
 20
400.9845056771
 10
191.1694725654
 20
397.3125174207
 10
191.186413676
 20
393.5941338927
 10
191.348493164
 20
389.8359662433
 10
191.6554228578
 20
386.0446963576
 10
192.1066570479
 20
382.227064975
 10
192.7013934561
 20
378.3898597048
 10
193.4385746629
 20
374.5399029579
 10
194.316889987
 20
370.684039817
 10
195.3347778158
 20
366.8291258659
 10
196.4904283819
 20
362.982015001
 10
197.7817869808
 20
359.1495472451
 10
199.2065576239
 20
355.3385365859
 10
200.7622071211
 20
351.5557588614
 10
202.4459695844
 20
347.8079397122
 10
204.2548513455
 20
344.1017426241
 10
206.1856362787
 20
340.4437570802
 10
208.2348915187
 20
336.8404868454
 10
210.3989735647
 20
333.2983384025
 10
212.6740347577
 20
329.8236095624
 10
215.0560301218
 20
326.422478266
 10
217.5407245564
 20
323.1009916006
 10
220.1237003653
 20
319.8650550485
 10
222.8003651118
 20
316.7204219866
 10
225.5659597836
 20
313.6726834578
 10
228.4155672545
 20
310.72725823
 10
231.3441210262
 20
307.8893831617
 10
234.3464142371
 20
305.1641038913
 10
237.4171089194
 20
302.5562658658
 10
240.5507454899
 20
300.0705057261
 10
243.7417524573
 20
297.711243063
 10
246.9844563276
 20
295.4826725594
 10
250.2730916916
 20
293.3887565323
 10
253.6018114757
 20
291.4332178881
 10
256.9646973376
 20
289.6195335031
 10
260.3557701889
 20
287.9509280419
 10
263.7690008259
 20
286.4303682241
 10
267.198320649
 20
285.0605575496
 10
270.6376324528
 20
283.8439314918
 10
274.0808212663
 20
282.7826531675
 10
277.5217652256
 20
281.8786094907
 10
280.9543464578
 20
281.1334078181
 10
284.3724619587
 20
280.5483730912
 10
287.7700344438
 20
280.1245454802
 10
291.1410231531
 20
279.8626785353
 10
294.4794345917
 20
279.7632378463
 10
297.779333186
 20
279.8264002151
 10
301.0348518366
 20
280.0520533413
 10
304.2402023502
 20
280.4397960219
 10
307.3896857306
 20
280.9889388646
 10
310.4777023112
 20
281.6985055134
 10
313.4987617112
 20
282.5672343848
 10
316.4474925973
 20
283.5935809104
 10
319.3186522336
 20
284.7757202837
 10
322.107135803
 20
286.1115507039
 10
324.8079854836
 20
287.5986971134
 10
327.416399263
 20
289.23451542
 10
329.9277394768
 20
291.0160971986
 10
332.3375410538
 20
292.9402748617
 10
334.6415194547
 20
295.0036272916
 10
336.8355782899
 20
297.2024859231
 10
338.915816603
 20
299.5329412658
 10
340.8785358061
 20
301.9908498551
 10
342.7202462562
 20
304.5718416191
 10
344.4376734591
 20
307.2713276488
 10
346.0277638921
 20
310.0845083565
 10
347.4876904324
 20
313.0063820096
 10
348.8148573839
 20
316.0317536233
 10
350.0069050921
 20
319.1552441974
 10
351.0617141398
 20
322.3713002794
 10
351.9774091149
 20
325.6742038392
 10
352.7523619452
 20
329.0580824347
 10
353.3851947929
 20
332.5169196532
 10
353.8747825042
 20
336.0445658085
 10
354.22025461
 20
339.6347488743
 10
354.4209968736
 20
343.2810856362
 10
354.4766523826
 20
346.9770930405
 10
354.3871221834
 20
350.716199721
  0
LWPOLYLINE
  5
1FD
330
1F
100
AcDbEntity
  8
0
  6
Continuous
 62
     7
100
AcDbPolyline
 90
       76
 70
   128
 43
0.0
 10
219.0282926911
 20
453.7304229409
 10
218.3499702127
 20
453.2569596388
 10
215.8888522843
 20
451.4036679865
 10
213.5314383126
 20
449.4094596871
 10
211.2819196937
 20
447.2778803699
 10
209.1442959896
 20
445.0127199053
 10
207.1223678173
 20
442.6180056658
 10
205.2197300912
 20
440.0979953661
 10
203.4397656317
 20
437.4571694925
 10
201.7856391508
 20
434.700223337
 10
200.2602916249
 20
431.8320586492
 10
198.8664350664
 20
428.8577749214
 10
197.6065477012
 20
425.7826603213
 10
196.4828695631
 20
422.6121822907
 10
195.4973985109
 20
419.3519778237
 10
194.6518866762
 20
416.0078434448
 10
193.9478373481
 20
412.585724903
 10
193.3865023006
 20
409.0917066002
 10
192.9688795669
 20
405.5320007733
 10
192.6957116651
 20
401.9129364495
 10
192.5674842777
 20
398.2409481931
 10
192.5844253884
 20
394.5225646651
 10
192.7465048763
 20
390.7643970157
 10
193.0534345702
 20
386.97312713
 10
193.5046687602
 20
383.1554957474
 10
194.0994051685
 20
379.3182904772
 10
194.8365863753
 20
375.4683337303
 10
195.7149016994
 20
371.6124705894
 10
196.7327895282
 20
367.7575566383
 10
197.8884400943
 20
363.9104457735
 10
199.1797986931
 20
360.0779780175
 10
200.6045693363
 20
356.2669673584
 10
202.1602188335
 20
352.4841896338
 10
203.8439812968
 20
348.7363704847
 10
205.6528630579
 20
345.0301733965
 10
207.583647991
 20
341.3721878527
 10
209.6329032311
 20
337.7689176178
 10
211.7969852771
 20
334.226769175
 10
214.07204647
 20
330.7520403348
 10
216.4540418342
 20
327.3509090384
 10
218.9387362688
 20
324.0294223731
 10
221.5217120776
 20
320.7934858209
 10
224.1983768241
 20
317.648852759
 10
226.963971496
 20
314.6011142302
 10
229.8135789669
 20
311.6556890024
 10
232.7421327386
 20
308.8178139341
 10
235.7444259495
 20
306.0925346637
 10
238.8151206317
 20
303.4846966382
 10
241.9487572023
 20
300.9989364985
 10
245.1397641697
 20
298.6396738354
 10
248.38246804
 20
296.4111033318
 10
251.671103404
 20
294.3171873048
 10
254.9998231881
 20
292.3616486605
 10
258.36270905
 20
290.5479642755
 10
261.7537819013
 20
288.8793588143
 10
265.1670125383
 20
287.3587989965
 10
268.5963323614
 20
285.988988322
 10
272.0356441652
 20
284.7723622642
 10
275.4788329787
 20
283.7110839399
 10
278.919776938
 20
282.8070402631
 10
282.3523581701
 20
282.0618385905
 10
285.7704736711
 20
281.4768038636
 10
289.1680461561
 20
281.0529762526
 10
292.5390348654
 20
280.7911093077
 10
295.8774463041
 20
280.6916686187
 10
299.1773448984
 20
280.7548309875
 10
302.432863549
 20
280.9804841137
 10
305.6382140626
 20
281.3682267943
 10
308.787697443
 20
281.917369637
 10
311.8757140236
 20
282.6269362858
 10
314.8967734236
 20
283.4956651572
 10
317.8455043097
 20
284.5220116828
 10
320.716663946
 20
285.7041510561
 10
323.5051475154
 20
287.0399814763
 10
326.2059971959
 20
288.5271278858
 10
328.0061642948
 20
289.6338145377
  0
LWPOLYLINE
  5
1FE
330
1F
100
AcDbEntity
  8
0
  6
Continuous
 62
     7
100
AcDbPolyline
 90
      141
 70
   128
 43
0.0
 10
347.0899720151
 20
353.8300912866
 10
346.8625226473
 20
357.4209930859
 10
346.4887733227
 20
361.0415497624
 10
345.969476723
 20
364.6844699967
 10
345.3056786421
 20
368.3424174323
 10
344.4987158813
 20
372.0080254499
 10
343.550213556
 20
375.6739120028
 10
342.4620818237
 20
379.3326944833
 10
341.236512037
 20
382.9770045904
 10
339.8759723302
 20
386.5995031686
 10
338.3832026493
 20
390.1928949878
 10
336.7612092337
 20
393.749943435
 10
335.0132585624
 20
397.2634850882
 10
333.1428707754
 20
400.7264441421
 10
331.1538125847
 20
404.1318466578
 10
329.0500896888
 20
407.472834608
 10
326.8359387057
 20
410.7426796876
 10
324.5158186408
 20
413.9347968638
 10
322.0944019071
 20
417.0427576373
 10
319.5765649158
 20
420.0603029888
 10
316.9673782553
 20
422.9813559835
 10
314.2720964804
 20
425.8000340095
 10
311.49614753
 20
428.5106606242
 10
308.6451217957
 20
431.1077769865
 10
305.724760864
 20
433.5861528496
 10
302.7409459531
 20
435.9407970944
 10
299.6996860692
 20
438.1669677807
 10
296.6071059049
 20
440.260181697
 10
293.4694335052
 20
442.2162233891
 10
290.2929877246
 20
444.0311536493
 10
287.0841655022
 20
445.7013174496
 10
283.849428979
 20
447.2233513023
 10
280.5952924839
 20
448.5941900339
 10
277.3283094146
 20
449.8110729576
 10
274.0550590402
 20
450.8715494332
 10
270.7821332515
 20
451.773483802
 10
267.5161232854
 20
452.5150596884
 10
264.2636064513
 20
453.0947836572
 10
261.0311328853
 20
453.5114882214
 10
257.8252123589
 20
453.7643341936
 10
254.6523011694
 20
453.8528123756
 10
251.5187891377
 20
453.7767445841
 10
248.4309867401
 20
453.5362840095
 10
245.3951123995
 20
453.1319149075
 10
242.417279963
 20
452.5644516235
 10
239.5034863887
 20
451.8350369532
 10
236.6595996692
 20
450.9451398405
 10
233.8913470137
 20
449.8965524199
 10
231.2043033149
 20
448.6913864068
 10
228.6038799209
 20
447.3320688453
 10
226.0953137386
 20
445.8213372199
 10
223.6836566863
 20
444.1622339432
 10
221.3737655205
 20
442.3581002283
 10
219.1702920544
 20
440.4125693604
 10
217.0776737905
 20
438.3295593799
 10
215.1001249833
 20
436.1132651915
 10
213.2416281531
 20
433.7681501168
 10
211.5059260652
 20
431.2989369055
 10
209.8965141924
 20
428.7105982244
 10
208.4166336762
 20
426.0083466431
 10
207.069264799
 20
423.1976241367
 10
205.8571209824
 20
420.2840911263
 10
204.7826433226
 20
417.2736150795
 10
203.8479956748
 20
414.1722586946
 10
203.0550602949
 20
410.9862676905
 10
202.4054340492
 20
407.7220582291
 10
201.9004251986
 20
404.3862039939
 10
201.5410507636
 20
400.9854229514
 10
201.3280344765
 20
397.5265638219
 10
201.2618053238
 20
394.0165922875
 10
201.3424966822
 20
390.4625769637
 10
201.5699460501
 20
386.8716751644
 10
201.9436953746
 20
383.251118488
 10
202.4629919744
 20
379.6081982536
 10
203.1267900552
 20
375.950250818
 10
203.9337528161
 20
372.2846428004
 10
204.8822551414
 20
368.6187562475
 10
205.9703868737
 20
364.959973767
 10
207.1959566604
 20
361.3156636599
 10
208.5564963672
 20
357.6931650818
 10
210.0492660481
 20
354.0997732626
 10
211.6712594636
 20
350.5427248153
 10
213.4192101349
 20
347.0291831621
 10
215.289597922
 20
343.5662241083
 10
217.2786561127
 20
340.1608215925
 10
219.3823790086
 20
336.8198336423
 10
221.5965299917
 20
333.5499885627
 10
223.9166500566
 20
330.3578713866
 10
226.3380667902
 20
327.249910613
 10
228.8559037816
 20
324.2323652616
 10
231.4650904421
 20
321.3113122668
 10
234.1603722169
 20
318.4926342409
 10
236.9363211674
 20
315.7820076261
 10
239.7873469017
 20
313.1848912638
 10
242.7077078334
 20
310.7065154007
 10
245.6915227443
 20
308.3518711559
 10
248.7327826282
 20
306.1257004696
 10
251.8253627924
 20
304.0324865533
 10
254.9630351922
 20
302.0764448612
 10
258.1394809728
 20
300.2615146011
 10
261.3483031951
 20
298.5913508008
 10
264.5830397183
 20
297.069316948
 10
267.8371762135
 20
295.6984782164
 10
271.1041592828
 20
294.4815952927
 10
274.3774096571
 20
293.4211188172
 10
277.6503354458
 20
292.5191844484
 10
280.9163454119
 20
291.777608562
 10
284.168862246
 20
291.1978845932
 10
287.4013358121
 20
290.7811800289
 10
290.6072563385
 20
290.5283340568
 10
293.780167528
 20
290.4398558748
 10
296.9136795596
 20
290.5159236663
 10
300.0014819573
 20
290.7563842408
 10
303.0373562978
 20
291.1607533429
 10
306.0151887343
 20
291.7282166268
 10
308.9289823086
 20
292.4576312972
 10
311.7728690282
 20
293.3475284099
 10
314.5411216836
 20
294.3961158305
 10
317.2281653825
 20
295.6012818435
 10
319.8285887764
 20
296.9605994051
 10
322.3371549588
 20
298.4713310304
 10
324.748812011
 20
300.1304343072
 10
327.0587031769
 20
301.9345680221
 10
329.262176643
 20
303.8800988899
 10
331.3547949069
 20
305.9631088705
 10
333.332343714
 20
308.1794030589
 10
335.1908405442
 20
310.5245181336
 10
336.9265426322
 20
312.9937313449
 10
338.535954505
 20
315.582070026
 10
340.0158350211
 20
318.2843216073
 10
341.3632038984
 20
321.0950441137
 10
342.575347715
 20
324.0085771241
 10
343.6498253747
 20
327.0190531708
 10
344.5844730225
 20
330.1204095558
 10
345.3774084025
 20
333.3064005598
 10
346.0270346481
 20
336.5706100212
 10
346.5320434988
 20
339.9064642564
 10
346.8914179338
 20
343.307245299
 10
347.1044342209
 20
346.7661044284
 10
347.1706633735
 20
350.2760759628
 10
347.0899720151
 20
353.8300912866
  0
LWPOLYLINE
  5
1FF
330
1F
100
AcDbEntity
  8
0
  6
Continuous
 62
     7
100
AcDbPolyline
 90
       20
 70
   128
 43
0.0
 10
242.6693218153
 20
457.185165234
 10
242.5743802356
 20
457.6885524426
 10
242.341658295
 20
458.1746057573
 10
241.9963750267
 20
458.5906537595
 10
241.5759472305
 20
458.8916111924
 10
241.1259347817
 20
459.0448646485
 10
240.6951035119
 20
459.0338067378
 10
240.3301406741
 20
458.8596357565
 10
240.0705956548
 20
458.5412258329
 10
239.9445941841
 20
458.1130816229
 10
239.9657904765
 20
457.6215991951
 10
240.1318875847
 20
457.1200382965
 10
240.4248863099
 20
456.6627508331
 10
240.8130356939
 20
456.2992909971
 10
241.254273728
 20
456.0690453014
 10
241.7007854249
 20
455.9969644397
 10
242.1041843137
 20
456.0908594919
 10
242.4207558656
 20
456.340555472
 10
242.6161946408
 20
456.7189939464
 10
242.6693218153
 20
457.185165234
  0
LWPOLYLINE
  5
200
330
1F
100
AcDbEntity
  8
0
  6
Continuous
 62
     7
100
AcDbPolyline
 90
       20
 70
   128
 43
0.0
 10
301.7719603277
 20
442.3301802414
 10
301.677018748
 20
442.83356745
 10
301.4442968074
 20
443.3196207647
 10
301.0990135391
 20
443.7356687668
 10
300.6785857429
 20
444.0366261998
 10
300.2285732941
 20
444.1898796559
 10
299.7977420243
 20
444.1788217452
 10
299.4327791865
 20
444.0046507638
 10
299.1732341672
 20
443.6862408403
 10
299.0472326965
 20
443.2580966303
 10
299.0684289889
 20
442.7666142024
 10
299.2345260971
 20
442.2650533039
 10
299.5275248223
 20
441.8077658405
 10
299.9156742063
 20
441.4443060045
 10
300.3569122404
 20
441.2140603088
 10
300.8034239373
 20
441.1419794471
 10
301.2068228261
 20
441.2358744992
 10
301.523394378
 20
441.4855704794
 10
301.7188331531
 20
441.8640089537
 10
301.7719603277
 20
442.3301802414
  0
LWPOLYLINE
  5
201
330
1F
100
AcDbEntity
  8
0
  6
Continuous
 62
     7
100
AcDbPolyline
 90
       20
 70
   128
 43
0.0
 10
345.5332366673
 20
386.1612736788
 10
345.4382950876
 20
386.6646608875
 10
345.205573147
 20
387.1507142021
 10
344.8602898787
 20
387.5667622043
 10
344.4398620825
 20
387.8677196372
 10
343.9898496337
 20
388.0209730933
 10
343.5590183639
 20
388.0099151826
 10
343.1940555261
 20
387.8357442013
 10
342.9345105068
 20
387.5173342777
 10
342.8085090361
 20
387.0891900677
 10
342.8297053285
 20
386.5977076399
 10
342.9958024367
 20
386.0961467413
 10
343.2888011619
 20
385.6388592779
 10
343.6769505459
 20
385.2753994419
 10
344.11818858
 20
385.0451537462
 10
344.5647002769
 20
384.9730728845
 10
344.9680991657
 20
385.0669679367
 10
345.2846707176
 20
385.3166639169
 10
345.4801094927
 20
385.6951023912
 10
345.5332366673
 20
386.1612736788
  0
LWPOLYLINE
  5
202
330
1F
100
AcDbEntity
  8
0
  6
Continuous
 62
     7
100
AcDbPolyline
 90
       20
 70
   128
 43
0.0
 10
348.3183886612
 20
321.581429227
 10
348.2234470815
 20
322.0848164356
 10
347.9907251408
 20
322.5708697503
 10
347.6454418725
 20
322.9869177525
 10
347.2250140763
 20
323.2878751854
 10
346.7750016275
 20
323.4411286415
 10
346.3441703577
 20
323.4300707308
 10
345.9792075199
 20
323.2558997495
 10
345.7196625006
 20
322.9374898259
 10
345.5936610299
 20
322.5093456159
 10
345.6148573223
 20
322.0178631881
 10
345.7809544306
 20
321.5163022895
 10
346.0739531558
 20
321.0590148261
 10
346.4621025397
 20
320.6955549901
 10
346.9033405738
 20
320.4653092944
 10
347.3498522707
 20
320.3932284327
 10
347.7532511595
 20
320.4871234849
 10
348.0698227114
 20
320.736819465
 10
348.2652614866
 20
321.1152579393
 10
348.3183886612
 20
321.581429227
  0
LWPOLYLINE
  5
203
330
1F
100
AcDbEntity
  8
0
  6
Continuous
 62
     7
100
AcDbPolyline
 90
       20
 70
   128
 43
0.0
 10
308.4959120445
 20
286.4206439099
 10
308.4009704648
 20
286.9240311185
 10
308.1682485241
 20
287.4100844332
 10
307.8229652558
 20
287.8261324353
 10
307.4025374596
 20
288.1270898683
 10
306.9525250109
 20
288.2803433244
 10
306.5216937411
 20
288.2692854137
 10
306.1567309033
 20
288.0951144323
 10
305.897185884
 20
287.7767045087
 10
305.7711844133
 20
287.3485602988
 10
305.7923807057
 20
286.8570778709
 10
305.9584778139
 20
286.3555169724
 10
306.2514765391
 20
285.898229509
 10
306.639625923
 20
285.534769673
 10
307.0808639572
 20
285.3045239773
 10
307.527375654
 20
285.2324431156
 10
307.9307745429
 20
285.3263381677
 10
308.2473460948
 20
285.5760341479
 10
308.4427848699
 20
285.9544726222
 10
308.4959120445
 20
286.4206439099
  0
LWPOLYLINE
  5
204
330
1F
100
AcDbEntity
  8
0
  6
Continuous
 62
     7
100
AcDbPolyline
 90
       20
 70
   128
 43
0.0
 10
249.3932735321
 20
301.2756289025
 10
249.2983319524
 20
301.7790161111
 10
249.0656100117
 20
302.2650694258
 10
248.7203267435
 20
302.6811174279
 10
248.2998989473
 20
302.9820748609
 10
247.8498864985
 20
303.135328317
 10
247.4190552287
 20
303.1242704063
 10
247.0540923909
 20
302.950099425
 10
246.7945473716
 20
302.6316895014
 10
246.6685459009
 20
302.2035452914
 10
246.6897421933
 20
301.7120628635
 10
246.8558393015
 20
301.210501965
 10
247.1488380267
 20
300.7532145016
 10
247.5369874106
 20
300.3897546656
 10
247.9782254448
 20
300.1595089699
 10
248.4247371416
 20
300.0874281082
 10
248.8281360305
 20
300.1813231604
 10
249.1447075824
 20
300.4310191405
 10
249.3401463575
 20
300.8094576148
 10
249.3932735321
 20
301.2756289025
  0
LWPOLYLINE
  5
205
330
1F
100
AcDbEntity
  8
0
  6
Continuous
 62
     7
100
AcDbPolyline
 90
       20
 70
   128
 43
0.0
 10
205.6319971925
 20
357.4445354651
 10
205.5370556128
 20
357.9479226737
 10
205.3043336722
 20
358.4339759883
 10
204.9590504039
 20
358.8500239905
 10
204.5386226077
 20
359.1509814235
 10
204.0886101589
 20
359.3042348796
 10
203.6577788891
 20
359.2931769689
 10
203.2928160513
 20
359.1190059875
 10
203.033271032
 20
358.8005960639
 10
202.9072695613
 20
358.372451854
 10
202.9284658537
 20
357.8809694261
 10
203.0945629619
 20
357.3794085275
 10
203.3875616871
 20
356.9221210642
 10
203.7757110711
 20
356.5586612282
 10
204.2169491052
 20
356.3284155324
 10
204.663460802
 20
356.2563346708
 10
205.0668596909
 20
356.3502297229
 10
205.3834312428
 20
356.5999257031
 10
205.5788700179
 20
356.9783641774
 10
205.6319971925
 20
357.4445354651
  0
LWPOLYLINE
  5
206
330
1F
100
AcDbEntity
  8
0
  6
Continuous
 62
     7
100
AcDbPolyline
 90
       20
 70
   128
 43
0.0
 10
202.8468451987
 20
422.0243799169
 10
202.751903619
 20
422.5277671255
 10
202.5191816783
 20
423.0138204402
 10
202.17389841
 20
423.4298684423
 10
201.7534706138
 20
423.7308258753
 10
201.3034581651
 20
423.8840793314
 10
200.8726268953
 20
423.8730214207
 10
200.5076640575
 20
423.6988504393
 10
200.2481190382
 20
423.3804405158
 10
200.1221175675
 20
422.9522963058
 10
200.1433138598
 20
422.4608138779
 10
200.3094109681
 20
421.9592529794
 10
200.6024096933
 20
421.501965516
 10
200.9905590772
 20
421.13850568
 10
201.4317971114
 20
420.9082599843
 10
201.8783088082
 20
420.8361791226
 10
202.2817076971
 20
420.9300741747
 10
202.598279249
 20
421.1797701549
 10
202.7937180241
 20
421.5582086292
 10
202.8468451987
 20
422.0243799169
  0
LWPOLYLINE
  5
207
330
1F
100
AcDbEntity
  8
0
  6
Continuous
 62
     7
100
AcDbPolyline
 90
       71
 70
   128
 43
0.0
 10
227.3772046147
 20
446.6191551474
 10
227.3184871385
 20
446.5761539515
 10
225.0085959726
 20
444.7720202366
 10
222.8051225066
 20
442.8264893687
 10
220.7125042426
 20
440.7434793881
 10
218.7349554355
 20
438.5271851997
 10
216.8764586053
 20
436.1820701251
 10
215.1407565173
 20
433.7128569138
 10
213.5313446446
 20
431.1245182327
 10
212.0514641284
 20
428.4222666514
 10
210.7040952512
 20
425.611544145
 10
209.4919514345
 20
422.6980111345
 10
208.4174737748
 20
419.6875350878
 10
207.482826127
 20
416.5861787029
 10
206.6898907471
 20
413.4001876988
 10
206.0402645014
 20
410.1359782374
 10
205.5352556508
 20
406.8001240022
 10
205.1758812158
 20
403.3993429597
 10
204.9628649287
 20
399.9404838302
 10
204.896635776
 20
396.4305122958
 10
204.9773271344
 20
392.876496972
 10
205.2047765023
 20
389.2855951727
 10
205.5785258268
 20
385.6650384962
 10
206.0978224266
 20
382.0221182619
 10
206.7616205074
 20
378.3641708263
 10
207.5685832683
 20
374.6985628087
 10
208.5170855936
 20
371.0326762558
 10
209.6052173258
 20
367.3738937753
 10
210.8307871126
 20
363.7295836682
 10
212.1913268194
 20
360.1070850901
 10
213.6840965003
 20
356.5136932709
 10
215.3060899158
 20
352.9566448236
 10
217.0540405871
 20
349.4431031704
 10
218.9244283742
 20
345.9801441166
 10
220.9134865649
 20
342.5747416008
 10
223.0172094608
 20
339.2337536506
 10
225.2313604438
 20
335.963908571
 10
227.5514805087
 20
332.7717913948
 10
229.9728972424
 20
329.6638306213
 10
232.4907342338
 20
326.6462852698
 10
235.0999208942
 20
323.7252322751
 10
237.7952026691
 20
320.9065542492
 10
240.5711516196
 20
318.1959276344
 10
243.4221773538
 20
315.5988112721
 10
246.3425382856
 20
313.120435409
 10
249.3263531964
 20
310.7657911642
 10
252.3676130804
 20
308.5396204779
 10
255.4601932446
 20
306.4464065616
 10
258.5978656444
 20
304.4903648695
 10
261.774311425
 20
302.6754346093
 10
264.9831336473
 20
301.0052708091
 10
268.2178701705
 20
299.4832369563
 10
271.4720066657
 20
298.1123982247
 10
274.738989735
 20
296.895515301
 10
278.0122401093
 20
295.8350388255
 10
281.285165898
 20
294.9331044566
 10
284.5511758641
 20
294.1915285703
 10
287.8036926982
 20
293.6118046015
 10
291.0361662643
 20
293.1951000372
 10
294.2420867907
 20
292.942254065
 10
297.4149979802
 20
292.8537758831
 10
300.5485100118
 20
292.9298436745
 10
303.6363124095
 20
293.1703042491
 10
306.67218675
 20
293.5746733512
 10
309.6500191865
 20
294.1421366351
 10
312.5638127608
 20
294.8715513055
 10
315.4076994804
 20
295.7614484181
 10
318.1759521358
 20
296.8100358388
 10
320.8629958347
 20
298.0152018518
 10
323.4634192286
 20
299.3745194134
 10
324.6900945348
 20
300.0874331112
  0
LINE
  5
208
330
1F
100
AcDbEntity
  8
0
  6
Continuous
 62
     7
100
AcDbLine
 10
572.6492344239
 20
394.3127474663
 30
0.0
 11
577.6820765885
 21
397.655098247
 31
0.0
  0
LINE
  5
209
330
1F
100
AcDbEntity
  8
0
  6
Continuous
 62
     7
100
AcDbLine
 10
572.6492344239
 20
394.3127474663
 30
0.0
 11
403.300605415
 21
436.8771981536
 31
0.0
  0
LINE
  5
20A
330
1F
100
AcDbEntity
  8
0
  6
Continuous
 62
     7
100
AcDbLine
 10
403.300605415
 20
436.8771981536
 30
0.0
 11
408.3334475796
 21
440.2195489343
 31
0.0
  0
LINE
  5
20B
330
1F
100
AcDbEntity
  8
0
  6
Continuous
 62
     7
100
AcDbLine
 10
577.6820765885
 20
397.655098247
 30
0.0
 11
408.3334475796
 21
440.2195489343
 31
0.0
  0
LINE
  5
20C
330
1F
100
AcDbEntity
  8
0
  6
Continuous
 62
     7
100
AcDbLine
 10
411.8858581579
 20
237.8093239616
 30
0.0
 11
581.2344871668
 21
195.2448732743
 31
0.0
  0
LINE
  5
20D
330
1F
100
AcDbEntity
  8
0
  6
Continuous
 62
     7
100
AcDbLine
 10
403.300605415
 20
436.8771981536
 30
0.0
 11
411.8858581579
 21
237.8093239616
 31
0.0
  0
LINE
  5
20E
330
1F
100
AcDbEntity
  8
0
  6
Continuous
 62
     7
100
AcDbLine
 10
581.2344871668
 20
195.2448732743
 30
0.0
 11
572.6492344239
 21
394.3127474663
 31
0.0
  0
LWPOLYLINE
  5
20F
330
1F
100
AcDbEntity
  8
0
  6
Continuous
 62
     7
100
AcDbPolyline
 90
      150
 70
   128
 43
0.0
 10
573.836445838
 20
295.5593320822
 10
573.6018891121
 20
299.3348900435
 10
573.2227228928
 20
303.1401864814
 10
572.6996213238
 20
306.9684557178
 10
572.0335144606
 20
310.8128912296
 10
571.2255866169
 20
314.6666577507
 10
570.277274259
 20
318.522903425
 10
569.1902634515
 20
322.3747719883
 10
567.96648686
 20
326.2154149589
 10
566.6081203147
 20
330.0380038138
 10
565.1175789417
 20
333.8357421295
 10
563.4975128691
 20
337.6018776659
 10
561.7508025154
 20
341.3297143713
 10
559.8805534677
 20
345.0126242882
 10
557.8900909607
 20
348.6440593371
 10
555.7829539641
 20
352.2175629591
 10
553.5628888904
 20
355.7267815952
 10
551.2338429345
 20
359.1654759825
 10
548.799957055
 20
362.5275322481
 10
546.2655586122
 20
365.8069727786
 10
543.635153674
 20
368.9979668483
 10
540.9134190045
 20
372.0948409863
 10
538.1051937485
 20
375.0920890633
 10
535.2154708281
 20
377.9843820818
 10
532.2493880651
 20
380.7665776501
 10
529.2122190466
 20
383.4337291262
 10
526.1093637481
 20
385.981094412
 10
522.9463389331
 20
388.4041443851
 10
519.7287683444
 20
390.698570951
 10
516.4623727051
 20
392.8602947029
 10
513.1529595473
 20
394.885472175
 10
509.8064128869
 20
396.7705026757
 10
506.4286827617
 20
398.5120346894
 10
503.0257746527
 20
400.1069718358
 10
499.6037388063
 20
401.5524783748
 10
496.1686594773
 20
402.8459842487
 10
492.7266441114
 20
403.9851896511
 10
489.2838124863
 20
404.9680691164
 10
485.8462858311
 20
405.7928751209
 10
482.4201759426
 20
406.4581411894
 10
479.0115743192
 20
406.9626845033
 10
475.6265413303
 20
407.3056080028
 10
472.2710954409
 20
407.4863019827
 10
468.9512025113
 20
407.5044451755
 10
465.6727651902
 20
407.3600053233
 10
462.4416124193
 20
407.053239235
 10
459.2634890704
 20
406.5846923293
 10
456.1440457308
 20
405.9551976657
 10
453.0888286569
 20
405.1658744626
 10
450.1032699133
 20
404.218126108
 10
447.1926777143
 20
403.1136376637
 10
444.3622269868
 20
401.85437287
 10
441.6169501688
 20
400.4425706537
 10
438.9617282623
 20
398.8807411476
 10
436.4012821549
 20
397.1716612276
 10
433.9401642265
 20
395.3183695753
 10
431.5827502548
 20
393.3241612758
 10
429.3332316359
 20
391.1925819587
 10
427.1956079319
 20
388.927421494
 10
425.1736797595
 20
386.5327072546
 10
423.2710420334
 20
384.0126969549
 10
421.4910775739
 20
381.3718710813
 10
419.836951093
 20
378.6149249258
 10
418.3116035672
 20
375.746760238
 10
416.9177470086
 20
372.7724765101
 10
415.6578596434
 20
369.6973619101
 10
414.5341815053
 20
366.5268838795
 10
413.5487104532
 20
363.2666794124
 10
412.7031986184
 20
359.9225450336
 10
411.9991492903
 20
356.5004264918
 10
411.4378142428
 20
353.006408189
 10
411.0201915091
 20
349.4467023621
 10
410.7470236073
 20
345.8276380383
 10
410.61879622
 20
342.1556497819
 10
410.6357373306
 20
338.4372662539
 10
410.7978168185
 20
334.6790986045
 10
411.1047465124
 20
330.8878287188
 10
411.5559807025
 20
327.0701973362
 10
412.1507171107
 20
323.232992066
 10
412.8878983175
 20
319.3830353191
 10
413.7662136416
 20
315.5271721782
 10
414.7841014704
 20
311.6722582271
 10
415.9397520365
 20
307.8251473622
 10
417.2311106354
 20
303.9926796063
 10
418.6558812785
 20
300.1816689471
 10
420.2115307757
 20
296.3988912226
 10
421.895293239
 20
292.6510720734
 10
423.7041750001
 20
288.9448749853
 10
425.6349599332
 20
285.2868894414
 10
427.6842151733
 20
281.6836192066
 10
429.8482972193
 20
278.1414707637
 10
432.1233584123
 20
274.6667419236
 10
434.5053537764
 20
271.2656106272
 10
436.990048211
 20
267.9441239619
 10
439.5730240199
 20
264.7081874097
 10
442.2496887663
 20
261.5635543478
 10
445.0152834382
 20
258.515815819
 10
447.8648909091
 20
255.5703905912
 10
450.7934446808
 20
252.7325155229
 10
453.7957378917
 20
250.0072362525
 10
456.866432574
 20
247.399398227
 10
460.0000691445
 20
244.9136380873
 10
463.1910761119
 20
242.5543754242
 10
466.4337799822
 20
240.3258049206
 10
469.7224153462
 20
238.2318888935
 10
473.0511351303
 20
236.2763502493
 10
476.4140209922
 20
234.4626658643
 10
479.8050938435
 20
232.7940604031
 10
483.2183244805
 20
231.2735005853
 10
486.6476443036
 20
229.9036899108
 10
490.0869561074
 20
228.687063853
 10
493.5301449209
 20
227.6257855287
 10
496.9710888802
 20
226.7217418519
 10
500.4036701124
 20
225.9765401793
 10
503.8217856133
 20
225.3915054524
 10
507.2193580984
 20
224.9676778414
 10
510.5903468077
 20
224.7058108965
 10
513.9287582463
 20
224.6063702075
 10
517.2286568406
 20
224.6695325763
 10
520.4841754912
 20
224.8951857025
 10
523.6895260048
 20
225.2829283831
 10
526.8390093852
 20
225.8320712258
 10
529.9270259658
 20
226.5416378746
 10
532.9480853658
 20
227.410366746
 10
535.8968162519
 20
228.4367132716
 10
538.7679758882
 20
229.6188526449
 10
541.5564594576
 20
230.9546830651
 10
544.2573091381
 20
232.4418294746
 10
546.8657229176
 20
234.0776477812
 10
549.3770631314
 20
235.8592295598
 10
551.7868647084
 20
237.7834072229
 10
554.0908431093
 20
239.8467596528
 10
556.2849019445
 20
242.0456182843
 10
558.3651402576
 20
244.376073627
 10
560.3278594607
 20
246.8339822163
 10
562.1695699107
 20
249.4149739803
 10
563.8869971137
 20
252.11446001
 10
565.4770875467
 20
254.9276407177
 10
566.937014087
 20
257.8495143708
 10
568.2641810385
 20
260.8748859845
 10
569.4562287467
 20
263.9983765586
 10
570.5110377944
 20
267.2144326406
 10
571.4267327695
 20
270.5173362004
 10
572.2016855998
 20
273.9012147959
 10
572.8345184475
 20
277.3600520144
 10
573.3241061588
 20
280.8876981697
 10
573.6695782646
 20
284.4778812355
 10
573.8703205282
 20
288.1242179974
 10
573.9259760372
 20
291.8202254017
 10
573.836445838
 20
295.5593320822
  0
LINE
  5
210
330
1F
100
AcDbEntity
  8
0
  6
Continuous
 62
     7
100
AcDbLine
 10
581.2344871668
 20
195.2448732743
 30
0.0
 11
586.2673293314
 21
198.587224055
 31
0.0
  0
LINE
  5
211
330
1F
100
AcDbEntity
  8
0
  6
Continuous
 62
     7
100
AcDbLine
 10
586.2673293314
 20
198.587224055
 30
0.0
 11
577.6820765885
 21
397.655098247
 31
0.0
  0
LWPOLYLINE
  5
212
330
1F
100
AcDbEntity
  8
0
  6
Continuous
 62
     7
100
AcDbPolyline
 90
       76
 70
   128
 43
0.0
 10
438.4776163455
 20
398.5735553019
 10
437.7992938673
 20
398.100092
 10
435.3381759389
 20
396.2468003477
 10
432.9807619672
 20
394.2525920483
 10
430.7312433483
 20
392.1210127311
 10
428.5936196442
 20
389.8558522665
 10
426.5716914719
 20
387.461138027
 10
424.6690537457
 20
384.9411277273
 10
422.8890892863
 20
382.3003018537
 10
421.2349628054
 20
379.5433556982
 10
419.7096152795
 20
376.6751910104
 10
418.315758721
 20
373.7009072826
 10
417.0558713558
 20
370.6257926825
 10
415.9321932177
 20
367.4553146519
 10
414.9467221655
 20
364.1951101849
 10
414.1012103308
 20
360.850975806
 10
413.3971610027
 20
357.4288572642
 10
412.8358259552
 20
353.9348389614
 10
412.4182032215
 20
350.3751331345
 10
412.1450353197
 20
346.7560688107
 10
412.0168079323
 20
343.0840805543
 10
412.033749043
 20
339.3656970263
 10
412.1958285309
 20
335.6075293769
 10
412.5027582248
 20
331.8162594912
 10
412.9539924148
 20
327.9986281086
 10
413.5487288231
 20
324.1614228384
 10
414.2859100299
 20
320.3114660915
 10
415.164225354
 20
316.4556029506
 10
416.1821131828
 20
312.6006889995
 10
417.3377637489
 20
308.7535781347
 10
418.6291223477
 20
304.9211103787
 10
420.0538929909
 20
301.1100997196
 10
421.6095424881
 20
297.327321995
 10
423.2933049514
 20
293.5795028459
 10
425.1021867125
 20
289.8733057577
 10
427.0329716456
 20
286.2153202139
 10
429.0822268857
 20
282.612049979
 10
431.2463089317
 20
279.0699015362
 10
433.5213701246
 20
275.595172696
 10
435.9033654888
 20
272.1940413996
 10
438.3880599233
 20
268.8725547343
 10
440.9710357322
 20
265.6366181821
 10
443.6477004787
 20
262.4919851202
 10
446.4132951506
 20
259.4442465914
 10
449.2629026215
 20
256.4988213636
 10
452.1914563932
 20
253.6609462953
 10
455.1937496041
 20
250.9356670249
 10
458.2644442863
 20
248.3278289994
 10
461.3980808569
 20
245.8420688597
 10
464.5890878243
 20
243.4828061966
 10
467.8317916946
 20
241.254235693
 10
471.1204270586
 20
239.160319666
 10
474.4491468427
 20
237.2047810217
 10
477.8120327046
 20
235.3910966367
 10
481.2031055559
 20
233.7224911755
 10
484.6163361929
 20
232.2019313577
 10
488.045656016
 20
230.8321206832
 10
491.4849678198
 20
229.6154946254
 10
494.9281566333
 20
228.5542163011
 10
498.3691005926
 20
227.6501726243
 10
501.8016818247
 20
226.9049709517
 10
505.2197973257
 20
226.3199362248
 10
508.6173698107
 20
225.8961086138
 10
511.98835852
 20
225.6342416689
 10
515.3267699587
 20
225.5348009799
 10
518.626668553
 20
225.5979633487
 10
521.8821872036
 20
225.8236164749
 10
525.0875377172
 20
226.2113591555
 10
528.2370210976
 20
226.7605019982
 10
531.3250376782
 20
227.470068647
 10
534.3460970782
 20
228.3387975184
 10
537.2948279643
 20
229.365144044
 10
540.1659876006
 20
230.5472834173
 10
542.95447117
 20
231.8831138375
 10
545.6553208505
 20
233.370260247
 10
547.4554879468
 20
234.4769468972
  0
LWPOLYLINE
  5
213
330
1F
100
AcDbEntity
  8
0
  6
Continuous
 62
     7
100
AcDbPolyline
 90
      141
 70
   128
 43
0.0
 10
566.5392956697
 20
298.6732236478
 10
566.3118463019
 20
302.2641254471
 10
565.9380969773
 20
305.8846821236
 10
565.4188003775
 20
309.5276023579
 10
564.7550022967
 20
313.1855497935
 10
563.9480395359
 20
316.8511578111
 10
562.9995372106
 20
320.517044364
 10
561.9114054783
 20
324.1758268445
 10
560.6858356916
 20
327.8201369516
 10
559.3252959848
 20
331.4426355298
 10
557.8325263039
 20
335.036027349
 10
556.2105328883
 20
338.5930757962
 10
554.462582217
 20
342.1066174494
 10
552.59219443
 20
345.5695765033
 10
550.6031362393
 20
348.974979019
 10
548.4994133434
 20
352.3159669692
 10
546.2852623603
 20
355.5858120489
 10
543.9651422954
 20
358.777929225
 10
541.5437255617
 20
361.8858899985
 10
539.0258885704
 20
364.90343535
 10
536.4167019099
 20
367.8244883447
 10
533.721420135
 20
370.6431663707
 10
530.9454711846
 20
373.3537929854
 10
528.0944454503
 20
375.9509093477
 10
525.1740845186
 20
378.4292852108
 10
522.1902696077
 20
380.7839294556
 10
519.1490097238
 20
383.0101001419
 10
516.0564295595
 20
385.1033140582
 10
512.9187571598
 20
387.0593557503
 10
509.7423113792
 20
388.8742860105
 10
506.5334891568
 20
390.5444498108
 10
503.2987526336
 20
392.0664836635
 10
500.0446161385
 20
393.4373223952
 10
496.7776330692
 20
394.6542053188
 10
493.5043826948
 20
395.7146817944
 10
490.2314569061
 20
396.6166161632
 10
486.96544694
 20
397.3581920496
 10
483.7129301059
 20
397.9379160184
 10
480.4804565399
 20
398.3546205826
 10
477.2745360135
 20
398.6074665548
 10
474.101624824
 20
398.6959447368
 10
470.9681127923
 20
398.6198769453
 10
467.8803103947
 20
398.3794163707
 10
464.8444360541
 20
397.9750472687
 10
461.8666036176
 20
397.4075839847
 10
458.9528100433
 20
396.6781693144
 10
456.1089233238
 20
395.7882722017
 10
453.3406706683
 20
394.7396847811
 10
450.6536269695
 20
393.534518768
 10
448.0532035755
 20
392.1752012065
 10
445.5446373932
 20
390.6644695811
 10
443.1329803409
 20
389.0053663044
 10
440.8230891751
 20
387.2012325895
 10
438.619615709
 20
385.2557017216
 10
436.526997445
 20
383.1726917411
 10
434.5494486379
 20
380.9563975527
 10
432.6909518077
 20
378.611282478
 10
430.9552497197
 20
376.1420692667
 10
429.345837847
 20
373.5537305856
 10
427.8659573308
 20
370.8514790043
 10
426.5185884536
 20
368.0407564979
 10
425.306444637
 20
365.1272234875
 10
424.2319669772
 20
362.1167474407
 10
423.2973193294
 20
359.0153910558
 10
422.5043839495
 20
355.8294000517
 10
421.8547577038
 20
352.5651905903
 10
421.3497488532
 20
349.2293363551
 10
420.9903744182
 20
345.8285553126
 10
420.7773581311
 20
342.3696961831
 10
420.7111289784
 20
338.8597246487
 10
420.7918203368
 20
335.3057093249
 10
421.0192697047
 20
331.7148075256
 10
421.3930190292
 20
328.0942508492
 10
421.912315629
 20
324.4513306148
 10
422.5761137098
 20
320.7933831792
 10
423.3830764707
 20
317.1277751616
 10
424.331578796
 20
313.4618886087
 10
425.4197105283
 20
309.8031061282
 10
426.645280315
 20
306.1587960211
 10
428.0058200218
 20
302.536297443
 10
429.4985897027
 20
298.9429056238
 10
431.1205831182
 20
295.3858571765
 10
432.8685337895
 20
291.8723155233
 10
434.7389215766
 20
288.4093564695
 10
436.7279797673
 20
285.0039539537
 10
438.8317026632
 20
281.6629660035
 10
441.0458536463
 20
278.3931209239
 10
443.3659737112
 20
275.2010037478
 10
445.7873904448
 20
272.0930429742
 10
448.3052274362
 20
269.0754976228
 10
450.9144140967
 20
266.154444628
 10
453.6096958715
 20
263.3357666021
 10
456.385644822
 20
260.6251399873
 10
459.2366705562
 20
258.028023625
 10
462.157031488
 20
255.5496477619
 10
465.1408463989
 20
253.1950035171
 10
468.1821062828
 20
250.9688328308
 10
471.274686447
 20
248.8756189145
 10
474.4123588468
 20
246.9195772224
 10
477.5888046274
 20
245.1046469623
 10
480.7976268497
 20
243.434483162
 10
484.0323633729
 20
241.9124493092
 10
487.2864998681
 20
240.5416105776
 10
490.5534829374
 20
239.3247276539
 10
493.8267333117
 20
238.2642511784
 10
497.0996591004
 20
237.3623168096
 10
500.3656690665
 20
236.6207409232
 10
503.6181859006
 20
236.0410169544
 10
506.8506594667
 20
235.6243123901
 10
510.0565799931
 20
235.371466418
 10
513.2294911826
 20
235.282988236
 10
516.3630032142
 20
235.3590560275
 10
519.4508056119
 20
235.599516602
 10
522.4866799524
 20
236.0038857041
 10
525.4645123889
 20
236.571348988
 10
528.3783059632
 20
237.3007636584
 10
531.2221926828
 20
238.1906607711
 10
533.9904453382
 20
239.2392481917
 10
536.6774890371
 20
240.4444142047
 10
539.277912431
 20
241.8037317663
 10
541.7864786134
 20
243.3144633916
 10
544.1981356656
 20
244.9735666684
 10
546.5080268315
 20
246.7777003833
 10
548.7115002976
 20
248.7232312511
 10
550.8041185615
 20
250.8062412317
 10
552.7816673686
 20
253.0225354201
 10
554.6401641988
 20
255.3676504948
 10
556.3758662868
 20
257.8368637061
 10
557.9852781595
 20
260.4252023872
 10
559.4651586757
 20
263.1274539685
 10
560.812527553
 20
265.9381764749
 10
562.0246713696
 20
268.8517094853
 10
563.0991490293
 20
271.862185532
 10
564.0337966771
 20
274.963541917
 10
564.826732057
 20
278.149532921
 10
565.4763583027
 20
281.4137423824
 10
565.9813671534
 20
284.7495966176
 10
566.3407415884
 20
288.1503776602
 10
566.5537578754
 20
291.6092367896
 10
566.6199870281
 20
295.119208324
 10
566.5392956697
 20
298.6732236478
  0
LWPOLYLINE
  5
214
330
1F
100
AcDbEntity
  8
0
  6
Continuous
 62
     7
100
AcDbPolyline
 90
       20
 70
   128
 43
0.0
 10
462.1186454699
 20
402.0282975952
 10
462.0237038902
 20
402.5316848038
 10
461.7909819496
 20
403.0177381185
 10
461.4456986813
 20
403.4337861207
 10
461.0252708851
 20
403.7347435536
 10
460.5752584363
 20
403.8879970097
 10
460.1444271665
 20
403.876939099
 10
459.7794643287
 20
403.7027681177
 10
459.5199193094
 20
403.3843581941
 10
459.3939178387
 20
402.9562139841
 10
459.4151141311
 20
402.4647315563
 10
459.5812112393
 20
401.9631706577
 10
459.8742099645
 20
401.5058831943
 10
460.2623593485
 20
401.1424233583
 10
460.7035973826
 20
400.9121776626
 10
461.1501090795
 20
400.8400968009
 10
461.5535079683
 20
400.9339918531
 10
461.8700795202
 20
401.1836878332
 10
462.0655182954
 20
401.5621263076
 10
462.1186454699
 20
402.0282975952
  0
LWPOLYLINE
  5
215
330
1F
100
AcDbEntity
  8
0
  6
Continuous
 62
     7
100
AcDbPolyline
 90
       20
 70
   128
 43
0.0
 10
521.2212839823
 20
387.1733126026
 10
521.1263424026
 20
387.6766998112
 10
520.893620462
 20
388.1627531259
 10
520.5483371937
 20
388.578801128
 10
520.1279093975
 20
388.879758561
 10
519.6778969487
 20
389.0330120171
 10
519.2470656789
 20
389.0219541064
 10
518.8821028411
 20
388.847783125
 10
518.6225578218
 20
388.5293732015
 10
518.4965563511
 20
388.1012289915
 10
518.5177526435
 20
387.6097465636
 10
518.6838497517
 20
387.1081856651
 10
518.9768484769
 20
386.6508982017
 10
519.3649978609
 20
386.2874383657
 10
519.806235895
 20
386.05719267
 10
520.2527475918
 20
385.9851118083
 10
520.6561464807
 20
386.0790068604
 10
520.9727180326
 20
386.3287028406
 10
521.1681568077
 20
386.7071413149
 10
521.2212839823
 20
387.1733126026
  0
LWPOLYLINE
  5
216
330
1F
100
AcDbEntity
  8
0
  6
Continuous
 62
     7
100
AcDbPolyline
 90
       20
 70
   128
 43
0.0
 10
564.9825603219
 20
331.00440604
 10
564.8876187422
 20
331.5077932487
 10
564.6548968015
 20
331.9938465633
 10
564.3096135333
 20
332.4098945655
 10
563.8891857371
 20
332.7108519984
 10
563.4391732883
 20
332.8641054545
 10
563.0083420185
 20
332.8530475438
 10
562.6433791807
 20
332.6788765625
 10
562.3838341614
 20
332.3604666389
 10
562.2578326907
 20
331.9323224289
 10
562.2790289831
 20
331.4408400011
 10
562.4451260913
 20
330.9392791025
 10
562.7381248165
 20
330.4819916391
 10
563.1262742004
 20
330.1185318031
 10
563.5675122346
 20
329.8882861074
 10
564.0140239314
 20
329.8162052457
 10
564.4174228203
 20
329.9101002979
 10
564.7339943722
 20
330.1597962781
 10
564.9294331473
 20
330.5382347524
 10
564.9825603219
 20
331.00440604
  0
LWPOLYLINE
  5
217
330
1F
100
AcDbEntity
  8
0
  6
Continuous
 62
     7
100
AcDbPolyline
 90
       20
 70
   128
 43
0.0
 10
567.7677123158
 20
266.4245615882
 10
567.672770736
 20
266.9279487968
 10
567.4400487954
 20
267.4140021115
 10
567.0947655271
 20
267.8300501137
 10
566.6743377309
 20
268.1310075466
 10
566.2243252821
 20
268.2842610027
 10
565.7934940123
 20
268.273203092
 10
565.4285311745
 20
268.0990321107
 10
565.1689861552
 20
267.7806221871
 10
565.0429846845
 20
267.3524779771
 10
565.0641809769
 20
266.8609955493
 10
565.2302780852
 20
266.3594346507
 10
565.5232768104
 20
265.9021471873
 10
565.9114261943
 20
265.5386873513
 10
566.3526642284
 20
265.3084416556
 10
566.7991759253
 20
265.2363607939
 10
567.2025748141
 20
265.3302558461
 10
567.519146366
 20
265.5799518262
 10
567.7145851412
 20
265.9583903005
 10
567.7677123158
 20
266.4245615882
  0
LWPOLYLINE
  5
218
330
1F
100
AcDbEntity
  8
0
  6
Continuous
 62
     7
100
AcDbPolyline
 90
       20
 70
   128
 43
0.0
 10
527.9452356991
 20
231.2637762711
 10
527.8502941194
 20
231.7671634797
 10
527.6175721787
 20
232.2532167944
 10
527.2722889104
 20
232.6692647965
 10
526.8518611142
 20
232.9702222295
 10
526.4018486655
 20
233.1234756856
 10
525.9710173957
 20
233.1124177749
 10
525.6060545579
 20
232.9382467935
 10
525.3465095386
 20
232.6198368699
 10
525.2205080679
 20
232.19169266
 10
525.2417043603
 20
231.7002102321
 10
525.4078014685
 20
231.1986493336
 10
525.7008001937
 20
230.7413618702
 10
526.0889495776
 20
230.3779020342
 10
526.5301876118
 20
230.1476563385
 10
526.9766993086
 20
230.0755754768
 10
527.3800981975
 20
230.1694705289
 10
527.6966697494
 20
230.4191665091
 10
527.8921085245
 20
230.7976049834
 10
527.9452356991
 20
231.2637762711
  0
LWPOLYLINE
  5
219
330
1F
100
AcDbEntity
  8
0
  6
Continuous
 62
     7
100
AcDbPolyline
 90
       20
 70
   128
 43
0.0
 10
468.8425971867
 20
246.1187612637
 10
468.747655607
 20
246.6221484723
 10
468.5149336663
 20
247.108201787
 10
468.169650398
 20
247.5242497891
 10
467.7492226019
 20
247.8252072221
 10
467.2992101531
 20
247.9784606782
 10
466.8683788833
 20
247.9674027675
 10
466.5034160455
 20
247.7932317862
 10
466.2438710262
 20
247.4748218626
 10
466.1178695555
 20
247.0466776526
 10
466.1390658479
 20
246.5551952247
 10
466.3051629561
 20
246.0536343262
 10
466.5981616813
 20
245.5963468628
 10
466.9863110652
 20
245.2328870268
 10
467.4275490994
 20
245.0026413311
 10
467.8740607962
 20
244.9305604694
 10
468.2774596851
 20
245.0244555216
 10
468.594031237
 20
245.2741515017
 10
468.7894700121
 20
245.652589976
 10
468.8425971867
 20
246.1187612637
  0
LWPOLYLINE
  5
21A
330
1F
100
AcDbEntity
  8
0
  6
Continuous
 62
     7
100
AcDbPolyline
 90
       20
 70
   128
 43
0.0
 10
425.0813208471
 20
302.2876678263
 10
424.9863792674
 20
302.7910550349
 10
424.7536573267
 20
303.2771083495
 10
424.4083740584
 20
303.6931563517
 10
423.9879462623
 20
303.9941137847
 10
423.5379338135
 20
304.1473672408
 10
423.1071025437
 20
304.1363093301
 10
422.7421397059
 20
303.9621383487
 10
422.4825946866
 20
303.6437284251
 10
422.3565932159
 20
303.2155842152
 10
422.3777895083
 20
302.7241017873
 10
422.5438866165
 20
302.2225408887
 10
422.8368853417
 20
301.7652534254
 10
423.2250347256
 20
301.4017935894
 10
423.6662727598
 20
301.1715478936
 10
424.1127844566
 20
301.099467032
 10
424.5161833455
 20
301.1933620841
 10
424.8327548974
 20
301.4430580643
 10
425.0281936725
 20
301.8214965386
 10
425.0813208471
 20
302.2876678263
  0
LWPOLYLINE
  5
21B
330
1F
100
AcDbEntity
  8
0
  6
Continuous
 62
     7
100
AcDbPolyline
 90
       20
 70
   128
 43
0.0
 10
422.2961688533
 20
366.8675122781
 10
422.2012272736
 20
367.3708994867
 10
421.9685053329
 20
367.8569528014
 10
421.6232220646
 20
368.2730008035
 10
421.2027942684
 20
368.5739582365
 10
420.7527818197
 20
368.7272116926
 10
420.3219505498
 20
368.7161537819
 10
419.9569877121
 20
368.5419828005
 10
419.6974426928
 20
368.223572877
 10
419.5714412221
 20
367.795428667
 10
419.5926375144
 20
367.3039462391
 10
419.7587346227
 20
366.8023853406
 10
420.0517333479
 20
366.3450978772
 10
420.4398827318
 20
365.9816380412
 10
420.881120766
 20
365.7513923455
 10
421.3276324628
 20
365.6793114838
 10
421.7310313517
 20
365.7732065359
 10
422.0476029036
 20
366.0229025161
 10
422.2430416787
 20
366.4013409904
 10
422.2961688533
 20
366.8675122781
  0
LWPOLYLINE
  5
21C
330
1F
100
AcDbEntity
  8
0
  6
Continuous
 62
     7
100
AcDbPolyline
 90
       71
 70
   128
 43
0.0
 10
446.8265282693
 20
391.4622875086
 10
446.7678107931
 20
391.4192863127
 10
444.4579196272
 20
389.6151525978
 10
442.2544461612
 20
387.6696217299
 10
440.1618278972
 20
385.5866117493
 10
438.1842790901
 20
383.3703175609
 10
436.3257822599
 20
381.0252024863
 10
434.5900801719
 20
378.555989275
 10
432.9806682992
 20
375.9676505939
 10
431.500787783
 20
373.2653990126
 10
430.1534189058
 20
370.4546765062
 10
428.9412750891
 20
367.5411434957
 10
427.8667974294
 20
364.530667449
 10
426.9321497816
 20
361.4293110641
 10
426.1392144017
 20
358.24332006
 10
425.489588156
 20
354.9791105986
 10
424.9845793054
 20
351.6432563634
 10
424.6252048704
 20
348.2424753209
 10
424.4121885833
 20
344.7836161914
 10
424.3459594306
 20
341.273644657
 10
424.426650789
 20
337.7196293332
 10
424.6541001569
 20
334.1287275339
 10
425.0278494814
 20
330.5081708574
 10
425.5471460812
 20
326.8652506231
 10
426.210944162
 20
323.2073031875
 10
427.0179069229
 20
319.5416951699
 10
427.9664092482
 20
315.875808617
 10
429.0545409804
 20
312.2170261365
 10
430.2801107672
 20
308.5727160294
 10
431.640650474
 20
304.9502174513
 10
433.1334201549
 20
301.3568256321
 10
434.7554135704
 20
297.7997771848
 10
436.5033642417
 20
294.2862355316
 10
438.3737520288
 20
290.8232764778
 10
440.3628102195
 20
287.417873962
 10
442.4665331154
 20
284.0768860118
 10
444.6806840984
 20
280.8070409322
 10
447.0008041633
 20
277.614923756
 10
449.422220897
 20
274.5069629825
 10
451.9400578884
 20
271.489417631
 10
454.5492445488
 20
268.5683646363
 10
457.2445263237
 20
265.7496866104
 10
460.0204752741
 20
263.0390599956
 10
462.8715010084
 20
260.4419436333
 10
465.7918619402
 20
257.9635677702
 10
468.775676851
 20
255.6089235254
 10
471.8169367349
 20
253.3827528391
 10
474.9095168992
 20
251.2895389228
 10
478.047189299
 20
249.3334972307
 10
481.2236350796
 20
247.5185669705
 10
484.4324573019
 20
245.8484031703
 10
487.6671938251
 20
244.3263693175
 10
490.9213303203
 20
242.9555305859
 10
494.1883133896
 20
241.7386476622
 10
497.4615637639
 20
240.6781711867
 10
500.7344895526
 20
239.7762368178
 10
504.0004995187
 20
239.0346609315
 10
507.2530163528
 20
238.4549369627
 10
510.4854899189
 20
238.0382323984
 10
513.6914104453
 20
237.7853864262
 10
516.8643216347
 20
237.6969082443
 10
519.9978336664
 20
237.7729760357
 10
523.0856360641
 20
238.0134366103
 10
526.1215104046
 20
238.4178057124
 10
529.0993428411
 20
238.9852689963
 10
532.0131364154
 20
239.7146836667
 10
534.857023135
 20
240.6045807793
 10
537.6252757904
 20
241.6531682
 10
540.3123194893
 20
242.858334213
 10
542.9127428832
 20
244.2176517746
 10
544.1394181894
 20
244.9305654724
  0
LINE
  5
21D
330
1F
100
AcDbEntity
  8
0
  6
Continuous
 62
     7
100
AcDbLine
 10
910.6882534574
 20
500.8284868901
 30
0.0
 11
905.741827189
 21
615.522205477
 31
0.0
  0
LINE
  5
21E
330
1F
100
AcDbEntity
  8
0
  6
Continuous
 62
     7
100
AcDbLine
 10
905.741827189
 20
615.522205477
 30
0.0
 11
910.7746693536
 21
618.8645562577
 31
0.0
  0
LINE
  5
21F
330
1F
100
AcDbEntity
  8
0
  6
Continuous
 62
     7
100
AcDbLine
 10
915.7210956219
 20
504.1708376708
 30
0.0
 11
910.7746693536
 21
618.8645562577
 31
0.0
  0
LINE
  5
220
330
1F
100
AcDbEntity
  8
0
  6
Continuous
 62
     7
100
AcDbLine
 10
905.741827189
 20
615.522205477
 30
0.0
 11
701.4721427553
 21
666.8637897631
 31
0.0
  0
LINE
  5
221
330
1F
100
AcDbEntity
  8
0
  6
Continuous
 62
     7
100
AcDbLine
 10
807.0615589226
 20
443.4146793325
 30
0.0
 11
819.5204675781
 21
440.2832302845
 31
0.0
  0
LINE
  5
222
330
1F
100
AcDbEntity
  8
0
  6
Continuous
 62
     7
100
AcDbLine
 10
519.1053570096
 20
663.124821873
 30
0.0
 11
524.8089164338
 21
530.8753140371
 31
0.0
  0
LINE
  5
223
330
1F
100
AcDbEntity
  8
0
  6
Continuous
 62
     7
100
AcDbLine
 10
910.7746693536
 20
618.8645562577
 30
0.0
 11
706.5049849199
 21
670.2061405438
 31
0.0
  0
LINE
  5
224
330
1F
100
AcDbEntity
  8
0
  6
Continuous
 62
     8
370
     0
100
AcDbLine
 10
672.2345093716
 20
119.8442848236
 30
0.0
 11
672.3906048761
 21
116.2248689292
 31
0.0
  0
ARC
  5
225
330
1F
100
AcDbEntity
  8
0
  6
Continuous
 62
     8
370
     0
100
AcDbCircle
 10
667.8559695503
 20
124.8796460031
 30
0.0
 40
9.77077702829577
100
AcDbArc
 50
255.7691634382
 51
297.6521083563
  0
LINE
  5
226
330
1F
100
AcDbEntity
  8
0
  6
Continuous
 62
     8
370
     0
100
AcDbLine
 10
665.4540281748
 20
115.4087030002
 30
0.0
 11
665.2979326704
 21
119.0281188946
 31
0.0
  0
ARC
  5
227
330
1F
100
AcDbEntity
  8
0
  6
Continuous
 62
     8
370
     0
100
AcDbCircle
 10
669.0105645793
 20
115.8471915584
 30
0.0
 40
3.40107521292135
100
AcDbArc
 50
306.1355448944
 51
6.3756430449
  0
LWPOLYLINE
  5
228
330
1F
100
AcDbEntity
  8
0
  6
Continuous
 62
     8
370
     0
100
AcDbPolyline
 90
        7
 70
   128
 43
0.0
 10
665.4540281748
 20
115.4087030002
 10
665.5458188837
 20
114.5617408087
 10
665.7415317393
 20
113.818685047
 10
666.0336456063
 20
113.2080909314
 10
666.4109347127
 20
112.7534232514
 10
666.8589000496
 20
112.4721546308
 10
667.031248902
 20
112.4163872968
  0
LINE
  5
229
330
1F
100
AcDbEntity
  8
0
  6
Continuous
 62
     8
370
     0
100
AcDbLine
 10
269.8750947645
 20
218.414550206
 30
0.0
 11
270.0311902689
 21
214.7951343116
 31
0.0
  0
LINE
  5
22A
330
1F
100
AcDbEntity
  8
0
  6
Continuous
 62
     8
370
     0
100
AcDbLine
 10
270.0311902689
 20
214.7951343116
 30
0.0
 11
665.4540281748
 21
115.4087030002
 31
0.0
  0
LINE
  5
22B
330
1F
100
AcDbEntity
  8
0
  6
Continuous
 62
     8
370
     0
100
AcDbLine
 10
835.6783728819
 20
224.6655831477
 30
0.0
 11
835.5222773775
 21
228.2849990421
 31
0.0
  0
LINE
  5
22C
330
1F
100
AcDbEntity
  8
0
  6
Continuous
 62
     8
370
     0
100
AcDbLine
 10
672.3906048761
 20
116.2248689292
 30
0.0
 11
835.6783728819
 21
224.6655831477
 31
0.0
  0
LWPOLYLINE
  5
22D
330
1F
100
AcDbEntity
  8
0
  6
Continuous
 62
     8
370
     0
100
AcDbPolyline
 90
        7
 70
   128
 43
0.0
 10
270.0311902689
 20
214.7951343116
 10
270.1229809777
 20
213.9481721201
 10
270.3186938333
 20
213.2051163584
 10
270.6108077004
 20
212.5945222428
 10
270.9880968067
 20
212.1398545628
 10
271.4360621437
 20
211.8585859422
 10
271.6084109961
 20
211.8028186082
  0
ARC
  5
22E
330
1F
100
AcDbEntity
  8
0
  6
Continuous
 62
     8
370
     0
100
AcDbCircle
 10
832.2444947059
 20
224.311588737
 30
0.0
 40
3.452076385346234
100
AcDbArc
 50
306.6254254458
 51
5.8857624935
  0
ARC
  5
22F
330
1F
100
AcDbEntity
  8
0
  6
Continuous
 62
     8
370
     0
100
AcDbCircle
 10
835.0625071301
 20
226.0035971794
 30
0.0
 40
1.472946765241404
100
AcDbArc
 50
294.7158342654
 51
356.813236424
  0
LWPOLYLINE
  5
230
330
1F
100
AcDbEntity
  8
0
  6
Continuous
 62
     8
370
     0
100
AcDbPolyline
 90
        6
 70
   128
 43
0.0
 10
270.0311902689
 20
214.7951343116
 10
269.2771332029
 20
215.0338430283
 10
268.6595037393
 20
215.3347364508
 10
268.202037032
 20
215.6862514134
 10
267.9223132699
 20
216.0748793935
 10
267.8318571194
 20
216.4365597952
  0
LWPOLYLINE
  5
231
330
1F
100
AcDbEntity
  8
0
  6
Continuous
 62
     8
370
     0
100
AcDbPolyline
 90
        9
 70
   128
 43
0.0
 10
643.0213391466
 20
635.5596934263
 10
643.0369980499
 20
636.4780137657
 10
643.1595048025
 20
637.4324017172
 10
643.3841515386
 20
638.3861806872
 10
643.7023052102
 20
639.3026974847
 10
644.10173935
 20
640.1467308831
 10
644.5671039281
 20
640.8858451524
 10
645.0805152447
 20
641.4916365455
 10
645.6222431908
 20
641.9408248392
  0
ARC
  5
232
330
1F
100
AcDbEntity
  8
0
  6
Continuous
 62
     8
370
     0
100
AcDbCircle
 10
643.7698802647
 20
636.0261990436
 30
0.0
 40
6.197906639510592
100
AcDbArc
 50
3.2341085111
 51
72.6103072634
  0
ARC
  5
233
330
1F
100
AcDbEntity
  8
0
  6
Continuous
 62
     8
370
     0
100
AcDbCircle
 10
645.4232805221
 20
645.0306364293
 30
0.0
 40
9.770777028297237
100
AcDbArc
 50
255.7691634382
 51
297.6521083563
  0
LINE
  5
234
330
1F
100
AcDbEntity
  8
0
  6
Continuous
 62
     8
370
     0
100
AcDbLine
 10
643.177434651
 20
631.9402775319
 30
0.0
 11
643.0213391466
 21
635.5596934263
 31
0.0
  0
LINE
  5
235
330
1F
100
AcDbEntity
  8
0
  6
Continuous
 62
     8
370
     0
100
AcDbLine
 10
649.9579158478
 20
636.3758593553
 30
0.0
 11
650.1140113522
 21
632.7564434609
 31
0.0
  0
LINE
  5
236
330
1F
100
AcDbEntity
  8
0
  6
Continuous
 62
     8
370
     0
100
AcDbLine
 10
643.0213391466
 20
635.5596934263
 30
0.0
 11
247.5985012406
 21
734.9461247377
 31
0.0
  0
LWPOLYLINE
  5
237
330
1F
100
AcDbEntity
  8
0
  6
Continuous
 62
     8
370
     0
100
AcDbPolyline
 90
        9
 70
   128
 43
0.0
 10
247.5985012406
 20
734.9461247377
 10
247.614160144
 20
735.8644450771
 10
247.7366668966
 20
736.8188330286
 10
247.9613136327
 20
737.7726119986
 10
248.2794673043
 20
738.6891287961
 10
248.6789014441
 20
739.5331621945
 10
249.1442660222
 20
740.2722764638
 10
249.6576773388
 20
740.878067857
 10
250.1994052849
 20
741.3272561506
  0
LINE
  5
238
330
1F
100
AcDbEntity
  8
0
  6
Continuous
 62
     8
370
     0
100
AcDbLine
 10
250.1994052849
 20
741.3272561506
 30
0.0
 11
645.6222431908
 21
641.9408248392
 31
0.0
  0
LINE
  5
239
330
1F
100
AcDbEntity
  8
0
  6
Continuous
 62
     8
370
     0
100
AcDbLine
 10
645.6222431908
 20
641.9408248392
 30
0.0
 11
808.9100111967
 21
750.3815390577
 31
0.0
  0
ARC
  5
23A
330
1F
100
AcDbEntity
  8
0
  6
Continuous
 62
     8
370
     0
100
AcDbCircle
 10
807.0576482705
 20
744.4669132621
 30
0.0
 40
6.197906639511071
100
AcDbArc
 50
3.2341085111
 51
72.6103072634
  0
LINE
  5
23B
330
1F
100
AcDbEntity
  8
0
  6
Continuous
 62
     8
370
     0
100
AcDbLine
 10
813.2456838537
 20
744.8165735739
 30
0.0
 11
649.9579158478
 21
636.3758593553
 31
0.0
  0
LINE
  5
23C
330
1F
100
AcDbEntity
  8
0
  6
Continuous
 62
     8
370
     0
100
AcDbLine
 10
247.5985012406
 20
734.9461247377
 30
0.0
 11
247.7545967451
 21
731.3267088433
 31
0.0
  0
LINE
  5
23D
330
1F
100
AcDbEntity
  8
0
  6
Continuous
 62
     8
370
     0
100
AcDbLine
 10
813.4017793581
 20
741.1971576795
 30
0.0
 11
813.2456838537
 21
744.8165735739
 31
0.0
  0
LINE
  5
23E
330
1F
100
AcDbEntity
  8
0
  6
Continuous
 62
     8
370
     0
100
AcDbLine
 10
413.4871732908
 20
849.7679703691
 30
0.0
 11
250.1994052849
 21
741.3272561506
 31
0.0
  0
LINE
  5
23F
330
1F
100
AcDbEntity
  8
0
  6
Continuous
 62
     8
370
     0
100
AcDbLine
 10
808.9100111967
 20
750.3815390577
 30
0.0
 11
413.4871732908
 21
849.7679703691
 31
0.0
  0
ARC
  5
240
330
1F
100
AcDbEntity
  8
0
  6
Continuous
 62
     8
370
     0
100
AcDbCircle
 10
809.9731852814
 20
748.9938356245
 30
0.0
 40
1.748159018246487
100
AcDbArc
 50
78.4257010818
 51
127.4571430592
  0
ARC
  5
241
330
1F
100
AcDbEntity
  8
0
  6
Continuous
 62
     8
370
     0
100
AcDbCircle
 10
812.6298181019
 20
746.1545876055
 30
0.0
 40
1.472946765242728
100
AcDbArc
 50
294.7158342654
 51
356.813236424
  0
ARC
  5
242
330
1F
100
AcDbEntity
  8
0
  6
Continuous
 62
     8
370
     0
100
AcDbCircle
 10
414.5503473755
 20
848.3802669359
 30
0.0
 40
1.748159018246968
100
AcDbArc
 50
78.4257010818
 51
127.4571430592
  0
ARC
  5
243
330
1F
100
AcDbEntity
  8
0
  6
Continuous
 62
     8
370
     0
100
AcDbCircle
 10
249.3118160254
 20
738.2988882749
 30
0.0
 40
3.155760872467252
100
AcDbArc
 50
73.6645809826
 51
122.2381952541
  0
LWPOLYLINE
  5
244
330
1F
100
AcDbEntity
  8
0
  6
Continuous
 62
     8
370
     0
100
AcDbPolyline
 90
        6
 70
   128
 43
0.0
 10
245.3991680912
 20
736.5875502214
 10
245.4896242417
 20
736.2258698196
 10
245.7693480038
 20
735.8372418396
 10
246.2268147111
 20
735.4857268769
 10
246.8444441747
 20
735.1848334545
 10
247.5985012406
 20
734.9461247377
  0
ARC
  5
245
330
1F
100
AcDbEntity
  8
0
  6
Continuous
 62
     8
370
     0
100
AcDbCircle
 10
412.5995840312
 20
846.7396024934
 30
0.0
 40
3.155760872469276
100
AcDbArc
 50
73.6645809826
 51
122.2381952541
  0
LINE
  5
246
330
1F
100
AcDbEntity
  8
0
  6
Continuous
 62
     8
370
     0
100
AcDbLine
 10
148.4107813164
 20
569.9136101586
 30
0.0
 11
156.9960340593
 21
370.8457359665
 31
0.0
  0
LINE
  5
247
330
1F
100
AcDbEntity
  8
0
  6
Continuous
 62
     8
370
     0
100
AcDbLine
 10
787.1153027156
 20
411.9398544609
 30
0.0
 11
795.7005554584
 21
212.8719802689
 31
0.0
  0
LINE
  5
248
330
1F
100
AcDbEntity
  8
0
  6
Continuous
 62
     8
370
     0
100
AcDbLine
 10
788.7639787572
 20
212.0558143399
 30
0.0
 11
780.1787260143
 21
411.1236885319
 31
0.0
  0
LINE
  5
249
330
1F
100
AcDbEntity
  8
0
  6
Continuous
 62
     8
370
     0
100
AcDbLine
 10
958.9883234643
 20
321.3126944874
 30
0.0
 11
950.4030707214
 21
520.3805686794
 31
0.0
  0
LINE
  5
24A
330
1F
100
AcDbEntity
  8
0
  6
Continuous
 62
     8
370
     0
100
AcDbLine
 10
754.0377023369
 20
453.686754013
 30
0.0
 11
753.6864874519
 21
461.8304397754
 31
0.0
  0
LINE
  5
24B
330
1F
100
AcDbEntity
  8
0
  6
Continuous
 62
     8
370
     0
100
AcDbLine
 10
602.5140419021
 20
468.4784954569
 30
0.0
 11
602.1628270172
 21
476.6221812193
 31
0.0
  0
LINE
  5
24C
330
1F
100
AcDbEntity
  8
0
  6
Continuous
 62
     8
370
     0
100
AcDbLine
 10
659.0120046412
 20
477.5707183962
 30
0.0
 11
658.6607897562
 21
485.7144041586
 31
0.0
  0
LINE
  5
24D
330
1F
100
AcDbEntity
  8
0
  6
Continuous
 62
     8
370
     0
100
AcDbLine
 10
606.9876793817
 20
471.4494739286
 30
0.0
 11
606.6364644968
 21
479.593159691
 31
0.0
  0
LINE
  5
24E
330
1F
100
AcDbEntity
  8
0
  6
Continuous
 62
     8
370
     0
100
AcDbLine
 10
559.6179420841
 20
503.0293338724
 30
0.0
 11
559.2875111202
 21
510.6910989384
 31
0.0
  0
LINE
  5
24F
330
1F
100
AcDbEntity
  8
0
  6
Continuous
 62
     8
370
     0
100
AcDbLine
 10
464.6130283094
 20
526.4313775593
 30
0.0
 11
464.2618134245
 21
534.5750633217
 31
0.0
  0
INSERT
  5
255
330
1F
100
AcDbEntity
  8
SLD-0_0
100
AcDbBlockReference
  2
SW_NOTE_11
 10
215.2296250754
 20
647.9499913488
 30
0.0
  0
LEADER
  5
25F
330
1F
100
AcDbEntity
  8
SLD-0_0
100
AcDbLeader
  3
SLDDIMSTYLE0
 76
     2
 10
245.5395352199
 20
527.6925721287
 30
0.0
 10
215.2296250754
 20
647.9499913488
 30
0.0
  0
INSERT
  5
265
330
1F
100
AcDbEntity
  8
SLD-0_0
100
AcDbBlockReference
  2
SW_NOTE_12
 10
618.7104708034
 20
802.6879431349
 30
0.0
  0
LEADER
  5
266
330
1F
100
AcDbEntity
  8
SLD-0_0
100
AcDbLeader
  3
SLDDIMSTYLE0
 76
     2
 10
594.7224778272
 20
758.3125258838
 30
0.0
 10
618.7104708034
 20
802.6879431349
 30
0.0
  0
INSERT
  5
26C
330
1F
100
AcDbEntity
  8
SLD-0_0
100
AcDbBlockReference
  2
SW_NOTE_13
 10
828.9015079809
 20
699.9925349632
 30
0.0
  0
LEADER
  5
26D
330
1F
100
AcDbEntity
  8
SLD-0_0
100
AcDbLeader
  3
SLDDIMSTYLE0
 76
     2
 10
664.8842230843
 20
538.3219485976
 30
0.0
 10
828.9015079809
 20
699.9925349632
 30
0.0
  0
INSERT
  5
273
330
1F
100
AcDbEntity
  8
SLD-0_0
100
AcDbBlockReference
  2
SW_NOTE_14
 10
980.9400948146
 20
616.0933656566
 30
0.0
  0
LEADER
  5
274
330
1F
100
AcDbEntity
  8
SLD-0_0
100
AcDbLeader
  3
SLDDIMSTYLE0
 76
     2
 10
805.7517340126
 20
518.067026143
 30
0.0
 10
980.9400948146
 20
616.0933656566
 30
0.0
  0
INSERT
  5
27A
330
1F
100
AcDbEntity
  8
SLD-0_0
100
AcDbBlockReference
  2
SW_NOTE_15
 10
437.4994943033
 20
127.9189317934
 30
0.0
  0
LEADER
  5
27B
330
1F
100
AcDbEntity
  8
SLD-0_0
100
AcDbLeader
  3
SLDDIMSTYLE0
 76
     2
 10
563.1248856887
 20
215.1524850875
 30
0.0
 10
437.4994943033
 20
127.9189317934
 30
0.0
  0
INSERT
  5
281
330
1F
100
AcDbEntity
  8
SLD-0_0
100
AcDbBlockReference
  2
SW_NOTE_16
 10
654.8345829191
 20
342.9740032033
 30
0.0
  0
LEADER
  5
282
330
1F
100
AcDbEntity
  8
SLD-0_0
100
AcDbLeader
  3
SLDDIMSTYLE0
 76
     2
 10
548.3603909242
 20
455.474209423
 30
0.0
 10
654.8345829191
 20
342.9740032033
 30
0.0
  0
INSERT
  5
288
330
1F
100
AcDbEntity
  8
SLD-0_0
100
AcDbBlockReference
  2
SW_NOTE_17
 10
386.7935103367
 20
594.6113556248
 30
0.0
  0
LEADER
  5
289
330
1F
100
AcDbEntity
  8
SLD-0_0
100
AcDbLeader
  3
SLDDIMSTYLE0
 76
     2
 10
402.8279121048
 20
492.1008785473
 30
0.0
 10
386.7935103367
 20
594.6113556248
 30
0.0
  0
INSERT
  5
28F
330
1F
100
AcDbEntity
  8
SLD-0_0
100
AcDbBlockReference
  2
SW_NOTE_18
 10
471.460718874
 20
594.5354451661
 30
0.0
  0
LEADER
  5
290
330
1F
100
AcDbEntity
  8
SLD-0_0
100
AcDbLeader
  3
SLDDIMSTYLE0
 76
     2
 10
499.2174110887
 20
427.0173706864
 30
0.0
 10
471.460718874
 20
594.5354451661
 30
0.0
  0
INSERT
  5
296
330
1F
100
AcDbEntity
  8
SLD-0_0
100
AcDbBlockReference
  2
SW_NOTE_19
 10
879.2203025308
 20
659.5588769437
 30
0.0
  0
LEADER
  5
297
330
1F
100
AcDbEntity
  8
SLD-0_0
100
AcDbLeader
  3
SLDDIMSTYLE0
 76
     2
 10
735.1118032552
 20
473.7835959638
 30
0.0
 10
879.2203025308
 20
659.5588769437
 30
0.0
  0
INSERT
  5
29D
330
1F
100
AcDbEntity
  8
SLD-0_0
100
AcDbBlockReference
  2
SW_NOTE_20
 10
979.5318792932
 20
388.5211629894
 30
0.0
  0
LEADER
  5
29E
330
1F
100
AcDbEntity
  8
SLD-0_0
100
AcDbLeader
  3
SLDDIMSTYLE0
 76
     2
 10
901.7771176244
 20
377.3745888586
 30
0.0
 10
979.5318792932
 20
388.5211629894
 30
0.0
  0
INSERT
  5
2A4
330
1F
100
AcDbEntity
  8
SLD-0_0
100
AcDbBlockReference
  2
SW_NOTE_21
 10
809.0974780663
 20
134.868252155
 30
0.0
  0
LEADER
  5
2A5
330
1F
100
AcDbEntity
  8
SLD-0_0
100
AcDbLeader
  3
SLDDIMSTYLE0
 76
     2
 10
718.2811587197
 20
183.2237633078
 30
0.0
 10
809.0974780663
 20
134.868252155
 30
0.0
  0
INSERT
  5
2AB
330
1F
100
AcDbEntity
  8
SLD-0_0
100
AcDbBlockReference
  2
SW_NOTE_22
 10
207.8715378101
 20
240.6451797613
 30
0.0
  0
LEADER
  5
2AC
330
1F
100
AcDbEntity
  8
SLD-0_0
100
AcDbLeader
  3
SLDDIMSTYLE0
 76
     2
 10
342.0951315385
 20
277.5961562024
 30
0.0
 10
207.8715378101
 20
240.6451797613
 30
0.0
  0
LINE
  5
2AD
330
1F
100
AcDbEntity
  8
0
  6
Continuous
 62
     7
100
AcDbLine
 10
199.1412221696
 20
1831.9955086861
 30
0.0
 11
199.1412221696
 21
1227.9955086861
 31
0.0
  0
LINE
  5
2AE
330
1F
100
AcDbEntity
  8
0
  6
Continuous
 62
     7
100
AcDbLine
 10
1174.1412221696
 20
1831.9955086861
 30
0.0
 11
199.1412221696
 21
1831.9955086861
 31
0.0
  0
LINE
  5
2AF
330
1F
100
AcDbEntity
  8
0
  6
Continuous
 62
     7
100
AcDbLine
 10
1174.1412221696
 20
1227.9955086861
 30
0.0
 11
1174.1412221696
 21
1831.9955086861
 31
0.0
  0
LINE
  5
2B0
330
1F
100
AcDbEntity
  8
0
  6
Continuous
 62
     7
100
AcDbLine
 10
199.1412221696
 20
1227.9955086861
 30
0.0
 11
1174.1412221696
 21
1227.9955086861
 31
0.0
  0
DIMENSION
  5
2B1
330
1F
100
AcDbEntity
  8
SLD-0_0
100
AcDbDimension
  2
_D
 10
1174.1412221696
 20
1217.9955086861
 30
0.0
 11
715.5662765481
 21
1217.9955086861
 31
0.0
 70
   160
  1
<>
 71
     2
 42
-1.0
  3
SLDDIMSTYLE1
100
AcDbAlignedDimension
 13
199.1412221696
 23
1227.9955086861
 33
0.0
 14
1174.1412221696
 24
1227.9955086861
 34
0.0
 50
0.0
100
AcDbRotatedDimension
  0
DIMENSION
  5
2BC
330
1F
100
AcDbEntity
  8
SLD-0_0
100
AcDbDimension
  2
_D_1
 10
186.9129496531
 20
1831.9955086861
 30
0.0
 11
186.9129496531
 21
1530.0130479711
 31
0.0
 70
   160
  1
<>
 71
     2
 42
-1.0
  3
SLDDIMSTYLE1
100
AcDbAlignedDimension
 13
199.1412221696
 23
1227.9955086861
 33
0.0
 14
199.1412221696
 24
1831.9955086861
 34
0.0
 50
90.0
100
AcDbRotatedDimension
  0
LINE
  5
2C6
330
1F
100
AcDbEntity
  8
0
  6
Continuous
 62
     7
100
AcDbLine
 10
1358.5046131663
 20
1831.9955086861
 30
0.0
 11
1358.5046131663
 21
1227.9955086861
 31
0.0
  0
LINE
  5
2C7
330
1F
100
AcDbEntity
  8
0
  6
Continuous
 62
     7
100
AcDbLine
 10
1798.5046131663
 20
1831.9955086861
 30
0.0
 11
1358.5046131663
 21
1831.9955086861
 31
0.0
  0
LINE
  5
2C8
330
1F
100
AcDbEntity
  8
0
  6
Continuous
 62
     7
100
AcDbLine
 10
1798.5046131663
 20
1227.9955086861
 30
0.0
 11
1798.5046131663
 21
1831.9955086861
 31
0.0
  0
LINE
  5
2C9
330
1F
100
AcDbEntity
  8
0
  6
Continuous
 62
     7
100
AcDbLine
 10
1358.5046131663
 20
1227.9955086861
 30
0.0
 11
1798.5046131663
 21
1227.9955086861
 31
0.0
  0
DIMENSION
  5
2CA
330
1F
100
AcDbEntity
  8
SLD-0_0
100
AcDbDimension
  2
_D_2
 10
1350.4427156491
 20
1227.9955086861
 30
0.0
 11
1350.4427156491
 21
1525.6689366453
 31
0.0
 70
   160
  1
<>
 71
     2
 42
-1.0
  3
SLDDIMSTYLE1
100
AcDbAlignedDimension
 13
1358.5046131663
 23
1831.9955086861
 33
0.0
 14
1358.5046131663
 24
1227.9955086861
 34
0.0
 50
90.0
100
AcDbRotatedDimension
  0
DIMENSION
  5
2D4
330
1F
100
AcDbEntity
  8
SLD-0_0
100
AcDbDimension
  2
_D_3
 10
1798.5046131663
 20
1217.677419026
 30
0.0
 11
1559.2800645067
 21
1217.677419026
 31
0.0
 70
   160
  1
<>
 71
     2
 42
-1.0
  3
SLDDIMSTYLE1
100
AcDbAlignedDimension
 13
1358.5046131663
 23
1227.9955086861
 33
0.0
 14
1798.5046131663
 24
1227.9955086861
 34
0.0
 50
0.0
100
AcDbRotatedDimension
  0
LINE
  5
2DE
330
1F
100
AcDbEntity
  8
0
  6
Continuous
 62
     7
100
AcDbLine
 10
2914.6360005685
 20
1756.6124613433
 30
0.0
 11
1975.6360005685
 21
1756.6124613433
 31
0.0
  0
LINE
  5
2DF
330
1F
100
AcDbEntity
  8
0
  6
Continuous
 62
     7
100
AcDbLine
 10
2914.6360005685
 20
1316.6124613433
 30
0.0
 11
2914.6360005685
 21
1756.6124613433
 31
0.0
  0
LINE
  5
2E0
330
1F
100
AcDbEntity
  8
0
  6
Continuous
 62
     7
100
AcDbLine
 10
1975.6360005685
 20
1316.6124613433
 30
0.0
 11
2914.6360005685
 21
1316.6124613433
 31
0.0
  0
LINE
  5
2E1
330
1F
100
AcDbEntity
  8
0
  6
Continuous
 62
     7
100
AcDbLine
 10
1975.6360005685
 20
1756.6124613433
 30
0.0
 11
1975.6360005685
 21
1316.6124613433
 31
0.0
  0
DIMENSION
  5
2E2
330
1F
100
AcDbEntity
  8
SLD-0_0
100
AcDbDimension
  2
_D_4
 10
1975.6360005685
 20
1764.1434259803
 30
0.0
 11
2417.0969348398
 21
1764.1434259803
 31
0.0
 70
   160
  1
<>
 71
     2
 42
-1.0
  3
SLDDIMSTYLE1
100
AcDbAlignedDimension
 13
2914.6360005685
 23
1756.6124613433
 33
0.0
 14
1975.6360005685
 24
1756.6124613433
 34
0.0
100
AcDbRotatedDimension
  0
DIMENSION
  5
2EC
330
1F
100
AcDbEntity
  8
SLD-0_0
100
AcDbDimension
  2
_D_5
 10
1964.9833165052
 20
1316.6124613433
 30
0.0
 11
1964.9833165052
 21
1547.8730167997
 31
0.0
 70
   160
  1
<>
 71
     2
 42
-1.0
  3
SLDDIMSTYLE1
100
AcDbAlignedDimension
 13
1975.6360005685
 23
1756.6124613433
 33
0.0
 14
1975.6360005685
 24
1316.6124613433
 34
0.0
 50
90.0
100
AcDbRotatedDimension
  0
LINE
  5
2F6
330
1F
100
AcDbEntity
  8
0
  6
Continuous
 62
     7
100
AcDbLine
 10
1206.4316451247
 20
580.3464180136
 30
0.0
 11
1615.4316451247
 21
580.3464180136
 31
0.0
  0
LINE
  5
2F7
330
1F
100
AcDbEntity
  8
0
  6
Continuous
 62
     7
100
AcDbLine
 10
1615.4316451247
 20
580.3464180136
 30
0.0
 11
1615.4316451247
 21
1020.3464180136
 31
0.0
  0
CIRCLE
  5
2F8
330
1F
100
AcDbEntity
  8
0
  6
Continuous
 62
     7
100
AcDbCircle
 10
1410.9316451247
 20
800.3464180136
 30
0.0
 40
197.0
  0
LINE
  5
2F9
330
1F
100
AcDbEntity
  8
0
  6
Continuous
 62
     7
100
AcDbLine
 10
1206.4316451247
 20
1020.3464180136
 30
0.0
 11
1206.4316451247
 21
580.3464180136
 31
0.0
  0
LINE
  5
2FA
330
1F
100
AcDbEntity
  8
0
  6
Continuous
 62
     7
100
AcDbLine
 10
1615.4316451247
 20
1020.3464180136
 30
0.0
 11
1206.4316451247
 21
1020.3464180136
 31
0.0
  0
CIRCLE
  5
2FB
330
1F
100
AcDbEntity
  8
0
  6
Continuous
 62
     7
100
AcDbCircle
 10
1410.9316451247
 20
800.3464180136
 30
0.0
 40
176.0
  0
CIRCLE
  5
2FC
330
1F
100
AcDbEntity
  8
0
  6
Continuous
 62
     7
100
AcDbCircle
 10
1339.5611849886
 20
972.649950827
 30
0.0
 40
3.300000000000182
  0
CIRCLE
  5
2FD
330
1F
100
AcDbEntity
  8
0
  6
Continuous
 62
     7
100
AcDbCircle
 10
1482.3021052608
 20
972.649950827
 30
0.0
 40
3.300000000000182
  0
CIRCLE
  5
2FE
330
1F
100
AcDbEntity
  8
0
  6
Continuous
 62
     7
100
AcDbCircle
 10
1583.235177938
 20
871.7168781497
 30
0.0
 40
3.300000000000182
  0
CIRCLE
  5
2FF
330
1F
100
AcDbEntity
  8
0
  6
Continuous
 62
     7
100
AcDbCircle
 10
1583.235177938
 20
728.9759578775
 30
0.0
 40
3.299999999999955
  0
CIRCLE
  5
300
330
1F
100
AcDbEntity
  8
0
  6
Continuous
 62
     7
100
AcDbCircle
 10
1482.3021052608
 20
628.0428852003
 30
0.0
 40
3.299999999999727
  0
CIRCLE
  5
301
330
1F
100
AcDbEntity
  8
0
  6
Continuous
 62
     7
100
AcDbCircle
 10
1339.5611849886
 20
628.0428852003
 30
0.0
 40
3.299999999999955
  0
CIRCLE
  5
302
330
1F
100
AcDbEntity
  8
0
  6
Continuous
 62
     7
100
AcDbCircle
 10
1238.6281123113
 20
728.9759578775
 30
0.0
 40
3.299999999999955
  0
CIRCLE
  5
303
330
1F
100
AcDbEntity
  8
0
  6
Continuous
 62
     7
100
AcDbCircle
 10
1238.6281123113
 20
871.7168781497
 30
0.0
 40
3.300000000000182
  0
DIMENSION
  5
304
330
1F
100
AcDbEntity
  8
SLD-0_0
100
AcDbDimension
  2
_D_6
 10
1615.4316451247
 20
1030.3464180136
 30
0.0
 11
1410.9316451247
 21
1030.3464180136
 31
0.0
 70
   160
  1
<>
 71
     2
 42
-1.0
  3
SLDDIMSTYLE1
100
AcDbAlignedDimension
 13
1206.4316451247
 23
1020.3464180136
 33
0.0
 14
1615.4316451247
 24
1020.3464180136
 34
0.0
100
AcDbRotatedDimension
  0
DIMENSION
  5
30E
330
1F
100
AcDbEntity
  8
SLD-0_0
100
AcDbDimension
  2
_D_7
 10
1196.4316451247
 20
580.3464180136
 30
0.0
 11
1196.4316451247
 21
795.1545492255
 31
0.0
 70
   160
  1
<>
 71
     2
 42
-1.0
  3
SLDDIMSTYLE1
100
AcDbAlignedDimension
 13
1206.4316451247
 23
1020.3464180136
 33
0.0
 14
1206.4316451247
 24
580.3464180136
 34
0.0
 50
90.0
100
AcDbRotatedDimension
  0
DIMENSION
  5
318
330
1F
100
AcDbEntity
  8
SLD-0_0
100
AcDbDimension
  2
_D_8
 10
1615.4316451247
 20
563.3464180136
 30
0.0
 11
1410.9316451247
 21
563.3464180136
 31
0.0
 70
   160
  1
<>
 71
     2
 42
-1.0
  3
SLDDIMSTYLE1
100
AcDbAlignedDimension
 13
1206.4316451247
 23
580.3464180136
 33
0.0
 14
1615.4316451247
 24
580.3464180136
 34
0.0
100
AcDbRotatedDimension
  0
DIMENSION
  5
322
330
1F
100
AcDbEntity
  8
SLD-0_0
100
AcDbDimension
  2
_D_9
 10
1274.1328088249
 20
689.6121487604
 30
0.0
 11
1361.1474207041
 21
760.0476874102
 31
0.0
 70
   163
  1
<>
 71
     1
 42
-1.0
  3
SLDDIMSTYLE2
100
AcDbDiametricDimension
 15
1547.7304814244
 25
911.0806872668
 35
0.0
 40
0.0
  0
DIMENSION
  5
32C
330
1F
100
AcDbEntity
  8
SLD-0_0
100
AcDbDimension
  2
_D_10
 10
1572.0576829293
 20
706.428102753
 30
0.0
 11
1480.0680784509
 21
760.0476874102
 31
0.0
 70
   163
  1
<>
 71
     1
 42
-1.0
  3
SLDDIMSTYLE2
100
AcDbDiametricDimension
 15
1249.8056073201
 25
894.2647332743
 35
0.0
 40
0.0
  0
DIMENSION
  5
336
330
1F
100
AcDbEntity
  8
SLD-0_0
100
AcDbDimension
  2
_D_11
 10
1342.6262112729
 20
971.4269978939
 30
0.0
 11
1272.7709724559
 21
998.5519197411
 31
0.0
 70
   163
  1
<>
 71
     1
 42
-1.0
  3
SLDDIMSTYLE3
100
AcDbDiametricDimension
 15
1336.4961587043
 25
973.87290376
 35
0.0
 40
0.0
  0
INSERT
  5
383
330
1F
100
AcDbEntity
  8
SLD-0_0
100
AcDbBlockReference
  2
SW_CENTERMARKSYMBOL_0
 10
1482.3021052608
 20
972.649950827
 30
0.0
  0
LINE
  5
384
330
1F
100
AcDbEntity
  8
0
  6
Continuous
 62
     7
100
AcDbLine
 10
2454.3497150339
 20
1155.0405960418
 30
0.0
 11
2914.8497150339
 21
1155.0405960418
 31
0.0
  0
LINE
  5
385
330
1F
100
AcDbEntity
  8
0
  6
Continuous
 62
     7
100
AcDbLine
 10
1975.8497150339
 20
899.0405960418
 30
0.0
 11
1975.8497150339
 21
1155.0405960418
 31
0.0
  0
LINE
  5
386
330
1F
100
AcDbEntity
  8
0
  6
Continuous
 62
     7
100
AcDbLine
 10
1975.8497150339
 20
1155.0405960418
 30
0.0
 11
2436.3497150339
 21
1155.0405960418
 31
0.0
  0
LINE
  5
387
330
1F
100
AcDbEntity
  8
0
  6
Continuous
 62
     7
100
AcDbLine
 10
2436.3497150339
 20
1105.0405960418
 30
0.0
 11
2436.3497150339
 21
1155.0405960418
 31
0.0
  0
LINE
  5
388
330
1F
100
AcDbEntity
  8
0
  6
Continuous
 62
     7
100
AcDbLine
 10
2436.3497150339
 20
1105.0405960418
 30
0.0
 11
2454.3497150339
 21
1105.0405960418
 31
0.0
  0
LINE
  5
389
330
1F
100
AcDbEntity
  8
0
  6
Continuous
 62
     7
100
AcDbLine
 10
2454.3497150339
 20
1105.0405960418
 30
0.0
 11
2454.3497150339
 21
1155.0405960418
 31
0.0
  0
LINE
  5
38A
330
1F
100
AcDbEntity
  8
0
  6
Continuous
 62
     7
100
AcDbLine
 10
2020.8497150339
 20
1035.0405960418
 30
0.0
 11
2020.8497150339
 21
1019.0405960418
 31
0.0
  0
ARC
  5
38B
330
1F
100
AcDbEntity
  8
0
  6
Continuous
 62
     7
100
AcDbCircle
 10
2095.8497150339
 20
1019.0405960418
 30
0.0
 40
75.00000000000296
100
AcDbArc
 50
180.0
 51
270.0
  0
LINE
  5
38C
330
1F
100
AcDbEntity
  8
0
  6
Continuous
 62
     7
100
AcDbLine
 10
2325.3497150339
 20
944.0405960418
 30
0.0
 11
2095.8497150339
 21
944.0405960418
 31
0.0
  0
ARC
  5
38D
330
1F
100
AcDbEntity
  8
0
  6
Continuous
 62
     7
100
AcDbCircle
 10
2325.3497150339
 20
1019.0405960418
 30
0.0
 40
75.00000000000091
100
AcDbArc
 50
270.0
 51
360.0
  0
LINE
  5
38E
330
1F
100
AcDbEntity
  8
0
  6
Continuous
 62
     7
100
AcDbLine
 10
2400.3497150339
 20
1035.0405960418
 30
0.0
 11
2400.3497150339
 21
1019.0405960418
 31
0.0
  0
ARC
  5
38F
330
1F
100
AcDbEntity
  8
0
  6
Continuous
 62
     7
100
AcDbCircle
 10
2325.3497150339
 20
1035.0405960418
 30
0.0
 40
75.00000000000136
100
AcDbArc
 50
360.0
 51
90.0
  0
LINE
  5
390
330
1F
100
AcDbEntity
  8
0
  6
Continuous
 62
     7
100
AcDbLine
 10
2325.3497150339
 20
1110.0405960418
 30
0.0
 11
2095.8497150339
 21
1110.0405960418
 31
0.0
  0
ARC
  5
391
330
1F
100
AcDbEntity
  8
0
  6
Continuous
 62
     7
100
AcDbCircle
 10
2095.8497150339
 20
1035.0405960418
 30
0.0
 40
75.00000000000296
100
AcDbArc
 50
90.0
 51
180.0
  0
LINE
  5
392
330
1F
100
AcDbEntity
  8
0
  6
Continuous
 62
     7
100
AcDbLine
 10
2490.3497150339
 20
1035.0405960418
 30
0.0
 11
2490.3497150339
 21
1019.0405960418
 31
0.0
  0
ARC
  5
393
330
1F
100
AcDbEntity
  8
0
  6
Continuous
 62
     7
100
AcDbCircle
 10
2565.3497150339
 20
1019.0405960418
 30
0.0
 40
75.00000000000136
100
AcDbArc
 50
180.0
 51
270.0
  0
LINE
  5
394
330
1F
100
AcDbEntity
  8
0
  6
Continuous
 62
     7
100
AcDbLine
 10
2565.3497150339
 20
944.0405960418
 30
0.0
 11
2794.8497150339
 21
944.0405960418
 31
0.0
  0
ARC
  5
395
330
1F
100
AcDbEntity
  8
0
  6
Continuous
 62
     7
100
AcDbCircle
 10
2794.8497150339
 20
1019.0405960418
 30
0.0
 40
75.00000000000273
100
AcDbArc
 50
270.0
 51
0.0
  0
LINE
  5
396
330
1F
100
AcDbEntity
  8
0
  6
Continuous
 62
     7
100
AcDbLine
 10
2869.8497150339
 20
1035.0405960418
 30
0.0
 11
2869.8497150339
 21
1019.0405960418
 31
0.0
  0
ARC
  5
397
330
1F
100
AcDbEntity
  8
0
  6
Continuous
 62
     7
100
AcDbCircle
 10
2794.8497150339
 20
1035.0405960418
 30
0.0
 40
75.00000000000273
100
AcDbArc
 50
0.0
 51
90.0
  0
LINE
  5
398
330
1F
100
AcDbEntity
  8
0
  6
Continuous
 62
     7
100
AcDbLine
 10
2565.3497150339
 20
1110.0405960418
 30
0.0
 11
2794.8497150339
 21
1110.0405960418
 31
0.0
  0
ARC
  5
399
330
1F
100
AcDbEntity
  8
0
  6
Continuous
 62
     7
100
AcDbCircle
 10
2565.3497150339
 20
1035.0405960418
 30
0.0
 40
75.00000000000091
100
AcDbArc
 50
90.0
 51
180.0
  0
LINE
  5
39A
330
1F
100
AcDbEntity
  8
0
  6
Continuous
 62
     7
100
AcDbLine
 10
1975.8497150339
 20
899.0405960418
 30
0.0
 11
2914.8497150339
 21
899.0405960418
 31
0.0
  0
LINE
  5
39B
330
1F
100
AcDbEntity
  8
0
  6
Continuous
 62
     7
100
AcDbLine
 10
2914.8497150339
 20
899.0405960418
 30
0.0
 11
2914.8497150339
 21
1155.0405960418
 31
0.0
  0
DIMENSION
  5
39C
330
1F
100
AcDbEntity
  8
SLD-0_0
100
AcDbDimension
  2
_D_12
 10
2454.3497150339
 20
1161.8497712209
 30
0.0
 11
2443.3098665387
 21
1161.8497712209
 31
0.0
 70
   160
  1
<>
 71
     2
 42
-1.0
  3
SLDDIMSTYLE4
100
AcDbAlignedDimension
 13
2436.3497150339
 23
1155.0405960418
 33
0.0
 14
2454.3497150339
 24
1155.0405960418
 34
0.0
100
AcDbRotatedDimension
  0
DIMENSION
  5
3A9
330
1F
100
AcDbEntity
  8
SLD-0_0
100
AcDbDimension
  2
_D_13
 10
2156.6839054611
 20
1155.0405960418
 30
0.0
 11
2156.6839054611
 21
1129.464454884
 31
0.0
 70
   160
  1
<>
 71
     2
 42
-1.0
  3
SLDDIMSTYLE1
100
AcDbAlignedDimension
 13
2436.3497150339
 23
1105.0405960418
 33
0.0
 14
2454.3497150339
 24
1155.0405960418
 34
0.0
 50
90.0
100
AcDbRotatedDimension
  0
DIMENSION
  5
3B3
330
1F
100
AcDbEntity
  8
SLD-0_0
100
AcDbDimension
  2
_D_14
 10
2400.3497150339
 20
890.548741774
 30
0.0
 11
2212.2403411037
 21
890.548741774
 31
0.0
 70
   160
  1
<>
 71
     2
 42
-1.0
  3
SLDDIMSTYLE5
100
AcDbAlignedDimension
 13
2020.8497150339
 23
1019.0405960418
 33
0.0
 14
2400.3497150339
 24
1019.0405960418
 34
0.0
 50
0.0
100
AcDbRotatedDimension
  0
DIMENSION
  5
3BE
330
1F
100
AcDbEntity
  8
SLD-0_0
100
AcDbDimension
  2
_D_15
 10
1975.8497150339
 20
890.548741774
 30
0.0
 11
1991.2674621631
 21
890.548741774
 31
0.0
 70
   160
  1
<>
 71
     2
 42
-1.0
  3
SLDDIMSTYLE1
100
AcDbAlignedDimension
 13
2020.8497150339
 23
1019.0405960418
 33
0.0
 14
1975.8497150339
 24
899.0405960418
 34
0.0
 50
0.0
100
AcDbRotatedDimension
  0
DIMENSION
  5
3C8
330
1F
100
AcDbEntity
  8
SLD-0_0
100
AcDbDimension
  2
_D_16
 10
1969.7906326201
 20
944.0405960418
 30
0.0
 11
1969.7906326201
 21
1009.9956164511
 31
0.0
 70
   160
  1
<>
 71
     2
 42
-1.0
  3
SLDDIMSTYLE1
100
AcDbAlignedDimension
 13
2095.8497150339
 23
1110.0405960418
 33
0.0
 14
2095.8497150339
 24
944.0405960418
 34
0.0
 50
90.0
100
AcDbRotatedDimension
  0
DIMENSION
  5
3D2
330
1F
100
AcDbEntity
  8
SLD-0_0
100
AcDbDimension
  2
_D_17
 10
1969.7906326201
 20
1155.0405960418
 30
0.0
 11
1969.7906326201
 21
1136.0592724581
 31
0.0
 70
   160
  1
<>
 71
     2
 42
-1.0
  3
SLDDIMSTYLE1
100
AcDbAlignedDimension
 13
2095.8497150339
 23
1110.0405960418
 33
0.0
 14
1975.8497150339
 24
1155.0405960418
 34
0.0
 50
90.0
100
AcDbRotatedDimension
  0
DIMENSION
  5
3DC
330
1F
100
AcDbEntity
  8
SLD-0_0
100
AcDbDimension
  2
_D_18
 10
2095.8497150339
 20
1035.0405960418
 30
0.0
 11
2068.1348120646
 21
1067.9590876062
 31
0.0
 70
   164
  1
<>
 71
     1
 42
-1.0
  3
SLDDIMSTYLE6
100
AcDbRadialDimension
 15
2047.5455647618
 25
1092.4140138107
 35
0.0
 40
0.0
  0
DIMENSION
  5
3E4
330
1F
100
AcDbEntity
  8
SLD-0_0
100
AcDbDimension
  2
_D_19
 10
2914.8497150339
 20
880.7391744653
 30
0.0
 11
2446.3012799942
 21
880.7391744653
 31
0.0
 70
   160
  1
<>
 71
     2
 42
-1.0
  3
SLDDIMSTYLE1
100
AcDbAlignedDimension
 13
1975.8497150339
 23
899.0405960418
 33
0.0
 14
2914.8497150339
 24
899.0405960418
 34
0.0
100
AcDbRotatedDimension
  0
DIMENSION
  5
3EE
330
1F
100
AcDbEntity
  8
SLD-0_0
100
AcDbDimension
  2
_D_20
 10
2924.0437711119
 20
1155.0405960418
 30
0.0
 11
2924.0437711119
 21
1028.8961913091
 31
0.0
 70
   160
  1
<>
 71
     2
 42
-1.0
  3
SLDDIMSTYLE1
100
AcDbAlignedDimension
 13
2914.8497150339
 23
899.0405960418
 33
0.0
 14
2914.8497150339
 24
1155.0405960418
 34
0.0
 50
90.0
100
AcDbRotatedDimension
  0
LINE
  5
3F8
330
1F
100
AcDbEntity
  8
0
  6
Continuous
 62
     7
100
AcDbLine
 10
2137.2595237106
 20
797.6149826494
 30
0.0
 11
1926.2595237106
 21
797.6149826494
 31
0.0
  0
LINE
  5
3F9
330
1F
100
AcDbEntity
  8
0
  6
Continuous
 62
     7
100
AcDbLine
 10
2137.2595237106
 20
747.6149826494
 30
0.0
 11
2137.2595237106
 21
797.6149826494
 31
0.0
  0
LINE
  5
3FA
330
1F
100
AcDbEntity
  8
0
  6
Continuous
 62
     7
100
AcDbLine
 10
2155.2595237106
 20
747.6149826494
 30
0.0
 11
2137.2595237106
 21
747.6149826494
 31
0.0
  0
LINE
  5
3FB
330
1F
100
AcDbEntity
  8
0
  6
Continuous
 62
     7
100
AcDbLine
 10
2155.2595237106
 20
797.6149826494
 30
0.0
 11
2155.2595237106
 21
747.6149826494
 31
0.0
  0
LINE
  5
3FC
330
1F
100
AcDbEntity
  8
0
  6
Continuous
 62
     7
100
AcDbLine
 10
2366.2595237106
 20
797.6149826494
 30
0.0
 11
2155.2595237106
 21
797.6149826494
 31
0.0
  0
LINE
  5
3FD
330
1F
100
AcDbEntity
  8
0
  6
Continuous
 62
     7
100
AcDbLine
 10
2366.2595237106
 20
697.6149826494
 30
0.0
 11
2366.2595237106
 21
797.6149826494
 31
0.0
  0
LINE
  5
3FE
330
1F
100
AcDbEntity
  8
0
  6
Continuous
 62
     7
100
AcDbLine
 10
1926.2595237106
 20
697.6149826494
 30
0.0
 11
2366.2595237106
 21
697.6149826494
 31
0.0
  0
LINE
  5
3FF
330
1F
100
AcDbEntity
  8
0
  6
Continuous
 62
     7
100
AcDbLine
 10
1926.2595237106
 20
797.6149826494
 30
0.0
 11
1926.2595237106
 21
697.6149826494
 31
0.0
  0
DIMENSION
  5
400
330
1F
100
AcDbEntity
  8
SLD-0_0
100
AcDbDimension
  2
_D_21
 10
2366.2595237106
 20
685.7289830987
 30
0.0
 11
2145.3526948939
 21
685.7289830987
 31
0.0
 70
   160
  1
<>
 71
     2
 42
-1.0
  3
SLDDIMSTYLE1
100
AcDbAlignedDimension
 13
1926.2595237106
 23
697.6149826494
 33
0.0
 14
2366.2595237106
 24
697.6149826494
 34
0.0
100
AcDbRotatedDimension
  0
DIMENSION
  5
40A
330
1F
100
AcDbEntity
  8
SLD-0_0
100
AcDbDimension
  2
_D_22
 10
2376.9589940568
 20
797.6149826494
 30
0.0
 11
2376.9589940568
 21
748.3125432776
 31
0.0
 70
   160
  1
<>
 71
     2
 42
-1.0
  3
SLDDIMSTYLE1
100
AcDbAlignedDimension
 13
2366.2595237106
 23
697.6149826494
 33
0.0
 14
2366.2595237106
 24
797.6149826494
 34
0.0
 50
90.0
100
AcDbRotatedDimension
  0
DIMENSION
  5
414
330
1F
100
AcDbEntity
  8
SLD-0_0
100
AcDbDimension
  2
_D_23
 10
2155.2595237106
 20
805.5199781807
 30
0.0
 11
2144.4914295997
 21
805.5199781807
 31
0.0
 70
   160
  1
<>
 71
     2
 42
-1.0
  3
SLDDIMSTYLE4
100
AcDbAlignedDimension
 13
2137.2595237106
 23
797.6149826494
 33
0.0
 14
2155.2595237106
 24
797.6149826494
 34
0.0
100
AcDbRotatedDimension
  0
DIMENSION
  5
420
330
1F
100
AcDbEntity
  8
SLD-0_0
100
AcDbDimension
  2
_D_24
 10
2107.264644678
 20
747.6149826494
 30
0.0
 11
2107.264644678
 21
770.840930011
 31
0.0
 70
   160
  1
<>
 71
     2
 42
-1.0
  3
SLDDIMSTYLE1
100
AcDbAlignedDimension
 13
2155.2595237106
 23
797.6149826494
 33
0.0
 14
2137.2595237106
 24
747.6149826494
 34
0.0
 50
90.0
100
AcDbRotatedDimension
  0
LINE
  5
42A
330
1F
100
AcDbEntity
  8
0
  6
Continuous
 62
     7
100
AcDbLine
 10
2027.2219240257
 20
358.6197634475
 30
0.0
 11
2112.2219240257
 21
358.6197634475
 31
0.0
  0
LINE
  5
42B
330
1F
100
AcDbEntity
  8
0
  6
Continuous
 62
     7
100
AcDbLine
 10
2027.2219240257
 20
553.6197634475
 30
0.0
 11
2027.2219240257
 21
358.6197634475
 31
0.0
  0
LINE
  5
42C
330
1F
100
AcDbEntity
  8
0
  6
Continuous
 62
     7
100
AcDbLine
 10
2112.2219240257
 20
553.6197634475
 30
0.0
 11
2027.2219240257
 21
553.6197634475
 31
0.0
  0
LINE
  5
42D
330
1F
100
AcDbEntity
  8
0
  6
Continuous
 62
     7
100
AcDbLine
 10
2112.2219240257
 20
358.6197634475
 30
0.0
 11
2112.2219240257
 21
553.6197634475
 31
0.0
  0
DIMENSION
  5
42E
330
1F
100
AcDbEntity
  8
SLD-0_0
100
AcDbDimension
  2
_D_25
 10
2027.2219240257
 20
348.6197634475
 30
0.0
 11
2069.7932650139
 21
348.6197634475
 31
0.0
 70
   160
  1
<>
 71
     2
 42
-1.0
  3
SLDDIMSTYLE1
100
AcDbAlignedDimension
 13
2112.2219240257
 23
358.6197634475
 33
0.0
 14
2027.2219240257
 24
358.6197634475
 34
0.0
100
AcDbRotatedDimension
  0
DIMENSION
  5
438
330
1F
100
AcDbEntity
  8
SLD-0_0
100
AcDbDimension
  2
_D_26
 10
2120.9418126471
 20
553.6197634475
 30
0.0
 11
2120.9418126471
 21
453.2672146495
 31
0.0
 70
   160
  1
<>
 71
     2
 42
-1.0
  3
SLDDIMSTYLE1
100
AcDbAlignedDimension
 13
2112.2219240257
 23
358.6197634475
 33
0.0
 14
2112.2219240257
 24
553.6197634475
 34
0.0
 50
90.0
100
AcDbRotatedDimension
  0
LINE
  5
442
330
1F
100
AcDbEntity
  8
0
  6
Continuous
 62
     7
100
AcDbLine
 10
2606.5090898149
 20
296.0395307443
 30
0.0
 11
2801.5090898149
 21
296.0395307443
 31
0.0
  0
LINE
  5
443
330
1F
100
AcDbEntity
  8
0
  6
Continuous
 62
     7
100
AcDbLine
 10
2606.5090898149
 20
736.0395307443
 30
0.0
 11
2606.5090898149
 21
296.0395307443
 31
0.0
  0
LINE
  5
444
330
1F
100
AcDbEntity
  8
0
  6
Continuous
 62
     7
100
AcDbLine
 10
2801.5090898149
 20
736.0395307443
 30
0.0
 11
2606.5090898149
 21
736.0395307443
 31
0.0
  0
LINE
  5
445
330
1F
100
AcDbEntity
  8
0
  6
Continuous
 62
     7
100
AcDbLine
 10
2801.5090898149
 20
296.0395307443
 30
0.0
 11
2801.5090898149
 21
736.0395307443
 31
0.0
  0
DIMENSION
  5
446
330
1F
100
AcDbEntity
  8
SLD-0_0
100
AcDbDimension
  2
_D_27
 10
2596.5090898149
 20
296.0395307443
 30
0.0
 11
2596.5090898149
 21
516.0395307443
 31
0.0
 70
   160
  1
<>
 71
     2
 42
-1.0
  3
SLDDIMSTYLE1
100
AcDbAlignedDimension
 13
2606.5090898149
 23
736.0395307443
 33
0.0
 14
2606.5090898149
 24
296.0395307443
 34
0.0
 50
90.0
100
AcDbRotatedDimension
  0
DIMENSION
  5
450
330
1F
100
AcDbEntity
  8
SLD-0_0
100
AcDbDimension
  2
_D_28
 10
2801.5090898149
 20
286.0395307443
 30
0.0
 11
2704.0090898149
 21
286.0395307443
 31
0.0
 70
   160
  1
<>
 71
     2
 42
-1.0
  3
SLDDIMSTYLE1
100
AcDbAlignedDimension
 13
2606.5090898149
 23
296.0395307443
 33
0.0
 14
2801.5090898149
 24
296.0395307443
 34
0.0
100
AcDbRotatedDimension
  0
LINE
  5
45A
330
1F
100
AcDbEntity
  8
0
  6
Continuous
 62
     7
100
AcDbLine
 10
2873.6171730371
 20
296.0395307443
 30
0.0
 11
2891.6171730371
 21
296.0395307443
 31
0.0
  0
LINE
  5
45B
330
1F
100
AcDbEntity
  8
0
  6
Continuous
 62
     7
100
AcDbLine
 10
2873.6171730371
 20
296.0395307443
 30
0.0
 11
2873.6171730371
 21
736.0395307443
 31
0.0
  0
LINE
  5
45C
330
1F
100
AcDbEntity
  8
0
  6
Continuous
 62
     7
100
AcDbLine
 10
2873.6171730371
 20
736.0395307443
 30
0.0
 11
2891.6171730371
 21
736.0395307443
 31
0.0
  0
LINE
  5
45D
330
1F
100
AcDbEntity
  8
0
  6
Continuous
 62
     7
100
AcDbLine
 10
2891.6171730371
 20
296.0395307443
 30
0.0
 11
2891.6171730371
 21
736.0395307443
 31
0.0
  0
DIMENSION
  5
45E
330
1F
100
AcDbEntity
  8
CAJETIN
100
AcDbDimension
  2
_D_29
 10
2891.6171730371
 20
286.0395307443
 30
0.0
 11
2881.3466248712
 21
286.0395307443
 31
0.0
 70
   160
  1
<>
 71
     2
 42
-1.0
  3
SLDDIMSTYLE4
100
AcDbAlignedDimension
 13
2873.6171730371
 23
296.0395307443
 33
0.0
 14
2891.6171730371
 24
296.0395307443
 34
0.0
100
AcDbRotatedDimension
  0
LINE
  5
46A
330
1F
100
AcDbEntity
  8
0
  6
Continuous
 62
     7
100
AcDbLine
 10
2227.5504405789
 20
358.6197634475
 30
0.0
 11
2245.5504405789
 21
358.6197634475
 31
0.0
  0
LINE
  5
46B
330
1F
100
AcDbEntity
  8
0
  6
Continuous
 62
     7
100
AcDbLine
 10
2227.5504405789
 20
358.6197634475
 30
0.0
 11
2227.5504405789
 21
553.6197634475
 31
0.0
  0
LINE
  5
46C
330
1F
100
AcDbEntity
  8
0
  6
Continuous
 62
     7
100
AcDbLine
 10
2227.5504405789
 20
553.6197634475
 30
0.0
 11
2245.5504405789
 21
553.6197634475
 31
0.0
  0
LINE
  5
46D
330
1F
100
AcDbEntity
  8
0
  6
Continuous
 62
     7
100
AcDbLine
 10
2245.5504405789
 20
358.6197634475
 30
0.0
 11
2245.5504405789
 21
553.6197634475
 31
0.0
  0
DIMENSION
  5
46E
330
1F
100
AcDbEntity
  8
CAJETIN
100
AcDbDimension
  2
_D_30
 10
2227.5504405789
 20
348.6197634475
 30
0.0
 11
2264.3432245371
 21
348.6197634475
 31
0.0
 70
   160
  1
<>
 71
     2
 42
-1.0
  3
SLDDIMSTYLE1
100
AcDbAlignedDimension
 13
2245.5504405789
 23
358.6197634475
 33
0.0
 14
2227.5504405789
 24
358.6197634475
 34
0.0
100
AcDbRotatedDimension
  0
ENDSEC
  0
SECTION
  2
OBJECTS
  0
DICTIONARY
  5
C
330
0
100
AcDbDictionary
281
     1
  3
ACAD_GROUP
350
D
  3
ACAD_LAYOUT
350
1A
  3
ACAD_MLINESTYLE
350
17
  3
ACAD_PLOTSETTINGS
350
19
  3
ACAD_PLOTSTYLENAME
350
E
  3
ACAD_SCALELIST
350
47
  0
DICTIONARY
  5
D
102
{ACAD_REACTORS
330
C
102
}
330
C
100
AcDbDictionary
281
     1
  0
DICTIONARY
  5
1A
102
{ACAD_REACTORS
330
C
102
}
330
C
100
AcDbDictionary
281
     1
  3
Layout1
350
1E
  3
Layout2
350
26
  3
Model
350
22
  0
DICTIONARY
  5
17
102
{ACAD_REACTORS
330
C
102
}
330
C
100
AcDbDictionary
281
     1
  3
Standard
350
18
  0
DICTIONARY
  5
19
102
{ACAD_REACTORS
330
C
102
}
330
C
100
AcDbDictionary
281
     1
  0
ACDBDICTIONARYWDFLT
  5
E
102
{ACAD_REACTORS
330
C
102
}
330
C
100
AcDbDictionary
281
     1
  3
Normal
350
F
100
AcDbDictionaryWithDefault
340
F
  0
DICTIONARY
  5
47
102
{ACAD_REACTORS
330
C
102
}
330
C
100
AcDbDictionary
281
     1
  3
A0
350
48
  3
A1
350
49
  3
A2
350
4A
  3
A3
350
4B
  3
A4
350
4C
  3
A5
350
4D
  3
A6
350
4E
  3
A7
350
4F
  3
A8
350
50
  3
A9
350
51
  3
B0
350
52
  3
B1
350
53
  3
B2
350
54
  3
B3
350
55
  3
B4
350
56
  3
B5
350
57
  3
B6
350
58
  3
B7
350
59
  3
B8
350
5A
  3
B9
350
5B
  3
C0
350
5C
  3
C1
350
5D
  3
C2
350
5E
  3
C3
350
5F
  3
C4
350
60
  3
C5
350
61
  3
C6
350
62
  3
C7
350
63
  3
C8
350
64
  3
C9
350
65
  3
D0
350
66
  3
D1
350
67
  3
D2
350
68
  0
LAYOUT
  5
1E
102
{ACAD_REACTORS
330
1A
102
}
330
1A
100
AcDbPlotSettings
  1

  2
none_device
  4

  6

 40
0.0
 41
0.0
 42
0.0
 43
0.0
 44
0.0
 45
0.0
 46
0.0
 47
0.0
 48
0.0
 49
0.0
140
0.0
141
0.0
142
1.0
143
1.0
 70
   688
 72
     1
 73
     0
 74
     5
  7

 75
    16
147
1.0
148
0.0
149
0.0
100
AcDbLayout
  1
Layout1
 70
     1
 71
     1
 10
0.0
 20
0.0
 11
420.0
 21
297.0
 12
0.0
 22
0.0
 32
0.0
 14
1.0000000000E+20
 24
1.0000000000E+20
 34
1.0000000000E+20
 15
-1.0000000000E+20
 25
-1.0000000000E+20
 35
-1.0000000000E+20
146
0.0
 13
0.0
 23
0.0
 33
0.0
 16
1.0
 26
0.0
 36
0.0
 17
0.0
 27
1.0
 37
0.0
 76
     0
330
1B
  0
LAYOUT
  5
26
102
{ACAD_REACTORS
330
1A
102
}
330
1A
100
AcDbPlotSettings
  1

  2
none_device
  4

  6

 40
0.0
 41
0.0
 42
0.0
 43
0.0
 44
0.0
 45
0.0
 46
0.0
 47
0.0
 48
0.0
 49
0.0
140
0.0
141
0.0
142
1.0
143
1.0
 70
   688
 72
     1
 73
     0
 74
     5
  7

 75
    16
147
1.0
148
0.0
149
0.0
100
AcDbLayout
  1
Layout2
 70
     1
 71
     2
 10
0.0
 20
0.0
 11
0.0
 21
0.0
 12
0.0
 22
0.0
 32
0.0
 14
0.0
 24
0.0
 34
0.0
 15
0.0
 25
0.0
 35
0.0
146
0.0
 13
0.0
 23
0.0
 33
0.0
 16
1.0
 26
0.0
 36
0.0
 17
0.0
 27
1.0
 37
0.0
 76
     0
330
23
  0
LAYOUT
  5
22
102
{ACAD_REACTORS
330
1A
102
}
330
1A
100
AcDbPlotSettings
  1

  2
none_device
  4
Letter_(8.50_x_11.00_Inches)
  6

 40
6.35
 41
6.35
 42
6.35000508
 43
6.35000508
 44
215.9
 45
279.4
 46
0.0
 47
0.0
 48
0.0
 49
0.0
140
0.0
141
0.0
142
1.0
143
1.0
 70
  1712
 72
     1
 73
     0
 74
     0
  7

 75
     0
147
1.0
148
0.0
149
0.0
100
AcDbLayout
  1
Model
 70
     1
 71
     0
 10
0.0
 20
0.0
 11
3000.0
 21
2000.0
 12
0.0
 22
0.0
 32
0.0
 14
0.0
 24
0.0
 34
0.0
 15
3000.0
 25
2000.0
 35
0.0
146
0.0
 13
0.0
 23
0.0
 33
0.0
 16
1.0
 26
0.0
 36
0.0
 17
0.0
 27
1.0
 37
0.0
 76
     0
330
1F
331
29
  0
MLINESTYLE
  5
18
102
{ACAD_REACTORS
330
17
102
}
330
17
100
AcDbMlineStyle
  2
Standard
 70
     0
  3

 62
   256
 51
90.0
 52
90.0
 71
     2
 49
0.5
 62
   256
  6
BYLAYER
 49
-0.5
 62
   256
  6
BYLAYER
  0
ACDBPLACEHOLDER
  5
F
102
{ACAD_REACTORS
330
E
102
}
330
E
  0
SCALE
  5
48
102
{ACAD_REACTORS
330
47
102
}
330
47
100
AcDbScale
 70
     0
300
1:1
140
1.0
141
1.0
290
     1
  0
SCALE
  5
49
102
{ACAD_REACTORS
330
47
102
}
330
47
100
AcDbScale
 70
     0
300
1:2
140
1.0
141
2.0
290
     0
  0
SCALE
  5
4A
102
{ACAD_REACTORS
330
47
102
}
330
47
100
AcDbScale
 70
     0
300
1:4
140
1.0
141
4.0
290
     0
  0
SCALE
  5
4B
102
{ACAD_REACTORS
330
47
102
}
330
47
100
AcDbScale
 70
     0
300
1:5
140
1.0
141
5.0
290
     0
  0
SCALE
  5
4C
102
{ACAD_REACTORS
330
47
102
}
330
47
100
AcDbScale
 70
     0
300
1:8
140
1.0
141
8.0
290
     0
  0
SCALE
  5
4D
102
{ACAD_REACTORS
330
47
102
}
330
47
100
AcDbScale
 70
     0
300
1:10
140
1.0
141
10.0
290
     0
  0
SCALE
  5
4E
102
{ACAD_REACTORS
330
47
102
}
330
47
100
AcDbScale
 70
     0
300
1:16
140
1.0
141
16.0
290
     0
  0
SCALE
  5
4F
102
{ACAD_REACTORS
330
47
102
}
330
47
100
AcDbScale
 70
     0
300
1:20
140
1.0
141
20.0
290
     0
  0
SCALE
  5
50
102
{ACAD_REACTORS
330
47
102
}
330
47
100
AcDbScale
 70
     0
300
1:30
140
1.0
141
30.0
290
     0
  0
SCALE
  5
51
102
{ACAD_REACTORS
330
47
102
}
330
47
100
AcDbScale
 70
     0
300
1:40
140
1.0
141
40.0
290
     0
  0
SCALE
  5
52
102
{ACAD_REACTORS
330
47
102
}
330
47
100
AcDbScale
 70
     0
300
1:50
140
1.0
141
50.0
290
     0
  0
SCALE
  5
53
102
{ACAD_REACTORS
330
47
102
}
330
47
100
AcDbScale
 70
     0
300
1:100
140
1.0
141
100.0
290
     0
  0
SCALE
  5
54
102
{ACAD_REACTORS
330
47
102
}
330
47
100
AcDbScale
 70
     0
300
2:1
140
2.0
141
1.0
290
     0
  0
SCALE
  5
55
102
{ACAD_REACTORS
330
47
102
}
330
47
100
AcDbScale
 70
     0
300
4:1
140
4.0
141
1.0
290
     0
  0
SCALE
  5
56
102
{ACAD_REACTORS
330
47
102
}
330
47
100
AcDbScale
 70
     0
300
8:1
140
8.0
141
1.0
290
     0
  0
SCALE
  5
57
102
{ACAD_REACTORS
330
47
102
}
330
47
100
AcDbScale
 70
     0
300
10:1
140
10.0
141
1.0
290
     0
  0
SCALE
  5
58
102
{ACAD_REACTORS
330
47
102
}
330
47
100
AcDbScale
 70
     0
300
100:1
140
100.0
141
1.0
290
     0
  0
SCALE
  5
59
102
{ACAD_REACTORS
330
47
102
}
330
47
100
AcDbScale
 70
     0
300
1/128" = 1'-0"
140
0.0078125
141
12.0
290
     0
  0
SCALE
  5
5A
102
{ACAD_REACTORS
330
47
102
}
330
47
100
AcDbScale
 70
     0
300
1/64" = 1'-0"
140
0.015625
141
12.0
290
     0
  0
SCALE
  5
5B
102
{ACAD_REACTORS
330
47
102
}
330
47
100
AcDbScale
 70
     0
300
1/32" = 1'-0"
140
0.03125
141
12.0
290
     0
  0
SCALE
  5
5C
102
{ACAD_REACTORS
330
47
102
}
330
47
100
AcDbScale
 70
     0
300
1/16" = 1'-0"
140
0.0625
141
12.0
290
     0
  0
SCALE
  5
5D
102
{ACAD_REACTORS
330
47
102
}
330
47
100
AcDbScale
 70
     0
300
3/32" = 1'-0"
140
0.09375
141
12.0
290
     0
  0
SCALE
  5
5E
102
{ACAD_REACTORS
330
47
102
}
330
47
100
AcDbScale
 70
     0
300
1/8" = 1'-0"
140
0.125
141
12.0
290
     0
  0
SCALE
  5
5F
102
{ACAD_REACTORS
330
47
102
}
330
47
100
AcDbScale
 70
     0
300
3/16" = 1'-0"
140
0.1875
141
12.0
290
     0
  0
SCALE
  5
60
102
{ACAD_REACTORS
330
47
102
}
330
47
100
AcDbScale
 70
     0
300
1/4" = 1'-0"
140
0.25
141
12.0
290
     0
  0
SCALE
  5
61
102
{ACAD_REACTORS
330
47
102
}
330
47
100
AcDbScale
 70
     0
300
3/8" = 1'-0"
140
0.375
141
12.0
290
     0
  0
SCALE
  5
62
102
{ACAD_REACTORS
330
47
102
}
330
47
100
AcDbScale
 70
     0
300
1/2" = 1'-0"
140
0.5
141
12.0
290
     0
  0
SCALE
  5
63
102
{ACAD_REACTORS
330
47
102
}
330
47
100
AcDbScale
 70
     0
300
3/4" = 1'-0"
140
0.75
141
12.0
290
     0
  0
SCALE
  5
64
102
{ACAD_REACTORS
330
47
102
}
330
47
100
AcDbScale
 70
     0
300
1" = 1'-0"
140
1.0
141
12.0
290
     0
  0
SCALE
  5
65
102
{ACAD_REACTORS
330
47
102
}
330
47
100
AcDbScale
 70
     0
300
1-1/2" = 1'-0"
140
1.5
141
12.0
290
     0
  0
SCALE
  5
66
102
{ACAD_REACTORS
330
47
102
}
330
47
100
AcDbScale
 70
     0
300
3" = 1'-0"
140
3.0
141
12.0
290
     0
  0
SCALE
  5
67
102
{ACAD_REACTORS
330
47
102
}
330
47
100
AcDbScale
 70
     0
300
6" = 1'-0"
140
6.0
141
12.0
290
     0
  0
SCALE
  5
68
102
{ACAD_REACTORS
330
47
102
}
330
47
100
AcDbScale
 70
     0
300
1'-0" = 1'-0"
140
12.0
141
12.0
290
     0
  0
ENDSEC
  0
EOF
