  0
SECTION
  2
HEADER
  9
$ACADVER
  1
AC1015
  9
$ACADMAINTVER
 70
     6
  9
$DWGCODEPAGE
  3
ANSI_1252
  9
$INSBASE
 10
0.0
 20
0.0
 30
0.0
  9
$EXTMIN
 10
0.0
 20
0.0
 30
0.0
  9
$EXTMAX
 10
3000.0
 20
2000.0
 30
0.0
  9
$LIMMIN
 10
0.0
 20
0.0
  9
$LIMMAX
 10
3000.0
 20
2000.0
  9
$ORTHOMODE
 70
     0
  9
$REGENMODE
 70
     1
  9
$FILLMODE
 70
     1
  9
$QTEXTMODE
 70
     0
  9
$MIRRTEXT
 70
     1
  9
$LTSCALE
 40
1.0
  9
$ATTMODE
 70
     1
  9
$TEXTSIZE
 40
2.5
  9
$TRACEWID
 40
1.0
  9
$TEXTSTYLE
  7
Standard
  9
$CLAYER
  8
0
  9
$CELTYPE
  6
ByLayer
  9
$CECOLOR
 62
   256
  9
$CELTSCALE
 40
1.0
  9
$DISPSILH
 70
     0
  9
$DIMSCALE
 40
1.0
  9
$DIMASZ
 40
12.3279296875
  9
$DIMEXO
 40
1.0
  9
$DIMDLI
 40
3.75
  9
$DIMRND
 40
0.0
  9
$DIMDLE
 40
0.0
  9
$DIMEXE
 40
1.0
  9
$DIMTP
 40
0.0
  9
$DIMTM
 40
0.0
  9
$DIMTXT
 40
16.9333333333
  9
$DIMCEN
 40
2.5
  9
$DIMTSZ
 40
0.0
  9
$DIMTOL
 70
     0
  9
$DIMLIM
 70
     0
  9
$DIMTIH
 70
     1
  9
$DIMTOH
 70
     1
  9
$DIMSE1
 70
     0
  9
$DIMSE2
 70
     0
  9
$DIMTAD
 70
     1
  9
$DIMZIN
 70
     0
  9
$DIMBLK
  1

  9
$DIMASO
 70
     1
  9
$DIMSHO
 70
     1
  9
$DIMPOST
  1

  9
$DIMAPOST
  1

  9
$DIMALT
 70
     0
  9
$DIMALTD
 70
     3
  9
$DIMALTF
 40
0.0393700787
  9
$DIMLFAC
 40
1.0
  9
$DIMTOFL
 70
     1
  9
$DIMTVP
 40
0.0
  9
$DIMTIX
 70
     0
  9
$DIMSOXD
 70
     0
  9
$DIMSAH
 70
     0
  9
$DIMBLK1
  1

  9
$DIMBLK2
  1

  9
$DIMSTYLE
  2
ISO-25
  9
$DIMCLRD
 70
     0
  9
$DIMCLRE
 70
     0
  9
$DIMCLRT
 70
     0
  9
$DIMTFAC
 40
1.0
  9
$DIMGAP
 40
1.524
  9
$DIMJUST
 70
     0
  9
$DIMSD1
 70
     0
  9
$DIMSD2
 70
     0
  9
$DIMTOLJ
 70
     0
  9
$DIMTZIN
 70
     0
  9
$DIMALTZ
 70
     0
  9
$DIMALTTZ
 70
     0
  9
$DIMUPT
 70
     0
  9
$DIMDEC
 70
     2
  9
$DIMTDEC
 70
     2
  9
$DIMALTU
 70
     2
  9
$DIMALTTD
 70
     3
  9
$DIMTXSTY
  7
Standard
  9
$DIMAUNIT
 70
     0
  9
$DIMADEC
 70
     2
  9
$DIMALTRND
 40
0.0
  9
$DIMAZIN
 70
     0
  9
$DIMDSEP
 70
    44
  9
$DIMATFIT
 70
     3
  9
$DIMFRAC
 70
     0
  9
$DIMLDRBLK
  1

  9
$DIMLUNIT
 70
     2
  9
$DIMLWD
 70
    -2
  9
$DIMLWE
 70
    -2
  9
$DIMTMOVE
 70
     0
  9
$LUNITS
 70
     2
  9
$LUPREC
 70
     2
  9
$SKETCHINC
 40
1.0
  9
$FILLETRAD
 40
10.0
  9
$AUNITS
 70
     0
  9
$AUPREC
 70
     2
  9
$MENU
  1
.
  9
$ELEVATION
 40
0.0
  9
$PELEVATION
 40
0.0
  9
$THICKNESS
 40
0.0
  9
$LIMCHECK
 70
     0
  9
$CHAMFERA
 40
0.0
  9
$CHAMFERB
 40
0.0
  9
$CHAMFERC
 40
0.0
  9
$CHAMFERD
 40
0.0
  9
$SKPOLY
 70
     0
  9
$TDCREATE
 40
2459254.396159583
  9
$TDUCREATE
 40
2459254.354492917
  9
$TDUPDATE
 40
2459254.396193195
  9
$TDUUPDATE
 40
2459254.354526528
  9
$TDINDWG
 40
0.0000000116
  9
$TDUSRTIMER
 40
0.0000000116
  9
$USRTIMER
 70
     1
  9
$ANGBASE
 50
0.0
  9
$ANGDIR
 70
     0
  9
$PDMODE
 70
     0
  9
$PDSIZE
 40
-1.0
  9
$PLINEWID
 40
0.0
  9
$SPLFRAME
 70
     0
  9
$SPLINETYPE
 70
     6
  9
$SPLINESEGS
 70
     8
  9
$HANDSEED
  5
47D
  9
$SURFTAB1
 70
     6
  9
$SURFTAB2
 70
     6
  9
$SURFTYPE
 70
     6
  9
$SURFU
 70
     6
  9
$SURFV
 70
     6
  9
$UCSBASE
  2

  9
$UCSNAME
  2

  9
$UCSORG
 10
0.0
 20
0.0
 30
0.0
  9
$UCSXDIR
 10
1.0
 20
0.0
 30
0.0
  9
$UCSYDIR
 10
0.0
 20
1.0
 30
0.0
  9
$UCSORTHOREF
  2

  9
$UCSORTHOVIEW
 70
     0
  9
$UCSORGTOP
 10
0.0
 20
0.0
 30
0.0
  9
$UCSORGBOTTOM
 10
0.0
 20
0.0
 30
0.0
  9
$UCSORGLEFT
 10
0.0
 20
0.0
 30
0.0
  9
$UCSORGRIGHT
 10
0.0
 20
0.0
 30
0.0
  9
$UCSORGFRONT
 10
0.0
 20
0.0
 30
0.0
  9
$UCSORGBACK
 10
0.0
 20
0.0
 30
0.0
  9
$PUCSBASE
  2

  9
$PUCSNAME
  2

  9
$PUCSORG
 10
0.0
 20
0.0
 30
0.0
  9
$PUCSXDIR
 10
1.0
 20
0.0
 30
0.0
  9
$PUCSYDIR
 10
0.0
 20
1.0
 30
0.0
  9
$PUCSORTHOREF
  2

  9
$PUCSORTHOVIEW
 70
     0
  9
$PUCSORGTOP
 10
0.0
 20
0.0
 30
0.0
  9
$PUCSORGBOTTOM
 10
0.0
 20
0.0
 30
0.0
  9
$PUCSORGLEFT
 10
0.0
 20
0.0
 30
0.0
  9
$PUCSORGRIGHT
 10
0.0
 20
0.0
 30
0.0
  9
$PUCSORGFRONT
 10
0.0
 20
0.0
 30
0.0
  9
$PUCSORGBACK
 10
0.0
 20
0.0
 30
0.0
  9
$USERI1
 70
     0
  9
$USERI2
 70
     0
  9
$USERI3
 70
     0
  9
$USERI4
 70
     0
  9
$USERI5
 70
     0
  9
$USERR1
 40
0.0
  9
$USERR2
 40
0.0
  9
$USERR3
 40
0.0
  9
$USERR4
 40
0.0
  9
$USERR5
 40
0.0
  9
$WORLDVIEW
 70
     1
  9
$SHADEDGE
 70
     3
  9
$SHADEDIF
 70
    70
  9
$TILEMODE
 70
     1
  9
$MAXACTVP
 70
    64
  9
$PINSBASE
 10
0.0
 20
0.0
 30
0.0
  9
$PLIMCHECK
 70
     0
  9
$PEXTMIN
 10
1.0000000000E+20
 20
1.0000000000E+20
 30
1.0000000000E+20
  9
$PEXTMAX
 10
-1.0000000000E+20
 20
-1.0000000000E+20
 30
-1.0000000000E+20
  9
$PLIMMIN
 10
0.0
 20
0.0
  9
$PLIMMAX
 10
420.0
 20
297.0
  9
$UNITMODE
 70
     0
  9
$VISRETAIN
 70
     1
  9
$PLINEGEN
 70
     0
  9
$PSLTSCALE
 70
     1
  9
$TREEDEPTH
 70
  3020
  9
$CMLSTYLE
  2
Standard
  9
$CMLJUST
 70
     0
  9
$CMLSCALE
 40
20.0
  9
$PROXYGRAPHICS
 70
     1
  9
$MEASUREMENT
 70
     1
  9
$CELWEIGHT
370
    -1
  9
$ENDCAPS
280
     0
  9
$JOINSTYLE
280
     0
  9
$LWDISPLAY
290
     1
  9
$INSUNITS
 70
     4
  9
$HYPERLINKBASE
  1

  9
$STYLESHEET
  1

  9
$XEDIT
290
     1
  9
$CEPSNTYPE
380
     0
  9
$PSTYLEMODE
290
     1
  9
$FINGERPRINTGUID
  2
{6FA7645F-644F-4776-8884-C84CC504952E}
  9
$VERSIONGUID
  2
{FAEB1C32-E019-11D5-929B-00C0DF256EC4}
  9
$EXTNAMES
290
     1
  9
$PSVPSCALE
 40
0.0
  9
$OLESTARTUP
290
     0
  0
ENDSEC
  0
SECTION
  2
CLASSES
  0
CLASS
  1
ACDBDICTIONARYWDFLT
  2
AcDbDictionaryWithDefault
  3
ObjectDBX Classes
 90
        0
280
     0
281
     0
  0
CLASS
  1
VISUALSTYLE
  2
AcDbVisualStyle
  3
ObjectDBX Classes
 90
     4095
280
     0
281
     0
  0
CLASS
  1
MATERIAL
  2
AcDbMaterial
  3
ObjectDBX Classes
 90
     1153
280
     0
281
     0
  0
CLASS
  1
SCALE
  2
AcDbScale
  3
ObjectDBX Classes
 90
     1153
280
     0
281
     0
  0
CLASS
  1
TABLESTYLE
  2
AcDbTableStyle
  3
ObjectDBX Classes
 90
     4095
280
     0
281
     0
  0
CLASS
  1
MLEADERSTYLE
  2
AcDbMLeaderStyle
  3
ACDB_MLEADERSTYLE_CLASS
 90
     4095
280
     0
281
     0
  0
CLASS
  1
SUN
  2
AcDbSun
  3
SCENEOE
 90
     1153
280
     0
281
     0
  0
CLASS
  1
ACDBPLACEHOLDER
  2
AcDbPlaceHolder
  3
ObjectDBX Classes
 90
        0
280
     0
281
     0
  0
CLASS
  1
LAYOUT
  2
AcDbLayout
  3
ObjectDBX Classes
 90
        0
280
     0
281
     0
  0
ENDSEC
  0
SECTION
  2
TABLES
  0
TABLE
  2
VPORT
  5
8
330
0
100
AcDbSymbolTable
 70
     1
  0
VPORT
  5
29
330
8
100
AcDbSymbolTableRecord
100
AcDbViewportTableRecord
  2
*Active
 70
     0
 10
0.0
 20
0.0
 11
1.0
 21
1.0
 12
1500.0
 22
1000.0
 13
0.0
 23
0.0
 14
10.0
 24
10.0
 15
10.0
 25
10.0
 16
0.0
 26
0.0
 36
1.0
 17
0.0
 27
0.0
 37
0.0
 40
2000.0
 41
1.5
 42
50.0
 43
0.0
 44
0.0
 50
0.0
 51
0.0
 71
     0
 72
  2000
 73
     1
 74
     3
 75
     0
 76
     0
 77
     0
 78
     0
281
     0
 65
     1
110
0.0
120
0.0
130
0.0
111
1.0
121
0.0
131
0.0
112
0.0
122
1.0
132
0.0
 79
     0
146
0.0
  0
ENDTAB
  0
TABLE
  2
LTYPE
  5
5
330
0
100
AcDbSymbolTable
 70
     6
  0
LTYPE
  5
14
330
5
100
AcDbSymbolTableRecord
100
AcDbLinetypeTableRecord
  2
ByBlock
 70
     0
  3

 72
    65
 73
     0
 40
0.0
  0
LTYPE
  5
15
330
5
100
AcDbSymbolTableRecord
100
AcDbLinetypeTableRecord
  2
ByLayer
 70
     0
  3

 72
    65
 73
     0
 40
0.0
  0
LTYPE
  5
16
330
5
100
AcDbSymbolTableRecord
100
AcDbLinetypeTableRecord
  2
Continuous
 70
     0
  3
Solid line
 72
    65
 73
     0
 40
0.0
  0
LTYPE
  5
6E
330
5
100
AcDbSymbolTableRecord
100
AcDbLinetypeTableRecord
  2
HIDDEN
 70
     0
  3
Hidden __ __ __ __ __ __ __ __ __ __ __ __ __ __
 72
    65
 73
     2
 40
1.905
 49
1.27
 74
     0
 49
-0.635
 74
     0
  0
LTYPE
  5
6F
330
5
100
AcDbSymbolTableRecord
100
AcDbLinetypeTableRecord
  2
PHANTOM
 70
     0
  3
Phantom ______  __  __  ______  __  __  ______
 72
    65
 73
     6
 40
12.7
 49
6.35
 74
     0
 49
-1.27
 74
     0
 49
1.27
 74
     0
 49
-1.27
 74
     0
 49
1.27
 74
     0
 49
-1.27
 74
     0
  0
LTYPE
  5
70
330
5
100
AcDbSymbolTableRecord
100
AcDbLinetypeTableRecord
  2
CENTER
 70
     0
  3
Center ____ _ ____ _ ____ _ ____ _ ____ _ ____
 72
    65
 73
     4
 40
10.16
 49
6.35
 74
     0
 49
-1.27
 74
     0
 49
1.27
 74
     0
 49
-1.27
 74
     0
  0
LTYPE
  5
71
330
5
100
AcDbSymbolTableRecord
100
AcDbLinetypeTableRecord
  2
CENTERX2
 70
     0
  3
Center (2x) ________  __  ________  __  _____
 72
    65
 73
     4
 40
20.32
 49
12.7
 74
     0
 49
-2.54
 74
     0
 49
2.54
 74
     0
 49
-2.54
 74
     0
  0
LTYPE
  5
72
330
5
100
AcDbSymbolTableRecord
100
AcDbLinetypeTableRecord
  2
DOT2
 70
     0
  3
Dot (.5x) ........................................
 72
    65
 73
     2
 40
0.635
 49
0.0
 74
     0
 49
-0.635
 74
     0
  0
ENDTAB
  0
TABLE
  2
LAYER
  5
2
330
0
100
AcDbSymbolTable
 70
     8
  0
LAYER
  5
10
330
2
100
AcDbSymbolTableRecord
100
AcDbLayerTableRecord
  2
0
 70
     0
 62
     7
  6
Continuous
370
    -3
390
F
  0
LAYER
  5
73
330
2
100
AcDbSymbolTableRecord
100
AcDbLayerTableRecord
  2
SLD-0_0
 70
     0
 62
   179
  6
Continuous
370
    -3
390
F
  0
LAYER
  5
74
330
2
100
AcDbSymbolTableRecord
100
AcDbLayerTableRecord
  2
SLD-0
 70
     0
 62
   179
  6
Continuous
370
    -3
390
F
  0
LAYER
  5
75
330
2
100
AcDbSymbolTableRecord
100
AcDbLayerTableRecord
  2
PREDETERMINADO
 70
     0
 62
   179
  6
Continuous
370
    -3
390
F
  0
LAYER
  5
76
330
2
100
AcDbSymbolTableRecord
100
AcDbLayerTableRecord
  2
CAJETIN
 70
     0
 62
   179
  6
Continuous
370
    -3
390
F
  0
LAYER
  5
77
330
2
100
AcDbSymbolTableRecord
100
AcDbLayerTableRecord
  2
FORMATO
 70
     0
 62
   179
  6
Continuous
370
    -3
390
F
  0
LAYER
  5
78
330
2
100
AcDbSymbolTableRecord
100
AcDbLayerTableRecord
  2
NONPLOT
 70
     0
 62
    -1
  6
DOT2
290
     0
370
    -3
390
F
  0
LAYER
  5
79
330
2
100
AcDbSymbolTableRecord
100
AcDbLayerTableRecord
  2
TEXTOS
 70
     0
 62
   142
  6
Continuous
370
    -3
390
F
  0
ENDTAB
  0
TABLE
  2
STYLE
  5
3
330
0
100
AcDbSymbolTable
 70
     6
  0
STYLE
  5
11
330
3
100
AcDbSymbolTableRecord
100
AcDbTextStyleTableRecord
  2
Standard
 70
     0
 40
0.0
 41
1.0
 50
0.0
 71
     0
 42
2.5
  3
txt
  4

  0
STYLE
  5
CB
330
3
100
AcDbSymbolTableRecord
100
AcDbTextStyleTableRecord
  2
SLDTEXTSTYLE0
 70
     0
 40
0.0
 41
0.605
 50
0.0
 71
     0
 42
2.5
  3
TXT
  4

  0
STYLE
  5
D1
330
3
100
AcDbSymbolTableRecord
100
AcDbTextStyleTableRecord
  2
SLDTEXTSTYLE1
 70
     0
 40
0.0
 41
0.5636394322
 50
0.0
 71
     0
 42
2.5
  3
TXT
  4

  0
STYLE
  5
137
330
3
100
AcDbSymbolTableRecord
100
AcDbTextStyleTableRecord
  2
SLDTEXTSTYLE2
 70
     0
 40
0.0
 41
0.75
 50
0.0
 71
     0
 42
2.5
  3
TXT
  4

  0
STYLE
  5
13C
330
3
100
AcDbSymbolTableRecord
100
AcDbTextStyleTableRecord
  2
SLDTEXTSTYLE3
 70
     0
 40
0.0
 41
0.575
 50
0.0
 71
     0
 42
2.5
  3
TXT
  4

  0
STYLE
  5
14F
330
3
100
AcDbSymbolTableRecord
100
AcDbTextStyleTableRecord
  2
SLDTEXTSTYLE4
 70
     0
 40
0.0
 41
0.5726923077
 50
0.0
 71
     0
 42
2.5
  3
TXT
  4

  0
ENDTAB
  0
TABLE
  2
VIEW
  5
6
330
0
100
AcDbSymbolTable
 70
     0
  0
ENDTAB
  0
TABLE
  2
UCS
  5
7
330
0
100
AcDbSymbolTable
 70
     0
  0
ENDTAB
  0
TABLE
  2
APPID
  5
9
330
0
100
AcDbSymbolTable
 70
     1
  0
APPID
  5
12
330
9
100
AcDbSymbolTableRecord
100
AcDbRegAppTableRecord
  2
ACAD
 70
     0
  0
ENDTAB
  0
TABLE
  2
DIMSTYLE
  5
A
330
0
100
AcDbSymbolTable
 70
     9
100
AcDbDimStyleTable
  0
DIMSTYLE
105
27
330
A
100
AcDbSymbolTableRecord
100
AcDbDimStyleTableRecord
  2
ISO-25
 70
     0
 41
2.5
 42
0.625
 43
3.75
 44
1.25
 73
     0
 74
     0
 77
     1
 78
     8
140
2.5
141
2.5
143
0.0393700787
147
0.625
171
     3
172
     1
178
     0
271
     2
272
     2
274
     3
278
    44
283
     0
284
     8
340
11
  0
DIMSTYLE
105
250
330
A
100
AcDbSymbolTableRecord
100
AcDbDimStyleTableRecord
  2
SLDDIMSTYLE0
 70
     0
 41
3.7932091346
 44
0.0
 45
0.000000001
146
3.7932091346
147
0.0
173
     1
178
     0
271
     0
272
     0
276
     2
340
11
341
251
343
251
344
251
  0
DIMSTYLE
105
2AC
102
{ACAD_REACTORS
330
2AB
330
2B6
330
2C4
330
2CE
330
2DC
330
2E6
330
2FE
330
308
330
3C7
330
3E5
330
3EF
330
401
330
40B
330
431
330
43B
330
449
330
453
102
}
330
A
100
AcDbSymbolTableRecord
100
AcDbDimStyleTableRecord
  2
SLDDIMSTYLE1
 70
     0
 41
12.3279296875
 44
0.0
 45
0.000000001
 73
     0
 74
     0
 77
     1
 78
    12
 79
     3
140
12.3279296875
147
3.0819824219
173
     1
178
     0
271
     2
272
     2
276
     2
284
    12
340
CB
  0
DIMSTYLE
105
313
102
{ACAD_REACTORS
330
312
330
31C
102
}
330
A
100
AcDbSymbolTableRecord
100
AcDbDimStyleTableRecord
  2
SLDDIMSTYLE2
 70
     0
 41
12.3279296875
 44
0.0
 45
0.000000001
 73
     0
 74
     0
 77
     1
 78
    12
 79
     3
140
12.3279296875
141
0.0
147
3.0819824219
172
     1
173
     1
178
     0
271
     2
272
     2
276
     2
284
    12
340
CB
  0
DIMSTYLE
105
327
102
{ACAD_REACTORS
330
326
102
}
330
A
100
AcDbSymbolTableRecord
100
AcDbDimStyleTableRecord
  2
SLDDIMSTYLE3
 70
     0
 41
12.3279296875
 44
0.0
 45
0.000000001
 78
     4
 79
     1
140
12.3279296875
141
0.0
147
3.0819824219
173
     1
178
     0
271
     2
272
     2
276
     2
284
    12
340
CB
  0
DIMSTYLE
105
331
102
{ACAD_REACTORS
330
330
102
}
330
A
100
AcDbSymbolTableRecord
100
AcDbDimStyleTableRecord
  2
SLDDIMSTYLE4
 70
     0
 41
12.3279296875
 44
0.0
 45
0.000000001
 73
     0
 74
     0
 77
     1
 78
    12
 79
     3
140
12.3279296875
141
0.0
147
3.0819824219
172
     1
173
     1
178
     0
271
     2
272
     2
276
     2
284
    12
340
CB
  0
DIMSTYLE
105
398
102
{ACAD_REACTORS
330
397
330
3A4
330
3BB
330
3D1
330
415
330
421
330
461
330
471
102
}
330
A
100
AcDbSymbolTableRecord
100
AcDbDimStyleTableRecord
  2
SLDDIMSTYLE5
 70
     0
 41
12.3279296875
 44
0.0
 45
0.000000001
 73
     0
 74
     0
 77
     1
 78
    12
 79
     3
140
12.3279296875
147
3.0819824219
172
     1
173
     1
178
     0
271
     2
272
     2
276
     2
284
    12
289
     0
340
CB
  0
DIMSTYLE
105
3B1
102
{ACAD_REACTORS
330
3B0
102
}
330
A
100
AcDbSymbolTableRecord
100
AcDbDimStyleTableRecord
  2
SLDDIMSTYLE6
 70
     0
 41
12.3279296875
 44
0.0
 45
0.000000001
 73
     0
 74
     0
 77
     1
 78
     4
 79
     1
140
12.3279296875
147
3.0819824219
173
     1
178
     0
271
     2
272
     2
276
     2
284
    12
340
CB
  0
DIMSTYLE
105
3DE
102
{ACAD_REACTORS
330
3DD
102
}
330
A
100
AcDbSymbolTableRecord
100
AcDbDimStyleTableRecord
  2
SLDDIMSTYLE7
 70
     0
 41
12.3279296875
 44
0.0
 45
0.000000001
 73
     0
 74
     0
 77
     1
 78
    12
 79
     3
140
12.3279296875
141
0.0
147
3.0819824219
173
     1
178
     0
271
     2
272
     2
276
     2
284
    12
340
CB
  0
ENDTAB
  0
TABLE
  2
BLOCK_RECORD
  5
1
330
0
100
AcDbSymbolTable
 70
    57
  0
BLOCK_RECORD
  5
1F
330
1
100
AcDbSymbolTableRecord
100
AcDbBlockTableRecord
  2
*Model_Space
340
22
  0
BLOCK_RECORD
  5
1B
330
1
100
AcDbSymbolTableRecord
100
AcDbBlockTableRecord
  2
*Paper_Space
340
1E
  0
BLOCK_RECORD
  5
23
330
1
100
AcDbSymbolTableRecord
100
AcDbBlockTableRecord
  2
*Paper_Space0
340
26
  0
BLOCK_RECORD
  5
C8
330
1
100
AcDbSymbolTableRecord
100
AcDbBlockTableRecord
  2
SW_NOTE_0
340
0
102
{BLKREFS
331
CE
102
}
  0
BLOCK_RECORD
  5
EE
330
1
100
AcDbSymbolTableRecord
100
AcDbBlockTableRecord
  2
SW_NOTE_1
340
0
102
{BLKREFS
331
F3
102
}
  0
BLOCK_RECORD
  5
F4
330
1
100
AcDbSymbolTableRecord
100
AcDbBlockTableRecord
  2
SW_NOTE_2
340
0
102
{BLKREFS
331
F9
102
}
  0
BLOCK_RECORD
  5
FA
330
1
100
AcDbSymbolTableRecord
100
AcDbBlockTableRecord
  2
SW_NOTE_3
340
0
102
{BLKREFS
331
FF
102
}
  0
BLOCK_RECORD
  5
100
330
1
100
AcDbSymbolTableRecord
100
AcDbBlockTableRecord
  2
SW_NOTE_4
340
0
102
{BLKREFS
331
105
102
}
  0
BLOCK_RECORD
  5
106
330
1
100
AcDbSymbolTableRecord
100
AcDbBlockTableRecord
  2
SW_NOTE_5
340
0
102
{BLKREFS
331
10B
102
}
  0
BLOCK_RECORD
  5
10C
330
1
100
AcDbSymbolTableRecord
100
AcDbBlockTableRecord
  2
SW_NOTE_6
340
0
102
{BLKREFS
331
111
102
}
  0
BLOCK_RECORD
  5
112
330
1
100
AcDbSymbolTableRecord
100
AcDbBlockTableRecord
  2
SW_NOTE_7
340
0
102
{BLKREFS
331
117
102
}
  0
BLOCK_RECORD
  5
118
330
1
100
AcDbSymbolTableRecord
100
AcDbBlockTableRecord
  2
SW_NOTE_8
340
0
102
{BLKREFS
331
11D
102
}
  0
BLOCK_RECORD
  5
11E
330
1
100
AcDbSymbolTableRecord
100
AcDbBlockTableRecord
  2
SW_NOTE_9
340
0
102
{BLKREFS
331
123
102
}
  0
BLOCK_RECORD
  5
124
330
1
100
AcDbSymbolTableRecord
100
AcDbBlockTableRecord
  2
SW_TABLEANNOTATION_0
340
0
102
{BLKREFS
331
155
102
}
  0
BLOCK_RECORD
  5
24A
330
1
100
AcDbSymbolTableRecord
100
AcDbBlockTableRecord
  2
SW_NOTE_10
340
0
102
{BLKREFS
331
24F
102
}
  0
BLOCK_RECORD
  5
251
330
1
100
AcDbSymbolTableRecord
100
AcDbBlockTableRecord
  2
_DOT
340
0
  0
BLOCK_RECORD
  5
25A
330
1
100
AcDbSymbolTableRecord
100
AcDbBlockTableRecord
  2
SW_NOTE_11
340
0
102
{BLKREFS
331
25F
102
}
  0
BLOCK_RECORD
  5
261
330
1
100
AcDbSymbolTableRecord
100
AcDbBlockTableRecord
  2
SW_NOTE_12
340
0
102
{BLKREFS
331
266
102
}
  0
BLOCK_RECORD
  5
268
330
1
100
AcDbSymbolTableRecord
100
AcDbBlockTableRecord
  2
SW_NOTE_13
340
0
102
{BLKREFS
331
26D
102
}
  0
BLOCK_RECORD
  5
26F
330
1
100
AcDbSymbolTableRecord
100
AcDbBlockTableRecord
  2
SW_NOTE_14
340
0
102
{BLKREFS
331
274
102
}
  0
BLOCK_RECORD
  5
276
330
1
100
AcDbSymbolTableRecord
100
AcDbBlockTableRecord
  2
SW_NOTE_15
340
0
102
{BLKREFS
331
27B
102
}
  0
BLOCK_RECORD
  5
27D
330
1
100
AcDbSymbolTableRecord
100
AcDbBlockTableRecord
  2
SW_NOTE_16
340
0
102
{BLKREFS
331
282
102
}
  0
BLOCK_RECORD
  5
284
330
1
100
AcDbSymbolTableRecord
100
AcDbBlockTableRecord
  2
SW_NOTE_17
340
0
102
{BLKREFS
331
289
102
}
  0
BLOCK_RECORD
  5
28B
330
1
100
AcDbSymbolTableRecord
100
AcDbBlockTableRecord
  2
SW_NOTE_18
340
0
102
{BLKREFS
331
290
102
}
  0
BLOCK_RECORD
  5
292
330
1
100
AcDbSymbolTableRecord
100
AcDbBlockTableRecord
  2
SW_NOTE_19
340
0
102
{BLKREFS
331
297
102
}
  0
BLOCK_RECORD
  5
299
330
1
100
AcDbSymbolTableRecord
100
AcDbBlockTableRecord
  2
SW_NOTE_20
340
0
102
{BLKREFS
331
29E
102
}
  0
BLOCK_RECORD
  5
2A0
330
1
100
AcDbSymbolTableRecord
100
AcDbBlockTableRecord
  2
SW_NOTE_21
340
0
102
{BLKREFS
331
2A5
102
}
  0
BLOCK_RECORD
  5
2AD
330
1
100
AcDbSymbolTableRecord
100
AcDbBlockTableRecord
  2
_D
340
0
  0
BLOCK_RECORD
  5
2B7
330
1
100
AcDbSymbolTableRecord
100
AcDbBlockTableRecord
  2
_D_1
340
0
  0
BLOCK_RECORD
  5
2C5
330
1
100
AcDbSymbolTableRecord
100
AcDbBlockTableRecord
  2
_D_2
340
0
  0
BLOCK_RECORD
  5
2CF
330
1
100
AcDbSymbolTableRecord
100
AcDbBlockTableRecord
  2
_D_3
340
0
  0
BLOCK_RECORD
  5
2DD
330
1
100
AcDbSymbolTableRecord
100
AcDbBlockTableRecord
  2
_D_4
340
0
  0
BLOCK_RECORD
  5
2E7
330
1
100
AcDbSymbolTableRecord
100
AcDbBlockTableRecord
  2
_D_5
340
0
  0
BLOCK_RECORD
  5
2FF
330
1
100
AcDbSymbolTableRecord
100
AcDbBlockTableRecord
  2
_D_6
340
0
  0
BLOCK_RECORD
  5
309
330
1
100
AcDbSymbolTableRecord
100
AcDbBlockTableRecord
  2
_D_7
340
0
  0
BLOCK_RECORD
  5
314
330
1
100
AcDbSymbolTableRecord
100
AcDbBlockTableRecord
  2
_D_8
340
0
  0
BLOCK_RECORD
  5
31D
330
1
100
AcDbSymbolTableRecord
100
AcDbBlockTableRecord
  2
_D_9
340
0
  0
BLOCK_RECORD
  5
328
330
1
100
AcDbSymbolTableRecord
100
AcDbBlockTableRecord
  2
_D_10
340
0
  0
BLOCK_RECORD
  5
332
330
1
100
AcDbSymbolTableRecord
100
AcDbBlockTableRecord
  2
_D_11
340
0
  0
BLOCK_RECORD
  5
33B
330
1
100
AcDbSymbolTableRecord
100
AcDbBlockTableRecord
  2
SW_CENTERMARKSYMBOL_0
340
0
102
{BLKREFS
331
37E
102
}
  0
BLOCK_RECORD
  5
399
330
1
100
AcDbSymbolTableRecord
100
AcDbBlockTableRecord
  2
_D_12
340
0
  0
BLOCK_RECORD
  5
3A5
330
1
100
AcDbSymbolTableRecord
100
AcDbBlockTableRecord
  2
_D_13
340
0
  0
BLOCK_RECORD
  5
3B2
330
1
100
AcDbSymbolTableRecord
100
AcDbBlockTableRecord
  2
_D_14
340
0
  0
BLOCK_RECORD
  5
3BC
330
1
100
AcDbSymbolTableRecord
100
AcDbBlockTableRecord
  2
_D_15
340
0
  0
BLOCK_RECORD
  5
3C8
330
1
100
AcDbSymbolTableRecord
100
AcDbBlockTableRecord
  2
_D_16
340
0
  0
BLOCK_RECORD
  5
3D2
330
1
100
AcDbSymbolTableRecord
100
AcDbBlockTableRecord
  2
_D_17
340
0
  0
BLOCK_RECORD
  5
3DF
330
1
100
AcDbSymbolTableRecord
100
AcDbBlockTableRecord
  2
_D_18
340
0
  0
BLOCK_RECORD
  5
3E6
330
1
100
AcDbSymbolTableRecord
100
AcDbBlockTableRecord
  2
_D_19
340
0
  0
BLOCK_RECORD
  5
3F0
330
1
100
AcDbSymbolTableRecord
100
AcDbBlockTableRecord
  2
_D_20
340
0
  0
BLOCK_RECORD
  5
402
330
1
100
AcDbSymbolTableRecord
100
AcDbBlockTableRecord
  2
_D_21
340
0
  0
BLOCK_RECORD
  5
40C
330
1
100
AcDbSymbolTableRecord
100
AcDbBlockTableRecord
  2
_D_22
340
0
  0
BLOCK_RECORD
  5
416
330
1
100
AcDbSymbolTableRecord
100
AcDbBlockTableRecord
  2
_D_23
340
0
  0
BLOCK_RECORD
  5
422
330
1
100
AcDbSymbolTableRecord
100
AcDbBlockTableRecord
  2
_D_24
340
0
  0
BLOCK_RECORD
  5
432
330
1
100
AcDbSymbolTableRecord
100
AcDbBlockTableRecord
  2
_D_25
340
0
  0
BLOCK_RECORD
  5
43C
330
1
100
AcDbSymbolTableRecord
100
AcDbBlockTableRecord
  2
_D_26
340
0
  0
BLOCK_RECORD
  5
44A
330
1
100
AcDbSymbolTableRecord
100
AcDbBlockTableRecord
  2
_D_27
340
0
  0
BLOCK_RECORD
  5
454
330
1
100
AcDbSymbolTableRecord
100
AcDbBlockTableRecord
  2
_D_28
340
0
  0
BLOCK_RECORD
  5
462
330
1
100
AcDbSymbolTableRecord
100
AcDbBlockTableRecord
  2
_D_29
340
0
  0
BLOCK_RECORD
  5
472
330
1
100
AcDbSymbolTableRecord
100
AcDbBlockTableRecord
  2
_D_30
340
0
  0
ENDTAB
  0
ENDSEC
  0
SECTION
  2
BLOCKS
  0
BLOCK
  5
20
330
1F
100
AcDbEntity
  8
0
100
AcDbBlockBegin
  2
*Model_Space
 70
     0
 10
0.0
 20
0.0
 30
0.0
  3
*Model_Space
  1

  0
ENDBLK
  5
21
330
1F
100
AcDbEntity
  8
0
100
AcDbBlockEnd
  0
BLOCK
  5
1C
330
1B
100
AcDbEntity
 67
     1
  8
0
100
AcDbBlockBegin
  2
*Paper_Space
 70
     0
 10
0.0
 20
0.0
 30
0.0
  3
*Paper_Space
  1

  0
ENDBLK
  5
1D
330
1B
100
AcDbEntity
 67
     1
  8
0
100
AcDbBlockEnd
  0
BLOCK
  5
24
330
23
100
AcDbEntity
  8
0
100
AcDbBlockBegin
  2
*Paper_Space0
 70
     0
 10
0.0
 20
0.0
 30
0.0
  3
*Paper_Space0
  1

  0
ENDBLK
  5
25
330
23
100
AcDbEntity
  8
0
100
AcDbBlockEnd
  0
BLOCK
  5
C9
330
C8
100
AcDbEntity
  8
0
100
AcDbBlockBegin
  2
SW_NOTE_0
 70
     0
 10
0.0
 20
0.0
 30
0.0
  3
SW_NOTE_0
  1

  0
MTEXT
  5
CC
330
C8
100
AcDbEntity
  8
CAJETIN
 62
     0
100
AcDbMText
 10
0.0
 20
12.2400402414
 30
0.0
 40
9.525
 41
0.0
 71
     1
 72
     1
  1
Birch Plywood
  7
SLDTEXTSTYLE0
 73
     1
 44
1.0
  0
MTEXT
  5
CD
330
C8
100
AcDbEntity
  8
CAJETIN
 62
     0
100
AcDbMText
 10
0.0
 20
-0.4599596051
 30
0.0
 40
9.525
 41
0.0
 71
     1
 72
     1
  1
18mm
  7
SLDTEXTSTYLE0
 73
     1
 44
1.0
  0
ENDBLK
  5
CA
330
C8
100
AcDbEntity
  8
0
100
AcDbBlockEnd
  0
BLOCK
  5
EF
330
EE
100
AcDbEntity
  8
0
100
AcDbBlockBegin
  2
SW_NOTE_1
 70
     0
 10
0.0
 20
0.0
 30
0.0
  3
SW_NOTE_1
  1

  0
MTEXT
  5
F1
330
EE
100
AcDbEntity
  8
CAJETIN
 62
     0
100
AcDbMText
 10
43.75546875
 20
12.2400402414
 30
0.0
 40
9.525
 41
0.0
 71
     2
 72
     1
  1
S-215LEX1000
  7
SLDTEXTSTYLE0
 73
     1
 44
1.0
  0
MTEXT
  5
F2
330
EE
100
AcDbEntity
  8
CAJETIN
 62
     0
100
AcDbMText
 10
46.0871312916
 20
-0.4599596051
 30
0.0
 40
9.525
 41
0.0
 71
     2
 72
     1
  1
DIRECT RADIATION SUBWOOFER
  7
SLDTEXTSTYLE0
 73
     1
 44
1.0
  0
ENDBLK
  5
F0
330
EE
100
AcDbEntity
  8
0
100
AcDbBlockEnd
  0
BLOCK
  5
F5
330
F4
100
AcDbEntity
  8
0
100
AcDbBlockBegin
  2
SW_NOTE_2
 70
     0
 10
0.0
 20
0.0
 30
0.0
  3
SW_NOTE_2
  1

  0
CIRCLE
  5
F7
330
F4
100
AcDbEntity
  8
SLD-0_0
 62
     0
100
AcDbCircle
 10
4.6572434426
 20
9.6563180751
 30
0.0
 40
10.14935229367254
  0
MTEXT
  5
F8
330
F4
100
AcDbEntity
  8
SLD-0_0
 62
     0
100
AcDbMText
 10
0.0
 20
16.3200536553
 30
0.0
 40
12.7
 41
0.0
 71
     1
 72
     1
  1
5
  7
SLDTEXTSTYLE0
 73
     1
 44
1.0
  0
ENDBLK
  5
F6
330
F4
100
AcDbEntity
  8
0
100
AcDbBlockEnd
  0
BLOCK
  5
FB
330
FA
100
AcDbEntity
  8
0
100
AcDbBlockBegin
  2
SW_NOTE_3
 70
     0
 10
0.0
 20
0.0
 30
0.0
  3
SW_NOTE_3
  1

  0
CIRCLE
  5
FD
330
FA
100
AcDbEntity
  8
SLD-0_0
 62
     0
100
AcDbCircle
 10
4.6522042848
 20
9.6326100453
 30
0.0
 40
10.12556669663632
  0
MTEXT
  5
FE
330
FA
100
AcDbEntity
  8
SLD-0_0
 62
     0
100
AcDbMText
 10
0.0
 20
16.3200536553
 30
0.0
 40
12.7
 41
0.0
 71
     1
 72
     1
  1
3
  7
SLDTEXTSTYLE0
 73
     1
 44
1.0
  0
ENDBLK
  5
FC
330
FA
100
AcDbEntity
  8
0
100
AcDbBlockEnd
  0
BLOCK
  5
101
330
100
100
AcDbEntity
  8
0
100
AcDbBlockBegin
  2
SW_NOTE_4
 70
     0
 10
0.0
 20
0.0
 30
0.0
  3
SW_NOTE_4
  1

  0
CIRCLE
  5
103
330
100
100
AcDbEntity
  8
SLD-0_0
 62
     0
100
AcDbCircle
 10
4.6732596726
 20
9.6326100453
 30
0.0
 40
10.14935229367254
  0
MTEXT
  5
104
330
100
100
AcDbEntity
  8
SLD-0_0
 62
     0
100
AcDbMText
 10
0.0
 20
16.3200536553
 30
0.0
 40
12.7
 41
0.0
 71
     1
 72
     1
  1
2
  7
SLDTEXTSTYLE0
 73
     1
 44
1.0
  0
ENDBLK
  5
102
330
100
100
AcDbEntity
  8
0
100
AcDbBlockEnd
  0
BLOCK
  5
107
330
106
100
AcDbEntity
  8
0
100
AcDbBlockBegin
  2
SW_NOTE_5
 70
     0
 10
0.0
 20
0.0
 30
0.0
  3
SW_NOTE_5
  1

  0
CIRCLE
  5
109
330
106
100
AcDbEntity
  8
SLD-0_0
 62
     0
100
AcDbCircle
 10
4.6702754371
 20
9.6451171164
 30
0.0
 40
10.14935229367255
  0
MTEXT
  5
10A
330
106
100
AcDbEntity
  8
SLD-0_0
 62
     0
100
AcDbMText
 10
0.0
 20
16.3200536553
 30
0.0
 40
12.7
 41
0.0
 71
     1
 72
     1
  1
1
  7
SLDTEXTSTYLE0
 73
     1
 44
1.0
  0
ENDBLK
  5
108
330
106
100
AcDbEntity
  8
0
100
AcDbBlockEnd
  0
BLOCK
  5
10D
330
10C
100
AcDbEntity
  8
0
100
AcDbBlockBegin
  2
SW_NOTE_6
 70
     0
 10
0.0
 20
0.0
 30
0.0
  3
SW_NOTE_6
  1

  0
CIRCLE
  5
10F
330
10C
100
AcDbEntity
  8
SLD-0_0
 62
     0
100
AcDbCircle
 10
4.6412583097
 20
9.6392672851
 30
0.0
 40
10.14935229367243
  0
MTEXT
  5
110
330
10C
100
AcDbEntity
  8
SLD-0_0
 62
     0
100
AcDbMText
 10
0.0
 20
16.3200536553
 30
0.0
 40
12.7
 41
0.0
 71
     1
 72
     1
  1
7
  7
SLDTEXTSTYLE0
 73
     1
 44
1.0
  0
ENDBLK
  5
10E
330
10C
100
AcDbEntity
  8
0
100
AcDbBlockEnd
  0
BLOCK
  5
113
330
112
100
AcDbEntity
  8
0
100
AcDbBlockBegin
  2
SW_NOTE_7
 70
     0
 10
0.0
 20
0.0
 30
0.0
  3
SW_NOTE_7
  1

  0
CIRCLE
  5
115
330
112
100
AcDbEntity
  8
SLD-0_0
 62
     0
100
AcDbCircle
 10
4.646140286
 20
9.615140097
 30
0.0
 40
10.14935229367253
  0
MTEXT
  5
116
330
112
100
AcDbEntity
  8
SLD-0_0
 62
     0
100
AcDbMText
 10
0.0
 20
16.3200536553
 30
0.0
 40
12.7
 41
0.0
 71
     1
 72
     1
  1
8
  7
SLDTEXTSTYLE0
 73
     1
 44
1.0
  0
ENDBLK
  5
114
330
112
100
AcDbEntity
  8
0
100
AcDbBlockEnd
  0
BLOCK
  5
119
330
118
100
AcDbEntity
  8
0
100
AcDbBlockBegin
  2
SW_NOTE_8
 70
     0
 10
0.0
 20
0.0
 30
0.0
  3
SW_NOTE_8
  1

  0
CIRCLE
  5
11B
330
118
100
AcDbEntity
  8
SLD-0_0
 62
     0
100
AcDbCircle
 10
4.6550132872
 20
9.6609120092
 30
0.0
 40
10.12556669663622
  0
MTEXT
  5
11C
330
118
100
AcDbEntity
  8
SLD-0_0
 62
     0
100
AcDbMText
 10
0.0
 20
16.3200536553
 30
0.0
 40
12.7
 41
0.0
 71
     1
 72
     1
  1
6
  7
SLDTEXTSTYLE0
 73
     1
 44
1.0
  0
ENDBLK
  5
11A
330
118
100
AcDbEntity
  8
0
100
AcDbBlockEnd
  0
BLOCK
  5
11F
330
11E
100
AcDbEntity
  8
0
100
AcDbBlockBegin
  2
SW_NOTE_9
 70
     0
 10
0.0
 20
0.0
 30
0.0
  3
SW_NOTE_9
  1

  0
CIRCLE
  5
121
330
11E
100
AcDbEntity
  8
SLD-0_0
 62
     0
100
AcDbCircle
 10
4.6545608598
 20
9.6199811322
 30
0.0
 40
10.10394225800678
  0
MTEXT
  5
122
330
11E
100
AcDbEntity
  8
SLD-0_0
 62
     0
100
AcDbMText
 10
0.0
 20
16.3200536553
 30
0.0
 40
12.7
 41
0.0
 71
     1
 72
     1
  1
4
  7
SLDTEXTSTYLE0
 73
     1
 44
1.0
  0
ENDBLK
  5
120
330
11E
100
AcDbEntity
  8
0
100
AcDbBlockEnd
  0
BLOCK
  5
125
330
124
100
AcDbEntity
  8
0
100
AcDbBlockBegin
  2
SW_TABLEANNOTATION_0
 70
     0
 10
0.0
 20
0.0
 30
0.0
  3
SW_TABLEANNOTATION_0
  1

  0
LINE
  5
127
330
124
100
AcDbEntity
  8
CAJETIN
 62
     0
100
AcDbLine
 10
0.0
 20
0.0
 30
0.0
 11
0.0
 21
-256.4403935502
 31
0.0
  0
LINE
  5
128
330
124
100
AcDbEntity
  8
CAJETIN
 62
     0
100
AcDbLine
 10
0.0
 20
-256.4403935502
 30
0.0
 11
479.274911898
 21
-256.4403935502
 31
0.0
  0
LINE
  5
129
330
124
100
AcDbEntity
  8
CAJETIN
 62
     0
100
AcDbLine
 10
479.274911898
 20
-256.4403935502
 30
0.0
 11
479.274911898
 21
0.0
 31
0.0
  0
LINE
  5
12A
330
124
100
AcDbEntity
  8
CAJETIN
 62
     0
100
AcDbLine
 10
479.274911898
 20
0.0
 30
0.0
 11
0.0
 21
0.0
 31
0.0
  0
LINE
  5
12B
330
124
100
AcDbEntity
  8
CAJETIN
 62
     0
100
AcDbLine
 10
101.7260768305
 20
0.0
 30
0.0
 11
101.7260768305
 21
-50.7869892081
 31
0.0
  0
LINE
  5
12C
330
124
100
AcDbEntity
  8
CAJETIN
 62
     0
100
AcDbLine
 10
395.0513682445
 20
0.0
 30
0.0
 11
395.0513682445
 21
-50.7869892081
 31
0.0
  0
LINE
  5
12D
330
124
100
AcDbEntity
  8
CAJETIN
 62
     0
100
AcDbLine
 10
101.7260768305
 20
-50.7869892081
 30
0.0
 11
101.7260768305
 21
-256.4403935502
 31
0.0
  0
LINE
  5
12E
330
124
100
AcDbEntity
  8
CAJETIN
 62
     0
100
AcDbLine
 10
395.0513682445
 20
-50.7869892081
 30
0.0
 11
395.0513682445
 21
-256.4403935502
 31
0.0
  0
LINE
  5
12F
330
124
100
AcDbEntity
  8
CAJETIN
 62
     0
100
AcDbLine
 10
0.0
 20
-76.4936647508
 30
0.0
 11
479.274911898
 21
-76.4936647508
 31
0.0
  0
LINE
  5
130
330
124
100
AcDbEntity
  8
CAJETIN
 62
     0
100
AcDbLine
 10
0.0
 20
-102.2003402936
 30
0.0
 11
479.274911898
 21
-102.2003402936
 31
0.0
  0
LINE
  5
131
330
124
100
AcDbEntity
  8
CAJETIN
 62
     0
100
AcDbLine
 10
0.0
 20
-127.9070158363
 30
0.0
 11
479.274911898
 21
-127.9070158363
 31
0.0
  0
LINE
  5
132
330
124
100
AcDbEntity
  8
CAJETIN
 62
     0
100
AcDbLine
 10
0.0
 20
-153.6136913791
 30
0.0
 11
479.274911898
 21
-153.6136913791
 31
0.0
  0
LINE
  5
133
330
124
100
AcDbEntity
  8
CAJETIN
 62
     0
100
AcDbLine
 10
0.0
 20
-179.3203669219
 30
0.0
 11
479.274911898
 21
-179.3203669219
 31
0.0
  0
LINE
  5
134
330
124
100
AcDbEntity
  8
CAJETIN
 62
     0
100
AcDbLine
 10
0.0
 20
-205.0270424646
 30
0.0
 11
479.274911898
 21
-205.0270424646
 31
0.0
  0
LINE
  5
135
330
124
100
AcDbEntity
  8
CAJETIN
 62
     0
100
AcDbLine
 10
0.0
 20
-230.7337180074
 30
0.0
 11
479.274911898
 21
-230.7337180074
 31
0.0
  0
LINE
  5
136
330
124
100
AcDbEntity
  8
CAJETIN
 62
     0
100
AcDbLine
 10
0.0
 20
-50.7869892081
 30
0.0
 11
479.274911898
 21
-50.7869892081
 31
0.0
  0
MTEXT
  5
138
330
124
100
AcDbEntity
  8
CAJETIN
 62
     0
100
AcDbMText
 10
14.6092433875
 20
-19.0598427624
 30
0.0
 40
12.7
 41
0.0
 71
     1
 72
     1
  1
ITEM NO.
  7
SLDTEXTSTYLE2
 73
     1
 44
1.0
  0
MTEXT
  5
139
330
124
100
AcDbEntity
  8
CAJETIN
 62
     0
100
AcDbMText
 10
163.7220531687
 20
-19.0598427624
 30
0.0
 40
12.7
 41
0.0
 71
     1
 72
     1
  1
PARTS DIMENSIONS
  7
SLDTEXTSTYLE0
 73
     1
 44
1.0
  0
MTEXT
  5
13A
330
124
100
AcDbEntity
  8
CAJETIN
 62
     0
100
AcDbMText
 10
418.7834182807
 20
-19.0598427624
 30
0.0
 40
12.7
 41
0.0
 71
     1
 72
     1
  1
QTY.
  7
SLDTEXTSTYLE2
 73
     1
 44
1.0
  0
MTEXT
  5
13B
330
124
100
AcDbEntity
  8
CAJETIN
 62
     0
100
AcDbMText
 10
46.1710939577
 20
-57.3066751378
 30
0.0
 40
12.7
 41
0.0
 71
     1
 72
     1
  1
1
  7
SLDTEXTSTYLE2
 73
     1
 44
1.0
  0
MTEXT
  5
13D
330
124
100
AcDbEntity
  8
CAJETIN
 62
     0
100
AcDbMText
 10
195.2956686125
 20
-57.3066751378
 30
0.0
 40
12.7
 41
0.0
 71
     1
 72
     1
  1
975 x 604 x 18
  7
SLDTEXTSTYLE3
 73
     1
 44
1.0
  0
MTEXT
  5
13E
330
124
100
AcDbEntity
  8
CAJETIN
 62
     0
100
AcDbMText
 10
432.4711956136
 20
-57.3066751378
 30
0.0
 40
12.7
 41
0.0
 71
     1
 72
     1
  1
2
  7
SLDTEXTSTYLE2
 73
     1
 44
1.0
  0
MTEXT
  5
13F
330
124
100
AcDbEntity
  8
CAJETIN
 62
     0
100
AcDbMText
 10
46.1710939577
 20
-83.0133506806
 30
0.0
 40
12.7
 41
0.0
 71
     1
 72
     1
  1
2
  7
SLDTEXTSTYLE2
 73
     1
 44
1.0
  0
MTEXT
  5
140
330
124
100
AcDbEntity
  8
CAJETIN
 62
     0
100
AcDbMText
 10
192.8850188837
 20
-83.0133506806
 30
0.0
 40
12.7
 41
0.0
 71
     1
 72
     1
  1
604 x 440 x 18
  7
SLDTEXTSTYLE3
 73
     1
 44
1.0
  0
MTEXT
  5
141
330
124
100
AcDbEntity
  8
CAJETIN
 62
     0
100
AcDbMText
 10
432.4711956136
 20
-83.0133506806
 30
0.0
 40
12.7
 41
0.0
 71
     1
 72
     1
  1
2
  7
SLDTEXTSTYLE2
 73
     1
 44
1.0
  0
MTEXT
  5
142
330
124
100
AcDbEntity
  8
CAJETIN
 62
     0
100
AcDbMText
 10
46.1710939577
 20
-108.7200262233
 30
0.0
 40
12.7
 41
0.0
 71
     1
 72
     1
  1
3
  7
SLDTEXTSTYLE2
 73
     1
 44
1.0
  0
MTEXT
  5
143
330
124
100
AcDbEntity
  8
CAJETIN
 62
     0
100
AcDbMText
 10
192.8850188837
 20
-108.7200262233
 30
0.0
 40
12.7
 41
0.0
 71
     1
 72
     1
  1
939 x 440 x 18
  7
SLDTEXTSTYLE3
 73
     1
 44
1.0
  0
MTEXT
  5
144
330
124
100
AcDbEntity
  8
CAJETIN
 62
     0
100
AcDbMText
 10
432.4711956136
 20
-108.7200262233
 30
0.0
 40
12.7
 41
0.0
 71
     1
 72
     1
  1
1
  7
SLDTEXTSTYLE2
 73
     1
 44
1.0
  0
MTEXT
  5
145
330
124
100
AcDbEntity
  8
CAJETIN
 62
     0
100
AcDbMText
 10
46.1710939577
 20
-134.4267017661
 30
0.0
 40
12.7
 41
0.0
 71
     1
 72
     1
  1
4
  7
SLDTEXTSTYLE2
 73
     1
 44
1.0
  0
MTEXT
  5
146
330
124
100
AcDbEntity
  8
CAJETIN
 62
     0
100
AcDbMText
 10
195.2956686125
 20
-134.4267017661
 30
0.0
 40
12.7
 41
0.0
 71
     1
 72
     1
  1
409 x 440 x 18
  7
SLDTEXTSTYLE3
 73
     1
 44
1.0
  0
MTEXT
  5
147
330
124
100
AcDbEntity
  8
CAJETIN
 62
     0
100
AcDbMText
 10
432.4711956136
 20
-134.4267017661
 30
0.0
 40
12.7
 41
0.0
 71
     1
 72
     1
  1
2
  7
SLDTEXTSTYLE2
 73
     1
 44
1.0
  0
MTEXT
  5
148
330
124
100
AcDbEntity
  8
CAJETIN
 62
     0
100
AcDbMText
 10
46.1710939577
 20
-160.1333773088
 30
0.0
 40
12.7
 41
0.0
 71
     1
 72
     1
  1
5
  7
SLDTEXTSTYLE2
 73
     1
 44
1.0
  0
MTEXT
  5
149
330
124
100
AcDbEntity
  8
CAJETIN
 62
     0
100
AcDbMText
 10
192.8850188837
 20
-160.1333773088
 30
0.0
 40
12.7
 41
0.0
 71
     1
 72
     1
  1
256 x 939 x 18
  7
SLDTEXTSTYLE3
 73
     1
 44
1.0
  0
MTEXT
  5
14A
330
124
100
AcDbEntity
  8
CAJETIN
 62
     0
100
AcDbMText
 10
432.4711956136
 20
-160.1333773088
 30
0.0
 40
12.7
 41
0.0
 71
     1
 72
     1
  1
1
  7
SLDTEXTSTYLE2
 73
     1
 44
1.0
  0
MTEXT
  5
14B
330
124
100
AcDbEntity
  8
CAJETIN
 62
     0
100
AcDbMText
 10
46.1710939577
 20
-185.8400528516
 30
0.0
 40
12.7
 41
0.0
 71
     1
 72
     1
  1
6
  7
SLDTEXTSTYLE2
 73
     1
 44
1.0
  0
MTEXT
  5
14C
330
124
100
AcDbEntity
  8
CAJETIN
 62
     0
100
AcDbMText
 10
192.8850188837
 20
-185.8400528516
 30
0.0
 40
12.7
 41
0.0
 71
     1
 72
     1
  1
440 x 100 x 18
  7
SLDTEXTSTYLE3
 73
     1
 44
1.0
  0
MTEXT
  5
14D
330
124
100
AcDbEntity
  8
CAJETIN
 62
     0
100
AcDbMText
 10
432.4711956136
 20
-185.8400528516
 30
0.0
 40
12.7
 41
0.0
 71
     1
 72
     1
  1
1
  7
SLDTEXTSTYLE2
 73
     1
 44
1.0
  0
MTEXT
  5
14E
330
124
100
AcDbEntity
  8
CAJETIN
 62
     0
100
AcDbMText
 10
46.1710939577
 20
-211.5467283944
 30
0.0
 40
12.7
 41
0.0
 71
     1
 72
     1
  1
7
  7
SLDTEXTSTYLE2
 73
     1
 44
1.0
  0
MTEXT
  5
150
330
124
100
AcDbEntity
  8
CAJETIN
 62
     0
100
AcDbMText
 10
197.5887231514
 20
-211.5467283944
 30
0.0
 40
12.7
 41
0.0
 71
     1
 72
     1
  1
122 x 85 x 18
  7
SLDTEXTSTYLE4
 73
     1
 44
1.0
  0
MTEXT
  5
151
330
124
100
AcDbEntity
  8
CAJETIN
 62
     0
100
AcDbMText
 10
432.4711956136
 20
-211.5467283944
 30
0.0
 40
12.7
 41
0.0
 71
     1
 72
     1
  1
1
  7
SLDTEXTSTYLE2
 73
     1
 44
1.0
  0
MTEXT
  5
152
330
124
100
AcDbEntity
  8
CAJETIN
 62
     0
100
AcDbMText
 10
46.1710939577
 20
-237.2534039371
 30
0.0
 40
12.7
 41
0.0
 71
     1
 72
     1
  1
8
  7
SLDTEXTSTYLE2
 73
     1
 44
1.0
  0
MTEXT
  5
153
330
124
100
AcDbEntity
  8
CAJETIN
 62
     0
100
AcDbMText
 10
192.8850188837
 20
-237.2534039371
 30
0.0
 40
12.7
 41
0.0
 71
     1
 72
     1
  1
122 x 440 x 18
  7
SLDTEXTSTYLE3
 73
     1
 44
1.0
  0
MTEXT
  5
154
330
124
100
AcDbEntity
  8
CAJETIN
 62
     0
100
AcDbMText
 10
432.4711956136
 20
-237.2534039371
 30
0.0
 40
12.7
 41
0.0
 71
     1
 72
     1
  1
2
  7
SLDTEXTSTYLE2
 73
     1
 44
1.0
  0
ENDBLK
  5
126
330
124
100
AcDbEntity
  8
0
100
AcDbBlockEnd
  0
BLOCK
  5
24B
330
24A
100
AcDbEntity
  8
0
100
AcDbBlockBegin
  2
SW_NOTE_10
 70
     0
 10
0.0
 20
0.0
 30
0.0
  3
SW_NOTE_10
  1

  0
CIRCLE
  5
24D
330
24A
100
AcDbEntity
  8
SLD-0_0
 62
     0
100
AcDbCircle
 10
-4.3864885082
 20
17.4609315687
 30
0.0
 40
18.00348334851928
  0
MTEXT
  5
24E
330
24A
100
AcDbEntity
  8
SLD-0_0
 62
     0
100
AcDbMText
 10
-4.3276923103
 20
24.5519950111
 30
0.0
 40
12.7
 41
0.0
 71
     2
 72
     1
  1
2
  7
SLDTEXTSTYLE0
 73
     1
 44
1.0
  0
ENDBLK
  5
24C
330
24A
100
AcDbEntity
  8
0
100
AcDbBlockEnd
  0
BLOCK
  5
252
330
251
100
AcDbEntity
  8
0
100
AcDbBlockBegin
  2
_DOT
 70
     0
 10
0.0
 20
0.0
 30
0.0
  3
_DOT
  1

  0
POLYLINE
  5
254
330
251
100
AcDbEntity
  8
0
  6
ByBlock
 62
     0
100
AcDb2dPolyline
 66
     1
 10
0.0
 20
0.0
 30
0.0
 70
     1
 40
0.5
 41
0.5
  0
VERTEX
  5
256
330
254
100
AcDbEntity
  8
0
  6
ByBlock
 62
     0
100
AcDbVertex
100
AcDb2dVertex
 10
-0.25
 20
0.0
 30
0.0
 42
1.0
  0
VERTEX
  5
257
330
254
100
AcDbEntity
  8
0
  6
ByBlock
 62
     0
100
AcDbVertex
100
AcDb2dVertex
 10
0.25
 20
0.0
 30
0.0
 42
1.0
  0
SEQEND
  5
258
330
254
100
AcDbEntity
  8
0
  6
ByBlock
 62
     0
  0
LINE
  5
255
330
251
100
AcDbEntity
  8
0
  6
ByBlock
 62
     0
370
    -2
100
AcDbLine
 10
-0.5
 20
0.0
 30
0.0
 11
-1.0
 21
0.0
 31
0.0
  0
ENDBLK
  5
253
330
251
100
AcDbEntity
  8
0
100
AcDbBlockEnd
  0
BLOCK
  5
25B
330
25A
100
AcDbEntity
  8
0
100
AcDbBlockBegin
  2
SW_NOTE_11
 70
     0
 10
0.0
 20
0.0
 30
0.0
  3
SW_NOTE_11
  1

  0
CIRCLE
  5
25D
330
25A
100
AcDbEntity
  8
SLD-0_0
 62
     0
100
AcDbCircle
 10
11.1311139879
 20
14.1500428999
 30
0.0
 40
18.00348334851918
  0
MTEXT
  5
25E
330
25A
100
AcDbEntity
  8
SLD-0_0
 62
     0
100
AcDbMText
 10
11.1899101858
 20
21.2411063423
 30
0.0
 40
12.7
 41
0.0
 71
     2
 72
     1
  1
1
  7
SLDTEXTSTYLE0
 73
     1
 44
1.0
  0
ENDBLK
  5
25C
330
25A
100
AcDbEntity
  8
0
100
AcDbBlockEnd
  0
BLOCK
  5
262
330
261
100
AcDbEntity
  8
0
100
AcDbBlockBegin
  2
SW_NOTE_12
 70
     0
 10
0.0
 20
0.0
 30
0.0
  3
SW_NOTE_12
  1

  0
CIRCLE
  5
264
330
261
100
AcDbEntity
  8
SLD-0_0
 62
     0
100
AcDbCircle
 10
12.8197258769
 20
12.6404130123
 30
0.0
 40
18.00348334851918
  0
MTEXT
  5
265
330
261
100
AcDbEntity
  8
SLD-0_0
 62
     0
100
AcDbMText
 10
12.8785220748
 20
19.7314764547
 30
0.0
 40
12.7
 41
0.0
 71
     2
 72
     1
  1
6
  7
SLDTEXTSTYLE0
 73
     1
 44
1.0
  0
ENDBLK
  5
263
330
261
100
AcDbEntity
  8
0
100
AcDbBlockEnd
  0
BLOCK
  5
269
330
268
100
AcDbEntity
  8
0
100
AcDbBlockBegin
  2
SW_NOTE_13
 70
     0
 10
0.0
 20
0.0
 30
0.0
  3
SW_NOTE_13
  1

  0
CIRCLE
  5
26B
330
268
100
AcDbEntity
  8
SLD-0_0
 62
     0
100
AcDbCircle
 10
15.7078343891
 20
8.7971217727
 30
0.0
 40
18.00348334851943
  0
MTEXT
  5
26C
330
268
100
AcDbEntity
  8
SLD-0_0
 62
     0
100
AcDbMText
 10
15.766630587
 20
15.8881852151
 30
0.0
 40
12.7
 41
0.0
 71
     2
 72
     1
  1
3
  7
SLDTEXTSTYLE0
 73
     1
 44
1.0
  0
ENDBLK
  5
26A
330
268
100
AcDbEntity
  8
0
100
AcDbBlockEnd
  0
BLOCK
  5
270
330
26F
100
AcDbEntity
  8
0
100
AcDbBlockBegin
  2
SW_NOTE_14
 70
     0
 10
0.0
 20
0.0
 30
0.0
  3
SW_NOTE_14
  1

  0
CIRCLE
  5
272
330
26F
100
AcDbEntity
  8
SLD-0_0
 62
     0
100
AcDbCircle
 10
-14.363730763
 20
-10.8539693776
 30
0.0
 40
18.00348334851921
  0
MTEXT
  5
273
330
26F
100
AcDbEntity
  8
SLD-0_0
 62
     0
100
AcDbMText
 10
-14.3049345651
 20
-3.7629059352
 30
0.0
 40
12.7
 41
0.0
 71
     2
 72
     1
  1
4
  7
SLDTEXTSTYLE0
 73
     1
 44
1.0
  0
ENDBLK
  5
271
330
26F
100
AcDbEntity
  8
0
100
AcDbBlockEnd
  0
BLOCK
  5
277
330
276
100
AcDbEntity
  8
0
100
AcDbBlockBegin
  2
SW_NOTE_15
 70
     0
 10
0.0
 20
0.0
 30
0.0
  3
SW_NOTE_15
  1

  0
CIRCLE
  5
279
330
276
100
AcDbEntity
  8
SLD-0_0
 62
     0
100
AcDbCircle
 10
11.6555505802
 20
-13.721281039
 30
0.0
 40
18.00348334851921
  0
MTEXT
  5
27A
330
276
100
AcDbEntity
  8
SLD-0_0
 62
     0
100
AcDbMText
 10
11.7143467781
 20
-6.6302175967
 30
0.0
 40
12.7
 41
0.0
 71
     2
 72
     1
  1
8
  7
SLDTEXTSTYLE0
 73
     1
 44
1.0
  0
ENDBLK
  5
278
330
276
100
AcDbEntity
  8
0
100
AcDbBlockEnd
  0
BLOCK
  5
27E
330
27D
100
AcDbEntity
  8
0
100
AcDbBlockBegin
  2
SW_NOTE_16
 70
     0
 10
0.0
 20
0.0
 30
0.0
  3
SW_NOTE_16
  1

  0
CIRCLE
  5
280
330
27D
100
AcDbEntity
  8
SLD-0_0
 62
     0
100
AcDbCircle
 10
-2.7789542884
 20
17.7877155853
 30
0.0
 40
18.00348334851923
  0
MTEXT
  5
281
330
27D
100
AcDbEntity
  8
SLD-0_0
 62
     0
100
AcDbMText
 10
-2.7201580904
 20
24.8787790277
 30
0.0
 40
12.7
 41
0.0
 71
     2
 72
     1
  1
8
  7
SLDTEXTSTYLE0
 73
     1
 44
1.0
  0
ENDBLK
  5
27F
330
27D
100
AcDbEntity
  8
0
100
AcDbBlockEnd
  0
BLOCK
  5
285
330
284
100
AcDbEntity
  8
0
100
AcDbBlockBegin
  2
SW_NOTE_17
 70
     0
 10
0.0
 20
0.0
 30
0.0
  3
SW_NOTE_17
  1

  0
CIRCLE
  5
287
330
284
100
AcDbEntity
  8
SLD-0_0
 62
     0
100
AcDbCircle
 10
-2.9457128744
 20
17.7608611374
 30
0.0
 40
18.00348334851924
  0
MTEXT
  5
288
330
284
100
AcDbEntity
  8
SLD-0_0
 62
     0
100
AcDbMText
 10
-2.8869166765
 20
24.8519245798
 30
0.0
 40
12.7
 41
0.0
 71
     2
 72
     1
  1
7
  7
SLDTEXTSTYLE0
 73
     1
 44
1.0
  0
ENDBLK
  5
286
330
284
100
AcDbEntity
  8
0
100
AcDbBlockEnd
  0
BLOCK
  5
28C
330
28B
100
AcDbEntity
  8
0
100
AcDbBlockBegin
  2
SW_NOTE_18
 70
     0
 10
0.0
 20
0.0
 30
0.0
  3
SW_NOTE_18
  1

  0
CIRCLE
  5
28E
330
28B
100
AcDbEntity
  8
SLD-0_0
 62
     0
100
AcDbCircle
 10
11.0293784581
 20
14.2294843023
 30
0.0
 40
18.00348334851924
  0
MTEXT
  5
28F
330
28B
100
AcDbEntity
  8
SLD-0_0
 62
     0
100
AcDbMText
 10
11.088174656
 20
21.3205477446
 30
0.0
 40
12.7
 41
0.0
 71
     2
 72
     1
  1
5
  7
SLDTEXTSTYLE0
 73
     1
 44
1.0
  0
ENDBLK
  5
28D
330
28B
100
AcDbEntity
  8
0
100
AcDbBlockEnd
  0
BLOCK
  5
293
330
292
100
AcDbEntity
  8
0
100
AcDbBlockBegin
  2
SW_NOTE_19
 70
     0
 10
0.0
 20
0.0
 30
0.0
  3
SW_NOTE_19
  1

  0
CIRCLE
  5
295
330
292
100
AcDbEntity
  8
SLD-0_0
 62
     0
100
AcDbCircle
 10
17.8185657205
 20
2.5737382044
 30
0.0
 40
18.00348334851921
  0
MTEXT
  5
296
330
292
100
AcDbEntity
  8
SLD-0_0
 62
     0
100
AcDbMText
 10
17.8773619184
 20
9.6648016468
 30
0.0
 40
12.7
 41
0.0
 71
     2
 72
     1
  1
2
  7
SLDTEXTSTYLE0
 73
     1
 44
1.0
  0
ENDBLK
  5
294
330
292
100
AcDbEntity
  8
0
100
AcDbBlockEnd
  0
BLOCK
  5
29A
330
299
100
AcDbEntity
  8
0
100
AcDbBlockBegin
  2
SW_NOTE_20
 70
     0
 10
0.0
 20
0.0
 30
0.0
  3
SW_NOTE_20
  1

  0
CIRCLE
  5
29C
330
299
100
AcDbEntity
  8
SLD-0_0
 62
     0
100
AcDbCircle
 10
15.8973696539
 20
-8.449795901
 30
0.0
 40
18.00348334851921
  0
MTEXT
  5
29D
330
299
100
AcDbEntity
  8
SLD-0_0
 62
     0
100
AcDbMText
 10
15.9561658518
 20
-1.3587324586
 30
0.0
 40
12.7
 41
0.0
 71
     2
 72
     1
  1
1
  7
SLDTEXTSTYLE0
 73
     1
 44
1.0
  0
ENDBLK
  5
29B
330
299
100
AcDbEntity
  8
0
100
AcDbBlockEnd
  0
BLOCK
  5
2A1
330
2A0
100
AcDbEntity
  8
0
100
AcDbBlockBegin
  2
SW_NOTE_21
 70
     0
 10
0.0
 20
0.0
 30
0.0
  3
SW_NOTE_21
  1

  0
CIRCLE
  5
2A3
330
2A0
100
AcDbEntity
  8
SLD-0_0
 62
     0
100
AcDbCircle
 10
-17.3596911883
 20
-4.7714289816
 30
0.0
 40
18.00348334851918
  0
MTEXT
  5
2A4
330
2A0
100
AcDbEntity
  8
SLD-0_0
 62
     0
100
AcDbMText
 10
-17.3008949904
 20
2.3196344608
 30
0.0
 40
12.7
 41
0.0
 71
     2
 72
     1
  1
4
  7
SLDTEXTSTYLE0
 73
     1
 44
1.0
  0
ENDBLK
  5
2A2
330
2A0
100
AcDbEntity
  8
0
100
AcDbBlockEnd
  0
BLOCK
  5
2AE
330
2AD
100
AcDbEntity
  8
0
100
AcDbBlockBegin
  2
_D
 70
     0
 10
0.0
 20
0.0
 30
0.0
  3
_D
  1

  0
SOLID
  5
2B0
330
2AD
100
AcDbEntity
  8
SLD-0_0
100
AcDbTrace
 10
199.1412221696
 20
1182.9955086861
 30
0.0
 11
211.4691518571
 21
1181.0989041188
 31
0.0
 12
211.4691518571
 22
1184.8921132534
 32
0.0
 13
211.4691518571
 23
1184.8921132534
 33
0.0
  0
SOLID
  5
2B1
330
2AD
100
AcDbEntity
  8
SLD-0_0
100
AcDbTrace
 10
1174.1412221696
 20
1182.9955086861
 30
0.0
 11
1161.8132924821
 21
1184.8921132534
 31
0.0
 12
1161.8132924821
 22
1181.0989041188
 32
0.0
 13
1161.8132924821
 23
1181.0989041188
 33
0.0
  0
LINE
  5
2B2
330
2AD
100
AcDbEntity
  8
SLD-0_0
100
AcDbLine
 10
199.1412221696
 20
1226.9955086861
 30
0.0
 11
199.1412221696
 21
1181.9955086861
 31
0.0
  0
LINE
  5
2B3
330
2AD
100
AcDbEntity
  8
SLD-0_0
100
AcDbLine
 10
1174.1412221696
 20
1226.9955086861
 30
0.0
 11
1174.1412221696
 21
1181.9955086861
 31
0.0
  0
LINE
  5
2B4
330
2AD
100
AcDbEntity
  8
SLD-0_0
100
AcDbLine
 10
199.1412221696
 20
1182.9955086861
 30
0.0
 11
1174.1412221696
 21
1182.9955086861
 31
0.0
  0
MTEXT
  5
2B5
330
2AD
100
AcDbEntity
  8
SLD-0_0
100
AcDbMText
 10
703.9158093045
 20
1199.3666689812
 30
0.0
 40
12.7
 41
0.0
 71
     1
 72
     1
  1
975
  7
SLDTEXTSTYLE0
 73
     1
 44
1.0
  0
ENDBLK
  5
2AF
330
2AD
100
AcDbEntity
  8
0
100
AcDbBlockEnd
  0
BLOCK
  5
2B8
330
2B7
100
AcDbEntity
  8
0
100
AcDbBlockBegin
  2
_D_1
 70
     0
 10
0.0
 20
0.0
 30
0.0
  3
_D_1
  1

  0
SOLID
  5
2BA
330
2B7
100
AcDbEntity
  8
SLD-0_0
100
AcDbTrace
 10
154.1412221696
 20
1227.9955086861
 30
0.0
 11
156.0378267369
 21
1240.3234383736
 31
0.0
 12
152.2446176023
 22
1240.3234383736
 32
0.0
 13
152.2446176023
 23
1240.3234383736
 33
0.0
  0
SOLID
  5
2BB
330
2B7
100
AcDbEntity
  8
SLD-0_0
100
AcDbTrace
 10
154.1412221696
 20
1831.9955086861
 30
0.0
 11
152.2446176023
 21
1819.6675789986
 31
0.0
 12
156.0378267369
 22
1819.6675789986
 32
0.0
 13
156.0378267369
 23
1819.6675789986
 33
0.0
  0
LINE
  5
2BC
330
2B7
100
AcDbEntity
  8
SLD-0_0
100
AcDbLine
 10
198.1412221696
 20
1227.9955086861
 30
0.0
 11
153.1412221696
 21
1227.9955086861
 31
0.0
  0
LINE
  5
2BD
330
2B7
100
AcDbEntity
  8
SLD-0_0
100
AcDbLine
 10
198.1412221696
 20
1831.9955086861
 30
0.0
 11
153.1412221696
 21
1831.9955086861
 31
0.0
  0
LINE
  5
2BE
330
2B7
100
AcDbEntity
  8
SLD-0_0
100
AcDbLine
 10
154.1412221696
 20
1227.9955086861
 30
0.0
 11
154.1412221696
 21
1831.9955086861
 31
0.0
  0
MTEXT
  5
2BF
330
2B7
100
AcDbEntity
  8
SLD-0_0
100
AcDbMText
 10
137.7700618745
 20
1510.9806496366
 30
0.0
 40
12.7
 41
0.0
 71
     1
 72
     1
  1
604
  7
SLDTEXTSTYLE0
 11
-3.713525943768165E-15
 21
1.0
 31
0.0
 73
     1
 44
1.0
  0
ENDBLK
  5
2B9
330
2B7
100
AcDbEntity
  8
0
100
AcDbBlockEnd
  0
BLOCK
  5
2C6
330
2C5
100
AcDbEntity
  8
0
100
AcDbBlockBegin
  2
_D_2
 70
     0
 10
0.0
 20
0.0
 30
0.0
  3
_D_2
  1

  0
SOLID
  5
2C8
330
2C5
100
AcDbEntity
  8
SLD-0_0
100
AcDbTrace
 10
1313.5046131663
 20
1831.9955086861
 30
0.0
 11
1311.608008599
 21
1819.6675789986
 31
0.0
 12
1315.4012177336
 22
1819.6675789986
 32
0.0
 13
1315.4012177336
 23
1819.6675789986
 33
0.0
  0
SOLID
  5
2C9
330
2C5
100
AcDbEntity
  8
SLD-0_0
100
AcDbTrace
 10
1313.5046131663
 20
1227.9955086861
 30
0.0
 11
1315.4012177336
 21
1240.3234383736
 31
0.0
 12
1311.608008599
 22
1240.3234383736
 32
0.0
 13
1311.608008599
 23
1240.3234383736
 33
0.0
  0
LINE
  5
2CA
330
2C5
100
AcDbEntity
  8
SLD-0_0
100
AcDbLine
 10
1357.5046131663
 20
1831.9955086861
 30
0.0
 11
1312.5046131663
 21
1831.9955086861
 31
0.0
  0
LINE
  5
2CB
330
2C5
100
AcDbEntity
  8
SLD-0_0
100
AcDbLine
 10
1357.5046131663
 20
1227.9955086861
 30
0.0
 11
1312.5046131663
 21
1227.9955086861
 31
0.0
  0
LINE
  5
2CC
330
2C5
100
AcDbEntity
  8
SLD-0_0
100
AcDbLine
 10
1313.5046131663
 20
1831.9955086861
 30
0.0
 11
1313.5046131663
 21
1227.9955086861
 31
0.0
  0
MTEXT
  5
2CD
330
2C5
100
AcDbEntity
  8
SLD-0_0
100
AcDbMText
 10
1297.1334528712
 20
1512.6563273551
 30
0.0
 40
12.7
 41
0.0
 71
     1
 72
     1
  1
604
  7
SLDTEXTSTYLE0
 11
-1.059690869644414E-14
 21
1.0
 31
0.0
 73
     1
 44
1.0
  0
ENDBLK
  5
2C7
330
2C5
100
AcDbEntity
  8
0
100
AcDbBlockEnd
  0
BLOCK
  5
2D0
330
2CF
100
AcDbEntity
  8
0
100
AcDbBlockBegin
  2
_D_3
 70
     0
 10
0.0
 20
0.0
 30
0.0
  3
_D_3
  1

  0
SOLID
  5
2D2
330
2CF
100
AcDbEntity
  8
SLD-0_0
100
AcDbTrace
 10
1358.5046131663
 20
1189.9955086861
 30
0.0
 11
1370.8325428538
 21
1188.0989041188
 31
0.0
 12
1370.8325428538
 22
1191.8921132534
 32
0.0
 13
1370.8325428538
 23
1191.8921132534
 33
0.0
  0
SOLID
  5
2D3
330
2CF
100
AcDbEntity
  8
SLD-0_0
100
AcDbTrace
 10
1798.5046131663
 20
1189.9955086861
 30
0.0
 11
1786.1766834788
 21
1191.8921132534
 31
0.0
 12
1786.1766834788
 22
1188.0989041188
 32
0.0
 13
1786.1766834788
 23
1188.0989041188
 33
0.0
  0
LINE
  5
2D4
330
2CF
100
AcDbEntity
  8
SLD-0_0
100
AcDbLine
 10
1358.5046131663
 20
1226.9955086861
 30
0.0
 11
1358.5046131663
 21
1188.9955086861
 31
0.0
  0
LINE
  5
2D5
330
2CF
100
AcDbEntity
  8
SLD-0_0
100
AcDbLine
 10
1798.5046131663
 20
1226.9955086861
 30
0.0
 11
1798.5046131663
 21
1188.9955086861
 31
0.0
  0
LINE
  5
2D6
330
2CF
100
AcDbEntity
  8
SLD-0_0
100
AcDbLine
 10
1358.5046131663
 20
1189.9955086861
 30
0.0
 11
1798.5046131663
 21
1189.9955086861
 31
0.0
  0
MTEXT
  5
2D7
330
2CF
100
AcDbEntity
  8
SLD-0_0
100
AcDbMText
 10
1561.8426393316
 20
1206.3666689812
 30
0.0
 40
12.7
 41
0.0
 71
     1
 72
     1
  1
440
  7
SLDTEXTSTYLE0
 73
     1
 44
1.0
  0
ENDBLK
  5
2D1
330
2CF
100
AcDbEntity
  8
0
100
AcDbBlockEnd
  0
BLOCK
  5
2DE
330
2DD
100
AcDbEntity
  8
0
100
AcDbBlockBegin
  2
_D_4
 70
     0
 10
0.0
 20
0.0
 30
0.0
  3
_D_4
  1

  0
SOLID
  5
2E0
330
2DD
100
AcDbEntity
  8
SLD-0_0
100
AcDbTrace
 10
1941.5649680191
 20
1797.8666195746
 30
0.0
 11
1939.6683634518
 21
1785.5386898871
 31
0.0
 12
1943.4615725865
 22
1785.5386898871
 32
0.0
 13
1943.4615725865
 23
1785.5386898871
 33
0.0
  0
SOLID
  5
2E1
330
2DD
100
AcDbEntity
  8
SLD-0_0
100
AcDbTrace
 10
1941.5649680191
 20
1357.8666195746
 30
0.0
 11
1943.4615725865
 21
1370.1945492621
 31
0.0
 12
1939.6683634518
 22
1370.1945492621
 32
0.0
 13
1939.6683634518
 23
1370.1945492621
 33
0.0
  0
LINE
  5
2E2
330
2DD
100
AcDbEntity
  8
SLD-0_0
100
AcDbLine
 10
1978.5649680191
 20
1797.8666195746
 30
0.0
 11
1940.5649680191
 21
1797.8666195746
 31
0.0
  0
LINE
  5
2E3
330
2DD
100
AcDbEntity
  8
SLD-0_0
100
AcDbLine
 10
1978.5649680191
 20
1357.8666195746
 30
0.0
 11
1940.5649680191
 21
1357.8666195746
 31
0.0
  0
LINE
  5
2E4
330
2DD
100
AcDbEntity
  8
SLD-0_0
100
AcDbLine
 10
1941.5649680191
 20
1797.8666195746
 30
0.0
 11
1941.5649680191
 21
1357.8666195746
 31
0.0
  0
MTEXT
  5
2E5
330
2DD
100
AcDbEntity
  8
SLD-0_0
100
AcDbMText
 10
1925.193807724
 20
1557.3615732799
 30
0.0
 40
12.7
 41
0.0
 71
     1
 72
     1
  1
440
  7
SLDTEXTSTYLE0
 11
-7.044195017643634E-15
 21
1.0
 31
0.0
 73
     1
 44
1.0
  0
ENDBLK
  5
2DF
330
2DD
100
AcDbEntity
  8
0
100
AcDbBlockEnd
  0
BLOCK
  5
2E8
330
2E7
100
AcDbEntity
  8
0
100
AcDbBlockBegin
  2
_D_5
 70
     0
 10
0.0
 20
0.0
 30
0.0
  3
_D_5
  1

  0
SOLID
  5
2EA
330
2E7
100
AcDbEntity
  8
SLD-0_0
 62
     7
100
AcDbTrace
 10
1979.5649680191
 20
1305.8666195746
 30
0.0
 11
1991.8928977066
 21
1303.9700150073
 31
0.0
 12
1991.8928977066
 22
1307.7632241419
 32
0.0
 13
1991.8928977066
 23
1307.7632241419
 33
0.0
  0
SOLID
  5
2EB
330
2E7
100
AcDbEntity
  8
SLD-0_0
 62
     7
100
AcDbTrace
 10
2918.5649680191
 20
1305.8666195746
 30
0.0
 11
2906.2370383316
 21
1307.7632241419
 31
0.0
 12
2906.2370383316
 22
1303.9700150073
 32
0.0
 13
2906.2370383316
 23
1303.9700150073
 33
0.0
  0
LINE
  5
2EC
330
2E7
100
AcDbEntity
  8
SLD-0_0
 62
     7
100
AcDbLine
 10
1979.5649680191
 20
1356.8666195746
 30
0.0
 11
1979.5649680191
 21
1304.8666195746
 31
0.0
  0
LINE
  5
2ED
330
2E7
100
AcDbEntity
  8
SLD-0_0
 62
     7
100
AcDbLine
 10
2918.5649680191
 20
1356.8666195746
 30
0.0
 11
2918.5649680191
 21
1304.8666195746
 31
0.0
  0
LINE
  5
2EE
330
2E7
100
AcDbEntity
  8
SLD-0_0
 62
     7
100
AcDbLine
 10
1979.5649680191
 20
1305.8666195746
 30
0.0
 11
2918.5649680191
 21
1305.8666195746
 31
0.0
  0
MTEXT
  5
2EF
330
2E7
100
AcDbEntity
  8
SLD-0_0
 62
     7
100
AcDbMText
 10
2403.9666289442
 20
1322.2377798697
 30
0.0
 40
12.7
 41
0.0
 71
     1
 72
     1
  1
939
  7
SLDTEXTSTYLE0
 73
     1
 44
1.0
  0
ENDBLK
  5
2E9
330
2E7
100
AcDbEntity
  8
0
100
AcDbBlockEnd
  0
BLOCK
  5
300
330
2FF
100
AcDbEntity
  8
0
100
AcDbBlockBegin
  2
_D_6
 70
     0
 10
0.0
 20
0.0
 30
0.0
  3
_D_6
  1

  0
SOLID
  5
302
330
2FF
100
AcDbEntity
  8
SLD-0_0
100
AcDbTrace
 10
1216.0277145462
 20
1020.3464180136
 30
0.0
 11
1214.1311099789
 21
1008.0184883261
 31
0.0
 12
1217.9243191136
 22
1008.0184883261
 32
0.0
 13
1217.9243191136
 23
1008.0184883261
 33
0.0
  0
SOLID
  5
303
330
2FF
100
AcDbEntity
  8
SLD-0_0
100
AcDbTrace
 10
1216.0277145462
 20
580.3464180136
 30
0.0
 11
1217.9243191136
 21
592.6743477011
 31
0.0
 12
1214.1311099789
 22
592.6743477011
 32
0.0
 13
1214.1311099789
 23
592.6743477011
 33
0.0
  0
LINE
  5
304
330
2FF
100
AcDbEntity
  8
SLD-0_0
100
AcDbLine
 10
1246.0277145462
 20
1020.3464180136
 30
0.0
 11
1215.0277145462
 21
1020.3464180136
 31
0.0
  0
LINE
  5
305
330
2FF
100
AcDbEntity
  8
SLD-0_0
100
AcDbLine
 10
1246.0277145462
 20
580.3464180136
 30
0.0
 11
1215.0277145462
 21
580.3464180136
 31
0.0
  0
LINE
  5
306
330
2FF
100
AcDbEntity
  8
SLD-0_0
100
AcDbLine
 10
1216.0277145462
 20
1020.3464180136
 30
0.0
 11
1216.0277145462
 21
580.3464180136
 31
0.0
  0
MTEXT
  5
307
330
2FF
100
AcDbEntity
  8
SLD-0_0
100
AcDbMText
 10
1199.6565542511
 20
782.0835256462
 30
0.0
 40
12.7
 41
0.0
 71
     1
 72
     1
  1
440
  7
SLDTEXTSTYLE0
 11
-7.044195017643634E-15
 21
1.0
 31
0.0
 73
     1
 44
1.0
  0
ENDBLK
  5
301
330
2FF
100
AcDbEntity
  8
0
100
AcDbBlockEnd
  0
BLOCK
  5
30A
330
309
100
AcDbEntity
  8
0
100
AcDbBlockBegin
  2
_D_7
 70
     0
 10
0.0
 20
0.0
 30
0.0
  3
_D_7
  1

  0
SOLID
  5
30C
330
309
100
AcDbEntity
  8
SLD-0_0
100
AcDbTrace
 10
1247.0277145462
 20
542.3464180136
 30
0.0
 11
1259.3556442337
 21
540.4498134463
 31
0.0
 12
1259.3556442337
 22
544.2430225809
 32
0.0
 13
1259.3556442337
 23
544.2430225809
 33
0.0
  0
SOLID
  5
30D
330
309
100
AcDbEntity
  8
SLD-0_0
100
AcDbTrace
 10
1656.0277145462
 20
542.3464180136
 30
0.0
 11
1643.6997848587
 21
544.2430225809
 31
0.0
 12
1643.6997848587
 22
540.4498134463
 32
0.0
 13
1643.6997848587
 23
540.4498134463
 33
0.0
  0
LINE
  5
30E
330
309
100
AcDbEntity
  8
SLD-0_0
100
AcDbLine
 10
1247.0277145462
 20
579.3464180136
 30
0.0
 11
1247.0277145462
 21
541.3464180136
 31
0.0
  0
LINE
  5
30F
330
309
100
AcDbEntity
  8
SLD-0_0
100
AcDbLine
 10
1656.0277145462
 20
579.3464180136
 30
0.0
 11
1656.0277145462
 21
541.3464180136
 31
0.0
  0
LINE
  5
310
330
309
100
AcDbEntity
  8
SLD-0_0
100
AcDbLine
 10
1247.0277145462
 20
542.3464180136
 30
0.0
 11
1656.0277145462
 21
542.3464180136
 31
0.0
  0
MTEXT
  5
311
330
309
100
AcDbEntity
  8
SLD-0_0
100
AcDbMText
 10
1436.7763274285
 20
558.7175783087
 30
0.0
 40
12.7
 41
0.0
 71
     1
 72
     1
  1
409
  7
SLDTEXTSTYLE0
 73
     1
 44
1.0
  0
ENDBLK
  5
30B
330
309
100
AcDbEntity
  8
0
100
AcDbBlockEnd
  0
BLOCK
  5
315
330
314
100
AcDbEntity
  8
0
100
AcDbBlockBegin
  2
_D_8
 70
     0
 10
0.0
 20
0.0
 30
0.0
  3
_D_8
  1

  0
SOLID
  5
317
330
314
100
AcDbEntity
  8
SLD-0_0
100
AcDbTrace
 10
1600.5789962548
 20
893.9397693856
 30
0.0
 11
1589.1301138774
 21
888.990218742
 31
0.0
 12
1591.1472681692
 22
885.7778171323
 32
0.0
 13
1591.1472681692
 23
885.7778171323
 33
0.0
  0
SOLID
  5
318
330
314
100
AcDbEntity
  8
SLD-0_0
100
AcDbTrace
 10
1302.4764328377
 20
706.7530666416
 30
0.0
 11
1313.9253152151
 21
711.7026172852
 31
0.0
 12
1311.9081609232
 22
714.9150188949
 32
0.0
 13
1311.9081609232
 23
714.9150188949
 33
0.0
  0
LINE
  5
319
330
314
100
AcDbEntity
  8
SLD-0_0
100
AcDbLine
 10
1302.4764328377
 20
706.7530666416
 30
0.0
 11
1600.5789962548
 21
893.9397693856
 31
0.0
  0
MTEXT
  5
31A
330
314
100
AcDbEntity
  8
SLD-0_0
100
AcDbMText
 10
1348.4309916222
 20
754.8604010071
 30
0.0
 40
12.7
 41
0.0
 71
     1
 72
     1
  1
%%c
  7
SLDTEXTSTYLE0
 11
0.8468822824348183
 21
0.531780405522799
 31
0.0
 73
     1
 44
1.0
  0
MTEXT
  5
31B
330
314
100
AcDbEntity
  8
SLD-0_0
100
AcDbMText
 10
1363.6628361737
 20
764.4248902407
 30
0.0
 40
12.7
 41
0.0
 71
     1
 72
     1
  1
352
  7
SLDTEXTSTYLE0
 11
0.8468822824348183
 21
0.531780405522799
 31
0.0
 73
     1
 44
1.0
  0
ENDBLK
  5
316
330
314
100
AcDbEntity
  8
0
100
AcDbBlockEnd
  0
BLOCK
  5
31E
330
31D
100
AcDbEntity
  8
0
100
AcDbBlockBegin
  2
_D_9
 70
     0
 10
0.0
 20
0.0
 30
0.0
  3
_D_9
  1

  0
ARC
  5
320
330
31D
100
AcDbEntity
  8
SLD-0_0
100
AcDbCircle
 10
1451.5277145462
 20
800.3464180136
 30
0.0
 40
186.717031895861
100
AcDbArc
 50
329.455422626
 51
338.8020507525
  0
SOLID
  5
321
330
31D
100
AcDbEntity
  8
SLD-0_0
100
AcDbTrace
 10
1290.4016767417
 20
894.2647332743
 30
0.0
 11
1300.0972507857
 21
886.4180267535
 31
0.0
 12
1302.0074481656
 22
889.6951568255
 32
0.0
 13
1302.0074481656
 23
889.6951568255
 33
0.0
  0
SOLID
  5
322
330
31D
100
AcDbEntity
  8
SLD-0_0
100
AcDbTrace
 10
1612.6537523508
 20
706.428102753
 30
0.0
 11
1602.9581783068
 21
714.2748092737
 31
0.0
 12
1601.0479809269
 22
710.9976792017
 32
0.0
 13
1601.0479809269
 23
710.9976792017
 33
0.0
  0
LINE
  5
323
330
31D
100
AcDbEntity
  8
SLD-0_0
100
AcDbLine
 10
1612.6537523508
 20
706.428102753
 30
0.0
 11
1290.4016767417
 21
894.2647332743
 31
0.0
  0
MTEXT
  5
324
330
31D
100
AcDbEntity
  8
SLD-0_0
100
AcDbMText
 10
1508.343776272
 20
786.0817500264
 30
0.0
 40
12.7
 41
0.0
 71
     1
 72
     1
  1
%%c
  7
SLDTEXTSTYLE0
 11
0.8639465834025379
 21
-0.5035834598426377
 31
0.0
 73
     1
 44
1.0
  0
MTEXT
  5
325
330
31D
100
AcDbEntity
  8
SLD-0_0
100
AcDbMText
 10
1523.8825357101
 20
777.0244050588
 30
0.0
 40
12.7
 41
0.0
 71
     1
 72
     1
  1
373
  7
SLDTEXTSTYLE0
 11
0.8639465834025379
 21
-0.5035834598426377
 31
0.0
 73
     1
 44
1.0
  0
ENDBLK
  5
31F
330
31D
100
AcDbEntity
  8
0
100
AcDbBlockEnd
  0
BLOCK
  5
329
330
328
100
AcDbEntity
  8
0
100
AcDbBlockBegin
  2
_D_10
 70
     0
 10
0.0
 20
0.0
 30
0.0
  3
_D_10
  1

  0
SOLID
  5
32B
330
328
100
AcDbEntity
  8
SLD-0_0
100
AcDbTrace
 10
1377.086334882
 20
973.8580291571
 30
0.0
 11
1366.3085066578
 21
980.1360366463
 31
0.0
 12
1364.9198721859
 22
976.6061457355
 32
0.0
 13
1364.9198721859
 23
976.6061457355
 33
0.0
  0
LINE
  5
32C
330
328
100
AcDbEntity
  8
SLD-0_0
100
AcDbLine
 10
1377.086334882
 20
973.8580291571
 30
0.0
 11
1340.4104004359
 21
988.2860860429
 31
0.0
  0
LINE
  5
32D
330
328
100
AcDbEntity
  8
SLD-0_0
100
AcDbLine
 10
1340.4104004359
 20
988.2860860429
 30
0.0
 11
1287.9111833191
 21
988.2860860429
 31
0.0
  0
MTEXT
  5
32E
330
328
100
AcDbEntity
  8
SLD-0_0
100
AcDbMText
 10
1287.9111833191
 20
1004.6572472693
 30
0.0
 40
12.7
 41
0.0
 71
     1
 72
     1
  1
%%c
  7
SLDTEXTSTYLE0
 73
     1
 44
1.0
  0
MTEXT
  5
32F
330
328
100
AcDbEntity
  8
SLD-0_0
100
AcDbMText
 10
1305.8969705617
 20
1004.6572472693
 30
0.0
 40
12.7
 41
0.0
 71
     1
 72
     1
  1
6.60
  7
SLDTEXTSTYLE0
 73
     1
 44
1.0
  0
ENDBLK
  5
32A
330
328
100
AcDbEntity
  8
0
100
AcDbBlockEnd
  0
BLOCK
  5
333
330
332
100
AcDbEntity
  8
0
100
AcDbBlockBegin
  2
_D_11
 70
     0
 10
0.0
 20
0.0
 30
0.0
  3
_D_11
  1

  0
SOLID
  5
335
330
332
100
AcDbEntity
  8
SLD-0_0
 62
     7
100
AcDbTrace
 10
1348.6215225966
 20
632.3603600849
 30
0.0
 11
1356.6784942893
 21
641.8819233183
 31
0.0
 12
1353.4439447999
 22
643.8633685331
 32
0.0
 13
1353.4439447999
 23
643.8633685331
 33
0.0
  0
SOLID
  5
336
330
332
100
AcDbEntity
  8
SLD-0_0
 62
     7
100
AcDbTrace
 10
1554.4339064959
 20
968.3324759423
 30
0.0
 11
1546.3769348032
 21
958.8109127089
 31
0.0
 12
1549.6114842926
 22
956.8294674942
 32
0.0
 13
1549.6114842926
 23
956.8294674942
 33
0.0
  0
LINE
  5
337
330
332
100
AcDbEntity
  8
SLD-0_0
 62
     7
100
AcDbLine
 10
1554.4339064959
 20
968.3324759423
 30
0.0
 11
1348.6215225966
 21
632.3603600849
 31
0.0
  0
MTEXT
  5
338
330
332
100
AcDbEntity
  8
SLD-0_0
 62
     7
100
AcDbMText
 10
1478.6865389289
 20
876.0466020684
 30
0.0
 40
12.7
 41
0.0
 71
     1
 72
     1
  1
%%c
  7
SLDTEXTSTYLE0
 11
0.5223664565973549
 21
0.8527211062369241
 31
0.0
 73
     1
 44
1.0
  0
MTEXT
  5
339
330
332
100
AcDbEntity
  8
SLD-0_0
 62
     7
100
AcDbMText
 10
1488.0817108799
 20
891.3834624625
 30
0.0
 40
12.7
 41
0.0
 71
     1
 72
     1
  1
394
  7
SLDTEXTSTYLE0
 11
0.5223664565973549
 21
0.8527211062369241
 31
0.0
 73
     1
 44
1.0
  0
MTEXT
  5
33A
330
332
100
AcDbEntity
  8
SLD-0_0
 62
     7
100
AcDbMText
 10
1484.0487326439
 20
848.5564125371
 30
0.0
 40
12.7
 41
0.0
 71
     1
 72
     1
  1
5mm Depth
  7
SLDTEXTSTYLE0
 11
0.5223664565973549
 21
0.8527211062369241
 31
0.0
 73
     1
 44
1.0
  0
ENDBLK
  5
334
330
332
100
AcDbEntity
  8
0
100
AcDbBlockEnd
  0
BLOCK
  5
33C
330
33B
100
AcDbEntity
  8
0
100
AcDbBlockBegin
  2
SW_CENTERMARKSYMBOL_0
 70
     0
 10
0.0
 20
0.0
 30
0.0
  3
SW_CENTERMARKSYMBOL_0
  1

  0
ARC
  5
33E
330
33B
100
AcDbEntity
  8
SLD-0_0
 62
     0
100
AcDbCircle
 10
-71.3704601361
 20
-172.3035328134
 30
0.0
 40
186.5
100
AcDbArc
 50
67.5
 51
68.2680399399
  0
ARC
  5
33F
330
33B
100
AcDbEntity
  8
SLD-0_0
 62
     0
100
AcDbCircle
 10
-71.3704601361
 20
-172.3035328134
 30
0.0
 40
186.5
100
AcDbArc
 50
66.7319600601
 51
67.5
  0
ARC
  5
340
330
33B
100
AcDbEntity
  8
SLD-0_0
 62
     0
100
AcDbCircle
 10
-71.3704601361
 20
-172.3035328134
 30
0.0
 40
186.5000000000001
100
AcDbArc
 50
112.5
 51
113.2680399399
  0
ARC
  5
341
330
33B
100
AcDbEntity
  8
SLD-0_0
 62
     0
100
AcDbCircle
 10
-71.3704601361
 20
-172.3035328134
 30
0.0
 40
186.5000000000001
100
AcDbArc
 50
111.7319600601
 51
112.5
  0
ARC
  5
342
330
33B
100
AcDbEntity
  8
SLD-0_0
 62
     0
100
AcDbCircle
 10
-71.3704601361
 20
-172.3035328134
 30
0.0
 40
186.4999999999999
100
AcDbArc
 50
22.5
 51
23.2680399399
  0
ARC
  5
343
330
33B
100
AcDbEntity
  8
SLD-0_0
 62
     0
100
AcDbCircle
 10
-71.3704601361
 20
-172.3035328134
 30
0.0
 40
186.4999999999999
100
AcDbArc
 50
21.7319600601
 51
22.5
  0
ARC
  5
344
330
33B
100
AcDbEntity
  8
SLD-0_0
 62
     0
100
AcDbCircle
 10
-71.3704601361
 20
-172.3035328134
 30
0.0
 40
186.4999999999999
100
AcDbArc
 50
337.5
 51
338.2680399399
  0
ARC
  5
345
330
33B
100
AcDbEntity
  8
SLD-0_0
 62
     0
100
AcDbCircle
 10
-71.3704601361
 20
-172.3035328134
 30
0.0
 40
186.4999999999999
100
AcDbArc
 50
336.7319600601
 51
337.5
  0
ARC
  5
346
330
33B
100
AcDbEntity
  8
SLD-0_0
 62
     0
100
AcDbCircle
 10
-71.3704601361
 20
-172.3035328134
 30
0.0
 40
186.5
100
AcDbArc
 50
292.5
 51
293.2680399399
  0
ARC
  5
347
330
33B
100
AcDbEntity
  8
SLD-0_0
 62
     0
100
AcDbCircle
 10
-71.3704601361
 20
-172.3035328134
 30
0.0
 40
186.5
100
AcDbArc
 50
291.7319600601
 51
292.5
  0
ARC
  5
348
330
33B
100
AcDbEntity
  8
SLD-0_0
 62
     0
100
AcDbCircle
 10
-71.3704601361
 20
-172.3035328134
 30
0.0
 40
186.5000000000002
100
AcDbArc
 50
247.5
 51
248.2680399399
  0
ARC
  5
349
330
33B
100
AcDbEntity
  8
SLD-0_0
 62
     0
100
AcDbCircle
 10
-71.3704601361
 20
-172.3035328134
 30
0.0
 40
186.5000000000001
100
AcDbArc
 50
246.7319600601
 51
247.5
  0
ARC
  5
34A
330
33B
100
AcDbEntity
  8
SLD-0_0
 62
     0
100
AcDbCircle
 10
-71.3704601361
 20
-172.3035328134
 30
0.0
 40
186.5000000000003
100
AcDbArc
 50
202.5
 51
203.2680399399
  0
ARC
  5
34B
330
33B
100
AcDbEntity
  8
SLD-0_0
 62
     0
100
AcDbCircle
 10
-71.3704601361
 20
-172.3035328134
 30
0.0
 40
186.5000000000003
100
AcDbArc
 50
201.7319600601
 51
202.5
  0
ARC
  5
34C
330
33B
100
AcDbEntity
  8
SLD-0_0
 62
     0
100
AcDbCircle
 10
-71.3704601361
 20
-172.3035328134
 30
0.0
 40
186.5000000000003
100
AcDbArc
 50
157.5
 51
158.2680399399
  0
ARC
  5
34D
330
33B
100
AcDbEntity
  8
SLD-0_0
 62
     0
100
AcDbCircle
 10
-71.3704601361
 20
-172.3035328134
 30
0.0
 40
186.5000000000003
100
AcDbArc
 50
156.7319600601
 51
157.5
  0
ARC
  5
34E
330
33B
100
AcDbEntity
  8
SLD-0_0
 62
     0
100
AcDbCircle
 10
-71.3704601361
 20
-172.3035328134
 30
0.0
 40
186.4999999999999
100
AcDbArc
 50
24.0360798797
 51
65.9639201203
  0
ARC
  5
34F
330
33B
100
AcDbEntity
  8
SLD-0_0
 62
     0
100
AcDbCircle
 10
-71.3704601361
 20
-172.3035328134
 30
0.0
 40
186.5000000000001
100
AcDbArc
 50
69.0360798797
 51
110.9639201203
  0
ARC
  5
350
330
33B
100
AcDbEntity
  8
SLD-0_0
 62
     0
100
AcDbCircle
 10
-71.3704601361
 20
-172.3035328134
 30
0.0
 40
186.5000000000003
100
AcDbArc
 50
114.0360798797
 51
155.9639201203
  0
ARC
  5
351
330
33B
100
AcDbEntity
  8
SLD-0_0
 62
     0
100
AcDbCircle
 10
-71.3704601361
 20
-172.3035328134
 30
0.0
 40
186.5000000000003
100
AcDbArc
 50
159.0360798797
 51
200.9639201203
  0
ARC
  5
352
330
33B
100
AcDbEntity
  8
SLD-0_0
 62
     0
100
AcDbCircle
 10
-71.3704601361
 20
-172.3035328134
 30
0.0
 40
186.5000000000004
100
AcDbArc
 50
204.0360798797
 51
245.9639201203
  0
ARC
  5
353
330
33B
100
AcDbEntity
  8
SLD-0_0
 62
     0
100
AcDbCircle
 10
-71.3704601361
 20
-172.3035328134
 30
0.0
 40
186.5000000000001
100
AcDbArc
 50
249.0360798797
 51
290.9639201203
  0
ARC
  5
354
330
33B
100
AcDbEntity
  8
SLD-0_0
 62
     0
100
AcDbCircle
 10
-71.3704601361
 20
-172.3035328134
 30
0.0
 40
186.4999999999998
100
AcDbArc
 50
294.0360798797
 51
335.9639201203
  0
ARC
  5
355
330
33B
100
AcDbEntity
  8
SLD-0_0
 62
     0
100
AcDbCircle
 10
-71.3704601361
 20
-172.3035328134
 30
0.0
 40
186.4999999999999
100
AcDbArc
 50
339.0360798797
 51
20.9639201203
  0
LINE
  5
356
330
33B
100
AcDbEntity
  8
SLD-0_0
 62
     0
100
AcDbLine
 10
0.0
 20
0.0
 30
0.0
 11
0.9567085809
 21
2.3096988313
 31
0.0
  0
LINE
  5
357
330
33B
100
AcDbEntity
  8
SLD-0_0
 62
     0
100
AcDbLine
 10
0.0
 20
0.0
 30
0.0
 11
-0.9567085809
 21
-2.3096988313
 31
0.0
  0
LINE
  5
358
330
33B
100
AcDbEntity
  8
SLD-0_0
 62
     0
100
AcDbLine
 10
1.9134171618
 20
4.6193976626
 30
0.0
 11
2.2195639077
 21
5.3585012886
 31
0.0
  0
LINE
  5
359
330
33B
100
AcDbEntity
  8
SLD-0_0
 62
     0
100
AcDbLine
 10
-1.9134171618
 20
-4.6193976626
 30
0.0
 11
-2.2195639077
 21
-5.3585012886
 31
0.0
  0
LINE
  5
35A
330
33B
100
AcDbEntity
  8
SLD-0_0
 62
     0
100
AcDbLine
 10
-71.3704601361
 20
-172.3035328134
 30
0.0
 11
-71.3704601361
 21
-169.8035328134
 31
0.0
  0
LINE
  5
35B
330
33B
100
AcDbEntity
  8
SLD-0_0
 62
     0
100
AcDbLine
 10
-71.3704601361
 20
-172.3035328134
 30
0.0
 11
-73.8704601361
 21
-172.3035328134
 31
0.0
  0
LINE
  5
35C
330
33B
100
AcDbEntity
  8
SLD-0_0
 62
     0
100
AcDbLine
 10
-71.3704601361
 20
-172.3035328134
 30
0.0
 11
-71.3704601361
 21
-174.8035328134
 31
0.0
  0
LINE
  5
35D
330
33B
100
AcDbEntity
  8
SLD-0_0
 62
     0
100
AcDbLine
 10
-71.3704601361
 20
-172.3035328134
 30
0.0
 11
-68.8704601361
 21
-172.3035328134
 31
0.0
  0
LINE
  5
35E
330
33B
100
AcDbEntity
  8
SLD-0_0
 62
     0
100
AcDbLine
 10
-71.3704601361
 20
-167.3035328134
 30
0.0
 11
-71.3704601361
 21
16.6964671866
 31
0.0
  0
LINE
  5
35F
330
33B
100
AcDbEntity
  8
SLD-0_0
 62
     0
100
AcDbLine
 10
-76.3704601361
 20
-172.3035328134
 30
0.0
 11
-260.3704601361
 21
-172.3035328134
 31
0.0
  0
LINE
  5
360
330
33B
100
AcDbEntity
  8
SLD-0_0
 62
     0
100
AcDbLine
 10
-71.3704601361
 20
-177.3035328134
 30
0.0
 11
-71.3704601361
 21
-361.3035328134
 31
0.0
  0
LINE
  5
361
330
33B
100
AcDbEntity
  8
SLD-0_0
 62
     0
100
AcDbLine
 10
-66.3704601361
 20
-172.3035328134
 30
0.0
 11
117.6295398639
 21
-172.3035328134
 31
0.0
  0
LINE
  5
362
330
33B
100
AcDbEntity
  8
SLD-0_0
 62
     0
100
AcDbLine
 10
-142.7409202722
 20
0.0
 30
0.0
 11
-143.6976288531
 21
2.3096988313
 31
0.0
  0
LINE
  5
363
330
33B
100
AcDbEntity
  8
SLD-0_0
 62
     0
100
AcDbLine
 10
-142.7409202722
 20
0.0
 30
0.0
 11
-141.7842116913
 21
-2.3096988313
 31
0.0
  0
LINE
  5
364
330
33B
100
AcDbEntity
  8
SLD-0_0
 62
     0
100
AcDbLine
 10
-144.654337434
 20
4.6193976626
 30
0.0
 11
-144.9604841799
 21
5.3585012886
 31
0.0
  0
LINE
  5
365
330
33B
100
AcDbEntity
  8
SLD-0_0
 62
     0
100
AcDbLine
 10
-140.8275031104
 20
-4.6193976626
 30
0.0
 11
-140.5213563645
 21
-5.3585012886
 31
0.0
  0
LINE
  5
366
330
33B
100
AcDbEntity
  8
SLD-0_0
 62
     0
100
AcDbLine
 10
100.9330726773
 20
-100.9330726773
 30
0.0
 11
103.2427715085
 21
-99.9763640964
 31
0.0
  0
LINE
  5
367
330
33B
100
AcDbEntity
  8
SLD-0_0
 62
     0
100
AcDbLine
 10
100.9330726773
 20
-100.9330726773
 30
0.0
 11
98.623373846
 21
-101.8897812582
 31
0.0
  0
LINE
  5
368
330
33B
100
AcDbEntity
  8
SLD-0_0
 62
     0
100
AcDbLine
 10
105.5524703398
 20
-99.0196555154
 30
0.0
 11
106.2915739658
 21
-98.7135087695
 31
0.0
  0
LINE
  5
369
330
33B
100
AcDbEntity
  8
SLD-0_0
 62
     0
100
AcDbLine
 10
96.3136750147
 20
-102.8464898391
 30
0.0
 11
95.5745713887
 21
-103.152636585
 31
0.0
  0
LINE
  5
36A
330
33B
100
AcDbEntity
  8
SLD-0_0
 62
     0
100
AcDbLine
 10
100.9330726773
 20
-243.6739929494
 30
0.0
 11
103.2427715085
 21
-244.6307015304
 31
0.0
  0
LINE
  5
36B
330
33B
100
AcDbEntity
  8
SLD-0_0
 62
     0
100
AcDbLine
 10
100.9330726773
 20
-243.6739929494
 30
0.0
 11
98.623373846
 21
-242.7172843685
 31
0.0
  0
LINE
  5
36C
330
33B
100
AcDbEntity
  8
SLD-0_0
 62
     0
100
AcDbLine
 10
105.5524703398
 20
-245.5874101113
 30
0.0
 11
106.2915739658
 21
-245.8935568572
 31
0.0
  0
LINE
  5
36D
330
33B
100
AcDbEntity
  8
SLD-0_0
 62
     0
100
AcDbLine
 10
96.3136750147
 20
-241.7605757876
 30
0.0
 11
95.5745713887
 21
-241.4544290417
 31
0.0
  0
LINE
  5
36E
330
33B
100
AcDbEntity
  8
SLD-0_0
 62
     0
100
AcDbLine
 10
0.0
 20
-344.6070656267
 30
0.0
 11
0.9567085809
 21
-346.916764458
 31
0.0
  0
LINE
  5
36F
330
33B
100
AcDbEntity
  8
SLD-0_0
 62
     0
100
AcDbLine
 10
0.0
 20
-344.6070656267
 30
0.0
 11
-0.9567085809
 21
-342.2973667954
 31
0.0
  0
LINE
  5
370
330
33B
100
AcDbEntity
  8
SLD-0_0
 62
     0
100
AcDbLine
 10
1.9134171618
 20
-349.2264632893
 30
0.0
 11
2.2195639077
 21
-349.9655669153
 31
0.0
  0
LINE
  5
371
330
33B
100
AcDbEntity
  8
SLD-0_0
 62
     0
100
AcDbLine
 10
-1.9134171618
 20
-339.9876679642
 30
0.0
 11
-2.2195639077
 21
-339.2485643381
 31
0.0
  0
LINE
  5
372
330
33B
100
AcDbEntity
  8
SLD-0_0
 62
     0
100
AcDbLine
 10
-142.7409202722
 20
-344.6070656267
 30
0.0
 11
-143.6976288531
 21
-346.916764458
 31
0.0
  0
LINE
  5
373
330
33B
100
AcDbEntity
  8
SLD-0_0
 62
     0
100
AcDbLine
 10
-142.7409202722
 20
-344.6070656267
 30
0.0
 11
-141.7842116913
 21
-342.2973667954
 31
0.0
  0
LINE
  5
374
330
33B
100
AcDbEntity
  8
SLD-0_0
 62
     0
100
AcDbLine
 10
-144.654337434
 20
-349.2264632893
 30
0.0
 11
-144.9604841799
 21
-349.9655669153
 31
0.0
  0
LINE
  5
375
330
33B
100
AcDbEntity
  8
SLD-0_0
 62
     0
100
AcDbLine
 10
-140.8275031104
 20
-339.9876679642
 30
0.0
 11
-140.5213563645
 21
-339.2485643381
 31
0.0
  0
LINE
  5
376
330
33B
100
AcDbEntity
  8
SLD-0_0
 62
     0
100
AcDbLine
 10
-243.6739929494
 20
-243.6739929494
 30
0.0
 11
-245.9836917807
 21
-244.6307015304
 31
0.0
  0
LINE
  5
377
330
33B
100
AcDbEntity
  8
SLD-0_0
 62
     0
100
AcDbLine
 10
-243.6739929494
 20
-243.6739929494
 30
0.0
 11
-241.3642941182
 21
-242.7172843685
 31
0.0
  0
LINE
  5
378
330
33B
100
AcDbEntity
  8
SLD-0_0
 62
     0
100
AcDbLine
 10
-248.293390612
 20
-245.5874101113
 30
0.0
 11
-249.032494238
 21
-245.8935568572
 31
0.0
  0
LINE
  5
379
330
33B
100
AcDbEntity
  8
SLD-0_0
 62
     0
100
AcDbLine
 10
-239.0545952869
 20
-241.7605757876
 30
0.0
 11
-238.3154916609
 21
-241.4544290417
 31
0.0
  0
LINE
  5
37A
330
33B
100
AcDbEntity
  8
SLD-0_0
 62
     0
100
AcDbLine
 10
-243.6739929494
 20
-100.9330726773
 30
0.0
 11
-245.9836917807
 21
-99.9763640963
 31
0.0
  0
LINE
  5
37B
330
33B
100
AcDbEntity
  8
SLD-0_0
 62
     0
100
AcDbLine
 10
-243.6739929494
 20
-100.9330726773
 30
0.0
 11
-241.3642941182
 21
-101.8897812582
 31
0.0
  0
LINE
  5
37C
330
33B
100
AcDbEntity
  8
SLD-0_0
 62
     0
100
AcDbLine
 10
-248.293390612
 20
-99.0196555154
 30
0.0
 11
-249.032494238
 21
-98.7135087695
 31
0.0
  0
LINE
  5
37D
330
33B
100
AcDbEntity
  8
SLD-0_0
 62
     0
100
AcDbLine
 10
-239.0545952869
 20
-102.8464898391
 30
0.0
 11
-238.3154916609
 21
-103.152636585
 31
0.0
  0
ENDBLK
  5
33D
330
33B
100
AcDbEntity
  8
0
100
AcDbBlockEnd
  0
BLOCK
  5
39A
330
399
100
AcDbEntity
  8
0
100
AcDbBlockBegin
  2
_D_12
 70
     0
 10
0.0
 20
0.0
 30
0.0
  3
_D_12
  1

  0
SOLID
  5
39C
330
399
100
AcDbEntity
  8
SLD-0_0
100
AcDbTrace
 10
2444.6421614344
 20
1237.0543500136
 30
0.0
 11
2432.3142317469
 21
1238.9509545809
 31
0.0
 12
2432.3142317469
 22
1235.1577454463
 32
0.0
 13
2432.3142317469
 23
1235.1577454463
 33
0.0
  0
SOLID
  5
39D
330
399
100
AcDbEntity
  8
SLD-0_0
100
AcDbTrace
 10
2462.6421614344
 20
1237.0543500136
 30
0.0
 11
2474.9700911219
 21
1235.1577454463
 31
0.0
 12
2474.9700911219
 22
1238.9509545809
 32
0.0
 13
2474.9700911219
 23
1238.9509545809
 33
0.0
  0
LINE
  5
39E
330
399
100
AcDbEntity
  8
SLD-0_0
100
AcDbLine
 10
2444.6421614344
 20
1200.0543500136
 30
0.0
 11
2444.6421614344
 21
1238.0543500136
 31
0.0
  0
LINE
  5
39F
330
399
100
AcDbEntity
  8
SLD-0_0
100
AcDbLine
 10
2462.6421614344
 20
1200.0543500136
 30
0.0
 11
2462.6421614344
 21
1238.0543500136
 31
0.0
  0
LINE
  5
3A0
330
399
100
AcDbEntity
  8
SLD-0_0
100
AcDbLine
 10
2444.6421614344
 20
1237.0543500136
 30
0.0
 11
2420.934604343
 21
1237.0543500136
 31
0.0
  0
LINE
  5
3A1
330
399
100
AcDbEntity
  8
SLD-0_0
100
AcDbLine
 10
2444.6421614344
 20
1237.0543500136
 30
0.0
 11
2462.6421614344
 21
1237.0543500136
 31
0.0
  0
LINE
  5
3A2
330
399
100
AcDbEntity
  8
SLD-0_0
100
AcDbLine
 10
2462.6421614344
 20
1237.0543500136
 30
0.0
 11
2486.3497185257
 21
1237.0543500136
 31
0.0
  0
MTEXT
  5
3A3
330
399
100
AcDbEntity
  8
SLD-0_0
100
AcDbMText
 10
2448.5947028787
 20
1253.4255103087
 30
0.0
 40
12.7
 41
0.0
 71
     1
 72
     1
  1
18
  7
SLDTEXTSTYLE0
 73
     1
 44
1.0
  0
ENDBLK
  5
39B
330
399
100
AcDbEntity
  8
0
100
AcDbBlockEnd
  0
BLOCK
  5
3A6
330
3A5
100
AcDbEntity
  8
0
100
AcDbBlockBegin
  2
_D_13
 70
     0
 10
0.0
 20
0.0
 30
0.0
  3
_D_13
  1

  0
SOLID
  5
3A8
330
3A5
100
AcDbEntity
  8
SLD-0_0
100
AcDbTrace
 10
2399.078492552
 20
1149.0543500136
 30
0.0
 11
2397.1818879847
 21
1136.7264203261
 31
0.0
 12
2400.9750971193
 22
1136.7264203261
 32
0.0
 13
2400.9750971193
 23
1136.7264203261
 33
0.0
  0
SOLID
  5
3A9
330
3A5
100
AcDbEntity
  8
SLD-0_0
100
AcDbTrace
 10
2399.078492552
 20
1199.0543500136
 30
0.0
 11
2400.9750971193
 21
1211.3822797011
 31
0.0
 12
2397.1818879847
 22
1211.3822797011
 32
0.0
 13
2397.1818879847
 23
1211.3822797011
 33
0.0
  0
LINE
  5
3AA
330
3A5
100
AcDbEntity
  8
SLD-0_0
100
AcDbLine
 10
2443.6421614344
 20
1149.0543500136
 30
0.0
 11
2398.078492552
 21
1149.0543500136
 31
0.0
  0
LINE
  5
3AB
330
3A5
100
AcDbEntity
  8
SLD-0_0
100
AcDbLine
 10
2461.6421614344
 20
1199.0543500136
 30
0.0
 11
2398.078492552
 21
1199.0543500136
 31
0.0
  0
LINE
  5
3AC
330
3A5
100
AcDbEntity
  8
SLD-0_0
100
AcDbLine
 10
2399.078492552
 20
1149.0543500136
 30
0.0
 11
2399.078492552
 21
1125.3467929223
 31
0.0
  0
LINE
  5
3AD
330
3A5
100
AcDbEntity
  8
SLD-0_0
100
AcDbLine
 10
2399.078492552
 20
1149.0543500136
 30
0.0
 11
2399.078492552
 21
1199.0543500136
 31
0.0
  0
LINE
  5
3AE
330
3A5
100
AcDbEntity
  8
SLD-0_0
100
AcDbLine
 10
2399.078492552
 20
1199.0543500136
 30
0.0
 11
2399.078492552
 21
1222.7619071049
 31
0.0
  0
MTEXT
  5
3AF
330
3A5
100
AcDbEntity
  8
SLD-0_0
100
AcDbMText
 10
2382.7073322569
 20
1160.0969295249
 30
0.0
 40
12.7
 41
0.0
 71
     1
 72
     1
  1
50
  7
SLDTEXTSTYLE0
 11
-1.937169104367914E-15
 21
1.0
 31
0.0
 73
     1
 44
1.0
  0
ENDBLK
  5
3A7
330
3A5
100
AcDbEntity
  8
0
100
AcDbBlockEnd
  0
BLOCK
  5
3B3
330
3B2
100
AcDbEntity
  8
0
100
AcDbBlockBegin
  2
_D_14
 70
     0
 10
0.0
 20
0.0
 30
0.0
  3
_D_14
  1

  0
SOLID
  5
3B5
330
3B2
100
AcDbEntity
  8
SLD-0_0
100
AcDbTrace
 10
2029.1421614344
 20
905.0543500136
 30
0.0
 11
2041.4700911219
 21
903.1577454463
 31
0.0
 12
2041.4700911219
 22
906.9509545809
 32
0.0
 13
2041.4700911219
 23
906.9509545809
 33
0.0
  0
SOLID
  5
3B6
330
3B2
100
AcDbEntity
  8
SLD-0_0
100
AcDbTrace
 10
2408.6421614344
 20
905.0543500136
 30
0.0
 11
2396.3142317469
 21
906.9509545809
 31
0.0
 12
2396.3142317469
 22
903.1577454463
 32
0.0
 13
2396.3142317469
 23
903.1577454463
 33
0.0
  0
LINE
  5
3B7
330
3B2
100
AcDbEntity
  8
SLD-0_0
100
AcDbLine
 10
2029.1421614344
 20
1062.0543500136
 30
0.0
 11
2029.1421614344
 21
904.0543500136
 31
0.0
  0
LINE
  5
3B8
330
3B2
100
AcDbEntity
  8
SLD-0_0
100
AcDbLine
 10
2408.6421614344
 20
1062.0543500136
 30
0.0
 11
2408.6421614344
 21
904.0543500136
 31
0.0
  0
LINE
  5
3B9
330
3B2
100
AcDbEntity
  8
SLD-0_0
100
AcDbLine
 10
2029.1421614344
 20
905.0543500136
 30
0.0
 11
2408.6421614344
 21
905.0543500136
 31
0.0
  0
MTEXT
  5
3BA
330
3B2
100
AcDbEntity
  8
SLD-0_0
100
AcDbMText
 10
2188.9214914632
 20
921.4255103087
 30
0.0
 40
12.7
 41
0.0
 71
     1
 72
     1
  1
379.50
  7
SLDTEXTSTYLE0
 73
     1
 44
1.0
  0
ENDBLK
  5
3B4
330
3B2
100
AcDbEntity
  8
0
100
AcDbBlockEnd
  0
BLOCK
  5
3BD
330
3BC
100
AcDbEntity
  8
0
100
AcDbBlockBegin
  2
_D_15
 70
     0
 10
0.0
 20
0.0
 30
0.0
  3
_D_15
  1

  0
SOLID
  5
3BF
330
3BC
100
AcDbEntity
  8
SLD-0_0
100
AcDbTrace
 10
2029.1421614344
 20
905.0543500136
 30
0.0
 11
2041.4700911219
 21
903.1577454463
 31
0.0
 12
2041.4700911219
 22
906.9509545809
 32
0.0
 13
2041.4700911219
 23
906.9509545809
 33
0.0
  0
SOLID
  5
3C0
330
3BC
100
AcDbEntity
  8
SLD-0_0
100
AcDbTrace
 10
1984.1421614344
 20
905.0543500136
 30
0.0
 11
1971.8142317469
 21
906.9509545809
 31
0.0
 12
1971.8142317469
 22
903.1577454463
 32
0.0
 13
1971.8142317469
 23
903.1577454463
 33
0.0
  0
LINE
  5
3C1
330
3BC
100
AcDbEntity
  8
SLD-0_0
100
AcDbLine
 10
2029.1421614344
 20
1062.0543500136
 30
0.0
 11
2029.1421614344
 21
904.0543500136
 31
0.0
  0
LINE
  5
3C2
330
3BC
100
AcDbEntity
  8
SLD-0_0
100
AcDbLine
 10
1984.1421614344
 20
942.0543500136
 30
0.0
 11
1984.1421614344
 21
904.0543500136
 31
0.0
  0
LINE
  5
3C3
330
3BC
100
AcDbEntity
  8
SLD-0_0
100
AcDbLine
 10
2029.1421614344
 20
905.0543500136
 30
0.0
 11
2052.8497185257
 21
905.0543500136
 31
0.0
  0
LINE
  5
3C4
330
3BC
100
AcDbEntity
  8
SLD-0_0
100
AcDbLine
 10
2029.1421614344
 20
905.0543500136
 30
0.0
 11
1984.1421614344
 21
905.0543500136
 31
0.0
  0
LINE
  5
3C5
330
3BC
100
AcDbEntity
  8
SLD-0_0
100
AcDbLine
 10
1984.1421614344
 20
905.0543500136
 30
0.0
 11
1960.434604343
 21
905.0543500136
 31
0.0
  0
MTEXT
  5
3C6
330
3BC
100
AcDbEntity
  8
SLD-0_0
100
AcDbMText
 10
1999.7207083446
 20
921.4255103087
 30
0.0
 40
12.7
 41
0.0
 71
     1
 72
     1
  1
45
  7
SLDTEXTSTYLE0
 73
     1
 44
1.0
  0
ENDBLK
  5
3BE
330
3BC
100
AcDbEntity
  8
0
100
AcDbBlockEnd
  0
BLOCK
  5
3C9
330
3C8
100
AcDbEntity
  8
0
100
AcDbBlockBegin
  2
_D_16
 70
     0
 10
0.0
 20
0.0
 30
0.0
  3
_D_16
  1

  0
SOLID
  5
3CB
330
3C8
100
AcDbEntity
  8
SLD-0_0
100
AcDbTrace
 10
1939.1421614344
 20
1154.0543500136
 30
0.0
 11
1937.2455568671
 21
1141.7264203261
 31
0.0
 12
1941.0387660017
 22
1141.7264203261
 32
0.0
 13
1941.0387660017
 23
1141.7264203261
 33
0.0
  0
SOLID
  5
3CC
330
3C8
100
AcDbEntity
  8
SLD-0_0
100
AcDbTrace
 10
1939.1421614344
 20
988.0543500136
 30
0.0
 11
1941.0387660017
 21
1000.3822797011
 31
0.0
 12
1937.2455568671
 22
1000.3822797011
 32
0.0
 13
1937.2455568671
 23
1000.3822797011
 33
0.0
  0
LINE
  5
3CD
330
3C8
100
AcDbEntity
  8
SLD-0_0
100
AcDbLine
 10
2103.1421614344
 20
1154.0543500136
 30
0.0
 11
1938.1421614344
 21
1154.0543500136
 31
0.0
  0
LINE
  5
3CE
330
3C8
100
AcDbEntity
  8
SLD-0_0
100
AcDbLine
 10
2103.1421614344
 20
988.0543500136
 30
0.0
 11
1938.1421614344
 21
988.0543500136
 31
0.0
  0
LINE
  5
3CF
330
3C8
100
AcDbEntity
  8
SLD-0_0
100
AcDbLine
 10
1939.1421614344
 20
1154.0543500136
 30
0.0
 11
1939.1421614344
 21
988.0543500136
 31
0.0
  0
MTEXT
  5
3D0
330
3C8
100
AcDbEntity
  8
SLD-0_0
100
AcDbMText
 10
1922.7710011393
 20
1044.3634229287
 30
0.0
 40
12.7
 41
0.0
 71
     1
 72
     1
  1
166
  7
SLDTEXTSTYLE0
 11
-7.044195017643634E-15
 21
1.0
 31
0.0
 73
     1
 44
1.0
  0
ENDBLK
  5
3CA
330
3C8
100
AcDbEntity
  8
0
100
AcDbBlockEnd
  0
BLOCK
  5
3D3
330
3D2
100
AcDbEntity
  8
0
100
AcDbBlockBegin
  2
_D_17
 70
     0
 10
0.0
 20
0.0
 30
0.0
  3
_D_17
  1

  0
SOLID
  5
3D5
330
3D2
100
AcDbEntity
  8
SLD-0_0
100
AcDbTrace
 10
1939.1421614344
 20
1154.0543500136
 30
0.0
 11
1937.2455568671
 21
1141.7264203261
 31
0.0
 12
1941.0387660017
 22
1141.7264203261
 32
0.0
 13
1941.0387660017
 23
1141.7264203261
 33
0.0
  0
SOLID
  5
3D6
330
3D2
100
AcDbEntity
  8
SLD-0_0
100
AcDbTrace
 10
1939.1421614344
 20
1199.0543500136
 30
0.0
 11
1941.0387660017
 21
1211.3822797011
 31
0.0
 12
1937.2455568671
 22
1211.3822797011
 32
0.0
 13
1937.2455568671
 23
1211.3822797011
 33
0.0
  0
LINE
  5
3D7
330
3D2
100
AcDbEntity
  8
SLD-0_0
100
AcDbLine
 10
2103.1421614344
 20
1154.0543500136
 30
0.0
 11
1938.1421614344
 21
1154.0543500136
 31
0.0
  0
LINE
  5
3D8
330
3D2
100
AcDbEntity
  8
SLD-0_0
100
AcDbLine
 10
1983.1421614344
 20
1199.0543500136
 30
0.0
 11
1938.1421614344
 21
1199.0543500136
 31
0.0
  0
LINE
  5
3D9
330
3D2
100
AcDbEntity
  8
SLD-0_0
100
AcDbLine
 10
1939.1421614344
 20
1154.0543500136
 30
0.0
 11
1939.1421614344
 21
1130.3467929223
 31
0.0
  0
LINE
  5
3DA
330
3D2
100
AcDbEntity
  8
SLD-0_0
100
AcDbLine
 10
1939.1421614344
 20
1154.0543500136
 30
0.0
 11
1939.1421614344
 21
1199.0543500136
 31
0.0
  0
LINE
  5
3DB
330
3D2
100
AcDbEntity
  8
SLD-0_0
100
AcDbLine
 10
1939.1421614344
 20
1199.0543500136
 30
0.0
 11
1939.1421614344
 21
1222.7619071049
 31
0.0
  0
MTEXT
  5
3DC
330
3D2
100
AcDbEntity
  8
SLD-0_0
100
AcDbMText
 10
1922.7710011393
 20
1168.7519773487
 30
0.0
 40
12.7
 41
0.0
 71
     1
 72
     1
  1
45
  7
SLDTEXTSTYLE0
 11
6.123233995736766E-17
 21
1.0
 31
0.0
 73
     1
 44
1.0
  0
ENDBLK
  5
3D4
330
3D2
100
AcDbEntity
  8
0
100
AcDbBlockEnd
  0
BLOCK
  5
3E0
330
3DF
100
AcDbEntity
  8
0
100
AcDbBlockBegin
  2
_D_18
 70
     0
 10
0.0
 20
0.0
 30
0.0
  3
_D_18
  1

  0
SOLID
  5
3E2
330
3DF
100
AcDbEntity
  8
SLD-0_0
100
AcDbTrace
 10
2055.8380111623
 20
1136.4277677825
 30
0.0
 11
2062.3270175887
 21
1125.775643353
 31
0.0
 12
2065.2287425536
 22
1128.2186799404
 32
0.0
 13
2065.2287425536
 23
1128.2186799404
 33
0.0
  0
LINE
  5
3E3
330
3DF
100
AcDbEntity
  8
SLD-0_0
100
AcDbLine
 10
2055.8380111623
 20
1136.4277677825
 30
0.0
 11
2104.1421614344
 21
1079.0543500136
 31
0.0
  0
MTEXT
  5
3E4
330
3DF
100
AcDbEntity
  8
SLD-0_0
100
AcDbMText
 10
2079.4317599239
 20
1133.479866609
 30
0.0
 40
12.7
 41
0.0
 71
     1
 72
     1
  1
R75
  7
SLDTEXTSTYLE0
 11
0.6440553369618126
 21
-0.7649789035855865
 31
0.0
 73
     1
 44
1.0
  0
ENDBLK
  5
3E1
330
3DF
100
AcDbEntity
  8
0
100
AcDbBlockEnd
  0
BLOCK
  5
3E7
330
3E6
100
AcDbEntity
  8
0
100
AcDbBlockBegin
  2
_D_19
 70
     0
 10
0.0
 20
0.0
 30
0.0
  3
_D_19
  1

  0
SOLID
  5
3E9
330
3E6
100
AcDbEntity
  8
SLD-0_0
100
AcDbTrace
 10
1984.1421614344
 20
870.0543500136
 30
0.0
 11
1996.4700911219
 21
868.1577454463
 31
0.0
 12
1996.4700911219
 22
871.9509545809
 32
0.0
 13
1996.4700911219
 23
871.9509545809
 33
0.0
  0
SOLID
  5
3EA
330
3E6
100
AcDbEntity
  8
SLD-0_0
100
AcDbTrace
 10
2923.1421614344
 20
870.0543500136
 30
0.0
 11
2910.8142317469
 21
871.9509545809
 31
0.0
 12
2910.8142317469
 22
868.1577454463
 32
0.0
 13
2910.8142317469
 23
868.1577454463
 33
0.0
  0
LINE
  5
3EB
330
3E6
100
AcDbEntity
  8
SLD-0_0
100
AcDbLine
 10
1984.1421614344
 20
942.0543500136
 30
0.0
 11
1984.1421614344
 21
869.0543500136
 31
0.0
  0
LINE
  5
3EC
330
3E6
100
AcDbEntity
  8
SLD-0_0
100
AcDbLine
 10
2923.1421614344
 20
942.0543500136
 30
0.0
 11
2923.1421614344
 21
869.0543500136
 31
0.0
  0
LINE
  5
3ED
330
3E6
100
AcDbEntity
  8
SLD-0_0
100
AcDbLine
 10
1984.1421614344
 20
870.0543500136
 30
0.0
 11
2923.1421614344
 21
870.0543500136
 31
0.0
  0
MTEXT
  5
3EE
330
3E6
100
AcDbEntity
  8
SLD-0_0
100
AcDbMText
 10
2434.3017995369
 20
886.4255103087
 30
0.0
 40
12.7
 41
0.0
 71
     1
 72
     1
  1
939
  7
SLDTEXTSTYLE0
 73
     1
 44
1.0
  0
ENDBLK
  5
3E8
330
3E6
100
AcDbEntity
  8
0
100
AcDbBlockEnd
  0
BLOCK
  5
3F1
330
3F0
100
AcDbEntity
  8
0
100
AcDbBlockBegin
  2
_D_20
 70
     0
 10
0.0
 20
0.0
 30
0.0
  3
_D_20
  1

  0
SOLID
  5
3F3
330
3F0
100
AcDbEntity
  8
SLD-0_0
100
AcDbTrace
 10
2954.1421614344
 20
943.0543500136
 30
0.0
 11
2956.0387660017
 21
955.3822797011
 31
0.0
 12
2952.2455568671
 22
955.3822797011
 32
0.0
 13
2952.2455568671
 23
955.3822797011
 33
0.0
  0
SOLID
  5
3F4
330
3F0
100
AcDbEntity
  8
SLD-0_0
100
AcDbTrace
 10
2954.1421614344
 20
1199.0543500136
 30
0.0
 11
2952.2455568671
 21
1186.7264203261
 31
0.0
 12
2956.0387660017
 22
1186.7264203261
 32
0.0
 13
2956.0387660017
 23
1186.7264203261
 33
0.0
  0
LINE
  5
3F5
330
3F0
100
AcDbEntity
  8
SLD-0_0
100
AcDbLine
 10
2924.1421614344
 20
943.0543500136
 30
0.0
 11
2955.1421614344
 21
943.0543500136
 31
0.0
  0
LINE
  5
3F6
330
3F0
100
AcDbEntity
  8
SLD-0_0
100
AcDbLine
 10
2924.1421614344
 20
1199.0543500136
 30
0.0
 11
2955.1421614344
 21
1199.0543500136
 31
0.0
  0
LINE
  5
3F7
330
3F0
100
AcDbEntity
  8
SLD-0_0
100
AcDbLine
 10
2954.1421614344
 20
943.0543500136
 30
0.0
 11
2954.1421614344
 21
1199.0543500136
 31
0.0
  0
MTEXT
  5
3F8
330
3F0
100
AcDbEntity
  8
SLD-0_0
100
AcDbMText
 10
2937.7710011393
 20
1063.9018782791
 30
0.0
 40
12.7
 41
0.0
 71
     1
 72
     1
  1
256
  7
SLDTEXTSTYLE0
 11
-3.491481338843133E-15
 21
1.0
 31
0.0
 73
     1
 44
1.0
  0
ENDBLK
  5
3F2
330
3F0
100
AcDbEntity
  8
0
100
AcDbBlockEnd
  0
BLOCK
  5
403
330
402
100
AcDbEntity
  8
0
100
AcDbBlockBegin
  2
_D_21
 70
     0
 10
0.0
 20
0.0
 30
0.0
  3
_D_21
  1

  0
SOLID
  5
405
330
402
100
AcDbEntity
  8
SLD-0_0
100
AcDbTrace
 10
1926.2595237106
 20
666.6149826494
 30
0.0
 11
1938.5874533981
 21
664.7183780821
 31
0.0
 12
1938.5874533981
 22
668.5115872167
 32
0.0
 13
1938.5874533981
 23
668.5115872167
 33
0.0
  0
SOLID
  5
406
330
402
100
AcDbEntity
  8
SLD-0_0
100
AcDbTrace
 10
2366.2595237106
 20
666.6149826494
 30
0.0
 11
2353.9315940231
 21
668.5115872167
 31
0.0
 12
2353.9315940231
 22
664.7183780821
 32
0.0
 13
2353.9315940231
 23
664.7183780821
 33
0.0
  0
LINE
  5
407
330
402
100
AcDbEntity
  8
SLD-0_0
100
AcDbLine
 10
1926.2595237106
 20
696.6149826494
 30
0.0
 11
1926.2595237106
 21
665.6149826494
 31
0.0
  0
LINE
  5
408
330
402
100
AcDbEntity
  8
SLD-0_0
100
AcDbLine
 10
2366.2595237106
 20
696.6149826494
 30
0.0
 11
2366.2595237106
 21
665.6149826494
 31
0.0
  0
LINE
  5
409
330
402
100
AcDbEntity
  8
SLD-0_0
100
AcDbLine
 10
1926.2595237106
 20
666.6149826494
 30
0.0
 11
2366.2595237106
 21
666.6149826494
 31
0.0
  0
MTEXT
  5
40A
330
402
100
AcDbEntity
  8
SLD-0_0
100
AcDbMText
 10
2130.4689324273
 20
682.9861429445
 30
0.0
 40
12.7
 41
0.0
 71
     1
 72
     1
  1
440
  7
SLDTEXTSTYLE0
 73
     1
 44
1.0
  0
ENDBLK
  5
404
330
402
100
AcDbEntity
  8
0
100
AcDbBlockEnd
  0
BLOCK
  5
40D
330
40C
100
AcDbEntity
  8
0
100
AcDbBlockBegin
  2
_D_22
 70
     0
 10
0.0
 20
0.0
 30
0.0
  3
_D_22
  1

  0
SOLID
  5
40F
330
40C
100
AcDbEntity
  8
SLD-0_0
100
AcDbTrace
 10
2397.2595237106
 20
697.6149826494
 30
0.0
 11
2399.1561282779
 21
709.9429123369
 31
0.0
 12
2395.3629191432
 22
709.9429123369
 32
0.0
 13
2395.3629191432
 23
709.9429123369
 33
0.0
  0
SOLID
  5
410
330
40C
100
AcDbEntity
  8
SLD-0_0
100
AcDbTrace
 10
2397.2595237106
 20
797.6149826494
 30
0.0
 11
2395.3629191432
 21
785.2870529619
 31
0.0
 12
2399.1561282779
 22
785.2870529619
 32
0.0
 13
2399.1561282779
 23
785.2870529619
 33
0.0
  0
LINE
  5
411
330
40C
100
AcDbEntity
  8
SLD-0_0
100
AcDbLine
 10
2367.2595237106
 20
697.6149826494
 30
0.0
 11
2398.2595237106
 21
697.6149826494
 31
0.0
  0
LINE
  5
412
330
40C
100
AcDbEntity
  8
SLD-0_0
100
AcDbLine
 10
2367.2595237106
 20
797.6149826494
 30
0.0
 11
2398.2595237106
 21
797.6149826494
 31
0.0
  0
LINE
  5
413
330
40C
100
AcDbEntity
  8
SLD-0_0
100
AcDbLine
 10
2397.2595237106
 20
697.6149826494
 30
0.0
 11
2397.2595237106
 21
797.6149826494
 31
0.0
  0
MTEXT
  5
414
330
40C
100
AcDbEntity
  8
SLD-0_0
100
AcDbMText
 10
2380.8883634155
 20
731.110826233
 30
0.0
 40
12.7
 41
0.0
 71
     1
 72
     1
  1
100
  7
SLDTEXTSTYLE0
 11
6.123233995736766E-17
 21
1.0
 31
0.0
 73
     1
 44
1.0
  0
ENDBLK
  5
40E
330
40C
100
AcDbEntity
  8
0
100
AcDbBlockEnd
  0
BLOCK
  5
417
330
416
100
AcDbEntity
  8
0
100
AcDbBlockBegin
  2
_D_23
 70
     0
 10
0.0
 20
0.0
 30
0.0
  3
_D_23
  1

  0
SOLID
  5
419
330
416
100
AcDbEntity
  8
SLD-0_0
100
AcDbTrace
 10
2137.2595237106
 20
828.6149826494
 30
0.0
 11
2124.9315940231
 21
830.5115872167
 31
0.0
 12
2124.9315940231
 22
826.7183780821
 32
0.0
 13
2124.9315940231
 23
826.7183780821
 33
0.0
  0
SOLID
  5
41A
330
416
100
AcDbEntity
  8
SLD-0_0
100
AcDbTrace
 10
2155.2595237106
 20
828.6149826494
 30
0.0
 11
2167.5874533981
 21
826.7183780821
 31
0.0
 12
2167.5874533981
 22
830.5115872167
 32
0.0
 13
2167.5874533981
 23
830.5115872167
 33
0.0
  0
LINE
  5
41B
330
416
100
AcDbEntity
  8
SLD-0_0
100
AcDbLine
 10
2137.2595237106
 20
798.6149826494
 30
0.0
 11
2137.2595237106
 21
829.6149826494
 31
0.0
  0
LINE
  5
41C
330
416
100
AcDbEntity
  8
SLD-0_0
100
AcDbLine
 10
2155.2595237106
 20
798.6149826494
 30
0.0
 11
2155.2595237106
 21
829.6149826494
 31
0.0
  0
LINE
  5
41D
330
416
100
AcDbEntity
  8
SLD-0_0
100
AcDbLine
 10
2137.2595237106
 20
828.6149826494
 30
0.0
 11
2113.5519666192
 21
828.6149826494
 31
0.0
  0
LINE
  5
41E
330
416
100
AcDbEntity
  8
SLD-0_0
100
AcDbLine
 10
2137.2595237106
 20
828.6149826494
 30
0.0
 11
2155.2595237106
 21
828.6149826494
 31
0.0
  0
LINE
  5
41F
330
416
100
AcDbEntity
  8
SLD-0_0
100
AcDbLine
 10
2155.2595237106
 20
828.6149826494
 30
0.0
 11
2178.9670808019
 21
828.6149826494
 31
0.0
  0
MTEXT
  5
420
330
416
100
AcDbEntity
  8
SLD-0_0
100
AcDbMText
 10
2135.1726357637
 20
844.9861429445
 30
0.0
 40
12.7
 41
0.0
 71
     1
 72
     1
  1
18
  7
SLDTEXTSTYLE0
 73
     1
 44
1.0
  0
ENDBLK
  5
418
330
416
100
AcDbEntity
  8
0
100
AcDbBlockEnd
  0
BLOCK
  5
423
330
422
100
AcDbEntity
  8
0
100
AcDbBlockBegin
  2
_D_24
 70
     0
 10
0.0
 20
0.0
 30
0.0
  3
_D_24
  1

  0
SOLID
  5
425
330
422
100
AcDbEntity
  8
SLD-0_0
100
AcDbTrace
 10
2107.264644678
 20
797.6149826494
 30
0.0
 11
2109.1612492453
 21
809.9429123369
 31
0.0
 12
2105.3680401107
 22
809.9429123369
 32
0.0
 13
2105.3680401107
 23
809.9429123369
 33
0.0
  0
SOLID
  5
426
330
422
100
AcDbEntity
  8
SLD-0_0
100
AcDbTrace
 10
2107.264644678
 20
747.6149826494
 30
0.0
 11
2105.3680401107
 21
735.2870529619
 31
0.0
 12
2109.1612492453
 22
735.2870529619
 32
0.0
 13
2109.1612492453
 23
735.2870529619
 33
0.0
  0
LINE
  5
427
330
422
100
AcDbEntity
  8
SLD-0_0
100
AcDbLine
 10
2154.2595237106
 20
797.6149826494
 30
0.0
 11
2106.264644678
 21
797.6149826494
 31
0.0
  0
LINE
  5
428
330
422
100
AcDbEntity
  8
SLD-0_0
100
AcDbLine
 10
2136.2595237106
 20
747.6149826494
 30
0.0
 11
2106.264644678
 21
747.6149826494
 31
0.0
  0
LINE
  5
429
330
422
100
AcDbEntity
  8
SLD-0_0
100
AcDbLine
 10
2107.264644678
 20
797.6149826494
 30
0.0
 11
2107.264644678
 21
821.3225397408
 31
0.0
  0
LINE
  5
42A
330
422
100
AcDbEntity
  8
SLD-0_0
100
AcDbLine
 10
2107.264644678
 20
797.6149826494
 30
0.0
 11
2107.264644678
 21
747.6149826494
 31
0.0
  0
LINE
  5
42B
330
422
100
AcDbEntity
  8
SLD-0_0
100
AcDbLine
 10
2107.264644678
 20
747.6149826494
 30
0.0
 11
2107.264644678
 21
723.9074255581
 31
0.0
  0
MTEXT
  5
42C
330
422
100
AcDbEntity
  8
SLD-0_0
100
AcDbMText
 10
2090.8934843829
 20
761.4335224069
 30
0.0
 40
12.7
 41
0.0
 71
     1
 72
     1
  1
50
  7
SLDTEXTSTYLE0
 11
-7.044195017643634E-15
 21
1.0
 31
0.0
 73
     1
 44
1.0
  0
ENDBLK
  5
424
330
422
100
AcDbEntity
  8
0
100
AcDbBlockEnd
  0
BLOCK
  5
433
330
432
100
AcDbEntity
  8
0
100
AcDbBlockBegin
  2
_D_25
 70
     0
 10
0.0
 20
0.0
 30
0.0
  3
_D_25
  1

  0
SOLID
  5
435
330
432
100
AcDbEntity
  8
SLD-0_0
100
AcDbTrace
 10
2112.2219240257
 20
327.6197634475
 30
0.0
 11
2099.8939943382
 21
329.5163680148
 31
0.0
 12
2099.8939943382
 22
325.7231588802
 32
0.0
 13
2099.8939943382
 23
325.7231588802
 33
0.0
  0
SOLID
  5
436
330
432
100
AcDbEntity
  8
SLD-0_0
100
AcDbTrace
 10
2027.2219240257
 20
327.6197634475
 30
0.0
 11
2039.5498537132
 21
325.7231588802
 31
0.0
 12
2039.5498537132
 22
329.5163680148
 32
0.0
 13
2039.5498537132
 23
329.5163680148
 33
0.0
  0
LINE
  5
437
330
432
100
AcDbEntity
  8
SLD-0_0
100
AcDbLine
 10
2112.2219240257
 20
394.1197634475
 30
0.0
 11
2112.2219240257
 21
326.6197634475
 31
0.0
  0
LINE
  5
438
330
432
100
AcDbEntity
  8
SLD-0_0
100
AcDbLine
 10
2027.2219240257
 20
394.1197634475
 30
0.0
 11
2027.2219240257
 21
326.6197634475
 31
0.0
  0
LINE
  5
439
330
432
100
AcDbEntity
  8
SLD-0_0
100
AcDbLine
 10
2112.2219240257
 20
327.6197634475
 30
0.0
 11
2027.2219240257
 21
327.6197634475
 31
0.0
  0
MTEXT
  5
43A
330
432
100
AcDbEntity
  8
SLD-0_0
100
AcDbMText
 10
2058.3261407212
 20
343.9909237426
 30
0.0
 40
12.7
 41
0.0
 71
     1
 72
     1
  1
85
  7
SLDTEXTSTYLE0
 73
     1
 44
1.0
  0
ENDBLK
  5
434
330
432
100
AcDbEntity
  8
0
100
AcDbBlockEnd
  0
BLOCK
  5
43D
330
43C
100
AcDbEntity
  8
0
100
AcDbBlockBegin
  2
_D_26
 70
     0
 10
0.0
 20
0.0
 30
0.0
  3
_D_26
  1

  0
SOLID
  5
43F
330
43C
100
AcDbEntity
  8
SLD-0_0
100
AcDbTrace
 10
2143.2219240257
 20
395.1197634475
 30
0.0
 11
2145.118528593
 21
407.447693135
 31
0.0
 12
2141.3253194584
 22
407.447693135
 32
0.0
 13
2141.3253194584
 23
407.447693135
 33
0.0
  0
SOLID
  5
440
330
43C
100
AcDbEntity
  8
SLD-0_0
100
AcDbTrace
 10
2143.2219240257
 20
517.1197634475
 30
0.0
 11
2141.3253194584
 21
504.79183376
 31
0.0
 12
2145.118528593
 22
504.79183376
 32
0.0
 13
2145.118528593
 23
504.79183376
 33
0.0
  0
LINE
  5
441
330
43C
100
AcDbEntity
  8
SLD-0_0
100
AcDbLine
 10
2113.2219240257
 20
395.1197634475
 30
0.0
 11
2144.2219240257
 21
395.1197634475
 31
0.0
  0
LINE
  5
442
330
43C
100
AcDbEntity
  8
SLD-0_0
100
AcDbLine
 10
2113.2219240257
 20
517.1197634475
 30
0.0
 11
2144.2219240257
 21
517.1197634475
 31
0.0
  0
LINE
  5
443
330
43C
100
AcDbEntity
  8
SLD-0_0
100
AcDbLine
 10
2143.2219240257
 20
395.1197634475
 30
0.0
 11
2143.2219240257
 21
517.1197634475
 31
0.0
  0
MTEXT
  5
444
330
43C
100
AcDbEntity
  8
SLD-0_0
100
AcDbMText
 10
2126.8507637306
 20
440.4080728458
 30
0.0
 40
12.7
 41
0.0
 71
     1
 72
     1
  1
122
  7
SLDTEXTSTYLE0
 11
6.123233995736766E-17
 21
1.0
 31
0.0
 73
     1
 44
1.0
  0
ENDBLK
  5
43E
330
43C
100
AcDbEntity
  8
0
100
AcDbBlockEnd
  0
BLOCK
  5
44B
330
44A
100
AcDbEntity
  8
0
100
AcDbBlockBegin
  2
_D_27
 70
     0
 10
0.0
 20
0.0
 30
0.0
  3
_D_27
  1

  0
SOLID
  5
44D
330
44A
100
AcDbEntity
  8
SLD-0_0
100
AcDbTrace
 10
2608.6520488907
 20
760.3259245832
 30
0.0
 11
2606.7554443234
 21
747.9979948957
 31
0.0
 12
2610.548653458
 22
747.9979948957
 32
0.0
 13
2610.548653458
 23
747.9979948957
 33
0.0
  0
SOLID
  5
44E
330
44A
100
AcDbEntity
  8
SLD-0_0
100
AcDbTrace
 10
2608.6520488907
 20
320.3259245832
 30
0.0
 11
2610.548653458
 21
332.6538542707
 31
0.0
 12
2606.7554443234
 22
332.6538542707
 32
0.0
 13
2606.7554443234
 23
332.6538542707
 33
0.0
  0
LINE
  5
44F
330
44A
100
AcDbEntity
  8
SLD-0_0
100
AcDbLine
 10
2645.6520488907
 20
760.3259245832
 30
0.0
 11
2607.6520488907
 21
760.3259245832
 31
0.0
  0
LINE
  5
450
330
44A
100
AcDbEntity
  8
SLD-0_0
100
AcDbLine
 10
2645.6520488907
 20
320.3259245832
 30
0.0
 11
2607.6520488907
 21
320.3259245832
 31
0.0
  0
LINE
  5
451
330
44A
100
AcDbEntity
  8
SLD-0_0
100
AcDbLine
 10
2608.6520488907
 20
760.3259245832
 30
0.0
 11
2608.6520488907
 21
320.3259245832
 31
0.0
  0
MTEXT
  5
452
330
44A
100
AcDbEntity
  8
SLD-0_0
100
AcDbMText
 10
2592.2808885956
 20
526.2148136426
 30
0.0
 40
12.7
 41
0.0
 71
     1
 72
     1
  1
440
  7
SLDTEXTSTYLE0
 11
-7.044195017643634E-15
 21
1.0
 31
0.0
 73
     1
 44
1.0
  0
ENDBLK
  5
44C
330
44A
100
AcDbEntity
  8
0
100
AcDbBlockEnd
  0
BLOCK
  5
455
330
454
100
AcDbEntity
  8
0
100
AcDbBlockBegin
  2
_D_28
 70
     0
 10
0.0
 20
0.0
 30
0.0
  3
_D_28
  1

  0
SOLID
  5
457
330
454
100
AcDbEntity
  8
SLD-0_0
100
AcDbTrace
 10
2646.6520488907
 20
289.3259245832
 30
0.0
 11
2658.9799785782
 21
287.4293200159
 31
0.0
 12
2658.9799785782
 22
291.2225291505
 32
0.0
 13
2658.9799785782
 23
291.2225291505
 33
0.0
  0
SOLID
  5
458
330
454
100
AcDbEntity
  8
SLD-0_0
100
AcDbTrace
 10
2768.6520488907
 20
289.3259245832
 30
0.0
 11
2756.3241192032
 21
291.2225291505
 31
0.0
 12
2756.3241192032
 22
287.4293200159
 32
0.0
 13
2756.3241192032
 23
287.4293200159
 33
0.0
  0
LINE
  5
459
330
454
100
AcDbEntity
  8
SLD-0_0
100
AcDbLine
 10
2646.6520488907
 20
319.3259245832
 30
0.0
 11
2646.6520488907
 21
288.3259245832
 31
0.0
  0
LINE
  5
45A
330
454
100
AcDbEntity
  8
SLD-0_0
100
AcDbLine
 10
2768.6520488907
 20
319.3259245832
 30
0.0
 11
2768.6520488907
 21
288.3259245832
 31
0.0
  0
LINE
  5
45B
330
454
100
AcDbEntity
  8
SLD-0_0
100
AcDbLine
 10
2646.6520488907
 20
289.3259245832
 30
0.0
 11
2768.6520488907
 21
289.3259245832
 31
0.0
  0
MTEXT
  5
45C
330
454
100
AcDbEntity
  8
SLD-0_0
100
AcDbMText
 10
2691.9994759183
 20
305.6970848783
 30
0.0
 40
12.7
 41
0.0
 71
     1
 72
     1
  1
122
  7
SLDTEXTSTYLE0
 73
     1
 44
1.0
  0
ENDBLK
  5
456
330
454
100
AcDbEntity
  8
0
100
AcDbBlockEnd
  0
BLOCK
  5
463
330
462
100
AcDbEntity
  8
0
100
AcDbBlockBegin
  2
_D_29
 70
     0
 10
0.0
 20
0.0
 30
0.0
  3
_D_29
  1

  0
SOLID
  5
465
330
462
100
AcDbEntity
  8
CAJETIN
100
AcDbTrace
 10
2873.6171730371
 20
289.3259245831
 30
0.0
 11
2861.2892433496
 21
291.2225291504
 31
0.0
 12
2861.2892433496
 22
287.4293200158
 32
0.0
 13
2861.2892433496
 23
287.4293200158
 33
0.0
  0
SOLID
  5
466
330
462
100
AcDbEntity
  8
CAJETIN
100
AcDbTrace
 10
2891.6171730371
 20
289.3259245831
 30
0.0
 11
2903.9451027246
 21
287.4293200158
 31
0.0
 12
2903.9451027246
 22
291.2225291504
 32
0.0
 13
2903.9451027246
 23
291.2225291504
 33
0.0
  0
LINE
  5
467
330
462
100
AcDbEntity
  8
CAJETIN
100
AcDbLine
 10
2873.6171730371
 20
319.3259245832
 30
0.0
 11
2873.6171730371
 21
288.3259245831
 31
0.0
  0
LINE
  5
468
330
462
100
AcDbEntity
  8
CAJETIN
100
AcDbLine
 10
2891.6171730371
 20
319.3259245832
 30
0.0
 11
2891.6171730371
 21
288.3259245831
 31
0.0
  0
LINE
  5
469
330
462
100
AcDbEntity
  8
CAJETIN
100
AcDbLine
 10
2873.6171730371
 20
289.3259245831
 30
0.0
 11
2849.9096159457
 21
289.3259245831
 31
0.0
  0
LINE
  5
46A
330
462
100
AcDbEntity
  8
CAJETIN
100
AcDbLine
 10
2873.6171730371
 20
289.3259245831
 30
0.0
 11
2891.6171730371
 21
289.3259245831
 31
0.0
  0
LINE
  5
46B
330
462
100
AcDbEntity
  8
CAJETIN
100
AcDbLine
 10
2891.6171730371
 20
289.3259245831
 30
0.0
 11
2922.1095772656
 21
289.3259245831
 31
0.0
  0
MTEXT
  5
46C
330
462
100
AcDbEntity
  8
CAJETIN
100
AcDbMText
 10
2903.2947620572
 20
305.6970848782
 30
0.0
 40
12.7
 41
0.0
 71
     1
 72
     1
  1
18
  7
SLDTEXTSTYLE0
 73
     1
 44
1.0
  0
ENDBLK
  5
464
330
462
100
AcDbEntity
  8
0
100
AcDbBlockEnd
  0
BLOCK
  5
473
330
472
100
AcDbEntity
  8
0
100
AcDbBlockBegin
  2
_D_30
 70
     0
 10
0.0
 20
0.0
 30
0.0
  3
_D_30
  1

  0
SOLID
  5
475
330
472
100
AcDbEntity
  8
CAJETIN
100
AcDbTrace
 10
2245.5504405789
 20
364.1197634475
 30
0.0
 11
2257.8783702664
 21
362.2231588802
 31
0.0
 12
2257.8783702664
 22
366.0163680148
 32
0.0
 13
2257.8783702664
 23
366.0163680148
 33
0.0
  0
SOLID
  5
476
330
472
100
AcDbEntity
  8
CAJETIN
100
AcDbTrace
 10
2227.5504405789
 20
364.1197634475
 30
0.0
 11
2215.2225108914
 21
366.0163680148
 31
0.0
 12
2215.2225108914
 22
362.2231588802
 32
0.0
 13
2215.2225108914
 23
362.2231588802
 33
0.0
  0
LINE
  5
477
330
472
100
AcDbEntity
  8
CAJETIN
100
AcDbLine
 10
2245.5504405789
 20
394.1197634475
 30
0.0
 11
2245.5504405789
 21
363.1197634475
 31
0.0
  0
LINE
  5
478
330
472
100
AcDbEntity
  8
CAJETIN
100
AcDbLine
 10
2227.5504405789
 20
394.1197634475
 30
0.0
 11
2227.5504405789
 21
363.1197634475
 31
0.0
  0
LINE
  5
479
330
472
100
AcDbEntity
  8
CAJETIN
100
AcDbLine
 10
2245.5504405789
 20
364.1197634475
 30
0.0
 11
2269.2579976703
 21
364.1197634475
 31
0.0
  0
LINE
  5
47A
330
472
100
AcDbEntity
  8
CAJETIN
100
AcDbLine
 10
2245.5504405789
 20
364.1197634475
 30
0.0
 11
2227.5504405789
 21
364.1197634475
 31
0.0
  0
LINE
  5
47B
330
472
100
AcDbEntity
  8
CAJETIN
100
AcDbLine
 10
2227.5504405789
 20
364.1197634475
 30
0.0
 11
2203.8428834876
 21
364.1197634475
 31
0.0
  0
MTEXT
  5
47C
330
472
100
AcDbEntity
  8
CAJETIN
100
AcDbMText
 10
2224.7231359159
 20
380.4909237426
 30
0.0
 40
12.7
 41
0.0
 71
     1
 72
     1
  1
18
  7
SLDTEXTSTYLE0
 73
     1
 44
1.0
  0
ENDBLK
  5
474
330
472
100
AcDbEntity
  8
0
100
AcDbBlockEnd
  0
ENDSEC
  0
SECTION
  2
ENTITIES
  0
LINE
  5
7A
330
1F
100
AcDbEntity
  8
PREDETERMINADO
100
AcDbLine
 10
2953.7805788193
 20
57.3214178067
 30
0.0
 11
2945.0142650341
 21
57.3214178067
 31
0.0
  0
LINE
  5
7B
330
1F
100
AcDbEntity
  8
PREDETERMINADO
100
AcDbLine
 10
2939.2971038697
 20
28.9261840238
 30
0.0
 11
2944.6331209564
 21
28.9261840238
 31
0.0
  0
LINE
  5
7C
330
1F
100
AcDbEntity
  8
PREDETERMINADO
100
AcDbLine
 10
2974.7435030885
 20
57.3214178067
 30
0.0
 11
2966.7394774585
 21
57.3214178067
 31
0.0
  0
LINE
  5
7D
330
1F
100
AcDbEntity
  8
PREDETERMINADO
100
AcDbLine
 10
2961.6881755553
 20
31.4036205284
 30
0.0
 11
2969.6197096358
 21
31.4036205284
 31
0.0
  0
LINE
  5
7E
330
1F
100
AcDbEntity
  8
PREDETERMINADO
100
AcDbLine
 10
2704.7140912713
 20
138.474581476
 30
0.0
 11
2704.7140912713
 21
97.0915389877
 31
0.0
  0
LINE
  5
7F
330
1F
100
AcDbEntity
  8
PREDETERMINADO
100
AcDbLine
 10
2704.7140912713
 20
97.0915389877
 30
0.0
 11
2217.7381926647
 21
97.0915389877
 31
0.0
  0
LINE
  5
80
330
1F
100
AcDbEntity
  8
PREDETERMINADO
100
AcDbLine
 10
2217.7381926647
 20
97.0915389877
 30
0.0
 11
2217.7381926647
 21
92.8525389877
 31
0.0
  0
LINE
  5
81
330
1F
100
AcDbEntity
  8
PREDETERMINADO
100
AcDbLine
 10
2217.7381926647
 20
92.8525389877
 30
0.0
 11
2708.9530912713
 21
92.8525389877
 31
0.0
  0
LINE
  5
82
330
1F
100
AcDbEntity
  8
PREDETERMINADO
100
AcDbLine
 10
2708.9530912713
 20
92.8525389877
 30
0.0
 11
2708.9530912713
 21
138.474581476
 31
0.0
  0
LINE
  5
83
330
1F
100
AcDbEntity
  8
PREDETERMINADO
100
AcDbLine
 10
2708.9530912713
 20
138.474581476
 30
0.0
 11
2704.7140912713
 21
138.474581476
 31
0.0
  0
LINE
  5
84
330
1F
100
AcDbEntity
  8
PREDETERMINADO
100
AcDbLine
 10
2961.6881755553
 20
31.4036205284
 30
0.0
 11
2969.6197096358
 21
31.4036205284
 31
0.0
  0
LINE
  5
85
330
1F
100
AcDbEntity
  8
PREDETERMINADO
100
AcDbLine
 10
2974.7435030885
 20
57.3214178067
 30
0.0
 11
2966.7394774585
 21
57.3214178067
 31
0.0
  0
LINE
  5
86
330
1F
100
AcDbEntity
  8
PREDETERMINADO
100
AcDbLine
 10
2953.7805788193
 20
57.3214178067
 30
0.0
 11
2945.0142650341
 21
57.3214178067
 31
0.0
  0
LINE
  5
87
330
1F
100
AcDbEntity
  8
PREDETERMINADO
100
AcDbLine
 10
2939.2971038697
 20
28.9261840238
 30
0.0
 11
2944.6331209564
 21
28.9261840238
 31
0.0
  0
LINE
  5
88
330
1F
100
AcDbEntity
  8
PREDETERMINADO
  6
Continuous
 62
   179
370
    15
100
AcDbLine
 10
2217.7381926647
 20
228.3629821305
 30
0.0
 11
2217.7381926647
 21
142.713581476
 31
0.0
  0
LINE
  5
89
330
1F
100
AcDbEntity
  8
SLD-0_0
100
AcDbLine
 10
2406.4846980495
 20
92.8525389877
 30
0.0
 11
2406.4846980495
 21
16.4129821305
 31
0.0
  0
LINE
  5
8A
330
1F
100
AcDbEntity
  8
FORMATO
  6
Continuous
 62
   179
100
AcDbLine
 10
2412.2230912713
 20
142.713581476
 30
0.0
 11
2412.2230912713
 21
228.3629821305
 31
0.0
  0
LINE
  5
8B
330
1F
100
AcDbEntity
  8
FORMATO
  6
Continuous
 62
   179
100
AcDbLine
 10
2331.7302571214
 20
142.713581476
 30
0.0
 11
2412.2230912713
 21
142.713581476
 31
0.0
  0
LINE
  5
8C
330
1F
100
AcDbEntity
  8
FORMATO
  6
Continuous
 62
   179
100
AcDbLine
 10
2331.7302571214
 20
142.713581476
 30
0.0
 11
2331.7302571214
 21
228.3629821305
 31
0.0
  0
LINE
  5
8D
330
1F
100
AcDbEntity
  8
FORMATO
  6
Continuous
 62
   179
100
AcDbLine
 10
2217.7381926647
 20
163.908581476
 30
0.0
 11
2497.0030912713
 21
163.908581476
 31
0.0
  0
LINE
  5
8E
330
1F
100
AcDbEntity
  8
FORMATO
  6
Continuous
 62
   179
100
AcDbLine
 10
2217.7381926647
 20
185.103581476
 30
0.0
 11
2497.0030912713
 21
185.103581476
 31
0.0
  0
LINE
  5
8F
330
1F
100
AcDbEntity
  8
FORMATO
  6
Continuous
 62
   179
100
AcDbLine
 10
2497.0030912713
 20
142.713581476
 30
0.0
 11
2497.0030912713
 21
228.3629821305
 31
0.0
  0
LINE
  5
90
330
1F
100
AcDbEntity
  8
FORMATO
  6
Continuous
 62
   179
100
AcDbLine
 10
2984.4880912713
 20
206.298581476
 30
0.0
 11
2217.7381926647
 21
206.298581476
 31
0.0
  0
LINE
  5
91
330
1F
100
AcDbEntity
  8
FORMATO
  6
Continuous
 62
   179
100
AcDbLine
 10
2803.9424890692
 20
228.3629821305
 30
0.0
 11
2803.9424890692
 21
180.662106425
 31
0.0
  0
LINE
  5
92
330
1F
100
AcDbEntity
  8
FORMATO
  6
Continuous
 62
   179
100
AcDbLine
 10
2751.3430912713
 20
228.3629821305
 30
0.0
 11
2751.3430912713
 21
180.662106425
 31
0.0
  0
LINE
  5
93
330
1F
100
AcDbEntity
  8
FORMATO
  6
Continuous
 62
   179
100
AcDbLine
 10
2708.9530912713
 20
180.662106425
 30
0.0
 11
2984.4880912713
 21
180.662106425
 31
0.0
  0
LINE
  5
94
330
1F
100
AcDbEntity
  8
FORMATO
  6
Continuous
 62
   179
100
AcDbLine
 10
2873.3093560384
 20
138.474581476
 30
0.0
 11
2873.3093560384
 21
228.3629821305
 31
0.0
  0
LINE
  5
95
330
1F
100
AcDbEntity
  8
PREDETERMINADO
370
    15
100
AcDbLine
 10
2217.7381926647
 20
97.0915389877
 30
0.0
 11
2217.7381926647
 21
16.4129821305
 31
0.0
  0
LINE
  5
96
330
1F
100
AcDbEntity
  8
FORMATO
  6
Continuous
 62
   179
100
AcDbLine
 10
2836.1230912713
 20
83.1376372178
 30
0.0
 11
2984.4880912713
 21
83.1376372178
 31
0.0
  0
LINE
  5
97
330
1F
100
AcDbEntity
  8
FORMATO
  6
Continuous
 62
   179
100
AcDbLine
 10
2836.1230912713
 20
16.4129821305
 30
0.0
 11
2836.1230912713
 21
138.474581476
 31
0.0
  0
LINE
  5
98
330
1F
100
AcDbEntity
  8
FORMATO
  6
Continuous
 62
   179
370
    15
100
AcDbLine
 10
2213.4991926647
 20
142.713581476
 30
0.0
 11
2704.7140912713
 21
142.713581476
 31
0.0
  0
LINE
  5
99
330
1F
100
AcDbEntity
  8
FORMATO
  6
Continuous
 62
   179
370
    15
100
AcDbLine
 10
2708.9530912713
 20
92.8525389877
 30
0.0
 11
2708.9530912713
 21
138.474581476
 31
0.0
  0
LINE
  5
9A
330
1F
100
AcDbEntity
  8
FORMATO
  6
Continuous
 62
   179
100
AcDbLine
 10
2567.6318618685
 20
92.8525389877
 30
0.0
 11
2567.6318618685
 21
16.4129821305
 31
0.0
  0
LINE
  5
9B
330
1F
100
AcDbEntity
  8
SLD-0
  6
Continuous
 62
   179
100
AcDbLine
 10
2966.7394774585
 20
57.3214178067
 30
0.0
 11
2974.7435030885
 21
57.3214178067
 31
0.0
  0
LINE
  5
9C
330
1F
100
AcDbEntity
  8
SLD-0
  6
Continuous
 62
   179
100
AcDbLine
 10
2961.4034603718
 20
31.4036205284
 30
0.0
 11
2969.6197096358
 21
31.4036205284
 31
0.0
  0
LINE
  5
9D
330
1F
100
AcDbEntity
  8
SLD-0
  6
Continuous
 62
   179
100
AcDbLine
 10
2945.0142650341
 20
57.3214178067
 30
0.0
 11
2953.7805788193
 21
57.3214178067
 31
0.0
  0
LINE
  5
9E
330
1F
100
AcDbEntity
  8
FORMATO
  6
Continuous
 62
   179
100
AcDbLine
 10
2500.6815956676
 20
186.4703293891
 30
0.0
 11
2507.3729793132
 21
186.4703293891
 31
0.0
  0
LINE
  5
9F
330
1F
100
AcDbEntity
  8
FORMATO
  6
Continuous
 62
   179
100
AcDbLine
 10
2500.6815956676
 20
169.5143293891
 30
0.0
 11
2507.3729793132
 21
169.5143293891
 31
0.0
  0
LINE
  5
A0
330
1F
100
AcDbEntity
  8
FORMATO
  6
Continuous
 62
   179
100
AcDbLine
 10
2500.6815956676
 20
152.5583293891
 30
0.0
 11
2507.3729793132
 21
152.5583293891
 31
0.0
  0
LINE
  5
A1
330
1F
100
AcDbEntity
  8
FORMATO
  6
Continuous
 62
   179
100
AcDbLine
 10
2711.6154207231
 20
98.1907042008
 30
0.0
 11
2718.3068043687
 21
98.1907042008
 31
0.0
  0
LINE
  5
A2
330
1F
100
AcDbEntity
  8
FORMATO
  6
Continuous
 62
   179
100
AcDbLine
 10
2711.6154207231
 20
76.5279877943
 30
0.0
 11
2718.3068043687
 21
76.5279877943
 31
0.0
  0
LINE
  5
A3
330
1F
100
AcDbEntity
  8
FORMATO
  6
Continuous
 62
   179
100
AcDbLine
 10
2711.6154207231
 20
54.8652713877
 30
0.0
 11
2718.3068043687
 21
54.8652713877
 31
0.0
  0
LINE
  5
A4
330
1F
100
AcDbEntity
  8
FORMATO
  6
Continuous
 62
   179
100
AcDbLine
 10
2711.6154207231
 20
33.2025549812
 30
0.0
 11
2718.3068043687
 21
33.2025549812
 31
0.0
  0
LINE
  5
A5
330
1F
100
AcDbEntity
  8
PREDETERMINADO
100
AcDbLine
 10
2708.9530912713
 20
138.474581476
 30
0.0
 11
2984.8421506311
 21
138.474581476
 31
0.0
  0
LINE
  5
A6
330
1F
100
AcDbEntity
  8
FORMATO
  6
Continuous
 62
   179
370
    15
100
AcDbLine
 10
2217.7381926647
 20
228.3629821305
 30
0.0
 11
2984.4880912713
 21
228.3629821305
 31
0.0
  0
LINE
  5
A7
330
1F
100
AcDbEntity
  8
FORMATO
  6
Continuous
 62
   179
370
    15
100
AcDbLine
 10
2708.9530912713
 20
92.8525389877
 30
0.0
 11
2217.7381926647
 21
92.8525389877
 31
0.0
  0
LINE
  5
A8
330
1F
100
AcDbEntity
  8
PREDETERMINADO
  6
Continuous
 62
   179
100
AcDbLine
 10
2253.8107979238
 20
224.5145210547
 30
0.0
 11
2253.8107979238
 21
208.17856127
 31
0.0
  0
LINE
  5
A9
330
1F
100
AcDbEntity
  8
PREDETERMINADO
  6
Continuous
 62
   179
100
AcDbLine
 10
2237.4150149106
 20
220.7667408783
 30
0.0
 11
2237.4150149106
 21
211.9263414463
 31
0.0
  0
LINE
  5
AA
330
1F
100
AcDbEntity
  8
PREDETERMINADO
  6
CENTER
 62
   179
100
AcDbLine
 10
2273.9088545206
 20
225.5608423291
 30
0.0
 11
2273.9088545206
 21
206.9482771675
 31
0.0
  0
LINE
  5
AB
330
1F
100
AcDbEntity
  8
PREDETERMINADO
  6
Continuous
 62
   179
100
AcDbLine
 10
2253.8107979238
 20
224.5145210547
 30
0.0
 11
2237.4150149106
 21
220.7667408783
 31
0.0
  0
LINE
  5
AC
330
1F
100
AcDbEntity
  8
PREDETERMINADO
  6
Continuous
 62
   179
100
AcDbLine
 10
2237.4150149106
 20
211.9263414463
 30
0.0
 11
2253.8107979238
 21
208.17856127
 31
0.0
  0
LINE
  5
AD
330
1F
100
AcDbEntity
  8
PREDETERMINADO
  6
CENTER
 62
   179
100
AcDbLine
 10
2283.7373939059
 20
216.3465411623
 30
0.0
 11
2235.7240888713
 21
216.3465411623
 31
0.0
  0
LINE
  5
AE
330
1F
100
AcDbEntity
  8
PREDETERMINADO
370
    15
100
AcDbLine
 10
2217.7381926647
 20
16.4129821305
 30
0.0
 11
2984.4880912713
 21
16.4129821305
 31
0.0
  0
LINE
  5
AF
330
1F
100
AcDbEntity
  8
PREDETERMINADO
370
    15
100
AcDbLine
 10
2984.4880912713
 20
16.4129821305
 30
0.0
 11
2984.4880912713
 21
228.3629821305
 31
0.0
  0
LINE
  5
B0
330
1F
100
AcDbEntity
  8
PREDETERMINADO
370
    15
100
AcDbLine
 10
2704.7140912713
 20
138.474581476
 30
0.0
 11
2708.9530912713
 21
138.474581476
 31
0.0
  0
LINE
  5
B1
330
1F
100
AcDbEntity
  8
PREDETERMINADO
100
AcDbLine
 10
2708.9530912713
 20
138.474581476
 30
0.0
 11
2708.9530912713
 21
228.3629821305
 31
0.0
  0
LINE
  5
B2
330
1F
100
AcDbEntity
  8
PREDETERMINADO
100
AcDbLine
 10
2708.9530912713
 20
92.8525389877
 30
0.0
 11
2708.9530912713
 21
16.4129821305
 31
0.0
  0
LINE
  5
B3
330
1F
100
AcDbEntity
  8
PREDETERMINADO
370
    15
100
AcDbLine
 10
2213.4991926647
 20
142.713581476
 30
0.0
 11
2213.4991926647
 21
97.0915389877
 31
0.0
  0
LINE
  5
B4
330
1F
100
AcDbEntity
  8
PREDETERMINADO
370
    15
100
AcDbLine
 10
2213.4991926647
 20
97.0915389877
 30
0.0
 11
2704.7140912713
 21
97.0915389877
 31
0.0
  0
LINE
  5
B5
330
1F
100
AcDbEntity
  8
PREDETERMINADO
370
    15
100
AcDbLine
 10
2704.7140912713
 20
97.0915389877
 30
0.0
 11
2704.7140912713
 21
142.713581476
 31
0.0
  0
LINE
  5
B6
330
1F
100
AcDbEntity
  8
SLD-0
  6
Continuous
 62
   179
100
AcDbLine
 10
2939.2971038697
 20
28.9261840238
 30
0.0
 11
2944.6331209564
 21
28.9261840238
 31
0.0
  0
ARC
  5
B7
330
1F
100
AcDbEntity
  8
PREDETERMINADO
100
AcDbCircle
 10
2871.6408538915
 20
57.3214178067
 30
0.0
 40
73.37341114253053
100
AcDbArc
 50
337.2322750577
 51
0.0
  0
ARC
  5
B8
330
1F
100
AcDbEntity
  8
PREDETERMINADO
100
AcDbCircle
 10
2905.1350807874
 20
57.3214178067
 30
0.0
 40
48.64549803190766
100
AcDbArc
 50
324.2875534854
 51
0.0
  0
ARC
  5
B9
330
1F
100
AcDbEntity
  8
PREDETERMINADO
100
AcDbCircle
 10
2897.7228278856
 20
57.3214178067
 30
0.0
 40
69.01664957284447
100
AcDbArc
 50
337.9429486592
 51
0.0
  0
ARC
  5
BA
330
1F
100
AcDbEntity
  8
PREDETERMINADO
100
AcDbCircle
 10
2906.6313239444
 20
57.3214178067
 30
0.0
 40
68.11217914413874
100
AcDbArc
 50
337.634330245
 51
0.0
  0
ARC
  5
BB
330
1F
100
AcDbEntity
  8
PREDETERMINADO
100
AcDbCircle
 10
2906.6313239444
 20
57.3214178067
 30
0.0
 40
68.11217914413874
100
AcDbArc
 50
337.634330245
 51
0.0
  0
ARC
  5
BC
330
1F
100
AcDbEntity
  8
PREDETERMINADO
100
AcDbCircle
 10
2897.7228278856
 20
57.3214178067
 30
0.0
 40
69.01664957284447
100
AcDbArc
 50
337.9429486592
 51
0.0
  0
ARC
  5
BD
330
1F
100
AcDbEntity
  8
PREDETERMINADO
100
AcDbCircle
 10
2905.1350807874
 20
57.3214178067
 30
0.0
 40
48.64549803190766
100
AcDbArc
 50
324.2875534854
 51
0.0
  0
ARC
  5
BE
330
1F
100
AcDbEntity
  8
PREDETERMINADO
100
AcDbCircle
 10
2871.6408538915
 20
57.3214178067
 30
0.0
 40
73.37341114253053
100
AcDbArc
 50
337.2322750577
 51
0.0
  0
CIRCLE
  5
BF
330
1F
100
AcDbEntity
  8
PREDETERMINADO
  6
Continuous
 62
   179
100
AcDbCircle
 10
2273.9088545206
 20
216.3465411623
 30
0.0
 40
8.16797989235628
  0
CIRCLE
  5
C0
330
1F
100
AcDbEntity
  8
PREDETERMINADO
  6
Continuous
 62
   179
100
AcDbCircle
 10
2273.8976301581
 20
216.3465411623
 30
0.0
 40
4.420199715998793
  0
ARC
  5
C1
330
1F
100
AcDbEntity
  8
SLD-0
  6
Continuous
 62
   179
100
AcDbCircle
 10
2897.7228278856
 20
57.3214178067
 30
0.0
 40
69.01664957284447
100
AcDbArc
 50
337.9429486592
 51
0.0
  0
ARC
  5
C2
330
1F
100
AcDbEntity
  8
SLD-0
  6
Continuous
 62
   179
100
AcDbCircle
 10
2906.6313239444
 20
57.3214178067
 30
0.0
 40
68.11217914413874
100
AcDbArc
 50
337.634330245
 51
0.0
  0
ARC
  5
C3
330
1F
100
AcDbEntity
  8
SLD-0
  6
Continuous
 62
   179
100
AcDbCircle
 10
2905.1350807874
 20
57.3214178067
 30
0.0
 40
48.64549803190766
100
AcDbArc
 50
324.2875534854
 51
0.0
  0
ARC
  5
C4
330
1F
100
AcDbEntity
  8
SLD-0
  6
Continuous
 62
   179
100
AcDbCircle
 10
2871.6408538915
 20
57.3214178067
 30
0.0
 40
73.37341114253053
100
AcDbArc
 50
337.2322750577
 51
0.0
  0
HATCH
  5
C5
330
1F
100
AcDbEntity
  8
0
  6
Continuous
 62
   179
100
AcDbHatch
 10
0.0
 20
0.0
 30
0.0
210
0.0
220
0.0
230
1.0
  2
ANSI31
 70
     0
 71
     0
 91
        1
 92
        0
 93
        4
 72
     1
 10
2939.297103869709
 20
28.92618402383318
 11
2944.633120956416
 21
28.92618402383318
 72
     2
 10
2905.135080787436
 20
57.3214178066691
 40
48.64549803190743
 50
324.2875534853725
 51
360.0000000000008
 73
     1
 72
     1
 10
2953.780578819344
 20
57.3214178066691
 11
2945.014265034066
 21
57.3214178066691
 72
     2
 10
2871.640853891537
 20
57.3214178066691
 40
73.37341114252966
 50
0.0
 51
22.76772494225683
 73
     0
 97
        0
 75
     0
 76
     1
 52
90.0
 41
0.03125
 77
     0
 78
     1
 53
135.0000000000002
 43
0.0
 44
0.0
 45
-0.0701582509458525
 46
-0.070158250945853
 79
     0
 98
        1
 10
0.0
 20
0.0
  0
HATCH
  5
C6
330
1F
100
AcDbEntity
  8
0
  6
Continuous
 62
   179
100
AcDbHatch
 10
0.0
 20
0.0
 30
0.0
210
0.0
220
0.0
230
1.0
  2
ANSI31
 70
     0
 71
     0
 91
        1
 92
        0
 93
        4
 72
     1
 10
2961.688175555317
 20
31.40362052837686
 11
2969.619709635777
 21
31.40362052837686
 72
     2
 10
2906.631323944409
 20
57.3214178066691
 40
68.11217914413834
 50
337.6343302449529
 51
360.0000000000008
 73
     1
 72
     1
 10
2974.743503088548
 20
57.3214178066691
 11
2966.739477458489
 21
57.3214178066691
 72
     2
 10
2897.722827885644
 20
57.3214178066691
 40
69.01664957284461
 50
0.0
 51
22.05705134075574
 73
     0
 97
        0
 75
     0
 76
     1
 52
90.0
 41
0.03125
 77
     0
 78
     1
 53
135.0000000000002
 43
0.0
 44
0.0
 45
-0.0701582509458525
 46
-0.070158250945853
 79
     0
 98
        1
 10
0.0
 20
0.0
  0
HATCH
  5
C7
330
1F
100
AcDbEntity
  8
0
  6
Continuous
 62
   179
100
AcDbHatch
 10
0.0
 20
0.0
 30
0.0
210
0.0
220
0.0
230
1.0
  2
ANSI31
 70
     0
 71
     0
 91
        1
 92
        0
 93
        6
 72
     1
 10
2708.953091271272
 20
92.85253898767476
 11
2708.953091271272
 21
138.4745814760103
 72
     1
 10
2708.953091271272
 20
138.4745814760103
 11
2704.71409127127
 21
138.4745814760103
 72
     1
 10
2704.71409127127
 20
138.4745814760103
 11
2704.71409127127
 21
97.09153898767443
 72
     1
 10
2704.71409127127
 20
97.09153898767443
 11
2217.738192664704
 21
97.09153898767443
 72
     1
 10
2217.738192664704
 20
97.09153898767443
 11
2217.738192664704
 21
92.85253898767476
 72
     1
 10
2217.738192664704
 20
92.85253898767476
 11
2708.953091271272
 21
92.85253898767476
 97
        0
 75
     0
 76
     1
 52
0.0
 41
0.0625
 77
     0
 78
     1
 53
45.0
 43
0.0
 44
0.0
 45
-0.1403165018917055
 46
0.1403165018917055
 79
     0
 98
        1
 10
0.0
 20
0.0
  0
INSERT
  5
CE
330
1F
100
AcDbEntity
  8
CAJETIN
100
AcDbBlockReference
  2
SW_NOTE_0
 10
2728.6204549186
 20
101.3150087962
 30
0.0
  0
MTEXT
  5
CF
330
1F
100
AcDbEntity
  8
CAJETIN
100
AcDbMText
 10
2939.3791067988
 20
157.4872413264
 30
0.0
 40
9.525
 41
0.0
 71
     1
 72
     1
  1
g.
  7
SLDTEXTSTYLE0
 73
     1
 44
1.0
  0
MTEXT
  5
D0
330
1F
100
AcDbEntity
  8
CAJETIN
100
AcDbMText
 10
2343.8799013218
 20
201.7437690723
 30
0.0
 40
9.525
 41
0.0
 71
     1
 72
     1
  1
R&D Dep.
  7
SLDTEXTSTYLE0
 73
     1
 44
1.0
  0
MTEXT
  5
D2
330
1F
100
AcDbEntity
  8
PREDETERMINADO
100
AcDbMText
 10
2849.7878404293
 20
60.740140865
 30
0.0
 40
19.05
 41
0.0
 71
     1
 72
     1
  1
beyma
  7
SLDTEXTSTYLE1
 73
     1
 44
1.0
  0
MTEXT
  5
D3
330
1F
100
AcDbEntity
  8
CAJETIN
100
AcDbMText
 10
2772.883428931
 20
199.1385222051
 30
0.0
 40
9.525
 41
0.0
 71
     1
 72
     1
  1
01
  7
SLDTEXTSTYLE0
 73
     1
 44
1.0
  0
MTEXT
  5
D4
330
1F
100
AcDbEntity
  8
CAJETIN
100
AcDbMText
 10
2756.0456523869
 20
157.4872413264
 30
0.0
 40
9.525
 41
0.0
 71
     1
 72
     1
  1
S-215LEX1000
  7
SLDTEXTSTYLE0
 73
     1
 44
1.0
  0
MTEXT
  5
D5
330
1F
100
AcDbEntity
  8
CAJETIN
100
AcDbMText
 10
2928.8662679386
 20
200.0545839416
 30
0.0
 40
9.525
 41
0.0
 71
     2
 72
     1
  1
1:1
  7
SLDTEXTSTYLE0
 73
     1
 44
1.0
  0
MTEXT
  5
D6
330
1F
100
AcDbEntity
  8
CAJETIN
100
AcDbMText
 10
2356.8590279323
 20
224.804662271
 30
0.0
 40
9.525
 41
0.0
 71
     1
 72
     1
  1
NAME
  7
SLDTEXTSTYLE0
 73
     1
 44
1.0
  0
MTEXT
  5
D7
330
1F
100
AcDbEntity
  8
CAJETIN
100
AcDbMText
 10
2900.7759952373
 20
175.6724939512
 30
0.0
 40
9.525
 41
0.0
 71
     1
 72
     1
  1
WEIGHT
  7
SLDTEXTSTYLE0
 73
     1
 44
1.0
  0
MTEXT
  5
D8
330
1F
100
AcDbEntity
  8
CAJETIN
100
AcDbMText
 10
2282.6506455293
 20
223.9343364208
 30
0.0
 40
9.525
 41
0.0
 71
     1
 72
     1
  1
CAD
  7
SLDTEXTSTYLE0
 73
     1
 44
1.0
  0
MTEXT
  5
D9
330
1F
100
AcDbEntity
  8
CAJETIN
100
AcDbMText
 10
2442.0695596789
 20
224.804662271
 30
0.0
 40
9.525
 41
0.0
 71
     1
 72
     1
  1
DATE
  7
SLDTEXTSTYLE0
 73
     1
 44
1.0
  0
MTEXT
  5
DA
330
1F
100
AcDbEntity
  8
CAJETIN
100
AcDbMText
 10
2222.8401384976
 20
201.9689717443
 30
0.0
 40
9.525
 41
0.0
 71
     1
 72
     1
  1
DESIGNED BY
  7
SLDTEXTSTYLE0
 73
     1
 44
1.0
  0
MTEXT
  5
DB
330
1F
100
AcDbEntity
  8
CAJETIN
100
AcDbMText
 10
2222.8401384976
 20
160.7204530065
 30
0.0
 40
9.525
 41
0.0
 71
     1
 72
     1
  1
REVISED BY
  7
SLDTEXTSTYLE0
 73
     1
 44
1.0
  0
MTEXT
  5
DC
330
1F
100
AcDbEntity
  8
CAJETIN
100
AcDbMText
 10
2222.8401384976
 20
181.9642477551
 30
0.0
 40
9.525
 41
0.0
 71
     1
 72
     1
  1
DRAWN BY
  7
SLDTEXTSTYLE0
 73
     1
 44
1.0
  0
MTEXT
  5
DD
330
1F
100
AcDbEntity
  8
CAJETIN
100
AcDbMText
 10
2217.3543736071
 20
137.8524578628
 30
0.0
 40
9.525
 41
0.0
 71
     1
 72
     1
  1
TITLE:
  7
SLDTEXTSTYLE0
 73
     1
 44
1.0
  0
MTEXT
  5
DE
330
1F
100
AcDbEntity
  8
CAJETIN
100
AcDbMText
 10
2222.8401384976
 20
87.5810092341
 30
0.0
 40
9.525
 41
0.0
 71
     1
 72
     1
  1
MODEL CODE:
  7
SLDTEXTSTYLE0
 73
     1
 44
1.0
  0
MTEXT
  5
DF
330
1F
100
AcDbEntity
  8
CAJETIN
100
AcDbMText
 10
2578.7227350005
 20
88.0350546673
 30
0.0
 40
9.525
 41
0.0
 71
     1
 72
     1
  1
PART NUMBER
  7
SLDTEXTSTYLE0
 73
     1
 44
1.0
  0
MTEXT
  5
E0
330
1F
100
AcDbEntity
  8
CAJETIN
100
AcDbMText
 10
2567.9292050847
 20
224.804662271
 30
0.0
 40
9.525
 41
0.0
 71
     1
 72
     1
  1
NOTES
  7
SLDTEXTSTYLE0
 73
     1
 44
1.0
  0
MTEXT
  5
E1
330
1F
100
AcDbEntity
  8
CAJETIN
100
AcDbMText
 10
2712.1524917175
 20
223.8484128476
 30
0.0
 40
9.525
 41
0.0
 71
     1
 72
     1
  1
UNIT
  7
SLDTEXTSTYLE0
 73
     1
 44
1.0
  0
MTEXT
  5
E2
330
1F
100
AcDbEntity
  8
CAJETIN
100
AcDbMText
 10
2755.7445257684
 20
223.8484128476
 30
0.0
 40
9.525
 41
0.0
 71
     1
 72
     1
  1
LEVEL
  7
SLDTEXTSTYLE0
 73
     1
 44
1.0
  0
MTEXT
  5
E3
330
1F
100
AcDbEntity
  8
CAJETIN
100
AcDbMText
 10
2819.0473228062
 20
223.8484128476
 30
0.0
 40
9.525
 41
0.0
 71
     1
 72
     1
  1
DATE
  7
SLDTEXTSTYLE0
 73
     1
 44
1.0
  0
MTEXT
  5
E4
330
1F
100
AcDbEntity
  8
CAJETIN
100
AcDbMText
 10
2906.3306803736
 20
224.804662271
 30
0.0
 40
9.525
 41
0.0
 71
     1
 72
     1
  1
SCALE
  7
SLDTEXTSTYLE0
 73
     1
 44
1.0
  0
MTEXT
  5
E5
330
1F
100
AcDbEntity
  8
CAJETIN
100
AcDbMText
 10
2721.1134880288
 20
175.6724939512
 30
0.0
 40
9.525
 41
0.0
 71
     1
 72
     1
  1
DRAWING NUMBER
  7
SLDTEXTSTYLE0
 73
     1
 44
1.0
  0
MTEXT
  5
E6
330
1F
100
AcDbEntity
  8
CAJETIN
100
AcDbMText
 10
2453.3880459835
 20
88.0350546673
 30
0.0
 40
9.525
 41
0.0
 71
     1
 72
     1
  1
SIGNED
  7
SLDTEXTSTYLE0
 73
     1
 44
1.0
  0
MTEXT
  5
E7
330
1F
100
AcDbEntity
  8
CAJETIN
100
AcDbMText
 10
2735.5558527015
 20
133.3873364221
 30
0.0
 40
9.525
 41
0.0
 71
     1
 72
     1
  1
MATERIAL
  7
SLDTEXTSTYLE0
 73
     1
 44
1.0
  0
MTEXT
  5
E8
330
1F
100
AcDbEntity
  8
CAJETIN
100
AcDbMText
 10
2424.2261660469
 20
201.7437690723
 30
0.0
 40
9.525
 41
0.0
 71
     1
 72
     1
  1
11/06/2020
  7
SLDTEXTSTYLE0
 73
     1
 44
1.0
  0
MTEXT
  5
E9
330
1F
100
AcDbEntity
  8
CAJETIN
100
AcDbMText
 10
2345.2549001502
 20
180.8923398585
 30
0.0
 40
9.525
 41
0.0
 71
     1
 72
     1
  1
R. Climent
  7
SLDTEXTSTYLE0
 73
     1
 44
1.0
  0
MTEXT
  5
EA
330
1F
100
AcDbEntity
  8
CAJETIN
100
AcDbMText
 10
2345.2549001502
 20
159.6161257638
 30
0.0
 40
9.525
 41
0.0
 71
     1
 72
     1
  1
J. Serrano
  7
SLDTEXTSTYLE0
 73
     1
 44
1.0
  0
MTEXT
  5
EB
330
1F
100
AcDbEntity
  8
CAJETIN
100
AcDbMText
 10
2424.2261660469
 20
180.8923398585
 30
0.0
 40
9.525
 41
0.0
 71
     1
 72
     1
  1
11/06/2020
  7
SLDTEXTSTYLE0
 73
     1
 44
1.0
  0
MTEXT
  5
EC
330
1F
100
AcDbEntity
  8
CAJETIN
100
AcDbMText
 10
2424.2261660469
 20
159.6161257638
 30
0.0
 40
9.525
 41
0.0
 71
     1
 72
     1
  1
11/06/2020
  7
SLDTEXTSTYLE0
 73
     1
 44
1.0
  0
MTEXT
  5
ED
330
1F
100
AcDbEntity
  8
CAJETIN
100
AcDbMText
 10
2717.7131164799
 20
199.1385222051
 30
0.0
 40
9.525
 41
0.0
 71
     1
 72
     1
  1
mm
  7
SLDTEXTSTYLE0
 73
     1
 44
1.0
  0
INSERT
  5
F3
330
1F
100
AcDbEntity
  8
CAJETIN
100
AcDbBlockReference
  2
SW_NOTE_1
 10
2425.9858800624
 20
121.1472961806
 30
0.0
  0
INSERT
  5
F9
330
1F
100
AcDbEntity
  8
SLD-0_0
100
AcDbBlockReference
  2
SW_NOTE_2
 10
1897.3961446478
 20
1231.7666490707
 30
0.0
  0
INSERT
  5
FF
330
1F
100
AcDbEntity
  8
SLD-0_0
100
AcDbBlockReference
  2
SW_NOTE_3
 10
1981.5387608076
 20
1860.9484679835
 30
0.0
  0
INSERT
  5
105
330
1F
100
AcDbEntity
  8
SLD-0_0
100
AcDbBlockReference
  2
SW_NOTE_4
 10
1349.4335165081
 20
1860.9484679835
 30
0.0
  0
INSERT
  5
10B
330
1F
100
AcDbEntity
  8
SLD-0_0
100
AcDbBlockReference
  2
SW_NOTE_5
 10
139.4775685054
 20
1873.9749752861
 30
0.0
  0
INSERT
  5
111
330
1F
100
AcDbEntity
  8
SLD-0_0
100
AcDbBlockReference
  2
SW_NOTE_6
 10
1990.6359490825
 20
537.8411947272
 30
0.0
  0
INSERT
  5
117
330
1F
100
AcDbEntity
  8
SLD-0_0
100
AcDbBlockReference
  2
SW_NOTE_7
 10
2522.7665907202
 20
744.3334943999
 30
0.0
  0
INSERT
  5
11D
330
1F
100
AcDbEntity
  8
SLD-0_0
100
AcDbBlockReference
  2
SW_NOTE_8
 10
1889.8521735711
 20
802.3986054446
 30
0.0
  0
INSERT
  5
123
330
1F
100
AcDbEntity
  8
SLD-0_0
100
AcDbBlockReference
  2
SW_NOTE_9
 10
1225.9409216864
 20
1054.4415897097
 30
0.0
  0
INSERT
  5
155
330
1F
100
AcDbEntity
  8
CAJETIN
100
AcDbBlockReference
  2
SW_TABLEANNOTATION_0
 10
1126.1195170451
 20
342.6684072761
 30
0.0
  0
ARC
  5
156
330
1F
100
AcDbEntity
  8
0
  6
Continuous
 62
     7
100
AcDbCircle
 10
687.0246446826
 20
192.6357786301
 30
0.0
 40
5.000000000000036
100
AcDbArc
 50
259.2614585492
 51
300.3662667283
  0
LINE
  5
157
330
1F
100
AcDbEntity
  8
0
  6
Continuous
 62
     7
100
AcDbLine
 10
275.1356925763
 20
265.6608778595
 30
0.0
 11
686.0930069196
 21
187.7233402256
 31
0.0
  0
LINE
  5
158
330
1F
100
AcDbEntity
  8
0
  6
Continuous
 62
     7
100
AcDbLine
 10
689.5522740115
 20
188.3217213779
 30
0.0
 11
838.1991070472
 21
275.4146997181
 31
0.0
  0
LINE
  5
159
330
1F
100
AcDbEntity
  8
0
  6
Continuous
 62
     7
100
AcDbLine
 10
271.0194191504
 20
274.2707879158
 30
0.0
 11
271.0677428535
 21
270.5090903195
 31
0.0
  0
ARC
  5
15A
330
1F
100
AcDbEntity
  8
0
  6
Continuous
 62
     7
100
AcDbCircle
 10
276.0673303393
 20
270.573316264
 30
0.0
 40
5.000000000000046
100
AcDbArc
 50
180.7359953519
 51
259.2614585492
  0
LINE
  5
15B
330
1F
100
AcDbEntity
  8
0
  6
Continuous
 62
     7
100
AcDbLine
 10
840.6710652041
 20
279.7929829149
 30
0.0
 11
840.6227415011
 21
283.5546805112
 31
0.0
  0
ARC
  5
15C
330
1F
100
AcDbEntity
  8
0
  6
Continuous
 62
     7
100
AcDbCircle
 10
835.6714777183
 20
279.7287569703
 30
0.0
 40
5.000000000000087
100
AcDbArc
 50
300.3662667283
 51
0.7359953519
  0
ARC
  5
15D
330
1F
100
AcDbEntity
  8
0
  6
Continuous
 62
     7
100
AcDbCircle
 10
269.1226677908
 20
811.1717960998
 30
0.0
 40
5.000000000000045
100
AcDbArc
 50
120.3662667283
 51
180.7359953519
  0
LINE
  5
15E
330
1F
100
AcDbEntity
  8
0
  6
Continuous
 62
     7
100
AcDbLine
 10
264.123080305
 20
811.1075701553
 30
0.0
 11
264.171404008
 21
807.345872559
 31
0.0
  0
LINE
  5
15F
330
1F
100
AcDbEntity
  8
0
  6
Continuous
 62
     7
100
AcDbLine
 10
415.2418714976
 20
902.5788316923
 30
0.0
 11
266.5950384619
 21
815.485853352
 31
0.0
  0
ARC
  5
160
330
1F
100
AcDbEntity
  8
0
  6
Continuous
 62
     7
100
AcDbCircle
 10
828.7268151698
 20
820.3272368061
 30
0.0
 40
4.999999999999989
100
AcDbArc
 50
0.7359953519
 51
79.2614585492
  0
LINE
  5
161
330
1F
100
AcDbEntity
  8
0
  6
Continuous
 62
     7
100
AcDbLine
 10
833.7747263586
 20
816.6297651543
 30
0.0
 11
833.7264026556
 21
820.3914627506
 31
0.0
  0
LINE
  5
162
330
1F
100
AcDbEntity
  8
0
  6
Continuous
 62
     7
100
AcDbLine
 10
829.6584529328
 20
825.2396752107
 30
0.0
 11
418.7011385895
 21
903.1772128446
 31
0.0
  0
ARC
  5
163
330
1F
100
AcDbEntity
  8
0
  6
Continuous
 62
     7
100
AcDbCircle
 10
417.7695008265
 20
898.26477444
 30
0.0
 40
5.00000000000003
100
AcDbArc
 50
79.2614585492
 51
120.3662667283
  0
LINE
  5
164
330
1F
100
AcDbEntity
  8
0
  6
Continuous
 62
     7
100
AcDbLine
 10
154.9950058531
 20
632.6961732631
 30
0.0
 11
157.6528095216
 21
425.8028054658
 31
0.0
  0
LINE
  5
165
330
1F
100
AcDbEntity
  8
0
  6
Continuous
 62
     7
100
AcDbLine
 10
972.8862296678
 20
388.503259045
 30
0.0
 11
970.2284259993
 21
595.3966268423
 31
0.0
  0
LWPOLYLINE
  5
166
330
1F
100
AcDbEntity
  8
0
  6
Continuous
 62
     7
100
AcDbPolyline
 90
        9
 70
   128
 43
0.0
 10
839.9263719665
 20
282.6743546962
 10
840.3402546231
 20
282.980977559
 10
840.5728617488
 20
283.3071793376
 10
840.6152543821
 20
283.6404242804
 10
840.4658033979
 20
283.9679059713
 10
840.1302521137
 20
284.2770394724
 10
839.6214955772
 20
284.5559449567
 10
838.9590850168
 20
284.7939042428
 10
838.1684764988
 20
284.9817726889
  0
LINE
  5
167
330
1F
100
AcDbEntity
  8
0
  6
Continuous
 62
     7
100
AcDbLine
 10
839.9263719665
 20
282.6743546962
 30
0.0
 11
691.2795389308
 21
195.5813763559
 31
0.0
  0
ARC
  5
168
330
1F
100
AcDbEntity
  8
0
  6
Continuous
 62
     7
100
AcDbCircle
 10
686.7816670497
 20
206.1329936184
 30
0.0
 40
11.47028675803616
100
AcDbArc
 50
258.1742787254
 51
293.0872531625
  0
LINE
  5
169
330
1F
100
AcDbEntity
  8
0
  6
Continuous
 62
     7
100
AcDbLine
 10
684.4309984961
 20
194.9061581042
 30
0.0
 11
273.4736841527
 21
272.8436957381
 31
0.0
  0
LWPOLYLINE
  5
16A
330
1F
100
AcDbEntity
  8
0
  6
Continuous
 62
     7
100
AcDbPolyline
 90
        9
 70
   128
 43
0.0
 10
271.715788685
 20
275.1511137308
 10
271.3019060284
 20
274.844490868
 10
271.0692989027
 20
274.5182890894
 10
271.0269062694
 20
274.1850441466
 10
271.1763572536
 20
273.8575624557
 10
271.5119085378
 20
273.5484289546
 10
272.0206650743
 20
273.2695234703
 10
272.6830756347
 20
273.0315641842
 10
273.4736841527
 20
272.8436957381
  0
LINE
  5
16B
330
1F
100
AcDbEntity
  8
0
  6
Continuous
 62
     7
100
AcDbLine
 10
271.715788685
 20
275.1511137308
 30
0.0
 11
368.2474637661
 21
331.7095409458
 31
0.0
  0
LINE
  5
16C
330
1F
100
AcDbEntity
  8
0
  6
Continuous
 62
     7
100
AcDbLine
 10
387.0958744667
 20
342.7529260713
 30
0.0
 11
420.3626217207
 21
362.2440920711
 31
0.0
  0
ARC
  5
16D
330
1F
100
AcDbEntity
  8
0
  6
Continuous
 62
     7
100
AcDbCircle
 10
424.8604936018
 20
351.6924748086
 30
0.0
 40
11.47028675803676
100
AcDbArc
 50
78.1742787254
 51
113.0872531624
  0
LINE
  5
16E
330
1F
100
AcDbEntity
  8
0
  6
Continuous
 62
     7
100
AcDbLine
 10
427.2111621554
 20
362.9193103228
 30
0.0
 11
434.1798079909
 21
361.5977154075
 31
0.0
  0
LINE
  5
16F
330
1F
100
AcDbEntity
  8
0
  6
Continuous
 62
     7
100
AcDbLine
 10
479.3704347687
 20
353.0273698941
 30
0.0
 11
573.6931526479
 21
335.139185117
 31
0.0
  0
LINE
  5
170
330
1F
100
AcDbEntity
  8
0
  6
Continuous
 62
     7
100
AcDbLine
 10
614.8087602529
 20
327.3416618629
 30
0.0
 11
838.1684764988
 21
284.9817726889
 31
0.0
  0
ARC
  5
171
330
1F
100
AcDbEntity
  8
0
  6
Continuous
 62
     7
100
AcDbCircle
 10
679.9336519073
 20
739.2080782615
 30
0.0
 40
11.47028675803627
100
AcDbArc
 50
258.1742787254
 51
293.0872531625
  0
LINE
  5
172
330
1F
100
AcDbEntity
  8
0
  6
Continuous
 62
     7
100
AcDbLine
 10
677.5829833537
 20
727.9812427473
 30
0.0
 11
266.6256690103
 21
805.9187803812
 31
0.0
  0
LINE
  5
173
330
1F
100
AcDbEntity
  8
0
  6
Continuous
 62
     7
100
AcDbLine
 10
833.0783568241
 20
815.7494393393
 30
0.0
 11
684.4315237884
 21
728.6564609991
 31
0.0
  0
LWPOLYLINE
  5
174
330
1F
100
AcDbEntity
  8
0
  6
Continuous
 62
     7
100
AcDbPolyline
 90
        7
 70
   128
 43
0.0
 10
266.6256690103
 20
805.9187803812
 10
265.8350604923
 20
806.1066488273
 10
265.1726499319
 20
806.3446081134
 10
264.6638933954
 20
806.6235135978
 10
264.3283421112
 20
806.9326470989
 10
264.178891127
 20
807.2601287897
 10
264.171404008
 20
807.345872559
  0
ARC
  5
175
330
1F
100
AcDbEntity
  8
0
  6
Continuous
 62
     7
100
AcDbCircle
 10
832.6756378273
 20
816.7835942618
 30
0.0
 40
1.109801330938563
100
AcDbArc
 50
291.2768560246
 51
352.0326027981
  0
ARC
  5
176
330
1F
100
AcDbEntity
  8
0
  6
Continuous
 62
     7
100
AcDbCircle
 10
308.8360803045
 20
710.1178601559
 30
0.0
 40
11.47028675803821
100
AcDbArc
 50
78.1742787254
 51
113.0872531624
  0
LINE
  5
177
330
1F
100
AcDbEntity
  8
0
  6
Continuous
 62
     7
100
AcDbLine
 10
314.6293232191
 20
720.6918157737
 30
0.0
 11
311.1867488581
 21
721.3446956701
 31
0.0
  0
LINE
  5
178
330
1F
100
AcDbEntity
  8
0
  6
Continuous
 62
     7
100
AcDbLine
 10
314.6293232191
 20
720.6918157737
 30
0.0
 11
160.8918452164
 21
630.6162011889
 31
0.0
  0
LINE
  5
179
330
1F
100
AcDbEntity
  8
0
  6
Continuous
 62
     7
100
AcDbLine
 10
160.8918452164
 20
630.6162011889
 30
0.0
 11
157.4492708554
 21
631.2690810853
 31
0.0
  0
LWPOLYLINE
  5
17A
330
1F
100
AcDbEntity
  8
0
  6
Continuous
 62
     7
100
AcDbPolyline
 90
        9
 70
   128
 43
0.0
 10
155.6913753877
 20
633.5764990781
 10
155.2774927311
 20
633.2698762152
 10
155.0448856054
 20
632.9436744367
 10
155.0024929721
 20
632.6104294939
 10
155.1519439563
 20
632.282947803
 10
155.4874952405
 20
631.9738143019
 10
155.996251777
 20
631.6949088176
 10
156.6586623374
 20
631.4569495314
 10
157.4492708554
 20
631.2690810853
  0
LINE
  5
17B
330
1F
100
AcDbEntity
  8
0
  6
Continuous
 62
     7
100
AcDbLine
 10
304.3382084234
 20
720.6694774184
 30
0.0
 11
155.6913753877
 21
633.5764990781
 31
0.0
  0
LINE
  5
17C
330
1F
100
AcDbEntity
  8
0
  6
Continuous
 62
     7
100
AcDbLine
 10
160.8918452164
 20
630.6162011889
 30
0.0
 11
163.5496488849
 21
423.7228333917
 31
0.0
  0
LINE
  5
17D
330
1F
100
AcDbEntity
  8
0
  6
Continuous
 62
     7
100
AcDbLine
 10
163.5496488849
 20
423.7228333917
 30
0.0
 11
160.1070745239
 21
424.3757132881
 31
0.0
  0
LINE
  5
17E
330
1F
100
AcDbEntity
  8
0
  6
Continuous
 62
     7
100
AcDbLine
 10
317.2871268876
 20
513.7984479764
 30
0.0
 11
317.1555845896
 21
524.0381919297
 31
0.0
  0
LINE
  5
17F
330
1F
100
AcDbEntity
  8
0
  6
Continuous
 62
     7
100
AcDbLine
 10
316.8039811806
 20
551.4083149638
 30
0.0
 11
314.6293232191
 21
720.6918157737
 31
0.0
  0
LINE
  5
180
330
1F
100
AcDbEntity
  8
0
  6
Continuous
 62
     7
100
AcDbLine
 10
163.5496488849
 20
423.7228333917
 30
0.0
 11
205.5506957198
 21
448.3314724562
 31
0.0
  0
LINE
  5
181
330
1F
100
AcDbEntity
  8
0
  6
Continuous
 62
     7
100
AcDbLine
 10
222.606620368
 20
458.3246303703
 30
0.0
 11
317.2871268876
 21
513.7984479764
 31
0.0
  0
LWPOLYLINE
  5
182
330
1F
100
AcDbEntity
  8
0
  6
Continuous
 62
     7
100
AcDbPolyline
 90
        7
 70
   128
 43
0.0
 10
160.1070745239
 20
424.3757132881
 10
159.3164660059
 20
424.5635817342
 10
158.6540554455
 20
424.8015410203
 10
158.145298909
 20
425.0804465046
 10
157.8097476248
 20
425.3895800057
 10
157.6602966406
 20
425.7170616966
 10
157.6528095216
 20
425.8028054658
  0
ARC
  5
183
330
1F
100
AcDbEntity
  8
0
  6
Continuous
 62
     7
100
AcDbCircle
 10
816.387351548
 20
517.9749399495
 30
0.0
 40
11.47028675803481
100
AcDbArc
 50
258.1742787254
 51
293.0872531625
  0
LINE
  5
184
330
1F
100
AcDbEntity
  8
0
  6
Continuous
 62
     7
100
AcDbLine
 10
814.0366829943
 20
506.7481044353
 30
0.0
 11
810.5941086333
 21
507.4009843317
 31
0.0
  0
LINE
  5
185
330
1F
100
AcDbEntity
  8
0
  6
Continuous
 62
     7
100
AcDbLine
 10
964.331586636
 20
597.4765989165
 30
0.0
 11
810.5941086333
 21
507.4009843317
 31
0.0
  0
LINE
  5
186
330
1F
100
AcDbEntity
  8
0
  6
Continuous
 62
     7
100
AcDbLine
 10
967.774160997
 20
596.82371902
 30
0.0
 11
964.331586636
 21
597.4765989165
 31
0.0
  0
LWPOLYLINE
  5
187
330
1F
100
AcDbEntity
  8
0
  6
Continuous
 62
     7
100
AcDbPolyline
 90
        9
 70
   128
 43
0.0
 10
969.5320564648
 20
594.5163010273
 10
969.9459391214
 20
594.8229238901
 10
970.1785462471
 20
595.1491256687
 10
970.2209388803
 20
595.4823706115
 10
970.0714878961
 20
595.8098523024
 10
969.735936612
 20
596.1189858035
 10
969.2271800754
 20
596.3978912878
 10
968.564769515
 20
596.635850574
 10
967.774160997
 20
596.82371902
  0
LINE
  5
188
330
1F
100
AcDbEntity
  8
0
  6
Continuous
 62
     7
100
AcDbLine
 10
969.5320564648
 20
594.5163010273
 30
0.0
 11
820.8852234291
 21
507.423322687
 31
0.0
  0
ARC
  5
189
330
1F
100
AcDbEntity
  8
0
  6
Continuous
 62
     7
100
AcDbCircle
 10
819.0451552164
 20
311.0815721522
 30
0.0
 40
11.4702867580361
100
AcDbArc
 50
258.1742787254
 51
293.0872531625
  0
LINE
  5
18A
330
1F
100
AcDbEntity
  8
0
  6
Continuous
 62
     7
100
AcDbLine
 10
810.5941086333
 20
507.4009843317
 30
0.0
 11
813.2519123018
 21
300.5076165344
 31
0.0
  0
LINE
  5
18B
330
1F
100
AcDbEntity
  8
0
  6
Continuous
 62
     7
100
AcDbLine
 10
816.6944866628
 20
299.854736638
 30
0.0
 11
813.2519123018
 21
300.5076165344
 31
0.0
  0
LINE
  5
18C
330
1F
100
AcDbEntity
  8
0
  6
Continuous
 62
     7
100
AcDbLine
 10
823.5430270975
 20
300.5299548898
 30
0.0
 11
972.1898601332
 21
387.62293323
 31
0.0
  0
ARC
  5
18D
330
1F
100
AcDbEntity
  8
0
  6
Continuous
 62
     7
100
AcDbCircle
 10
971.7871411364
 20
388.6570881525
 30
0.0
 40
1.109801330939189
100
AcDbArc
 50
291.2768560246
 51
352.0326027981
  0
LINE
  5
18E
330
1F
100
AcDbEntity
  8
0
  6
Continuous
 62
     7
100
AcDbLine
 10
391.6205954136
 20
381.4564829863
 30
0.0
 11
399.3663877258
 21
379.9875032194
 31
0.0
  0
LINE
  5
18F
330
1F
100
AcDbEntity
  8
0
  6
Continuous
 62
     7
100
AcDbLine
 10
391.6205954136
 20
381.4564829863
 30
0.0
 11
388.9627917451
 21
588.3498507836
 31
0.0
  0
LINE
  5
190
330
1F
100
AcDbEntity
  8
0
  6
Continuous
 62
     7
100
AcDbLine
 10
388.9627917451
 20
588.3498507836
 30
0.0
 11
396.7085840573
 21
586.8808710167
 31
0.0
  0
LINE
  5
191
330
1F
100
AcDbEntity
  8
0
  6
Continuous
 62
     7
100
AcDbLine
 10
399.3663877258
 20
379.9875032194
 30
0.0
 11
396.7085840573
 21
586.8808710167
 31
0.0
  0
LINE
  5
192
330
1F
100
AcDbEntity
  8
0
  6
Continuous
 62
     7
100
AcDbLine
 10
430.4193220244
 20
398.181584311
 30
0.0
 11
399.3663877258
 21
379.9875032194
 31
0.0
  0
LINE
  5
193
330
1F
100
AcDbEntity
  8
0
  6
Continuous
 62
     7
100
AcDbLine
 10
396.7085840573
 20
586.8808710167
 30
0.0
 11
427.7615183559
 21
605.0749521083
 31
0.0
  0
LINE
  5
194
330
1F
100
AcDbEntity
  8
0
  6
Continuous
 62
     7
100
AcDbLine
 10
427.7615183559
 20
605.0749521083
 30
0.0
 11
430.4193220244
 21
398.181584311
 31
0.0
  0
LINE
  5
195
330
1F
100
AcDbEntity
  8
0
  6
Continuous
 62
     7
100
AcDbLine
 10
388.9627917451
 20
588.3498507836
 30
0.0
 11
420.0157260437
 21
606.5439318752
 31
0.0
  0
LINE
  5
196
330
1F
100
AcDbEntity
  8
0
  6
Continuous
 62
     7
100
AcDbLine
 10
420.0157260437
 20
606.5439318752
 30
0.0
 11
427.7615183559
 21
605.0749521083
 31
0.0
  0
LINE
  5
197
330
1F
100
AcDbEntity
  8
0
  6
Continuous
 62
     7
100
AcDbLine
 10
586.1374545053
 20
368.6498363972
 30
0.0
 11
555.0845202067
 21
350.4557553056
 31
0.0
  0
LINE
  5
198
330
1F
100
AcDbEntity
  8
0
  6
Continuous
 62
     7
100
AcDbLine
 10
555.0845202067
 20
350.4557553056
 30
0.0
 11
553.4755507897
 21
475.7039462496
 31
0.0
  0
LINE
  5
199
330
1F
100
AcDbEntity
  8
0
  6
Continuous
 62
     7
100
AcDbLine
 10
553.0786637194
 20
506.599118681
 30
0.0
 11
552.4267165382
 21
557.3491231029
 31
0.0
  0
LINE
  5
19A
330
1F
100
AcDbEntity
  8
0
  6
Continuous
 62
     7
100
AcDbLine
 10
552.4267165382
 20
557.3491231029
 30
0.0
 11
583.4796508368
 21
575.5432041945
 31
0.0
  0
LINE
  5
19B
330
1F
100
AcDbEntity
  8
0
  6
Continuous
 62
     7
100
AcDbLine
 10
583.4796508368
 20
575.5432041945
 30
0.0
 11
584.4417327678
 21
500.6511520942
 31
0.0
  0
LINE
  5
19C
330
1F
100
AcDbEntity
  8
0
  6
Continuous
 62
     7
100
AcDbLine
 10
585.2164328217
 20
440.3456054181
 30
0.0
 11
586.1374545053
 21
368.6498363972
 31
0.0
  0
LINE
  5
19D
330
1F
100
AcDbEntity
  8
0
  6
Continuous
 62
     7
100
AcDbLine
 10
547.3387278945
 20
351.9247350725
 30
0.0
 11
555.0845202067
 21
350.4557553056
 31
0.0
  0
LINE
  5
19E
330
1F
100
AcDbEntity
  8
0
  6
Continuous
 62
     7
100
AcDbLine
 10
547.3387278945
 20
351.9247350725
 30
0.0
 11
545.6866040369
 21
480.532228911
 31
0.0
  0
LINE
  5
19F
330
1F
100
AcDbEntity
  8
0
  6
Continuous
 62
     7
100
AcDbLine
 10
545.3328714071
 20
508.0680984479
 30
0.0
 11
544.680924226
 21
558.8181028698
 31
0.0
  0
LINE
  5
1A0
330
1F
100
AcDbEntity
  8
0
  6
Continuous
 62
     7
100
AcDbLine
 10
544.680924226
 20
558.8181028698
 30
0.0
 11
552.4267165382
 21
557.3491231029
 31
0.0
  0
LINE
  5
1A1
330
1F
100
AcDbEntity
  8
0
  6
Continuous
 62
     7
100
AcDbLine
 10
544.680924226
 20
558.8181028698
 30
0.0
 11
575.7338585246
 21
577.0121839614
 31
0.0
  0
LINE
  5
1A2
330
1F
100
AcDbEntity
  8
0
  6
Continuous
 62
     7
100
AcDbLine
 10
575.7338585246
 20
577.0121839614
 30
0.0
 11
583.4796508368
 21
575.5432041945
 31
0.0
  0
LINE
  5
1A3
330
1F
100
AcDbEntity
  8
0
  6
Continuous
 62
     7
100
AcDbLine
 10
495.4559075388
 20
469.1805057163
 30
0.0
 11
495.5646358707
 21
460.7166861246
 31
0.0
  0
LINE
  5
1A4
330
1F
100
AcDbEntity
  8
0
  6
Continuous
 62
     7
100
AcDbLine
 10
495.4559075388
 20
469.1805057163
 30
0.0
 11
526.5088418374
 21
487.374586808
 31
0.0
  0
LINE
  5
1A5
330
1F
100
AcDbEntity
  8
0
  6
Continuous
 62
     7
100
AcDbLine
 10
526.5088418374
 20
487.374586808
 30
0.0
 11
526.6175701693
 21
478.9107672162
 31
0.0
  0
LINE
  5
1A6
330
1F
100
AcDbEntity
  8
0
  6
Continuous
 62
     7
100
AcDbLine
 10
495.5646358707
 20
460.7166861246
 30
0.0
 11
526.6175701693
 21
478.9107672162
 31
0.0
  0
LINE
  5
1A7
330
1F
100
AcDbEntity
  8
0
  6
Continuous
 62
     7
100
AcDbLine
 10
468.667377943
 20
474.2609166511
 30
0.0
 11
495.4559075388
 21
469.1805057163
 31
0.0
  0
LINE
  5
1A8
330
1F
100
AcDbEntity
  8
0
  6
Continuous
 62
     7
100
AcDbLine
 10
526.5088418374
 20
487.374586808
 30
0.0
 11
509.5328341437
 21
490.5940653093
 31
0.0
  0
LINE
  5
1A9
330
1F
100
AcDbEntity
  8
0
  6
Continuous
 62
     7
100
AcDbLine
 10
462.742294221
 20
466.9414019242
 30
0.0
 11
495.5646358707
 21
460.7166861246
 31
0.0
  0
LINE
  5
1AA
330
1F
100
AcDbEntity
  8
0
  6
Continuous
 62
     7
100
AcDbLine
 10
634.3656265242
 20
667.7174879098
 30
0.0
 11
642.1114188364
 21
666.2485081429
 31
0.0
  0
LINE
  5
1AB
330
1F
100
AcDbEntity
  8
0
  6
Continuous
 62
     7
100
AcDbLine
 10
634.3656265242
 20
667.7174879098
 30
0.0
 11
659.8188513591
 21
682.6306691325
 31
0.0
  0
LINE
  5
1AC
330
1F
100
AcDbEntity
  8
0
  6
Continuous
 62
     7
100
AcDbLine
 10
659.8188513591
 20
682.6306691325
 30
0.0
 11
667.5646436713
 21
681.1616893656
 31
0.0
  0
LINE
  5
1AD
330
1F
100
AcDbEntity
  8
0
  6
Continuous
 62
     7
100
AcDbLine
 10
642.1114188364
 20
666.2485081429
 30
0.0
 11
667.5646436713
 21
681.1616893656
 31
0.0
  0
LINE
  5
1AE
330
1F
100
AcDbEntity
  8
0
  6
Continuous
 62
     7
100
AcDbLine
 10
635.6401641925
 20
568.5027138071
 30
0.0
 11
643.3859565047
 21
567.0337340401
 31
0.0
  0
LINE
  5
1AF
330
1F
100
AcDbEntity
  8
0
  6
Continuous
 62
     7
100
AcDbLine
 10
635.6401641925
 20
568.5027138071
 30
0.0
 11
634.3656265242
 21
667.7174879098
 31
0.0
  0
LINE
  5
1B0
330
1F
100
AcDbEntity
  8
0
  6
Continuous
 62
     7
100
AcDbLine
 10
643.3859565047
 20
567.0337340401
 30
0.0
 11
642.1114188364
 21
666.2485081429
 31
0.0
  0
LINE
  5
1B1
330
1F
100
AcDbEntity
  8
0
  6
Continuous
 62
     7
100
AcDbLine
 10
667.5646436713
 20
681.1616893656
 30
0.0
 11
669.2378323014
 21
550.9144349347
 31
0.0
  0
LINE
  5
1B2
330
1F
100
AcDbEntity
  8
0
  6
Continuous
 62
     7
100
AcDbLine
 10
669.4609545984
 20
533.5457616911
 30
0.0
 11
669.7742128935
 21
509.1605655894
 31
0.0
  0
LINE
  5
1B3
330
1F
100
AcDbEntity
  8
0
  6
Continuous
 62
     7
100
AcDbLine
 10
669.9973351905
 20
491.7918923458
 30
0.0
 11
670.2224473398
 21
474.2683215683
 31
0.0
  0
LINE
  5
1B4
330
1F
100
AcDbEntity
  8
0
  6
Continuous
 62
     7
100
AcDbLine
 10
670.2224473398
 20
474.2683215683
 30
0.0
 11
644.7692225049
 21
459.3551403456
 31
0.0
  0
LINE
  5
1B5
330
1F
100
AcDbEntity
  8
0
  6
Continuous
 62
     7
100
AcDbLine
 10
644.7692225049
 20
459.3551403456
 30
0.0
 11
644.2899015442
 21
496.6672747939
 31
0.0
  0
LINE
  5
1B6
330
1F
100
AcDbEntity
  8
0
  6
Continuous
 62
     7
100
AcDbLine
 10
644.0667792472
 20
514.0359480375
 30
0.0
 11
643.7868200415
 21
535.8290186127
 31
0.0
  0
LINE
  5
1B7
330
1F
100
AcDbEntity
  8
0
  6
Continuous
 62
     7
100
AcDbLine
 10
643.5303986551
 20
555.7898173828
 30
0.0
 11
643.4946848366
 21
558.5699144484
 31
0.0
  0
LINE
  5
1B8
330
1F
100
AcDbEntity
  8
0
  6
Continuous
 62
     7
100
AcDbLine
 10
643.4946848366
 20
558.5699144484
 30
0.0
 11
656.2212972541
 21
566.0265050598
 31
0.0
  0
LINE
  5
1B9
330
1F
100
AcDbEntity
  8
0
  6
Continuous
 62
     7
100
AcDbLine
 10
656.2212972541
 20
566.0265050598
 30
0.0
 11
656.1125689222
 21
574.4903246515
 31
0.0
  0
LINE
  5
1BA
330
1F
100
AcDbEntity
  8
0
  6
Continuous
 62
     7
100
AcDbLine
 10
656.1125689222
 20
574.4903246515
 30
0.0
 11
643.3859565047
 21
567.0337340401
 31
0.0
  0
LINE
  5
1BB
330
1F
100
AcDbEntity
  8
0
  6
Continuous
 62
     7
100
AcDbLine
 10
635.7488925244
 20
560.0388942154
 30
0.0
 11
643.4946848366
 21
558.5699144484
 31
0.0
  0
LINE
  5
1BC
330
1F
100
AcDbEntity
  8
0
  6
Continuous
 62
     7
100
AcDbLine
 10
648.4755049418
 20
567.4954848267
 30
0.0
 11
656.2212972541
 21
566.0265050598
 31
0.0
  0
LINE
  5
1BD
330
1F
100
AcDbEntity
  8
0
  6
Continuous
 62
     7
100
AcDbLine
 10
635.7488925244
 20
560.0388942154
 30
0.0
 11
648.4755049418
 21
567.4954848267
 31
0.0
  0
LINE
  5
1BE
330
1F
100
AcDbEntity
  8
0
  6
Continuous
 62
     7
100
AcDbLine
 10
637.0234301927
 20
460.8241201126
 30
0.0
 11
644.7692225049
 21
459.3551403456
 31
0.0
  0
LINE
  5
1BF
330
1F
100
AcDbEntity
  8
0
  6
Continuous
 62
     7
100
AcDbLine
 10
637.0234301927
 20
460.8241201126
 30
0.0
 11
636.544109232
 21
498.1362545609
 31
0.0
  0
LINE
  5
1C0
330
1F
100
AcDbEntity
  8
0
  6
Continuous
 62
     7
100
AcDbLine
 10
636.320986935
 20
515.5049278044
 30
0.0
 11
636.0668277398
 21
535.2896291615
 31
0.0
  0
LINE
  5
1C1
330
1F
100
AcDbEntity
  8
0
  6
Continuous
 62
     7
100
AcDbLine
 10
635.7846063429
 20
557.2587971497
 30
0.0
 11
635.7488925244
 21
560.0388942154
 31
0.0
  0
LINE
  5
1C2
330
1F
100
AcDbEntity
  8
0
  6
Continuous
 62
     7
100
AcDbLine
 10
648.4755049418
 20
567.4954848267
 30
0.0
 11
648.4433711345
 21
569.9969004515
 31
0.0
  0
LINE
  5
1C3
330
1F
100
AcDbEntity
  8
0
  6
Continuous
 62
     7
100
AcDbLine
 10
827.1364629761
 20
517.0932386438
 30
0.0
 11
827.0865503474
 21
520.978624149
 31
0.0
  0
LINE
  5
1C4
330
1F
100
AcDbEntity
  8
0
  6
Continuous
 62
     7
100
AcDbLine
 10
762.035023102
 20
474.3370606273
 30
0.0
 11
810.6529243365
 21
502.8225502452
 31
0.0
  0
LINE
  5
1C5
330
1F
100
AcDbEntity
  8
0
  6
Continuous
 62
     7
100
AcDbLine
 10
762.035023102
 20
474.3370606273
 30
0.0
 11
761.9262947701
 21
482.8008802191
 31
0.0
  0
LINE
  5
1C6
330
1F
100
AcDbEntity
  8
0
  6
Continuous
 62
     7
100
AcDbLine
 10
761.9262947701
 20
482.8008802191
 30
0.0
 11
827.0865503474
 21
520.978624149
 31
0.0
  0
LINE
  5
1C7
330
1F
100
AcDbEntity
  8
0
  6
Continuous
 62
     7
100
AcDbLine
 10
616.1967512754
 20
551.1034325748
 30
0.0
 11
608.4509589631
 21
552.5724123417
 31
0.0
  0
LINE
  5
1C8
330
1F
100
AcDbEntity
  8
0
  6
Continuous
 62
     7
100
AcDbLine
 10
616.1967512754
 20
551.1034325748
 30
0.0
 11
628.9233636928
 21
558.5600231861
 31
0.0
  0
LINE
  5
1C9
330
1F
100
AcDbEntity
  8
0
  6
Continuous
 62
     7
100
AcDbLine
 10
827.0865503474
 20
520.978624149
 30
0.0
 11
628.9233636928
 21
558.5600231861
 31
0.0
  0
LINE
  5
1CA
330
1F
100
AcDbEntity
  8
0
  6
Continuous
 62
     7
100
AcDbLine
 10
761.9262947701
 20
482.8008802191
 30
0.0
 11
584.2381446179
 21
516.4992143434
 31
0.0
  0
LINE
  5
1CB
330
1F
100
AcDbEntity
  8
0
  6
Continuous
 62
     7
100
AcDbLine
 10
545.1292832572
 20
523.916160697
 30
0.0
 11
428.520012137
 21
546.0309622572
 31
0.0
  0
LINE
  5
1CC
330
1F
100
AcDbEntity
  8
0
  6
Continuous
 62
     7
100
AcDbLine
 10
389.4111507763
 20
553.4479086108
 30
0.0
 11
357.8541291487
 21
559.4326580601
 31
0.0
  0
LINE
  5
1CD
330
1F
100
AcDbEntity
  8
0
  6
Continuous
 62
     7
100
AcDbLine
 10
357.8541291487
 20
559.4326580601
 30
0.0
 11
389.0990981198
 21
577.7392532985
 31
0.0
  0
LINE
  5
1CE
330
1F
100
AcDbEntity
  8
0
  6
Continuous
 62
     7
100
AcDbLine
 10
621.1775713806
 20
560.029002953
 30
0.0
 11
583.5873700607
 21
567.1579373406
 31
0.0
  0
LINE
  5
1CF
330
1F
100
AcDbEntity
  8
0
  6
Continuous
 62
     7
100
AcDbLine
 10
564.9482307203
 20
570.6928266663
 30
0.0
 11
427.8692375798
 21
596.6896852543
 31
0.0
  0
LINE
  5
1D0
330
1F
100
AcDbEntity
  8
0
  6
Continuous
 62
     7
100
AcDbLine
 10
608.4509589631
 20
552.5724123417
 30
0.0
 11
621.1775713806
 21
560.029002953
 31
0.0
  0
LINE
  5
1D1
330
1F
100
AcDbEntity
  8
0
  6
Continuous
 62
     7
100
AcDbLine
 10
665.2351317759
 20
542.7903830732
 30
0.0
 11
763.9939837568
 21
524.060891045
 31
0.0
  0
LWPOLYLINE
  5
1D2
330
1F
100
AcDbEntity
  8
0
  6
Continuous
 62
     7
100
AcDbPolyline
 90
       23
 70
   128
 43
0.0
 10
665.2351317759
 20
542.7903830732
 10
662.8840824478
 20
543.1985345021
 10
660.4477356788
 20
543.54761047
 10
657.9385065333
 20
543.8358321659
 10
655.369181468
 20
544.0617308779
 10
652.7528531745
 20
544.2241554782
 10
650.102853862
 20
544.3222782881
 10
647.4326873197
 20
544.3555992963
 10
644.7559601041
 20
544.3239487066
 10
642.0863122035
 20
544.2274878031
 10
639.4373475318
 20
544.0667081285
 10
636.8225646057
 20
543.8424289792
 10
634.2552877597
 20
543.5557932302
 10
631.748599248
 20
543.2082615117
 10
629.3152725807
 20
542.8016047656
 10
626.9677074329
 20
542.3378952216
 10
624.7178664583
 20
541.819495837
 10
622.5772143308
 20
541.2490482565
 10
620.5566593231
 20
540.62945935
 10
618.6664977202
 20
539.9638864007
 10
616.9163613525
 20
539.2557210157
 10
615.3151685136
 20
538.5085718436
 10
613.8710785154
 20
537.7262461851
  0
LINE
  5
1D3
330
1F
100
AcDbEntity
  8
0
  6
Continuous
 62
     7
100
AcDbLine
 10
613.8710785154
 20
537.7262461851
 30
0.0
 11
609.7985625418
 21
535.3401371895
 31
0.0
  0
LWPOLYLINE
  5
1D4
330
1F
100
AcDbEntity
  8
0
  6
Continuous
 62
     7
100
AcDbPolyline
 90
       23
 70
   128
 43
0.0
 10
609.7985625418
 20
535.3401371895
 10
608.5189341358
 20
534.5266215969
 10
607.410288015
 20
533.6860615594
 10
606.478273586
 20
532.822740378
 10
605.7276401806
 20
531.9410573397
 10
605.1622128546
 20
531.0455052991
 10
604.7848728961
 20
530.1406477842
 10
604.597543143
 20
529.2310957414
 10
604.6011781847
 20
528.3214840394
 10
604.795759498
 20
527.416447851
 10
605.1802955411
 20
526.5205990332
 10
605.7528268064
 20
525.6385026262
 10
606.5104358059
 20
524.774653591
 10
607.4492619377
 20
523.9334539043
 10
608.5645211591
 20
523.119190127
 10
609.8505303646
 20
522.3360115606
 10
611.3007363463
 20
521.5879091035
 10
612.9077491868
 20
520.8786949144
 10
614.6633799171
 20
520.2119829863
 10
616.5586822453
 20
519.5911707302
 10
618.5839981453
 20
519.0194216632
 10
620.7290070715
 20
518.4996492873
 10
622.98277855
 20
518.0345022436
  0
LINE
  5
1D5
330
1F
100
AcDbEntity
  8
0
  6
Continuous
 62
     7
100
AcDbLine
 10
622.98277855
 20
518.0345022436
 30
0.0
 11
721.7416305309
 21
499.3050102154
 31
0.0
  0
LWPOLYLINE
  5
1D6
330
1F
100
AcDbEntity
  8
0
  6
Continuous
 62
     7
100
AcDbPolyline
 90
       23
 70
   128
 43
0.0
 10
721.7416305309
 20
499.3050102154
 10
724.0926798589
 20
498.8968587865
 10
726.529026628
 20
498.5477828186
 10
729.0382557735
 20
498.2595611227
 10
731.6075808388
 20
498.0336624107
 10
734.2239091323
 20
497.8712378104
 10
736.8739084447
 20
497.7731150005
 10
739.5440749871
 20
497.7397939923
 10
742.2208022027
 20
497.771444582
 10
744.8904501032
 20
497.8679054855
 10
747.5394147749
 20
498.0286851601
 10
750.154197701
 20
498.2529643094
 10
752.7214745471
 20
498.5396000584
 10
755.2281630588
 20
498.8871317769
 10
757.661489726
 20
499.293788523
 10
760.0090548739
 20
499.757498067
 10
762.2588958485
 20
500.2758974516
 10
764.399547976
 20
500.8463450321
 10
766.4201029837
 20
501.4659339386
 10
768.3102645866
 20
502.1315068879
 10
770.0604009543
 20
502.8396722729
 10
771.6615937931
 20
503.5868214451
 10
773.1056837914
 20
504.3691471035
  0
LINE
  5
1D7
330
1F
100
AcDbEntity
  8
0
  6
Continuous
 62
     7
100
AcDbLine
 10
777.1781997649
 20
506.7552560992
 30
0.0
 11
773.1056837914
 21
504.3691471035
 31
0.0
  0
LWPOLYLINE
  5
1D8
330
1F
100
AcDbEntity
  8
0
  6
Continuous
 62
     7
100
AcDbPolyline
 90
       23
 70
   128
 43
0.0
 10
763.9939837568
 20
524.060891045
 10
766.2477552353
 20
523.5957440013
 10
768.3927641615
 20
523.0759716255
 10
770.4180800615
 20
522.5042225584
 10
772.3133823897
 20
521.8834103023
 10
774.0690131199
 20
521.2166983742
 10
775.6760259604
 20
520.5074841851
 10
777.1262319421
 20
519.759381728
 10
778.4122411477
 20
518.9762031616
 10
779.5275003691
 20
518.1619393843
 10
780.4663265009
 20
517.3207396976
 10
781.2239355003
 20
516.4568906625
 10
781.7964667656
 20
515.5747942554
 10
782.1810028087
 20
514.6789454376
 10
782.375584122
 20
513.7739092492
 10
782.3792191638
 20
512.8642975473
 10
782.1918894107
 20
511.9547455045
 10
781.8145494522
 20
511.0498879895
 10
781.2491221262
 20
510.1543359489
 10
780.4984887208
 20
509.2726529106
 10
779.5664742918
 20
508.4093317293
 10
778.457828171
 20
507.5687716917
 10
777.1781997649
 20
506.7552560992
  0
LINE
  5
1D9
330
1F
100
AcDbEntity
  8
0
  6
Continuous
 62
     7
100
AcDbLine
 10
553.4942795446
 20
563.9818951161
 30
0.0
 11
463.1990489652
 21
581.1062719938
 31
0.0
  0
ARC
  5
1DA
330
1F
100
AcDbEntity
  8
0
  6
Continuous
 62
     7
100
AcDbCircle
 10
445.1972661232
 20
479.6283485157
 30
0.0
 40
103.062277962956
100
AcDbArc
 50
79.9406047004
 51
99.5674183318
  0
LINE
  5
1DB
330
1F
100
AcDbEntity
  8
0
  6
Continuous
 62
     7
100
AcDbLine
 10
519.7055477202
 20
537.6208991359
 30
0.0
 11
428.4056181719
 21
554.935815909
 31
0.0
  0
ARC
  5
1DC
330
1F
100
AcDbEntity
  8
0
  6
Continuous
 62
     7
100
AcDbCircle
 10
537.5849373371
 20
637.8525445919
 30
0.0
 40
101.8138267814962
100
AcDbArc
 50
259.885919747
 51
274.1596617161
  0
LINE
  5
1DD
330
1F
100
AcDbEntity
  8
0
  6
Continuous
 62
     7
100
AcDbLine
 10
762.035023102
 20
474.3370606273
 30
0.0
 11
584.3468729498
 21
508.0353947517
 31
0.0
  0
LINE
  5
1DE
330
1F
100
AcDbEntity
  8
0
  6
Continuous
 62
     7
100
AcDbLine
 10
545.2380115891
 20
515.4523411053
 30
0.0
 11
428.6287404689
 21
537.5671426655
 31
0.0
  0
LINE
  5
1DF
330
1F
100
AcDbEntity
  8
0
  6
Continuous
 62
     7
100
AcDbLine
 10
389.5198791082
 20
544.9840890191
 30
0.0
 11
357.9628574806
 21
550.9688384684
 31
0.0
  0
LINE
  5
1E0
330
1F
100
AcDbEntity
  8
0
  6
Continuous
 62
     7
100
AcDbLine
 10
357.9628574806
 20
550.9688384684
 30
0.0
 11
357.8541291487
 21
559.4326580601
 31
0.0
  0
LWPOLYLINE
  5
1E1
330
1F
100
AcDbEntity
  8
0
  6
Continuous
 62
     7
100
AcDbPolyline
 90
       11
 70
   128
 43
0.0
 10
764.1027120887
 20
515.5970714533
 10
766.3564835672
 20
515.1319244096
 10
768.5014924934
 20
514.6121520338
 10
770.5268083933
 20
514.0404029667
 10
772.4221107216
 20
513.4195907106
 10
774.1777414518
 20
512.7528787825
 10
775.7847542923
 20
512.0436645934
 10
777.234960274
 20
511.2955621363
 10
778.5209694796
 20
510.5123835699
 10
779.636228701
 20
509.6981197926
 10
780.3265233739
 20
509.0984426666
  0
ARC
  5
1E2
330
1F
100
AcDbEntity
  8
0
  6
Continuous
 62
     7
100
AcDbCircle
 10
617.6590066674
 20
513.1744029884
 30
0.0
 40
15.74266691858008
100
AcDbArc
 50
119.4985602859
 51
133.8194672475
  0
LINE
  5
1E3
330
1F
100
AcDbEntity
  8
0
  6
Continuous
 62
     7
100
AcDbLine
 10
665.3438601078
 20
534.3265634815
 30
0.0
 11
764.1027120887
 21
515.5970714533
 31
0.0
  0
LWPOLYLINE
  5
1E4
330
1F
100
AcDbEntity
  8
0
  6
Continuous
 62
     7
100
AcDbPolyline
 90
       23
 70
   128
 43
0.0
 10
665.3438601078
 20
534.3265634815
 10
662.9928107797
 20
534.7347149104
 10
660.5564640106
 20
535.0837908783
 10
658.0472348652
 20
535.3720125742
 10
655.4779097999
 20
535.5979112862
 10
652.8615815064
 20
535.7603358865
 10
650.2115821939
 20
535.8584586964
 10
647.5414156516
 20
535.8917797046
 10
644.864688436
 20
535.8601291149
 10
642.1950405354
 20
535.7636682114
 10
639.5460758637
 20
535.6028885368
 10
636.9312929376
 20
535.3786093875
 10
634.3640160916
 20
535.0919736385
 10
631.8573275799
 20
534.74444192
 10
629.4240009126
 20
534.3377851739
 10
627.0764357648
 20
533.8740756299
 10
624.8265947902
 20
533.3556762453
 10
622.6859426627
 20
532.7852286648
 10
620.6653876549
 20
532.1656397583
 10
618.7752260521
 20
531.500066809
 10
617.0250896844
 20
530.791901424
 10
615.4238968455
 20
530.0447522518
 10
613.9798068473
 20
529.2624265934
  0
LINE
  5
1E5
330
1F
100
AcDbEntity
  8
0
  6
Continuous
 62
     7
100
AcDbLine
 10
613.9798068473
 20
529.2624265934
 30
0.0
 11
609.9072908737
 21
526.8763175978
 31
0.0
  0
LINE
  5
1E6
330
1F
100
AcDbEntity
  8
0
  6
Continuous
 62
     7
100
AcDbLine
 10
621.2541659051
 20
554.0665989861
 30
0.0
 11
621.1775713806
 21
560.029002953
 31
0.0
  0
LINE
  5
1E7
330
1F
100
AcDbEntity
  8
0
  6
Continuous
 62
     7
100
AcDbLine
 10
544.701630997
 20
557.2062104506
 30
0.0
 11
463.3077772971
 21
572.6424524021
 31
0.0
  0
ARC
  5
1E8
330
1F
100
AcDbEntity
  8
0
  6
Continuous
 62
     7
100
AcDbCircle
 10
445.3059944551
 20
471.164528924
 30
0.0
 40
103.0622779629452
100
AcDbArc
 50
79.9406047004
 51
99.5674183318
  0
LINE
  5
1E9
330
1F
100
AcDbEntity
  8
0
  6
Continuous
 62
     7
100
AcDbLine
 10
382.6567810085
 20
328.9768320594
 30
0.0
 11
387.2383614788
 21
331.6612046794
 31
0.0
  0
LINE
  5
1EA
330
1F
100
AcDbEntity
  8
0
  6
Continuous
 62
     7
100
AcDbLine
 10
382.6567810085
 20
328.9768320594
 30
0.0
 11
379.9989773401
 21
535.8701998566
 31
0.0
  0
LINE
  5
1EB
330
1F
100
AcDbEntity
  8
0
  6
Continuous
 62
     7
100
AcDbLine
 10
379.9989773401
 20
535.8701998566
 30
0.0
 11
384.5805578103
 21
538.5545724767
 31
0.0
  0
LINE
  5
1EC
330
1F
100
AcDbEntity
  8
0
  6
Continuous
 62
     7
100
AcDbLine
 10
387.2383614788
 20
331.6612046794
 30
0.0
 11
384.5805578103
 21
538.5545724767
 31
0.0
  0
LINE
  5
1ED
330
1F
100
AcDbEntity
  8
0
  6
Continuous
 62
     7
100
AcDbLine
 10
379.9989773401
 20
535.8701998566
 30
0.0
 11
203.9973631344
 21
569.2486845606
 31
0.0
  0
LINE
  5
1EE
330
1F
100
AcDbEntity
  8
0
  6
Continuous
 62
     7
100
AcDbLine
 10
203.9973631344
 20
569.2486845606
 30
0.0
 11
208.5789436047
 21
571.9330571807
 31
0.0
  0
LINE
  5
1EF
330
1F
100
AcDbEntity
  8
0
  6
Continuous
 62
     7
100
AcDbLine
 10
384.5805578103
 20
538.5545724767
 30
0.0
 11
208.5789436047
 21
571.9330571807
 31
0.0
  0
LINE
  5
1F0
330
1F
100
AcDbEntity
  8
0
  6
Continuous
 62
     7
100
AcDbLine
 10
206.6551668029
 20
362.3553167633
 30
0.0
 11
382.6567810085
 21
328.9768320594
 31
0.0
  0
LINE
  5
1F1
330
1F
100
AcDbEntity
  8
0
  6
Continuous
 62
     7
100
AcDbLine
 10
203.9973631344
 20
569.2486845606
 30
0.0
 11
206.6551668029
 21
362.3553167633
 31
0.0
  0
LWPOLYLINE
  5
1F2
330
1F
100
AcDbEntity
  8
0
  6
Continuous
 62
     7
100
AcDbPolyline
 90
      150
 70
   128
 43
0.0
 10
378.1004657109
 20
433.0355908609
 10
377.9749386519
 20
436.9549187808
 10
377.6989107752
 20
440.8958628956
 10
377.2728728482
 20
444.8514163507
 10
376.6975823509
 20
448.8145463163
 10
375.9740621288
 20
452.7782064919
 10
375.1035985744
 20
456.7353496344
 10
374.0877393401
 20
460.6789400877
 10
372.9282905867
 20
464.6019662919
 10
371.6273137715
 20
468.4974532496
 10
370.1871219841
 20
472.358474927
 10
368.6102758328
 20
476.1781665686
 10
366.8995788925
 20
479.949736902
 10
365.0580727199
 20
483.6664802128
 10
363.0890314459
 20
487.3217882671
 10
360.995955954
 20
490.9091620604
 10
358.7825676559
 20
494.4222233732
 10
356.4528018754
 20
497.8547261105
 10
354.0108008509
 20
501.2005674079
 10
351.4609063711
 20
504.4537984815
 10
348.8076520555
 20
507.6086352052
 10
346.0557552933
 20
510.6594683945
 10
343.2101088566
 20
513.6008737793
 10
340.2757722008
 20
516.4276216482
 10
337.2579624695
 20
519.1346861466
 10
334.1620452183
 20
521.7172542126
 10
330.993524875
 20
524.1707341344
 10
327.7580349531
 20
526.4907637143
 10
324.4613280358
 20
528.6732180244
 10
321.1092655475
 20
530.7142167404
 10
317.7078073331
 20
532.6101310413
 10
314.2630010611
 20
534.3575900606
 10
310.7809714714
 20
535.9534868798
 10
307.2679094855
 20
537.3949840527
 10
303.7300611995
 20
538.6795186499
 10
300.1737167783
 20
539.8048068158
 10
296.6051992728
 20
540.768847829
 10
293.0308533767
 20
541.5699276599
 10
289.4570341467
 20
542.2066220178
 10
285.8900957028
 20
542.6777988832
 10
282.3363799316
 20
542.982620521
 10
278.8022052098
 20
543.1205449694
 10
275.2938551713
 20
543.0913270037
 10
271.8175675344
 20
542.8950185724
 10
268.3795230116
 20
542.5319687048
 10
264.9858343206
 20
542.0028228903
 10
261.6425353161
 20
541.3085219307
 10
258.3555702616
 20
540.450300268
 10
255.1307832612
 20
539.4296837888
 10
251.9739078683
 20
538.248487112
 10
248.8905568923
 20
536.9088103623
 10
245.8862124187
 20
535.413035436
 10
242.9662160623
 20
533.7638217663
 10
240.1357594701
 20
531.9641015949
 10
237.3998750905
 20
530.0170747587
 10
234.7634272262
 20
527.9262030003
 10
232.2311033853
 20
525.6952038133
 10
229.8074059472
 20
523.328043833
 10
227.4966441574
 20
520.8289317834
 10
225.302926466
 20
518.2023109944
 10
223.2301532232
 20
515.4528515021
 10
221.282009744
 20
512.585441745
 10
219.4619597565
 20
509.6051798731
 10
217.7732392431
 20
506.5173646832
 10
216.2188506873
 20
503.327486198
 10
214.8015577353
 20
500.0412159051
 10
213.523880282
 20
496.6643966732
 10
212.3880899916
 20
493.2030323635
 10
211.3962062575
 20
489.6632771555
 10
210.549992613
 20
486.0514246049
 10
209.8509535949
 20
482.3738964535
 10
209.3003320693
 20
478.6372312124
 10
208.8991070209
 20
474.8480725359
 10
208.6479918134
 20
471.0131574098
 10
208.5474329204
 20
467.1393041734
 10
208.5976091319
 20
463.2334003962
 10
208.7984312365
 20
459.3023906327
 10
209.1495421798
 20
455.3532640748
 10
209.6503176994
 20
451.3930421254
 10
210.2998674346
 20
447.4287659146
 10
211.0970365098
 20
443.4674837808
 10
212.0404075873
 20
439.5162387391
 10
213.128303388
 20
435.582055959
 10
214.3587896726
 20
431.6719302739
 10
215.7296786816
 20
427.7928137446
 10
217.2385330242
 20
423.9516032987
 10
218.8826700126
 20
420.1551284682
 10
220.6591664311
 20
416.4101392468
 10
222.564863734
 20
412.7232940886
 10
224.596373661
 20
409.1011480699
 10
226.7500842616
 20
405.5501412341
 10
229.0221663169
 20
402.0765871417
 10
231.4085801479
 20
398.6866616451
 10
233.905082798
 20
395.3863919082
 10
236.5072355766
 20
392.1816456902
 10
239.2104119509
 20
389.0781209128
 10
242.009805772
 20
386.0813355298
 10
244.9004398199
 20
383.1966177163
 10
247.8771746527
 20
380.4290963954
 10
250.9347177445
 20
377.7836921188
 10
254.0676328952
 20
375.2651083189
 10
257.2703498962
 20
372.8778229458
 10
260.5371744333
 20
370.6260805057
 10
263.8622982118
 20
368.5138845145
 10
267.239809283
 20
366.5449903797
 10
270.6637025555
 20
364.7228987231
 10
274.1278904718
 20
363.0508491571
 10
277.6262138325
 20
361.531814525
 10
281.1524527461
 20
360.1684956149
 10
284.7003376886
 20
358.963316358
 10
288.2635606499
 20
357.918419519
 10
291.8357863499
 20
357.0356628865
 10
295.4106635014
 20
356.3166159695
 10
298.9818361034
 20
355.7625572071
 10
302.5429547413
 20
355.3744716957
 10
306.0876878761
 20
355.153049437
 10
309.6097331017
 20
355.0986841119
 10
313.1028283502
 20
355.2114723799
 10
316.5607630257
 20
355.4912137075
 10
319.9773890465
 20
355.9374107248
 10
323.3466317763
 20
356.5492701099
 10
326.6625008245
 20
357.3257039991
 10
329.9191006969
 20
358.2653319213
 10
333.1106412777
 20
359.3664832524
 10
336.2314481243
 20
360.6272001853
 10
339.2759725559
 20
362.0452412115
 10
342.2388015194
 20
363.6180851058
 10
345.1146672128
 20
365.342935409
 10
347.8984564519
 20
367.2167254004
 10
350.5852197611
 20
369.2361235496
 10
353.1701801732
 20
371.3975394405
 10
355.6487417229
 20
373.6971301545
 10
358.0164976183
 20
376.1308071032
 10
360.2692380759
 20
378.6942432978
 10
362.4029578051
 20
381.3828810423
 10
364.4138631304
 20
384.191940037
 10
366.2983787352
 20
387.1164258774
 10
368.0531540198
 20
390.1511389344
 10
369.6750690577
 20
393.2906835989
 10
371.1612401431
 20
396.5294778752
 10
372.509024918
 20
399.8617633052
 10
373.7160270704
 20
403.281615207
 10
374.7801005945
 20
406.7829532087
 10
375.6993536062
 20
410.3595520591
 10
376.4721517075
 20
414.0050526961
 10
377.0971208913
 20
417.7129735524
 10
377.5731499854
 20
421.4767220801
 10
377.8993926273
 20
425.2896064718
 10
378.0752687696
 20
429.144847558
 10
378.1004657109
 20
433.0355908609
  0
LWPOLYLINE
  5
1F3
330
1F
100
AcDbEntity
  8
0
  6
Continuous
 62
     7
100
AcDbPolyline
 90
       76
 70
   128
 43
0.0
 10
244.1712460508
 20
534.4688613013
 10
241.4084207118
 20
532.7097606561
 10
238.6725363322
 20
530.7627338198
 10
236.036088468
 20
528.6718620614
 10
233.5037646271
 20
526.4408628745
 10
231.0800671889
 20
524.0737028941
 10
228.7693053991
 20
521.5745908445
 10
226.5755877078
 20
518.9479700556
 10
224.5028144649
 20
516.1985105632
 10
222.5546709857
 20
513.3311008061
 10
220.7346209982
 20
510.3508389342
 10
219.0459004849
 20
507.2630237443
 10
217.4915119291
 20
504.0731452592
 10
216.074218977
 20
500.7868749663
 10
214.7965415238
 20
497.4100557343
 10
213.6607512333
 20
493.9486914246
 10
212.6688674993
 20
490.4089362167
 10
211.8226538547
 20
486.797083666
 10
211.1236148367
 20
483.1195555147
 10
210.572993311
 20
479.3828902735
 10
210.1717682627
 20
475.593731597
 10
209.9206530551
 20
471.7588164709
 10
209.8200941621
 20
467.8849632345
 10
209.8702703737
 20
463.9790594573
 10
210.0710924783
 20
460.0480496939
 10
210.4222034216
 20
456.098923136
 10
210.9229789411
 20
452.1387011866
 10
211.5725286764
 20
448.1744249757
 10
212.3696977515
 20
444.2131428419
 10
213.3130688291
 20
440.2618978002
 10
214.4009646297
 20
436.3277150201
 10
215.6314509143
 20
432.417589335
 10
217.0023399233
 20
428.5384728057
 10
218.5111942659
 20
424.6972623598
 10
220.1553312543
 20
420.9007875293
 10
221.9318276728
 20
417.1557983079
 10
223.8375249757
 20
413.4689531498
 10
225.8690349027
 20
409.8468071311
 10
228.0227455033
 20
406.2958002952
 10
230.2948275586
 20
402.8222462028
 10
232.6812413897
 20
399.4323207063
 10
235.1777440398
 20
396.1320509694
 10
237.7798968183
 20
392.9273047513
 10
240.4830731926
 20
389.8237799739
 10
243.2824670137
 20
386.8269945909
 10
246.1731010616
 20
383.9422767775
 10
249.1498358944
 20
381.1747554565
 10
252.2073789862
 20
378.5293511799
 10
255.340294137
 20
376.01076738
 10
258.5430111379
 20
373.6234820069
 10
261.809835675
 20
371.3717395668
 10
265.1349594536
 20
369.2595435757
 10
268.5124705248
 20
367.2906494408
 10
271.9363637972
 20
365.4685577842
 10
275.4005517136
 20
363.7965082183
 10
278.8988750742
 20
362.2774735862
 10
282.4251139878
 20
360.914154676
 10
285.9729989303
 20
359.7089754191
 10
289.5362218917
 20
358.6640785802
 10
293.1084475916
 20
357.7813219476
 10
296.6833247431
 20
357.0622750306
 10
300.2544973451
 20
356.5082162682
 10
303.815615983
 20
356.1201307568
 10
307.3603491178
 20
355.8987084982
 10
310.8823943434
 20
355.8443431731
 10
314.3754895919
 20
355.957131441
 10
317.8334242674
 20
356.2368727686
 10
321.2500502883
 20
356.6830697859
 10
324.6192930181
 20
357.2949291711
 10
327.9351620663
 20
358.0713630603
 10
331.1917619386
 20
359.0109909825
 10
334.3833025194
 20
360.1121423135
 10
337.504109366
 20
361.3728592465
 10
340.5486337977
 20
362.7909002727
 10
343.5114627611
 20
364.3637441669
 10
343.7555593343
 20
364.50231438
  0
LWPOLYLINE
  5
1F4
330
1F
100
AcDbEntity
  8
0
  6
Continuous
 62
     7
100
AcDbPolyline
 90
      141
 70
   128
 43
0.0
 10
370.336369255
 20
435.4950596501
 10
370.212410738
 20
439.2224169343
 10
369.9361783513
 20
442.9711937079
 10
369.5082283903
 20
446.7338404334
 10
368.9294226893
 20
450.5027796411
 10
368.2009268858
 20
454.2704211889
 10
367.3242080735
 20
458.0291775481
 10
366.3010318474
 20
461.7714790838
 10
365.1334587483
 20
465.4897892986
 10
363.8238401129
 20
469.1766200105
 10
362.374813339
 20
472.8245464333
 10
360.7892965736
 20
476.4262221286
 10
359.0704828365
 20
479.9743938007
 10
357.2218335898
 20
483.4619159043
 10
355.247071767
 20
486.8817650339
 10
353.1501742757
 20
490.2270540684
 10
350.9353639883
 20
493.491046041
 10
348.6071012381
 20
496.6671677062
 10
346.1700748362
 20
499.7490227776
 10
343.6291926297
 20
502.7304048093
 10
340.9895716171
 20
505.6053096947
 10
338.2565276438
 20
508.3679477579
 10
335.4355646967
 20
511.0127554134
 10
332.5323638198
 20
513.5344063708
 10
329.5527716731
 20
515.9278223604
 10
326.5027887589
 20
518.1881833612
 10
323.3885573367
 20
520.3109373067
 10
320.2163490543
 20
522.291809253
 10
316.9925523168
 20
524.1268099878
 10
313.723659422
 20
525.8122440636
 10
310.4162534851
 20
527.3447172406
 10
307.0769951814
 20
528.7211433218
 10
303.7126093329
 20
529.9387503681
 10
300.3298713648
 20
530.9950862811
 10
296.9355936612
 20
531.8880237408
 10
293.5366118458
 20
532.61576449
 10
290.1397710155
 20
533.1768429557
 10
286.7519119558
 20
533.5701292004
 10
283.3798573638
 20
533.7948311981
 10
280.0303981089
 20
533.8504964289
 10
276.7102795561
 20
533.7370127903
 10
273.4261879824
 20
533.4546088233
 10
270.1847371112
 20
533.0038532519
 10
266.9924547931
 20
532.3856538379
 10
263.8557698599
 20
531.6012555526
 10
260.7809991777
 20
530.6522380697
 10
257.7743349252
 20
529.5405125842
 10
254.8418321244
 20
528.2683179632
 10
251.9893964454
 20
526.8382162375
 10
249.2227723142
 20
525.2530874415
 10
246.5475313435
 20
523.5161238137
 10
243.9690611127
 20
521.6308233677
 10
241.4925543176
 20
519.6009828477
 10
239.1229983134
 20
517.4306900823
 10
236.8651650705
 20
515.1243157524
 10
234.7236015646
 20
512.6865045889
 10
232.7026206196
 20
510.122166019
 10
230.806292222
 20
507.4364642795
 10
229.0384353251
 20
504.6348080161
 10
227.4026101572
 20
501.7228393917
 10
225.9021110526
 20
498.7064227237
 10
224.5399598167
 20
495.5916326737
 10
223.3188996409
 20
492.3847420143
 10
222.241389578
 20
489.0922089967
 10
221.3095995896
 20
485.720664344
 10
220.5254061769
 20
482.2768978986
 10
219.8903886011
 20
478.7678449478
 10
219.405825703
 20
475.2005722571
 10
219.0726933279
 20
471.5822638391
 10
218.8916623599
 20
467.9202064854
 10
218.8630973714
 20
464.2217750921
 10
218.9870558884
 20
460.4944178079
 10
219.2632882751
 20
456.7456410343
 10
219.6912382361
 20
452.9829943087
 10
220.2700439371
 20
449.2140551011
 10
220.9985397406
 20
445.4464135533
 10
221.8752585529
 20
441.6876571941
 10
222.898434779
 20
437.9453556584
 10
224.0660078781
 20
434.2270454436
 10
225.3756265135
 20
430.5402147317
 10
226.8246532874
 20
426.8922883089
 10
228.4101700528
 20
423.2906126136
 10
230.1289837899
 20
419.7424409414
 10
231.9776330366
 20
416.2549188379
 10
233.9523948594
 20
412.8350697083
 10
236.0492923507
 20
409.4897806738
 10
238.2641026381
 20
406.2257887012
 10
240.5923653883
 20
403.049667036
 10
243.0293917902
 20
399.9678119646
 10
245.5702739967
 20
396.9864299329
 10
248.2098950093
 20
394.1115250475
 10
250.9429389826
 20
391.3488869843
 10
253.7639019297
 20
388.7040793287
 10
256.6671028066
 20
386.1824283714
 10
259.6466949533
 20
383.7890123817
 10
262.6966778675
 20
381.528651381
 10
265.8109092897
 20
379.4058974355
 10
268.9831175721
 20
377.4250254892
 10
272.2069143096
 20
375.5900247544
 10
275.4758072044
 20
373.9045906786
 10
278.7832131413
 20
372.3721175016
 10
282.122471445
 20
370.9956914204
 10
285.4868572935
 20
369.7780843741
 10
288.8695952616
 20
368.7217484611
 10
292.2638729652
 20
367.8288110014
 10
295.6628547806
 20
367.1010702522
 10
299.0596956109
 20
366.5399917865
 10
302.4475546706
 20
366.1467055418
 10
305.8196092626
 20
365.9220035441
 10
309.1690685175
 20
365.8663383133
 10
312.4891870703
 20
365.9798219519
 10
315.773278644
 20
366.2622259189
 10
319.0147295152
 20
366.7129814903
 10
322.2070118333
 20
367.3311809043
 10
325.3436967665
 20
368.1155791896
 10
328.4184674487
 20
369.0645966725
 10
331.4251317012
 20
370.176322158
 10
334.357634502
 20
371.4485167789
 10
337.210070181
 20
372.8786185047
 10
339.9766943122
 20
374.4637473007
 10
342.6519352829
 20
376.2007109285
 10
345.2304055137
 20
378.0860113745
 10
347.7069123088
 20
380.1158518945
 10
350.076468313
 20
382.2861446599
 10
352.3343015559
 20
384.5925189898
 10
354.4758650618
 20
387.0303301533
 10
356.4968460068
 20
389.5946687232
 10
358.3931744044
 20
392.2803704627
 10
360.1610313013
 20
395.0820267261
 10
361.7968564692
 20
397.9939953505
 10
363.2973555738
 20
401.0104120185
 10
364.6595068097
 20
404.1252020685
 10
365.8805669854
 20
407.3320927279
 10
366.9580770484
 20
410.6246257455
 10
367.8898670368
 20
413.9961703982
 10
368.6740604495
 20
417.4399368436
 10
369.3090780253
 20
420.9489897944
 10
369.7936409234
 20
424.5162624851
 10
370.1267732985
 20
428.1345709031
 10
370.3078042665
 20
431.7966282568
 10
370.336369255
 20
435.4950596501
  0
LWPOLYLINE
  5
1F5
330
1F
100
AcDbEntity
  8
0
  6
Continuous
 62
     7
100
AcDbPolyline
 90
       20
 70
   128
 43
0.0
 10
264.266737618
 20
536.4328698939
 10
264.1833223402
 20
536.9512982631
 10
263.9550606581
 20
537.442731112
 10
263.6066882667
 20
537.853914066
 10
263.1759567204
 20
538.1402890719
 10
262.7095424654
 20
538.2708229543
 10
262.2579887237
 20
538.2313703416
 10
261.8702283496
 20
538.0262065365
 10
261.5882811964
 20
537.6775642208
 10
261.4427006131
 20
537.223224199
 10
261.4492625147
 20
536.7124212625
 10
261.6072558174
 20
536.2005088352
 10
261.8995594953
 20
535.7429605718
 10
262.2944979093
 20
535.3893589263
 10
262.7492733543
 20
535.1780221235
 10
263.2146038541
 20
535.1318517855
 10
263.6400636288
 20
535.2558511845
 10
263.9795475101
 20
535.5365830619
 10
264.1962671518
 20
535.9436257625
 10
264.266737618
 20
536.4328698939
  0
LWPOLYLINE
  5
1F6
330
1F
100
AcDbEntity
  8
0
  6
Continuous
 62
     7
100
AcDbPolyline
 90
       20
 70
   128
 43
0.0
 10
325.6912666671
 20
524.7837852388
 10
325.6078513893
 20
525.302213608
 10
325.3795897072
 20
525.7936464569
 10
325.0312173159
 20
526.2048294109
 10
324.6004857695
 20
526.4912044168
 10
324.1340715146
 20
526.6217382992
 10
323.6825177729
 20
526.5822856865
 10
323.2947573988
 20
526.3771218814
 10
323.0128102456
 20
526.0284795657
 10
322.8672296623
 20
525.5741395439
 10
322.8737915638
 20
525.0633366074
 10
323.0317848665
 20
524.5514241801
 10
323.3240885444
 20
524.0938759167
 10
323.7190269585
 20
523.7402742712
 10
324.1738024034
 20
523.5289374684
 10
324.6391329033
 20
523.4827671304
 10
325.064592678
 20
523.6067665295
 10
325.4040765592
 20
523.8874984068
 10
325.6207962009
 20
524.2945411074
 10
325.6912666671
 20
524.7837852388
  0
LWPOLYLINE
  5
1F7
330
1F
100
AcDbEntity
  8
0
  6
Continuous
 62
     7
100
AcDbPolyline
 90
       20
 70
   128
 43
0.0
 10
369.7346501682
 20
469.0866763748
 10
369.6512348904
 20
469.6051047439
 10
369.4229732082
 20
470.0965375928
 10
369.0746008169
 20
470.5077205468
 10
368.6438692705
 20
470.7940955528
 10
368.1774550156
 20
470.9246294352
 10
367.7259012739
 20
470.8851768225
 10
367.3381408998
 20
470.6800130174
 10
367.0561937466
 20
470.3313707016
 10
366.9106131633
 20
469.8770306799
 10
366.9171750649
 20
469.3662277433
 10
367.0751683675
 20
468.854315316
 10
367.3674720454
 20
468.3967670526
 10
367.7624104595
 20
468.0431654071
 10
368.2171859045
 20
467.8318286044
 10
368.6825164043
 20
467.7856582663
 10
369.107976179
 20
467.9096576654
 10
369.4474600603
 20
468.1903895427
 10
369.664179702
 20
468.5974322433
 10
369.7346501682
 20
469.0866763748
  0
LWPOLYLINE
  5
1F8
330
1F
100
AcDbEntity
  8
0
  6
Continuous
 62
     7
100
AcDbPolyline
 90
       20
 70
   128
 43
0.0
 10
370.5968713989
 20
401.9681542893
 10
370.5134561211
 20
402.4865826585
 10
370.285194439
 20
402.9780155074
 10
369.9368220477
 20
403.3891984614
 10
369.5060905013
 20
403.6755734673
 10
369.0396762464
 20
403.8061073497
 10
368.5881225047
 20
403.766654737
 10
368.2003621306
 20
403.5614909319
 10
367.9184149774
 20
403.2128486162
 10
367.772834394
 20
402.7585085944
 10
367.7793962956
 20
402.2477056579
 10
367.9373895983
 20
401.7357932306
 10
368.2296932762
 20
401.2782449672
 10
368.6246316903
 20
400.9246433217
 10
369.0794071352
 20
400.7133065189
 10
369.5447376351
 20
400.6671361809
 10
369.9701974098
 20
400.79113558
 10
370.309681291
 20
401.0718674573
 10
370.5264009327
 20
401.4789101579
 10
370.5968713989
 20
401.9681542893
  0
LWPOLYLINE
  5
1F9
330
1F
100
AcDbEntity
  8
0
  6
Continuous
 62
     7
100
AcDbPolyline
 90
       20
 70
   128
 43
0.0
 10
327.7728528562
 20
362.7453389337
 10
327.6894375784
 20
363.2637673029
 10
327.4611758963
 20
363.7552001517
 10
327.112803505
 20
364.1663831058
 10
326.6820719586
 20
364.4527581117
 10
326.2156577037
 20
364.5832919941
 10
325.764103962
 20
364.5438393814
 10
325.3763435879
 20
364.3386755763
 10
325.0943964347
 20
363.9900332606
 10
324.9488158514
 20
363.5356932388
 10
324.9553777529
 20
363.0248903023
 10
325.1133710556
 20
362.512977875
 10
325.4056747335
 20
362.0554296116
 10
325.8006131476
 20
361.701827966
 10
326.2553885925
 20
361.4904911633
 10
326.7207190924
 20
361.4443208253
 10
327.1461788671
 20
361.5683202243
 10
327.4856627483
 20
361.8490521017
 10
327.7023823901
 20
362.2560948023
 10
327.7728528562
 20
362.7453389337
  0
LWPOLYLINE
  5
1FA
330
1F
100
AcDbEntity
  8
0
  6
Continuous
 62
     7
100
AcDbPolyline
 90
       20
 70
   128
 43
0.0
 10
266.3483238071
 20
374.3944235888
 10
266.2649085293
 20
374.912851958
 10
266.0366468472
 20
375.4042848068
 10
265.6882744558
 20
375.8154677609
 10
265.2575429095
 20
376.1018427668
 10
264.7911286546
 20
376.2323766492
 10
264.3395749128
 20
376.1929240365
 10
263.9518145387
 20
375.9877602314
 10
263.6698673855
 20
375.6391179157
 10
263.5242868022
 20
375.1847778939
 10
263.5308487038
 20
374.6739749574
 10
263.6888420065
 20
374.1620625301
 10
263.9811456844
 20
373.7045142667
 10
264.3760840984
 20
373.3509126211
 10
264.8308595434
 20
373.1395758184
 10
265.2961900432
 20
373.0934054803
 10
265.7216498179
 20
373.2174048794
 10
266.0611336992
 20
373.4981367568
 10
266.2778533409
 20
373.9051794574
 10
266.3483238071
 20
374.3944235888
  0
LWPOLYLINE
  5
1FB
330
1F
100
AcDbEntity
  8
0
  6
Continuous
 62
     7
100
AcDbPolyline
 90
       20
 70
   128
 43
0.0
 10
222.3049403061
 20
430.0915324529
 10
222.2215250283
 20
430.609960822
 10
221.9932633462
 20
431.1013936709
 10
221.6448909548
 20
431.5125766249
 10
221.2141594084
 20
431.7989516309
 10
220.7477451535
 20
431.9294855133
 10
220.2961914118
 20
431.8900329006
 10
219.9084310377
 20
431.6848690955
 10
219.6264838845
 20
431.3362267797
 10
219.4809033012
 20
430.881886758
 10
219.4874652028
 20
430.3710838214
 10
219.6454585054
 20
429.8591713941
 10
219.9377621833
 20
429.4016231307
 10
220.3327005974
 20
429.0480214852
 10
220.7874760424
 20
428.8366846825
 10
221.2528065422
 20
428.7905143444
 10
221.6782663169
 20
428.9145137435
 10
222.0177501982
 20
429.1952456208
 10
222.2344698399
 20
429.6022883215
 10
222.3049403061
 20
430.0915324529
  0
LWPOLYLINE
  5
1FC
330
1F
100
AcDbEntity
  8
0
  6
Continuous
 62
     7
100
AcDbPolyline
 90
       20
 70
   128
 43
0.0
 10
221.4427190753
 20
497.2100545383
 10
221.3593037975
 20
497.7284829075
 10
221.1310421154
 20
498.2199157563
 10
220.7826697241
 20
498.6310987104
 10
220.3519381777
 20
498.9174737163
 10
219.8855239228
 20
499.0480075987
 10
219.433970181
 20
499.008554986
 10
219.0462098069
 20
498.8033911809
 10
218.7642626538
 20
498.4547488652
 10
218.6186820704
 20
498.0004088434
 10
218.625243972
 20
497.4896059069
 10
218.7832372747
 20
496.9776934796
 10
219.0755409526
 20
496.5201452162
 10
219.4704793666
 20
496.1665435706
 10
219.9252548116
 20
495.9552067679
 10
220.3905853114
 20
495.9090364299
 10
220.8160450861
 20
496.0330358289
 10
221.1555289674
 20
496.3137677063
 10
221.3722486091
 20
496.7208104069
 10
221.4427190753
 20
497.2100545383
  0
LWPOLYLINE
  5
1FD
330
1F
100
AcDbEntity
  8
0
  6
Continuous
 62
     7
100
AcDbPolyline
 90
       71
 70
   128
 43
0.0
 10
251.7841204542
 20
526.727525933
 10
249.856450572
 20
525.4548373726
 10
247.2779803412
 20
523.5695369266
 10
244.8014735462
 20
521.5396964066
 10
242.431917542
 20
519.3694036412
 10
240.1740842991
 20
517.0630293113
 10
238.0325207932
 20
514.6252181478
 10
236.0115398481
 20
512.060879578
 10
234.1152114506
 20
509.3751778384
 10
232.3473545536
 20
506.573521575
 10
230.7115293857
 20
503.6615529507
 10
229.2110302811
 20
500.6451362826
 10
227.8488790452
 20
497.5303462326
 10
226.6278188695
 20
494.3234555733
 10
225.5503088065
 20
491.0309225556
 10
224.6185188181
 20
487.659377903
 10
223.8343254055
 20
484.2156114576
 10
223.1993078297
 20
480.7065585067
 10
222.7147449316
 20
477.139285816
 10
222.3816125564
 20
473.520977398
 10
222.2005815884
 20
469.8589200443
 10
222.1720165999
 20
466.1604886511
 10
222.295975117
 20
462.4331313668
 10
222.5722075036
 20
458.6843545932
 10
223.0001574646
 20
454.9217078677
 10
223.5789631657
 20
451.15276866
 10
224.3074589691
 20
447.3851271123
 10
225.1841777814
 20
443.626370753
 10
226.2073540075
 20
439.8840692174
 10
227.3749271066
 20
436.1657590026
 10
228.684545742
 20
432.4789282906
 10
230.1335725159
 20
428.8310018678
 10
231.7190892813
 20
425.2293261726
 10
233.4379030184
 20
421.6811545004
 10
235.2865522652
 20
418.1936323968
 10
237.261314088
 20
414.7737832673
 10
239.3582115793
 20
411.4284942328
 10
241.5730218666
 20
408.1645022602
 10
243.9012846169
 20
404.988380595
 10
246.3383110187
 20
401.9065255235
 10
248.8791932252
 20
398.9251434918
 10
251.5188142378
 20
396.0502386064
 10
254.2518582111
 20
393.2876005433
 10
257.0728211582
 20
390.6427928877
 10
259.9760220352
 20
388.1211419303
 10
262.9556141818
 20
385.7277259407
 10
266.005597096
 20
383.46736494
 10
269.1198285182
 20
381.3446109945
 10
272.2920368007
 20
379.3637390481
 10
275.5158335381
 20
377.5287383134
 10
278.7847264329
 20
375.8433042375
 10
282.0921323699
 20
374.3108310605
 10
285.4313906735
 20
372.9344049794
 10
288.7957765221
 20
371.716797933
 10
292.1785144902
 20
370.66046202
 10
295.5727921937
 20
369.7675245603
 10
298.9717740091
 20
369.0397838111
 10
302.3686148394
 20
368.4787053455
 10
305.7564738991
 20
368.0854191007
 10
309.1285284911
 20
367.860717103
 10
312.477987746
 20
367.8050518723
 10
315.7981062988
 20
367.9185355109
 10
319.0821978725
 20
368.2009394778
 10
322.3236487437
 20
368.6516950492
 10
325.5159310618
 20
369.2698944632
 10
328.652615995
 20
370.0542927486
 10
331.7273866773
 20
371.0033102314
 10
334.7340509297
 20
372.1150357169
 10
337.6665537306
 20
373.3872303379
 10
340.5189894096
 20
374.8173320636
 10
340.7242654007
 20
374.9280223681
  0
LINE
  5
1FE
330
1F
100
AcDbEntity
  8
0
  6
Continuous
 62
     7
100
AcDbLine
 10
608.0695287557
 20
492.6169067195
 30
0.0
 11
612.651109226
 21
495.3012793396
 31
0.0
  0
LINE
  5
1FF
330
1F
100
AcDbEntity
  8
0
  6
Continuous
 62
     7
100
AcDbLine
 10
608.0695287557
 20
492.6169067195
 30
0.0
 11
432.0679145501
 21
525.9953914234
 31
0.0
  0
LINE
  5
200
330
1F
100
AcDbEntity
  8
0
  6
Continuous
 62
     7
100
AcDbLine
 10
432.0679145501
 20
525.9953914234
 30
0.0
 11
436.6494950203
 21
528.6797640435
 31
0.0
  0
LINE
  5
201
330
1F
100
AcDbEntity
  8
0
  6
Continuous
 62
     7
100
AcDbLine
 10
612.651109226
 20
495.3012793396
 30
0.0
 11
436.6494950203
 21
528.6797640435
 31
0.0
  0
LINE
  5
202
330
1F
100
AcDbEntity
  8
0
  6
Continuous
 62
     7
100
AcDbLine
 10
434.7257182185
 20
319.1020236262
 30
0.0
 11
610.7273324242
 21
285.7235389222
 31
0.0
  0
LINE
  5
203
330
1F
100
AcDbEntity
  8
0
  6
Continuous
 62
     7
100
AcDbLine
 10
432.0679145501
 20
525.9953914234
 30
0.0
 11
434.7257182185
 21
319.1020236262
 31
0.0
  0
LINE
  5
204
330
1F
100
AcDbEntity
  8
0
  6
Continuous
 62
     7
100
AcDbLine
 10
610.7273324242
 20
285.7235389222
 30
0.0
 11
608.0695287557
 21
492.6169067195
 31
0.0
  0
LWPOLYLINE
  5
205
330
1F
100
AcDbEntity
  8
0
  6
Continuous
 62
     7
100
AcDbPolyline
 90
      150
 70
   128
 43
0.0
 10
606.1710171265
 20
389.7822977237
 10
606.0454900676
 20
393.7016256436
 10
605.7694621908
 20
397.6425697585
 10
605.3434242639
 20
401.5981232136
 10
604.7681337666
 20
405.5612531792
 10
604.0446135445
 20
409.5249133548
 10
603.1741499901
 20
413.4820564973
 10
602.1582907558
 20
417.4256469506
 10
600.9988420023
 20
421.3486731548
 10
599.6978651872
 20
425.2441601124
 10
598.2576733998
 20
429.1051817899
 10
596.6808272485
 20
432.9248734315
 10
594.9701303082
 20
436.6964437649
 10
593.1286241356
 20
440.4131870757
 10
591.1595828616
 20
444.06849513
 10
589.0665073696
 20
447.6558689233
 10
586.8531190716
 20
451.1689302361
 10
584.523353291
 20
454.6014329734
 10
582.0813522665
 20
457.9472742707
 10
579.5314577868
 20
461.2005053443
 10
576.8782034712
 20
464.3553420681
 10
574.126306709
 20
467.4061752574
 10
571.2806602722
 20
470.3475806422
 10
568.3463236165
 20
473.1743285111
 10
565.3285138852
 20
475.8813930094
 10
562.232596634
 20
478.4639610754
 10
559.0640762906
 20
480.9174409973
 10
555.8285863688
 20
483.2374705772
 10
552.5318794515
 20
485.4199248872
 10
549.1798169632
 20
487.4609236033
 10
545.7783587488
 20
489.3568379042
 10
542.3335524768
 20
491.1042969234
 10
538.8515228871
 20
492.7001937426
 10
535.3384609012
 20
494.1416909155
 10
531.8006126151
 20
495.4262255127
 10
528.244268194
 20
496.5515136786
 10
524.6757506885
 20
497.5155546919
 10
521.1014047924
 20
498.3166345228
 10
517.5275855623
 20
498.9533288807
 10
513.9606471185
 20
499.4245057461
 10
510.4069313472
 20
499.7293273839
 10
506.8727566255
 20
499.8672518322
 10
503.364406587
 20
499.8380338666
 10
499.8881189501
 20
499.6417254353
 10
496.4500744273
 20
499.2786755677
 10
493.0563857363
 20
498.7495297531
 10
489.7130867317
 20
498.0552287936
 10
486.4261216773
 20
497.1970071308
 10
483.2013346768
 20
496.1763906516
 10
480.044459284
 20
494.9951939749
 10
476.961108308
 20
493.6555172252
 10
473.9567638344
 20
492.1597422988
 10
471.036767478
 20
490.5105286291
 10
468.2063108857
 20
488.7108084578
 10
465.4704265062
 20
486.7637816216
 10
462.8339786419
 20
484.6729098631
 10
460.301654801
 20
482.4419106762
 10
457.8779573628
 20
480.0747506959
 10
455.567195573
 20
477.5756386462
 10
453.3734778817
 20
474.9490178573
 10
451.3007046389
 20
472.199558365
 10
449.3525611597
 20
469.3321486079
 10
447.5325111722
 20
466.351886736
 10
445.8437906588
 20
463.2640715461
 10
444.289402103
 20
460.0741930609
 10
442.8721091509
 20
456.787922768
 10
441.5944316977
 20
453.411103536
 10
440.4586414072
 20
449.9497392263
 10
439.4667576732
 20
446.4099840184
 10
438.6205440287
 20
442.7981314677
 10
437.9215050106
 20
439.1206033164
 10
437.3708834849
 20
435.3839380753
 10
436.9696584366
 20
431.5947793987
 10
436.7185432291
 20
427.7598642727
 10
436.6179843361
 20
423.8860110362
 10
436.6681605476
 20
419.9801072591
 10
436.8689826522
 20
416.0490974956
 10
437.2200935955
 20
412.0999709377
 10
437.7208691151
 20
408.1397489883
 10
438.3704188503
 20
404.1754727775
 10
439.1675879254
 20
400.2141906437
 10
440.110959003
 20
396.262945602
 10
441.1988548036
 20
392.3287628219
 10
442.4293410883
 20
388.4186371368
 10
443.8002300972
 20
384.5395206074
 10
445.3090844399
 20
380.6983101615
 10
446.9532214282
 20
376.901835331
 10
448.7297178468
 20
373.1568461096
 10
450.6354151497
 20
369.4700009515
 10
452.6669250767
 20
365.8478549328
 10
454.8206356772
 20
362.296848097
 10
457.0927177325
 20
358.8232940046
 10
459.4791315636
 20
355.433368508
 10
461.9756342137
 20
352.1330987711
 10
464.5777869922
 20
348.928352553
 10
467.2809633665
 20
345.8248277756
 10
470.0803571877
 20
342.8280423927
 10
472.9709912355
 20
339.9433245792
 10
475.9477260683
 20
337.1758032582
 10
479.0052691601
 20
334.5303989817
 10
482.1381843109
 20
332.0118151818
 10
485.3409013118
 20
329.6245298086
 10
488.607725849
 20
327.3727873686
 10
491.9328496275
 20
325.2605913774
 10
495.3103606987
 20
323.2916972425
 10
498.7342539711
 20
321.4696055859
 10
502.1984418875
 20
319.79755602
 10
505.6967652481
 20
318.2785213879
 10
509.2230041618
 20
316.9152024778
 10
512.7708891042
 20
315.7100232208
 10
516.3341120656
 20
314.6651263819
 10
519.9063377655
 20
313.7823697494
 10
523.4812149171
 20
313.0633228323
 10
527.052387519
 20
312.50926407
 10
530.6135061569
 20
312.1211785585
 10
534.1582392918
 20
311.8997562999
 10
537.6802845174
 20
311.8453909748
 10
541.1733797658
 20
311.9581792427
 10
544.6313144413
 20
312.2379205703
 10
548.0479404622
 20
312.6841175877
 10
551.417183192
 20
313.2959769728
 10
554.7330522402
 20
314.072410862
 10
557.9896521125
 20
315.0120387842
 10
561.1811926934
 20
316.1131901152
 10
564.3019995399
 20
317.3739070482
 10
567.3465239716
 20
318.7919480744
 10
570.309352935
 20
320.3647919686
 10
573.1852186284
 20
322.0896422719
 10
575.9690078676
 20
323.9634322632
 10
578.6557711767
 20
325.9828304125
 10
581.2407315889
 20
328.1442463034
 10
583.7192931386
 20
330.4438370174
 10
586.087049034
 20
332.8775139661
 10
588.3397894915
 20
335.4409501607
 10
590.4735092208
 20
338.1295879052
 10
592.484414546
 20
340.9386468998
 10
594.3689301509
 20
343.8631327402
 10
596.1237054355
 20
346.8978457972
 10
597.7456204734
 20
350.0373904618
 10
599.2317915588
 20
353.2761847381
 10
600.5795763337
 20
356.6084701681
 10
601.7865784861
 20
360.0283220699
 10
602.8506520101
 20
363.5296600716
 10
603.7699050219
 20
367.106258922
 10
604.5427031231
 20
370.7517595589
 10
605.167672307
 20
374.4596804152
 10
605.6437014011
 20
378.223428943
 10
605.969944043
 20
382.0363133346
 10
606.1458201853
 20
385.8915544209
 10
606.1710171265
 20
389.7822977237
  0
LINE
  5
206
330
1F
100
AcDbEntity
  8
0
  6
Continuous
 62
     7
100
AcDbLine
 10
610.7273324242
 20
285.7235389222
 30
0.0
 11
615.3089128945
 21
288.4079115423
 31
0.0
  0
LINE
  5
207
330
1F
100
AcDbEntity
  8
0
  6
Continuous
 62
     7
100
AcDbLine
 10
615.3089128945
 20
288.4079115423
 30
0.0
 11
612.651109226
 21
495.3012793396
 31
0.0
  0
LWPOLYLINE
  5
208
330
1F
100
AcDbEntity
  8
0
  6
Continuous
 62
     7
100
AcDbPolyline
 90
       76
 70
   128
 43
0.0
 10
472.2417974664
 20
491.2155681642
 10
469.4789721275
 20
489.4564675189
 10
466.7430877479
 20
487.5094406827
 10
464.1066398836
 20
485.4185689243
 10
461.5743160427
 20
483.1875697373
 10
459.1506186046
 20
480.820409757
 10
456.8398568148
 20
478.3212977074
 10
454.6461391234
 20
475.6946769184
 10
452.5733658806
 20
472.9452174261
 10
450.6252224014
 20
470.077807669
 10
448.8051724139
 20
467.0975457971
 10
447.1164519005
 20
464.0097306072
 10
445.5620633447
 20
460.819852122
 10
444.1447703927
 20
457.5335818291
 10
442.8670929395
 20
454.1567625971
 10
441.731302649
 20
450.6953982875
 10
440.7394189149
 20
447.1556430795
 10
439.8932052704
 20
443.5437905289
 10
439.1941662524
 20
439.8662623775
 10
438.6435447267
 20
436.1295971364
 10
438.2423196783
 20
432.3404384599
 10
437.9912044708
 20
428.5055233338
 10
437.8906455778
 20
424.6316700974
 10
437.9408217893
 20
420.7257663202
 10
438.1416438939
 20
416.7947565567
 10
438.4927548373
 20
412.8456299988
 10
438.9935303568
 20
408.8854080494
 10
439.643080092
 20
404.9211318386
 10
440.4402491672
 20
400.9598497048
 10
441.3836202448
 20
397.0086046631
 10
442.4715160454
 20
393.074421883
 10
443.70200233
 20
389.1642961979
 10
445.072891339
 20
385.2851796686
 10
446.5817456816
 20
381.4439692227
 10
448.22588267
 20
377.6474943921
 10
450.0023790885
 20
373.9025051707
 10
451.9080763914
 20
370.2156600126
 10
453.9395863184
 20
366.5935139939
 10
456.093296919
 20
363.0425071581
 10
458.3653789743
 20
359.5689530657
 10
460.7517928053
 20
356.1790275691
 10
463.2482954554
 20
352.8787578322
 10
465.850448234
 20
349.6740116142
 10
468.5536246083
 20
346.5704868368
 10
471.3530184294
 20
343.5737014538
 10
474.2436524773
 20
340.6889836403
 10
477.2203873101
 20
337.9214623193
 10
480.2779304019
 20
335.2760580428
 10
483.4108455526
 20
332.7574742429
 10
486.6135625536
 20
330.3701888698
 10
489.8803870907
 20
328.1184464297
 10
493.2055108692
 20
326.0062504385
 10
496.5830219404
 20
324.0373563037
 10
500.0069152129
 20
322.215264647
 10
503.4711031293
 20
320.5432150811
 10
506.9694264899
 20
319.024180449
 10
510.4956654035
 20
317.6608615389
 10
514.043550346
 20
316.455682282
 10
517.6067733074
 20
315.410785443
 10
521.1789990073
 20
314.5280288105
 10
524.7538761588
 20
313.8089818935
 10
528.3250487608
 20
313.2549231311
 10
531.8861673987
 20
312.8668376197
 10
535.4309005335
 20
312.645415361
 10
538.9529457591
 20
312.5910500359
 10
542.4460410076
 20
312.7038383039
 10
545.9039756831
 20
312.9835796314
 10
549.3206017039
 20
313.4297766488
 10
552.6898444338
 20
314.0416360339
 10
556.0057134819
 20
314.8180699231
 10
559.2623133543
 20
315.7576978453
 10
562.4538539351
 20
316.8588491764
 10
565.5746607817
 20
318.1195661093
 10
568.6191852134
 20
319.5376071355
 10
571.5820141768
 20
321.1104510298
 10
571.8261107549
 20
321.2490212456
  0
LWPOLYLINE
  5
209
330
1F
100
AcDbEntity
  8
0
  6
Continuous
 62
     7
100
AcDbPolyline
 90
      141
 70
   128
 43
0.0
 10
598.4069206707
 20
392.2417665129
 10
598.2829621536
 20
395.9691237972
 10
598.006729767
 20
399.7179005708
 10
597.578779806
 20
403.4805472963
 10
596.9999741049
 20
407.249486504
 10
596.2714783015
 20
411.0171280517
 10
595.3947594892
 20
414.775884411
 10
594.3715832631
 20
418.5181859466
 10
593.204010164
 20
422.2364961614
 10
591.8943915286
 20
425.9233268734
 10
590.4453647547
 20
429.5712532962
 10
588.8598479893
 20
433.1729289914
 10
587.1410342522
 20
436.7211006636
 10
585.2923850054
 20
440.2086227672
 10
583.3176231827
 20
443.6284718967
 10
581.2207256913
 20
446.9737609312
 10
579.005915404
 20
450.2377529038
 10
576.6776526537
 20
453.413874569
 10
574.2406262519
 20
456.4957296405
 10
571.6997440454
 20
459.4771116722
 10
569.0601230328
 20
462.3520165576
 10
566.3270790595
 20
465.1146546207
 10
563.5061161124
 20
467.7594622763
 10
560.6029152354
 20
470.2811132336
 10
557.6233230888
 20
472.6745292233
 10
554.5733401746
 20
474.934890224
 10
551.4591087524
 20
477.0576441695
 10
548.2869004699
 20
479.0385161159
 10
545.0631037325
 20
480.8735168506
 10
541.7942108377
 20
482.5589509265
 10
538.4868049008
 20
484.0914241035
 10
535.1475465971
 20
485.4678501846
 10
531.7831607485
 20
486.685457231
 10
528.4004227805
 20
487.741793144
 10
525.0061450769
 20
488.6347306037
 10
521.6071632615
 20
489.3624713529
 10
518.2103224312
 20
489.9235498185
 10
514.8224633715
 20
490.3168360633
 10
511.4504087795
 20
490.541538061
 10
508.1009495246
 20
490.5972032917
 10
504.7808309718
 20
490.4837196531
 10
501.4967393981
 20
490.2013156861
 10
498.2552885269
 20
489.7505601148
 10
495.0630062088
 20
489.1323607008
 10
491.9263212756
 20
488.3479624154
 10
488.8515505933
 20
487.3989449326
 10
485.8448863409
 20
486.2872194471
 10
482.91238354
 20
485.0150248261
 10
480.0599478611
 20
483.5849231004
 10
477.2933237298
 20
481.9997943044
 10
474.6180827592
 20
480.2628306766
 10
472.0396125284
 20
478.3775302305
 10
469.5631057333
 20
476.3476897105
 10
467.1935497291
 20
474.1773969451
 10
464.9357164862
 20
471.8710226152
 10
462.7941529803
 20
469.4332114517
 10
460.7731720352
 20
466.8688728819
 10
458.8768436377
 20
464.1831711423
 10
457.1089867407
 20
461.381514879
 10
455.4731615729
 20
458.4695462546
 10
453.9726624682
 20
455.4531295865
 10
452.6105112324
 20
452.3383395365
 10
451.3894510566
 20
449.1314488772
 10
450.3119409936
 20
445.8389158595
 10
449.3801510053
 20
442.4673712069
 10
448.5959575926
 20
439.0236047615
 10
447.9609400168
 20
435.5145518106
 10
447.4763771187
 20
431.94727912
 10
447.1432447435
 20
428.328970702
 10
446.9622137756
 20
424.6669133482
 10
446.9336487871
 20
420.968481955
 10
447.0576073041
 20
417.2411246708
 10
447.3338396908
 20
413.4923478971
 10
447.7617896518
 20
409.7297011716
 10
448.3405953528
 20
405.960761964
 10
449.0690911563
 20
402.1931204162
 10
449.9458099686
 20
398.4343640569
 10
450.9689861947
 20
394.6920625213
 10
452.1365592938
 20
390.9737523065
 10
453.4461779291
 20
387.2869215945
 10
454.8952047031
 20
383.6389951717
 10
456.4807214685
 20
380.0373194765
 10
458.1995352056
 20
376.4891478043
 10
460.0481844523
 20
373.0016257008
 10
462.0229462751
 20
369.5817765712
 10
464.1198437664
 20
366.2364875367
 10
466.3346540538
 20
362.9724955641
 10
468.662916804
 20
359.7963738989
 10
471.0999432058
 20
356.7145188275
 10
473.6408254123
 20
353.7331367957
 10
476.280446425
 20
350.8582319104
 10
479.0134903982
 20
348.0955938472
 10
481.8344533453
 20
345.4507861916
 10
484.7376542223
 20
342.9291352343
 10
487.7172463689
 20
340.5357192446
 10
490.7672292832
 20
338.2753582439
 10
493.8814607053
 20
336.1526042984
 10
497.0536689878
 20
334.171732352
 10
500.2774657252
 20
332.3367316173
 10
503.5463586201
 20
330.6512975415
 10
506.853764557
 20
329.1188243644
 10
510.1930228607
 20
327.7423982833
 10
513.5574087092
 20
326.5247912369
 10
516.9401466773
 20
325.4684553239
 10
520.3344243808
 20
324.5755178642
 10
523.7334061963
 20
323.847777115
 10
527.1302470265
 20
323.2866986494
 10
530.5181060863
 20
322.8934124046
 10
533.8901606782
 20
322.6687104069
 10
537.2396199332
 20
322.6130451762
 10
540.559738486
 20
322.7265288148
 10
543.8438300596
 20
323.0089327818
 10
547.0852809309
 20
323.4596883531
 10
550.2775632489
 20
324.0778877672
 10
553.4142481821
 20
324.8622860525
 10
556.4890188644
 20
325.8113035353
 10
559.4956831168
 20
326.9230290208
 10
562.4281859177
 20
328.1952236418
 10
565.2806215967
 20
329.6253253676
 10
568.0472457279
 20
331.2104541636
 10
570.7224866986
 20
332.9474177914
 10
573.3009569294
 20
334.8327182374
 10
575.7774637244
 20
336.8625587574
 10
578.1470197286
 20
339.0328515228
 10
580.4048529715
 20
341.3392258527
 10
582.5464164775
 20
343.7770370162
 10
584.5673974225
 20
346.341375586
 10
586.46372582
 20
349.0270773256
 10
588.231582717
 20
351.828733589
 10
589.8674078849
 20
354.7407022133
 10
591.3679069895
 20
357.7571188814
 10
592.7300582254
 20
360.8719089314
 10
593.9511184011
 20
364.0787995907
 10
595.0286284641
 20
367.3713326084
 10
595.9604184525
 20
370.742877261
 10
596.7446118651
 20
374.1866437064
 10
597.379629441
 20
377.6956966573
 10
597.864192339
 20
381.262969348
 10
598.1973247142
 20
384.8812777659
 10
598.3783556822
 20
388.5433351197
 10
598.4069206707
 20
392.2417665129
  0
LWPOLYLINE
  5
20A
330
1F
100
AcDbEntity
  8
0
  6
Continuous
 62
     7
100
AcDbPolyline
 90
       20
 70
   128
 43
0.0
 10
492.3372890336
 20
493.1795767568
 10
492.2538737559
 20
493.698005126
 10
492.0256120737
 20
494.1894379748
 10
491.6772396824
 20
494.6006209288
 10
491.246508136
 20
494.8869959348
 10
490.7800938811
 20
495.0175298172
 10
490.3285401394
 20
494.9780772045
 10
489.9407797653
 20
494.7729133994
 10
489.6588326121
 20
494.4242710836
 10
489.5132520288
 20
493.9699310619
 10
489.5198139304
 20
493.4591281253
 10
489.677807233
 20
492.947215698
 10
489.9701109109
 20
492.4896674347
 10
490.365049325
 20
492.1360657891
 10
490.8198247699
 20
491.9247289864
 10
491.2851552698
 20
491.8785586483
 10
491.7106150445
 20
492.0025580474
 10
492.0500989258
 20
492.2832899247
 10
492.2668185675
 20
492.6903326254
 10
492.3372890336
 20
493.1795767568
  0
LWPOLYLINE
  5
20B
330
1F
100
AcDbEntity
  8
0
  6
Continuous
 62
     7
100
AcDbPolyline
 90
       20
 70
   128
 43
0.0
 10
553.7618180828
 20
481.5304921017
 10
553.678402805
 20
482.0489204709
 10
553.4501411229
 20
482.5403533197
 10
553.1017687316
 20
482.9515362737
 10
552.6710371852
 20
483.2379112797
 10
552.2046229303
 20
483.3684451621
 10
551.7530691885
 20
483.3289925494
 10
551.3653088145
 20
483.1238287443
 10
551.0833616613
 20
482.7751864285
 10
550.9377810779
 20
482.3208464068
 10
550.9443429795
 20
481.8100434702
 10
551.1023362822
 20
481.2981310429
 10
551.3946399601
 20
480.8405827796
 10
551.7895783741
 20
480.486981134
 10
552.2443538191
 20
480.2756443313
 10
552.7096843189
 20
480.2294739932
 10
553.1351440936
 20
480.3534733923
 10
553.4746279749
 20
480.6342052696
 10
553.6913476166
 20
481.0412479703
 10
553.7618180828
 20
481.5304921017
  0
LWPOLYLINE
  5
20C
330
1F
100
AcDbEntity
  8
0
  6
Continuous
 62
     7
100
AcDbPolyline
 90
       20
 70
   128
 43
0.0
 10
597.8052015838
 20
425.8333832376
 10
597.721786306
 20
426.3518116068
 10
597.4935246239
 20
426.8432444557
 10
597.1451522326
 20
427.2544274097
 10
596.7144206862
 20
427.5408024156
 10
596.2480064313
 20
427.671336298
 10
595.7964526896
 20
427.6318836853
 10
595.4086923155
 20
427.4267198802
 10
595.1267451623
 20
427.0780775645
 10
594.9811645789
 20
426.6237375427
 10
594.9877264805
 20
426.1129346062
 10
595.1457197832
 20
425.6010221789
 10
595.4380234611
 20
425.1434739155
 10
595.8329618752
 20
424.78987227
 10
596.2877373201
 20
424.5785354672
 10
596.75306782
 20
424.5323651292
 10
597.1785275947
 20
424.6563645283
 10
597.5180114759
 20
424.9370964056
 10
597.7347311176
 20
425.3441391062
 10
597.8052015838
 20
425.8333832376
  0
LWPOLYLINE
  5
20D
330
1F
100
AcDbEntity
  8
0
  6
Continuous
 62
     7
100
AcDbPolyline
 90
       20
 70
   128
 43
0.0
 10
598.6674228146
 20
358.7148611522
 10
598.5840075368
 20
359.2332895214
 10
598.3557458547
 20
359.7247223702
 10
598.0073734634
 20
360.1359053242
 10
597.576641917
 20
360.4222803302
 10
597.1102276621
 20
360.5528142126
 10
596.6586739203
 20
360.5133615999
 10
596.2709135462
 20
360.3081977948
 10
595.9889663931
 20
359.959555479
 10
595.8433858097
 20
359.5052154573
 10
595.8499477113
 20
358.9944125207
 10
596.007941014
 20
358.4825000934
 10
596.3002446919
 20
358.0249518301
 10
596.6951831059
 20
357.6713501845
 10
597.1499585509
 20
357.4600133818
 10
597.6152890507
 20
357.4138430437
 10
598.0407488254
 20
357.5378424428
 10
598.3802327067
 20
357.8185743201
 10
598.5969523484
 20
358.2256170208
 10
598.6674228146
 20
358.7148611522
  0
LWPOLYLINE
  5
20E
330
1F
100
AcDbEntity
  8
0
  6
Continuous
 62
     7
100
AcDbPolyline
 90
       20
 70
   128
 43
0.0
 10
555.8434042719
 20
319.4920457966
 10
555.7599889941
 20
320.0104741657
 10
555.531727312
 20
320.5019070146
 10
555.1833549207
 20
320.9130899686
 10
554.7526233743
 20
321.1994649746
 10
554.2862091194
 20
321.329998857
 10
553.8346553776
 20
321.2905462443
 10
553.4468950036
 20
321.0853824392
 10
553.1649478504
 20
320.7367401234
 10
553.019367267
 20
320.2824001017
 10
553.0259291686
 20
319.7715971651
 10
553.1839224713
 20
319.2596847378
 10
553.4762261492
 20
318.8021364745
 10
553.8711645633
 20
318.4485348289
 10
554.3259400082
 20
318.2371980262
 10
554.791270508
 20
318.1910276881
 10
555.2167302827
 20
318.3150270872
 10
555.556214164
 20
318.5957589645
 10
555.7729338057
 20
319.0028016652
 10
555.8434042719
 20
319.4920457966
  0
LWPOLYLINE
  5
20F
330
1F
100
AcDbEntity
  8
0
  6
Continuous
 62
     7
100
AcDbPolyline
 90
       20
 70
   128
 43
0.0
 10
494.4188752228
 20
331.1411304517
 10
494.335459945
 20
331.6595588208
 10
494.1071982628
 20
332.1509916697
 10
493.7588258715
 20
332.5621746237
 10
493.3280943251
 20
332.8485496297
 10
492.8616800702
 20
332.9790835121
 10
492.4101263285
 20
332.9396308994
 10
492.0223659544
 20
332.7344670943
 10
491.7404188012
 20
332.3858247785
 10
491.5948382179
 20
331.9314847568
 10
491.6014001195
 20
331.4206818202
 10
491.7593934221
 20
330.9087693929
 10
492.0516971
 20
330.4512211295
 10
492.4466355141
 20
330.097619484
 10
492.901410959
 20
329.8862826813
 10
493.3667414589
 20
329.8401123432
 10
493.7922012336
 20
329.9641117423
 10
494.1316851149
 20
330.2448436196
 10
494.3484047566
 20
330.6518863203
 10
494.4188752228
 20
331.1411304517
  0
LWPOLYLINE
  5
210
330
1F
100
AcDbEntity
  8
0
  6
Continuous
 62
     7
100
AcDbPolyline
 90
       20
 70
   128
 43
0.0
 10
450.3754917217
 20
386.8382393157
 10
450.2920764439
 20
387.3566676849
 10
450.0638147618
 20
387.8481005338
 10
449.7154423705
 20
388.2592834878
 10
449.2847108241
 20
388.5456584937
 10
448.8182965692
 20
388.6761923761
 10
448.3667428275
 20
388.6367397634
 10
447.9789824534
 20
388.4315759583
 10
447.6970353002
 20
388.0829336426
 10
447.5514547169
 20
387.6285936208
 10
447.5580166184
 20
387.1177906843
 10
447.7160099211
 20
386.605878257
 10
448.008313599
 20
386.1483299936
 10
448.4032520131
 20
385.7947283481
 10
448.858027458
 20
385.5833915454
 10
449.3233579579
 20
385.5372212073
 10
449.7488177326
 20
385.6612206064
 10
450.0883016138
 20
385.9419524837
 10
450.3050212555
 20
386.3489951843
 10
450.3754917217
 20
386.8382393157
  0
LWPOLYLINE
  5
211
330
1F
100
AcDbEntity
  8
0
  6
Continuous
 62
     7
100
AcDbPolyline
 90
       20
 70
   128
 43
0.0
 10
449.513270491
 20
453.9567614012
 10
449.4298552132
 20
454.4751897703
 10
449.2015935311
 20
454.9666226192
 10
448.8532211397
 20
455.3778055732
 10
448.4224895933
 20
455.6641805792
 10
447.9560753384
 20
455.7947144616
 10
447.5045215967
 20
455.7552618489
 10
447.1167612226
 20
455.5500980438
 10
446.8348140694
 20
455.201455728
 10
446.6892334861
 20
454.7471157063
 10
446.6957953877
 20
454.2363127697
 10
446.8537886903
 20
453.7244003424
 10
447.1460923682
 20
453.266852079
 10
447.5410307823
 20
452.9132504335
 10
447.9958062273
 20
452.7019136308
 10
448.4611367271
 20
452.6557432927
 10
448.8865965018
 20
452.7797426918
 10
449.2260803831
 20
453.0604745691
 10
449.4428000248
 20
453.4675172698
 10
449.513270491
 20
453.9567614012
  0
LWPOLYLINE
  5
212
330
1F
100
AcDbEntity
  8
0
  6
Continuous
 62
     7
100
AcDbPolyline
 90
       71
 70
   128
 43
0.0
 10
479.8546718699
 20
483.4742327959
 10
477.9270019877
 20
482.2015442355
 10
475.3485317569
 20
480.3162437895
 10
472.8720249619
 20
478.2864032695
 10
470.5024689577
 20
476.1161105041
 10
468.2446357148
 20
473.8097361742
 10
466.1030722088
 20
471.3719250107
 10
464.0820912638
 20
468.8075864408
 10
462.1857628662
 20
466.1218847013
 10
460.4179059693
 20
463.3202284379
 10
458.7820808014
 20
460.4082598135
 10
457.2815816968
 20
457.3918431455
 10
455.9194304609
 20
454.2770530955
 10
454.6983702852
 20
451.0701624361
 10
453.6208602222
 20
447.7776294185
 10
452.6890702338
 20
444.4060847658
 10
451.9048768212
 20
440.9623183204
 10
451.2698592453
 20
437.4532653696
 10
450.7852963472
 20
433.8859926789
 10
450.4521639721
 20
430.2676842609
 10
450.2711330041
 20
426.6056269072
 10
450.2425680156
 20
422.9071955139
 10
450.3665265327
 20
419.1798382297
 10
450.6427589193
 20
415.4310614561
 10
451.0707088803
 20
411.6684147305
 10
451.6495145814
 20
407.8994755229
 10
452.3780103848
 20
404.1318339751
 10
453.2547291971
 20
400.3730776159
 10
454.2779054232
 20
396.6307760802
 10
455.4454785223
 20
392.9124658654
 10
456.7550971577
 20
389.2256351535
 10
458.2041239316
 20
385.5777087307
 10
459.789640697
 20
381.9760330354
 10
461.5084544341
 20
378.4278613633
 10
463.3571036809
 20
374.9403392597
 10
465.3318655036
 20
371.5204901301
 10
467.4287629949
 20
368.1752010956
 10
469.6435732823
 20
364.911209123
 10
471.9718360326
 20
361.7350874578
 10
474.4088624344
 20
358.6532323864
 10
476.9497446409
 20
355.6718503547
 10
479.5893656535
 20
352.7969454693
 10
482.3224096268
 20
350.0343074061
 10
485.1433725739
 20
347.3894997505
 10
488.0465734508
 20
344.8678487932
 10
491.0261655975
 20
342.4744328035
 10
494.0761485117
 20
340.2140718028
 10
497.1903799339
 20
338.0913178573
 10
500.3625882163
 20
336.110445911
 10
503.5863849538
 20
334.2754451762
 10
506.8552778486
 20
332.5900111004
 10
510.1626837855
 20
331.0575379234
 10
513.5019420892
 20
329.6811118422
 10
516.8663279377
 20
328.4635047959
 10
520.2490659058
 20
327.4071688829
 10
523.6433436094
 20
326.5142314232
 10
527.0423254248
 20
325.786490674
 10
530.4391662551
 20
325.2254122083
 10
533.8270253148
 20
324.8321259636
 10
537.1990799068
 20
324.6074239659
 10
540.5485391617
 20
324.5517587351
 10
543.8686577145
 20
324.6652423737
 10
547.1527492882
 20
324.9476463407
 10
550.3942001594
 20
325.3984019121
 10
553.5864824775
 20
326.0166013261
 10
556.7231674107
 20
326.8009996114
 10
559.7979380929
 20
327.7500170943
 10
562.8046023454
 20
328.8617425798
 10
565.7371051463
 20
330.1339372007
 10
568.5895408252
 20
331.5640389265
 10
568.7948168163
 20
331.6747292309
  0
LINE
  5
213
330
1F
100
AcDbEntity
  8
0
  6
Continuous
 62
     7
100
AcDbLine
 10
911.2959101734
 20
670.2788732052
 30
0.0
 11
507.223744552
 21
746.9106510463
 31
0.0
  0
LINE
  5
214
330
1F
100
AcDbEntity
  8
0
  6
Continuous
 62
     7
100
AcDbLine
 10
912.6203604704
 20
567.1787135972
 30
0.0
 11
911.2959101734
 21
670.2788732052
 31
0.0
  0
LINE
  5
215
330
1F
100
AcDbEntity
  8
0
  6
Continuous
 62
     7
100
AcDbLine
 10
509.8815482205
 20
540.017283249
 30
0.0
 11
528.977172874
 21
536.3958220579
 31
0.0
  0
LINE
  5
216
330
1F
100
AcDbEntity
  8
0
  6
Continuous
 62
     7
100
AcDbLine
 10
615.0863636016
 20
520.0653223717
 30
0.0
 11
636.3141196214
 21
516.0395051494
 31
0.0
  0
LINE
  5
217
330
1F
100
AcDbEntity
  8
0
  6
Continuous
 62
     7
100
AcDbLine
 10
669.7673455799
 20
509.6951429344
 30
0.0
 11
731.0132556846
 21
498.0799331374
 31
0.0
  0
LINE
  5
218
330
1F
100
AcDbEntity
  8
0
  6
Continuous
 62
     7
100
AcDbLine
 10
785.0632463772
 20
487.8294204036
 30
0.0
 11
810.9084959453
 21
482.9279013393
 31
0.0
  0
LINE
  5
219
330
1F
100
AcDbEntity
  8
0
  6
Continuous
 62
     7
100
AcDbLine
 10
507.223744552
 20
746.9106510463
 30
0.0
 11
509.3520349419
 21
581.2365752493
 31
0.0
  0
LINE
  5
21A
330
1F
100
AcDbEntity
  8
0
  6
Continuous
 62
     7
100
AcDbLine
 10
509.575157239
 20
563.8679020057
 30
0.0
 11
509.8815482205
 21
540.017283249
 31
0.0
  0
LINE
  5
21B
330
1F
100
AcDbEntity
  8
0
  6
Continuous
 62
     7
100
AcDbLine
 10
911.2959101734
 20
670.2788732052
 30
0.0
 11
915.8774906436
 21
672.9632458253
 31
0.0
  0
LINE
  5
21C
330
1F
100
AcDbEntity
  8
0
  6
Continuous
 62
     7
100
AcDbLine
 10
507.223744552
 20
746.9106510463
 30
0.0
 11
511.8053250223
 21
749.5950236663
 31
0.0
  0
LINE
  5
21D
330
1F
100
AcDbEntity
  8
0
  6
Continuous
 62
     7
100
AcDbLine
 10
915.8774906436
 20
672.9632458253
 30
0.0
 11
511.8053250223
 21
749.5950236663
 31
0.0
  0
LINE
  5
21E
330
1F
100
AcDbEntity
  8
0
  6
Continuous
 62
     7
100
AcDbLine
 10
917.2019409406
 20
569.8630862172
 30
0.0
 11
915.8774906436
 21
672.9632458253
 31
0.0
  0
LINE
  5
21F
330
1F
100
AcDbEntity
  8
0
  6
Continuous
 62
     8
370
     0
100
AcDbLine
 10
691.2795389308
 20
195.5813763559
 30
0.0
 11
691.3278626339
 21
191.8196787596
 31
0.0
  0
ARC
  5
220
330
1F
100
AcDbEntity
  8
0
  6
Continuous
 62
     8
370
     0
100
AcDbCircle
 10
686.8299907528
 20
202.371296022
 30
0.0
 40
11.47028675803608
100
AcDbArc
 50
258.1742787254
 51
293.0872531625
  0
LINE
  5
221
330
1F
100
AcDbEntity
  8
0
  6
Continuous
 62
     8
370
     0
100
AcDbLine
 10
684.4793221991
 20
191.1444605079
 30
0.0
 11
684.4309984961
 21
194.9061581042
 31
0.0
  0
ARC
  5
222
330
1F
100
AcDbEntity
  8
0
  6
Continuous
 62
     8
370
     0
100
AcDbCircle
 10
687.4780463894
 20
191.5742439573
 30
0.0
 40
3.857631832943664
100
AcDbArc
 50
302.5268345273
 51
3.6478034847
  0
LWPOLYLINE
  5
223
330
1F
100
AcDbEntity
  8
0
  6
Continuous
 62
     8
370
     0
100
AcDbPolyline
 90
        7
 70
   128
 43
0.0
 10
684.4793221991
 20
191.1444605079
 10
684.5400142154
 20
190.2557772732
 10
684.6961891872
 20
189.4585561559
 10
684.9418453978
 20
188.7834339165
 10
685.2675424169
 20
188.2563551241
 10
685.6607638907
 20
187.8975751209
 10
686.0930069196
 20
187.7233402256
  0
LINE
  5
224
330
1F
100
AcDbEntity
  8
0
  6
Continuous
 62
     8
370
     0
100
AcDbLine
 10
273.4736841527
 20
272.8436957381
 30
0.0
 11
273.5220078558
 21
269.0819981418
 31
0.0
  0
LINE
  5
225
330
1F
100
AcDbEntity
  8
0
  6
Continuous
 62
     8
370
     0
100
AcDbLine
 10
273.5220078558
 20
269.0819981418
 30
0.0
 11
684.4793221991
 21
191.1444605079
 31
0.0
  0
LWPOLYLINE
  5
226
330
1F
100
AcDbEntity
  8
0
  6
Continuous
 62
     8
370
     0
100
AcDbPolyline
 90
        7
 70
   128
 43
0.0
 10
273.5220078558
 20
269.0819981418
 10
273.5826998721
 20
268.1933149071
 10
273.7388748439
 20
267.3960937898
 10
273.9845310545
 20
266.7209715504
 10
274.3102280736
 20
266.193892758
 10
274.7034495473
 20
265.8351127548
 10
275.1356925763
 20
265.6608778595
  0
LINE
  5
227
330
1F
100
AcDbEntity
  8
0
  6
Continuous
 62
     8
370
     0
100
AcDbLine
 10
839.9746956696
 20
278.9126570998
 30
0.0
 11
839.9263719665
 21
282.6743546962
 31
0.0
  0
LINE
  5
228
330
1F
100
AcDbEntity
  8
0
  6
Continuous
 62
     8
370
     0
100
AcDbLine
 10
691.3278626339
 20
191.8196787596
 30
0.0
 11
839.9746956696
 21
278.9126570998
 31
0.0
  0
ARC
  5
229
330
1F
100
AcDbEntity
  8
0
  6
Continuous
 62
     8
370
     0
100
AcDbCircle
 10
836.0815234526
 20
278.6892301047
 30
0.0
 40
3.899578122426439
100
AcDbArc
 50
302.8900677929
 51
3.284570219
  0
LWPOLYLINE
  5
22A
330
1F
100
AcDbEntity
  8
0
  6
Continuous
 62
     8
370
     0
100
AcDbPolyline
 90
        7
 70
   128
 43
0.0
 10
273.5220078558
 20
269.0819981418
 10
272.7313993378
 20
269.2698665878
 10
272.0689887774
 20
269.507825874
 10
271.5602322409
 20
269.7867313583
 10
271.2246809567
 20
270.0958648594
 10
271.0752299725
 20
270.4233465503
 10
271.0677428535
 20
270.5090903195
  0
ARC
  5
22B
330
1F
100
AcDbEntity
  8
0
  6
Continuous
 62
     8
370
     0
100
AcDbCircle
 10
839.5719766727
 20
279.9468120223
 30
0.0
 40
1.109801330936743
100
AcDbArc
 50
291.2768560246
 51
352.0326027982
  0
LWPOLYLINE
  5
22C
330
1F
100
AcDbEntity
  8
0
  6
Continuous
 62
     8
370
     0
100
AcDbPolyline
 90
        9
 70
   128
 43
0.0
 10
677.5346596506
 20
731.7429403436
 10
677.5717829499
 20
732.6889340974
 10
677.7052949373
 20
733.6558843609
 10
677.9300648219
 20
734.6066317776
 10
678.2374548231
 20
735.5046396576
 10
678.6156521155
 20
736.3153980617
 10
679.0501227894
 20
737.007749999
 10
679.5241703803
 20
737.5550887729
 10
680.0195775053
 20
737.9363804613
  0
ARC
  5
22D
330
1F
100
AcDbEntity
  8
0
  6
Continuous
 62
     8
370
     0
100
AcDbCircle
 10
678.6270302482
 20
732.350788092
 30
0.0
 40
5.756564077490419
100
AcDbArc
 50
0.6705620876
 51
76.0009399914
  0
ARC
  5
22E
330
1F
100
AcDbEntity
  8
0
  6
Continuous
 62
     8
370
     0
100
AcDbCircle
 10
679.8853282042
 20
742.9697758578
 30
0.0
 40
11.47028675803569
100
AcDbArc
 50
258.1742787254
 51
293.0872531625
  0
LINE
  5
22F
330
1F
100
AcDbEntity
  8
0
  6
Continuous
 62
     8
370
     0
100
AcDbLine
 10
677.5829833537
 20
727.9812427473
 30
0.0
 11
677.5346596506
 21
731.7429403436
 31
0.0
  0
LINE
  5
230
330
1F
100
AcDbEntity
  8
0
  6
Continuous
 62
     8
370
     0
100
AcDbLine
 10
684.3832000853
 20
732.4181585954
 30
0.0
 11
684.4315237884
 21
728.6564609991
 31
0.0
  0
LINE
  5
231
330
1F
100
AcDbEntity
  8
0
  6
Continuous
 62
     8
370
     0
100
AcDbLine
 10
677.5346596506
 20
731.7429403436
 30
0.0
 11
266.5773453073
 21
809.6804779775
 31
0.0
  0
LWPOLYLINE
  5
232
330
1F
100
AcDbEntity
  8
0
  6
Continuous
 62
     8
370
     0
100
AcDbPolyline
 90
        9
 70
   128
 43
0.0
 10
266.5773453073
 20
809.6804779775
 10
266.6144686066
 20
810.6264717313
 10
266.7479805939
 20
811.5934219948
 10
266.9727504785
 20
812.5441694115
 10
267.2801404797
 20
813.4421772915
 10
267.6583377722
 20
814.2529356956
 10
268.0928084461
 20
814.9452876329
 10
268.566856037
 20
815.4926264068
 10
269.0622631619
 20
815.8739180952
  0
LINE
  5
233
330
1F
100
AcDbEntity
  8
0
  6
Continuous
 62
     8
370
     0
100
AcDbLine
 10
269.0622631619
 20
815.8739180952
 30
0.0
 11
680.0195775053
 21
737.9363804613
 31
0.0
  0
LINE
  5
234
330
1F
100
AcDbEntity
  8
0
  6
Continuous
 62
     8
370
     0
100
AcDbLine
 10
680.0195775053
 20
737.9363804613
 30
0.0
 11
828.666410541
 21
825.0293588015
 31
0.0
  0
ARC
  5
235
330
1F
100
AcDbEntity
  8
0
  6
Continuous
 62
     8
370
     0
100
AcDbCircle
 10
827.2738632839
 20
819.4437664323
 30
0.0
 40
5.756564077490805
100
AcDbArc
 50
0.6705620876
 51
76.0009399914
  0
LINE
  5
236
330
1F
100
AcDbEntity
  8
0
  6
Continuous
 62
     8
370
     0
100
AcDbLine
 10
833.030033121
 20
819.5111369356
 30
0.0
 11
684.3832000853
 21
732.4181585954
 31
0.0
  0
LINE
  5
237
330
1F
100
AcDbEntity
  8
0
  6
Continuous
 62
     8
370
     0
100
AcDbLine
 10
266.5773453073
 20
809.6804779775
 30
0.0
 11
266.6256690103
 21
805.9187803812
 31
0.0
  0
LINE
  5
238
330
1F
100
AcDbEntity
  8
0
  6
Continuous
 62
     8
370
     0
100
AcDbLine
 10
833.0783568241
 20
815.7494393393
 30
0.0
 11
833.030033121
 21
819.5111369356
 31
0.0
  0
LINE
  5
239
330
1F
100
AcDbEntity
  8
0
  6
Continuous
 62
     8
370
     0
100
AcDbLine
 10
417.7090961976
 20
902.9668964354
 30
0.0
 11
269.0622631619
 21
815.8739180952
 31
0.0
  0
LINE
  5
23A
330
1F
100
AcDbEntity
  8
0
  6
Continuous
 62
     8
370
     0
100
AcDbLine
 10
828.666410541
 20
825.0293588015
 30
0.0
 11
417.7090961976
 21
902.9668964354
 31
0.0
  0
ARC
  5
23B
330
1F
100
AcDbEntity
  8
0
  6
Continuous
 62
     8
370
     0
100
AcDbCircle
 10
268.3369756405
 20
812.448075581
 30
0.0
 40
3.501776537828927
100
AcDbArc
 50
78.046377218
 51
119.8310296255
  0
LWPOLYLINE
  5
23C
330
1F
100
AcDbEntity
  8
0
  6
Continuous
 62
     8
370
     0
100
AcDbPolyline
 90
        7
 70
   128
 43
0.0
 10
264.123080305
 20
811.1075701553
 10
264.1305674239
 20
811.021826386
 10
264.2800184081
 20
810.6943446952
 10
264.6155696923
 20
810.3852111941
 10
265.1243262288
 20
810.1063057098
 10
265.7867367893
 20
809.8683464236
 10
266.5773453073
 20
809.6804779775
  0
ARC
  5
23D
330
1F
100
AcDbEntity
  8
0
  6
Continuous
 62
     8
370
     0
100
AcDbCircle
 10
416.9838086762
 20
899.5410539212
 30
0.0
 40
3.501776537834914
100
AcDbArc
 50
78.0463772181
 51
119.8310296255
  0
ARC
  5
23E
330
1F
100
AcDbEntity
  8
0
  6
Continuous
 62
     8
370
     0
100
AcDbCircle
 10
829.4265623501
 20
823.8886381594
 30
0.0
 40
1.370793331009767
100
AcDbArc
 50
80.2607121015
 51
123.6786389308
  0
ARC
  5
23F
330
1F
100
AcDbEntity
  8
0
  6
Continuous
 62
     8
370
     0
100
AcDbCircle
 10
832.6273141242
 20
820.5452918581
 30
0.0
 40
1.109801330939619
100
AcDbArc
 50
291.2768560246
 51
352.0326027981
  0
ARC
  5
240
330
1F
100
AcDbEntity
  8
0
  6
Continuous
 62
     8
370
     0
100
AcDbCircle
 10
418.4692480068
 20
901.8261757932
 30
0.0
 40
1.37079333102777
100
AcDbArc
 50
80.2607121018
 51
123.6786389306
  0
LINE
  5
241
330
1F
100
AcDbEntity
  8
0
  6
Continuous
 62
     8
370
     0
100
AcDbLine
 10
157.4492708554
 20
631.2690810853
 30
0.0
 11
160.1070745239
 21
424.3757132881
 31
0.0
  0
LINE
  5
242
330
1F
100
AcDbEntity
  8
0
  6
Continuous
 62
     8
370
     0
100
AcDbLine
 10
820.8852234291
 20
507.423322687
 30
0.0
 11
823.5430270975
 21
300.5299548898
 31
0.0
  0
LINE
  5
243
330
1F
100
AcDbEntity
  8
0
  6
Continuous
 62
     8
370
     0
100
AcDbLine
 10
816.6944866628
 20
299.854736638
 30
0.0
 11
814.0366829943
 21
506.7481044353
 31
0.0
  0
LINE
  5
244
330
1F
100
AcDbEntity
  8
0
  6
Continuous
 62
     8
370
     0
100
AcDbLine
 10
972.1898601332
 20
387.62293323
 30
0.0
 11
969.5320564648
 21
594.5163010273
 31
0.0
  0
LINE
  5
245
330
1F
100
AcDbEntity
  8
0
  6
Continuous
 62
     8
370
     0
100
AcDbLine
 10
764.1027120887
 20
515.5970714533
 30
0.0
 11
763.9939837568
 21
524.060891045
 31
0.0
  0
LINE
  5
246
330
1F
100
AcDbEntity
  8
0
  6
Continuous
 62
     8
370
     0
100
AcDbLine
 10
609.9072908737
 20
526.8763175978
 30
0.0
 11
609.7985625418
 21
535.3401371895
 31
0.0
  0
LINE
  5
247
330
1F
100
AcDbEntity
  8
0
  6
Continuous
 62
     8
370
     0
100
AcDbLine
 10
665.3438601078
 20
534.3265634815
 30
0.0
 11
665.2351317759
 21
542.7903830732
 31
0.0
  0
LINE
  5
248
330
1F
100
AcDbEntity
  8
0
  6
Continuous
 62
     8
370
     0
100
AcDbLine
 10
613.9798068473
 20
529.2624265934
 30
0.0
 11
613.8710785154
 21
537.7262461851
 31
0.0
  0
LINE
  5
249
330
1F
100
AcDbEntity
  8
0
  6
Continuous
 62
     8
370
     0
100
AcDbLine
 10
463.3077772971
 20
572.6424524021
 30
0.0
 11
463.1990489652
 21
581.1062719938
 31
0.0
  0
INSERT
  5
24F
330
1F
100
AcDbEntity
  8
SLD-0_0
100
AcDbBlockReference
  2
SW_NOTE_10
 10
213.4213961058
 20
694.0339041602
 30
0.0
  0
LEADER
  5
259
330
1F
100
AcDbEntity
  8
SLD-0_0
100
AcDbLeader
  3
SLDDIMSTYLE0
 76
     2
 10
243.6844908235
 20
573.5681090416
 30
0.0
 10
213.4213961058
 20
694.0339041602
 30
0.0
  0
INSERT
  5
25F
330
1F
100
AcDbEntity
  8
SLD-0_0
100
AcDbBlockReference
  2
SW_NOTE_11
 10
676.6512268745
 20
912.1291870796
 30
0.0
  0
LEADER
  5
260
330
1F
100
AcDbEntity
  8
SLD-0_0
100
AcDbLeader
  3
SLDDIMSTYLE0
 76
     2
 10
612.5302520802
 20
830.6176200337
 30
0.0
 10
676.6512268745
 20
912.1291870796
 30
0.0
  0
INSERT
  5
266
330
1F
100
AcDbEntity
  8
SLD-0_0
100
AcDbBlockReference
  2
SW_NOTE_12
 10
829.2747299752
 20
748.135736885
 30
0.0
  0
LEADER
  5
267
330
1F
100
AcDbEntity
  8
SLD-0_0
100
AcDbLeader
  3
SLDDIMSTYLE0
 76
     2
 10
665.135239493
 20
586.2921084611
 30
0.0
 10
829.2747299752
 20
748.135736885
 30
0.0
  0
INSERT
  5
26D
330
1F
100
AcDbEntity
  8
SLD-0_0
100
AcDbBlockReference
  2
SW_NOTE_13
 10
978.7480177669
 20
660.397919295
 30
0.0
  0
LEADER
  5
26E
330
1F
100
AcDbEntity
  8
SLD-0_0
100
AcDbLeader
  3
SLDDIMSTYLE0
 76
     2
 10
803.4775091197
 20
562.2382386195
 30
0.0
 10
978.7480177669
 20
660.397919295
 30
0.0
  0
INSERT
  5
274
330
1F
100
AcDbEntity
  8
SLD-0_0
100
AcDbBlockReference
  2
SW_NOTE_14
 10
465.5957636172
 20
218.9607147574
 30
0.0
  0
LEADER
  5
275
330
1F
100
AcDbEntity
  8
SLD-0_0
100
AcDbLeader
  3
SLDDIMSTYLE0
 76
     2
 10
592.8464351058
 20
315.1178284211
 30
0.0
 10
465.5957636172
 20
218.9607147574
 30
0.0
  0
INSERT
  5
27B
330
1F
100
AcDbEntity
  8
SLD-0_0
100
AcDbBlockReference
  2
SW_NOTE_15
 10
662.5744288859
 20
412.9984576304
 30
0.0
  0
LEADER
  5
27C
330
1F
100
AcDbEntity
  8
SLD-0_0
100
AcDbLeader
  3
SLDDIMSTYLE0
 76
     2
 10
563.3008511659
 20
529.8664382781
 30
0.0
 10
662.5744288859
 20
412.9984576304
 30
0.0
  0
INSERT
  5
282
330
1F
100
AcDbEntity
  8
SLD-0_0
100
AcDbBlockReference
  2
SW_NOTE_16
 10
393.9493854999
 20
659.5182084393
 30
0.0
  0
LEADER
  5
283
330
1F
100
AcDbEntity
  8
SLD-0_0
100
AcDbLeader
  3
SLDDIMSTYLE0
 76
     2
 10
409.9890415208
 20
556.8505105286
 30
0.0
 10
393.9493854999
 20
659.5182084393
 30
0.0
  0
INSERT
  5
289
330
1F
100
AcDbEntity
  8
SLD-0_0
100
AcDbBlockReference
  2
SW_NOTE_17
 10
471.323536283
 20
654.7196008749
 30
0.0
  0
LEADER
  5
28A
330
1F
100
AcDbEntity
  8
SLD-0_0
100
AcDbLeader
  3
SLDDIMSTYLE0
 76
     2
 10
499.1368500426
 20
487.0221963705
 30
0.0
 10
471.323536283
 20
654.7196008749
 30
0.0
  0
INSERT
  5
290
330
1F
100
AcDbEntity
  8
SLD-0_0
100
AcDbBlockReference
  2
SW_NOTE_18
 10
887.8412580922
 20
719.544612207
 30
0.0
  0
LEADER
  5
291
330
1F
100
AcDbEntity
  8
SLD-0_0
100
AcDbLeader
  3
SLDDIMSTYLE0
 76
     2
 10
743.6634864932
 20
533.534553209
 30
0.0
 10
887.8412580922
 20
719.544612207
 30
0.0
  0
INSERT
  5
297
330
1F
100
AcDbEntity
  8
SLD-0_0
100
AcDbBlockReference
  2
SW_NOTE_19
 10
1000.3539188791
 20
465.4919394137
 30
0.0
  0
LEADER
  5
298
330
1F
100
AcDbEntity
  8
SLD-0_0
100
AcDbLeader
  3
SLDDIMSTYLE0
 76
     2
 10
922.4774652815
 20
454.2433570647
 30
0.0
 10
1000.3539188791
 20
465.4919394137
 30
0.0
  0
INSERT
  5
29E
330
1F
100
AcDbEntity
  8
SLD-0_0
100
AcDbBlockReference
  2
SW_NOTE_20
 10
819.5235749046
 20
197.9733790632
 30
0.0
  0
LEADER
  5
29F
330
1F
100
AcDbEntity
  8
SLD-0_0
100
AcDbLeader
  3
SLDDIMSTYLE0
 76
     2
 10
728.5773902657
 20
246.3132437644
 30
0.0
 10
819.5235749046
 20
197.9733790632
 30
0.0
  0
INSERT
  5
2A5
330
1F
100
AcDbEntity
  8
SLD-0_0
100
AcDbBlockReference
  2
SW_NOTE_21
 10
228.6533256853
 20
319.141008037
 30
0.0
  0
LEADER
  5
2A6
330
1F
100
AcDbEntity
  8
SLD-0_0
100
AcDbLeader
  3
SLDDIMSTYLE0
 76
     2
 10
362.9009554838
 20
356.0398805213
 30
0.0
 10
228.6533256853
 20
319.141008037
 30
0.0
  0
LINE
  5
2A7
330
1F
100
AcDbEntity
  8
0
  6
Continuous
 62
     7
100
AcDbLine
 10
199.1412221696
 20
1831.9955086861
 30
0.0
 11
199.1412221696
 21
1227.9955086861
 31
0.0
  0
LINE
  5
2A8
330
1F
100
AcDbEntity
  8
0
  6
Continuous
 62
     7
100
AcDbLine
 10
1174.1412221696
 20
1831.9955086861
 30
0.0
 11
199.1412221696
 21
1831.9955086861
 31
0.0
  0
LINE
  5
2A9
330
1F
100
AcDbEntity
  8
0
  6
Continuous
 62
     7
100
AcDbLine
 10
1174.1412221696
 20
1227.9955086861
 30
0.0
 11
1174.1412221696
 21
1831.9955086861
 31
0.0
  0
LINE
  5
2AA
330
1F
100
AcDbEntity
  8
0
  6
Continuous
 62
     7
100
AcDbLine
 10
199.1412221696
 20
1227.9955086861
 30
0.0
 11
1174.1412221696
 21
1227.9955086861
 31
0.0
  0
DIMENSION
  5
2AB
330
1F
100
AcDbEntity
  8
SLD-0_0
100
AcDbDimension
  2
_D
 10
1174.1412221696
 20
1182.9955086861
 30
0.0
 11
718.0269202451
 21
1182.9955086861
 31
0.0
 70
   160
  1
<>
 71
     2
 42
-1.0
  3
SLDDIMSTYLE1
100
AcDbAlignedDimension
 13
199.1412221696
 23
1227.9955086861
 33
0.0
 14
1174.1412221696
 24
1227.9955086861
 34
0.0
 50
0.0
100
AcDbRotatedDimension
  0
DIMENSION
  5
2B6
330
1F
100
AcDbEntity
  8
SLD-0_0
100
AcDbDimension
  2
_D_1
 10
154.1412221696
 20
1831.9955086861
 30
0.0
 11
154.1412221696
 21
1525.0917605772
 31
0.0
 70
   160
  1
<>
 71
     2
 42
-1.0
  3
SLDDIMSTYLE1
100
AcDbAlignedDimension
 13
199.1412221696
 23
1227.9955086861
 33
0.0
 14
199.1412221696
 24
1831.9955086861
 34
0.0
 50
90.0
100
AcDbRotatedDimension
  0
LINE
  5
2C0
330
1F
100
AcDbEntity
  8
0
  6
Continuous
 62
     7
100
AcDbLine
 10
1358.5046131663
 20
1831.9955086861
 30
0.0
 11
1358.5046131663
 21
1227.9955086861
 31
0.0
  0
LINE
  5
2C1
330
1F
100
AcDbEntity
  8
0
  6
Continuous
 62
     7
100
AcDbLine
 10
1798.5046131663
 20
1831.9955086861
 30
0.0
 11
1358.5046131663
 21
1831.9955086861
 31
0.0
  0
LINE
  5
2C2
330
1F
100
AcDbEntity
  8
0
  6
Continuous
 62
     7
100
AcDbLine
 10
1798.5046131663
 20
1227.9955086861
 30
0.0
 11
1798.5046131663
 21
1831.9955086861
 31
0.0
  0
LINE
  5
2C3
330
1F
100
AcDbEntity
  8
0
  6
Continuous
 62
     7
100
AcDbLine
 10
1358.5046131663
 20
1227.9955086861
 30
0.0
 11
1798.5046131663
 21
1227.9955086861
 31
0.0
  0
DIMENSION
  5
2C4
330
1F
100
AcDbEntity
  8
SLD-0_0
100
AcDbDimension
  2
_D_2
 10
1313.5046131663
 20
1227.9955086861
 30
0.0
 11
1313.5046131663
 21
1526.7674382957
 31
0.0
 70
   160
  1
<>
 71
     2
 42
-1.0
  3
SLDDIMSTYLE1
100
AcDbAlignedDimension
 13
1358.5046131663
 23
1831.9955086861
 33
0.0
 14
1358.5046131663
 24
1227.9955086861
 34
0.0
 50
90.0
100
AcDbRotatedDimension
  0
DIMENSION
  5
2CE
330
1F
100
AcDbEntity
  8
SLD-0_0
100
AcDbDimension
  2
_D_3
 10
1798.5046131663
 20
1189.9955086861
 30
0.0
 11
1575.9537502722
 21
1189.9955086861
 31
0.0
 70
   160
  1
<>
 71
     2
 42
-1.0
  3
SLDDIMSTYLE1
100
AcDbAlignedDimension
 13
1358.5046131663
 23
1227.9955086861
 33
0.0
 14
1798.5046131663
 24
1227.9955086861
 34
0.0
 50
0.0
100
AcDbRotatedDimension
  0
LINE
  5
2D8
330
1F
100
AcDbEntity
  8
0
  6
Continuous
 62
     7
100
AcDbLine
 10
2918.5649680191
 20
1797.8666195746
 30
0.0
 11
1979.5649680191
 21
1797.8666195746
 31
0.0
  0
LINE
  5
2D9
330
1F
100
AcDbEntity
  8
0
  6
Continuous
 62
     7
100
AcDbLine
 10
2918.5649680191
 20
1357.8666195746
 30
0.0
 11
2918.5649680191
 21
1797.8666195746
 31
0.0
  0
LINE
  5
2DA
330
1F
100
AcDbEntity
  8
0
  6
Continuous
 62
     7
100
AcDbLine
 10
1979.5649680191
 20
1357.8666195746
 30
0.0
 11
2918.5649680191
 21
1357.8666195746
 31
0.0
  0
LINE
  5
2DB
330
1F
100
AcDbEntity
  8
0
  6
Continuous
 62
     7
100
AcDbLine
 10
1979.5649680191
 20
1797.8666195746
 30
0.0
 11
1979.5649680191
 21
1357.8666195746
 31
0.0
  0
DIMENSION
  5
2DC
330
1F
100
AcDbEntity
  8
SLD-0_0
100
AcDbDimension
  2
_D_4
 10
1941.5649680191
 20
1357.8666195746
 30
0.0
 11
1941.5649680191
 21
1571.4726842205
 31
0.0
 70
   160
  1
<>
 71
     2
 42
-1.0
  3
SLDDIMSTYLE1
100
AcDbAlignedDimension
 13
1979.5649680191
 23
1797.8666195746
 33
0.0
 14
1979.5649680191
 24
1357.8666195746
 34
0.0
 50
90.0
100
AcDbRotatedDimension
  0
DIMENSION
  5
2E6
330
1F
100
AcDbEntity
  8
SLD-0_0
 62
     7
100
AcDbDimension
  2
_D_5
 10
2918.5649680191
 20
1305.8666195746
 30
0.0
 11
2418.0777398848
 21
1305.8666195746
 31
0.0
 70
   160
  1
<>
 71
     2
 42
-1.0
  3
SLDDIMSTYLE1
100
AcDbAlignedDimension
 13
1979.5649680191
 23
1357.8666195746
 33
0.0
 14
2918.5649680191
 24
1357.8666195746
 34
0.0
100
AcDbRotatedDimension
  0
LINE
  5
2F0
330
1F
100
AcDbEntity
  8
0
  6
Continuous
 62
     7
100
AcDbLine
 10
1247.0277145462
 20
580.3464180136
 30
0.0
 11
1656.0277145462
 21
580.3464180136
 31
0.0
  0
LINE
  5
2F1
330
1F
100
AcDbEntity
  8
0
  6
Continuous
 62
     7
100
AcDbLine
 10
1656.0277145462
 20
580.3464180136
 30
0.0
 11
1656.0277145462
 21
1020.3464180136
 31
0.0
  0
CIRCLE
  5
2F2
330
1F
100
AcDbEntity
  8
0
  6
Continuous
 62
     7
100
AcDbCircle
 10
1451.5277145462
 20
800.3464180136
 30
0.0
 40
196.9999999999998
  0
LINE
  5
2F3
330
1F
100
AcDbEntity
  8
0
  6
Continuous
 62
     7
100
AcDbLine
 10
1247.0277145462
 20
1020.3464180136
 30
0.0
 11
1247.0277145462
 21
580.3464180136
 31
0.0
  0
LINE
  5
2F4
330
1F
100
AcDbEntity
  8
0
  6
Continuous
 62
     7
100
AcDbLine
 10
1656.0277145462
 20
1020.3464180136
 30
0.0
 11
1247.0277145462
 21
1020.3464180136
 31
0.0
  0
CIRCLE
  5
2F5
330
1F
100
AcDbEntity
  8
0
  6
Continuous
 62
     7
100
AcDbCircle
 10
1451.5277145462
 20
800.3464180136
 30
0.0
 40
175.9999999999998
  0
CIRCLE
  5
2F6
330
1F
100
AcDbEntity
  8
0
  6
Continuous
 62
     7
100
AcDbCircle
 10
1380.1572544102
 20
972.649950827
 30
0.0
 40
3.299999999999727
  0
CIRCLE
  5
2F7
330
1F
100
AcDbEntity
  8
0
  6
Continuous
 62
     7
100
AcDbCircle
 10
1522.8981746823
 20
972.649950827
 30
0.0
 40
3.299999999999727
  0
CIRCLE
  5
2F8
330
1F
100
AcDbEntity
  8
0
  6
Continuous
 62
     7
100
AcDbCircle
 10
1623.8312473596
 20
871.7168781497
 30
0.0
 40
3.299999999999727
  0
CIRCLE
  5
2F9
330
1F
100
AcDbEntity
  8
0
  6
Continuous
 62
     7
100
AcDbCircle
 10
1623.8312473596
 20
728.9759578775
 30
0.0
 40
3.299999999999955
  0
CIRCLE
  5
2FA
330
1F
100
AcDbEntity
  8
0
  6
Continuous
 62
     7
100
AcDbCircle
 10
1522.8981746823
 20
628.0428852003
 30
0.0
 40
3.299999999999955
  0
CIRCLE
  5
2FB
330
1F
100
AcDbEntity
  8
0
  6
Continuous
 62
     7
100
AcDbCircle
 10
1380.1572544102
 20
628.0428852003
 30
0.0
 40
3.300000000000182
  0
CIRCLE
  5
2FC
330
1F
100
AcDbEntity
  8
0
  6
Continuous
 62
     7
100
AcDbCircle
 10
1279.2241817329
 20
728.9759578775
 30
0.0
 40
3.299999999999955
  0
CIRCLE
  5
2FD
330
1F
100
AcDbEntity
  8
0
  6
Continuous
 62
     7
100
AcDbCircle
 10
1279.2241817329
 20
871.7168781497
 30
0.0
 40
3.299999999999727
  0
DIMENSION
  5
2FE
330
1F
100
AcDbEntity
  8
SLD-0_0
100
AcDbDimension
  2
_D_6
 10
1216.0277145462
 20
580.3464180136
 30
0.0
 11
1216.0277145462
 21
796.1946365868
 31
0.0
 70
   160
  1
<>
 71
     2
 42
-1.0
  3
SLDDIMSTYLE1
100
AcDbAlignedDimension
 13
1247.0277145462
 23
1020.3464180136
 33
0.0
 14
1247.0277145462
 24
580.3464180136
 34
0.0
 50
90.0
100
AcDbRotatedDimension
  0
DIMENSION
  5
308
330
1F
100
AcDbEntity
  8
SLD-0_0
100
AcDbDimension
  2
_D_7
 10
1656.0277145462
 20
542.3464180136
 30
0.0
 11
1450.8874383691
 21
542.3464180136
 31
0.0
 70
   160
  1
<>
 71
     2
 42
-1.0
  3
SLDDIMSTYLE1
100
AcDbAlignedDimension
 13
1247.0277145462
 23
580.3464180136
 33
0.0
 14
1656.0277145462
 24
580.3464180136
 34
0.0
100
AcDbRotatedDimension
  0
DIMENSION
  5
312
330
1F
100
AcDbEntity
  8
SLD-0_0
100
AcDbDimension
  2
_D_8
 10
1302.4764328377
 20
706.7530666416
 30
0.0
 11
1376.1707053725
 21
753.0277072819
 31
0.0
 70
   163
  1
<>
 71
     1
 42
-1.0
  3
SLDDIMSTYLE2
100
AcDbDiametricDimension
 15
1600.5789962548
 25
893.9397693856
 35
0.0
 40
0.0
  0
DIMENSION
  5
31C
330
1F
100
AcDbEntity
  8
SLD-0_0
100
AcDbDimension
  2
_D_9
 10
1612.6537523508
 20
706.428102753
 30
0.0
 11
1520.6641478724
 21
760.0476874102
 31
0.0
 70
   163
  1
<>
 71
     1
 42
-1.0
  3
SLDDIMSTYLE2
100
AcDbDiametricDimension
 15
1290.4016767417
 25
894.2647332743
 35
0.0
 40
0.0
  0
DIMENSION
  5
326
330
1F
100
AcDbEntity
  8
SLD-0_0
100
AcDbDimension
  2
_D_10
 10
1383.2281739383
 20
971.4418724968
 30
0.0
 11
1313.3670418775
 21
998.5519197411
 31
0.0
 70
   163
  1
<>
 71
     1
 42
-1.0
  3
SLDDIMSTYLE3
100
AcDbDiametricDimension
 15
1377.086334882
 25
973.8580291571
 35
0.0
 40
0.0
  0
DIMENSION
  5
330
330
1F
100
AcDbEntity
  8
SLD-0_0
 62
     7
100
AcDbDimension
  2
_D_11
 10
1554.4339064959
 20
968.3324759423
 30
0.0
 11
1504.7282686947
 21
887.192025172
 31
0.0
 70
   163
  1
<>
 71
     1
 42
-1.0
  3
SLDDIMSTYLE4
100
AcDbDiametricDimension
 15
1348.6215225966
 25
632.3603600849
 35
0.0
 40
0.0
  0
INSERT
  5
37E
330
1F
100
AcDbEntity
  8
SLD-0_0
100
AcDbBlockReference
  2
SW_CENTERMARKSYMBOL_0
 10
1522.8981746823
 20
972.649950827
 30
0.0
  0
LINE
  5
37F
330
1F
100
AcDbEntity
  8
0
  6
Continuous
 62
     7
100
AcDbLine
 10
2462.6421614344
 20
1199.0543500136
 30
0.0
 11
2923.1421614344
 21
1199.0543500136
 31
0.0
  0
LINE
  5
380
330
1F
100
AcDbEntity
  8
0
  6
Continuous
 62
     7
100
AcDbLine
 10
1984.1421614344
 20
943.0543500136
 30
0.0
 11
1984.1421614344
 21
1199.0543500136
 31
0.0
  0
LINE
  5
381
330
1F
100
AcDbEntity
  8
0
  6
Continuous
 62
     7
100
AcDbLine
 10
1984.1421614344
 20
1199.0543500136
 30
0.0
 11
2444.6421614344
 21
1199.0543500136
 31
0.0
  0
LINE
  5
382
330
1F
100
AcDbEntity
  8
0
  6
Continuous
 62
     7
100
AcDbLine
 10
2444.6421614344
 20
1149.0543500136
 30
0.0
 11
2444.6421614344
 21
1199.0543500136
 31
0.0
  0
LINE
  5
383
330
1F
100
AcDbEntity
  8
0
  6
Continuous
 62
     7
100
AcDbLine
 10
2444.6421614344
 20
1149.0543500136
 30
0.0
 11
2462.6421614344
 21
1149.0543500136
 31
0.0
  0
LINE
  5
384
330
1F
100
AcDbEntity
  8
0
  6
Continuous
 62
     7
100
AcDbLine
 10
2462.6421614344
 20
1149.0543500136
 30
0.0
 11
2462.6421614344
 21
1199.0543500136
 31
0.0
  0
LINE
  5
385
330
1F
100
AcDbEntity
  8
0
  6
Continuous
 62
     7
100
AcDbLine
 10
2029.1421614344
 20
1079.0543500136
 30
0.0
 11
2029.1421614344
 21
1063.0543500136
 31
0.0
  0
ARC
  5
386
330
1F
100
AcDbEntity
  8
0
  6
Continuous
 62
     7
100
AcDbCircle
 10
2104.1421614344
 20
1063.0543500136
 30
0.0
 40
75.00000000000455
100
AcDbArc
 50
180.0
 51
270.0
  0
LINE
  5
387
330
1F
100
AcDbEntity
  8
0
  6
Continuous
 62
     7
100
AcDbLine
 10
2333.6421614344
 20
988.0543500136
 30
0.0
 11
2104.1421614344
 21
988.0543500136
 31
0.0
  0
ARC
  5
388
330
1F
100
AcDbEntity
  8
0
  6
Continuous
 62
     7
100
AcDbCircle
 10
2333.6421614344
 20
1063.0543500136
 30
0.0
 40
75.00000000000136
100
AcDbArc
 50
270.0
 51
360.0
  0
LINE
  5
389
330
1F
100
AcDbEntity
  8
0
  6
Continuous
 62
     7
100
AcDbLine
 10
2408.6421614344
 20
1079.0543500136
 30
0.0
 11
2408.6421614344
 21
1063.0543500136
 31
0.0
  0
ARC
  5
38A
330
1F
100
AcDbEntity
  8
0
  6
Continuous
 62
     7
100
AcDbCircle
 10
2333.6421614344
 20
1079.0543500136
 30
0.0
 40
75.00000000000182
100
AcDbArc
 50
360.0
 51
90.0
  0
LINE
  5
38B
330
1F
100
AcDbEntity
  8
0
  6
Continuous
 62
     7
100
AcDbLine
 10
2333.6421614344
 20
1154.0543500136
 30
0.0
 11
2104.1421614344
 21
1154.0543500136
 31
0.0
  0
ARC
  5
38C
330
1F
100
AcDbEntity
  8
0
  6
Continuous
 62
     7
100
AcDbCircle
 10
2104.1421614344
 20
1079.0543500136
 30
0.0
 40
75.00000000000455
100
AcDbArc
 50
90.0
 51
180.0
  0
LINE
  5
38D
330
1F
100
AcDbEntity
  8
0
  6
Continuous
 62
     7
100
AcDbLine
 10
2498.6421614344
 20
1079.0543500136
 30
0.0
 11
2498.6421614344
 21
1063.0543500136
 31
0.0
  0
ARC
  5
38E
330
1F
100
AcDbEntity
  8
0
  6
Continuous
 62
     7
100
AcDbCircle
 10
2573.6421614344
 20
1063.0543500136
 30
0.0
 40
75.00000000000273
100
AcDbArc
 50
180.0
 51
270.0
  0
LINE
  5
38F
330
1F
100
AcDbEntity
  8
0
  6
Continuous
 62
     7
100
AcDbLine
 10
2573.6421614344
 20
988.0543500136
 30
0.0
 11
2803.1421614344
 21
988.0543500136
 31
0.0
  0
ARC
  5
390
330
1F
100
AcDbEntity
  8
0
  6
Continuous
 62
     7
100
AcDbCircle
 10
2803.1421614344
 20
1063.0543500136
 30
0.0
 40
75.00000000000455
100
AcDbArc
 50
270.0
 51
0.0
  0
LINE
  5
391
330
1F
100
AcDbEntity
  8
0
  6
Continuous
 62
     7
100
AcDbLine
 10
2878.1421614344
 20
1079.0543500136
 30
0.0
 11
2878.1421614344
 21
1063.0543500136
 31
0.0
  0
ARC
  5
392
330
1F
100
AcDbEntity
  8
0
  6
Continuous
 62
     7
100
AcDbCircle
 10
2803.1421614344
 20
1079.0543500136
 30
0.0
 40
75.00000000000455
100
AcDbArc
 50
0.0
 51
90.0
  0
LINE
  5
393
330
1F
100
AcDbEntity
  8
0
  6
Continuous
 62
     7
100
AcDbLine
 10
2573.6421614344
 20
1154.0543500136
 30
0.0
 11
2803.1421614344
 21
1154.0543500136
 31
0.0
  0
ARC
  5
394
330
1F
100
AcDbEntity
  8
0
  6
Continuous
 62
     7
100
AcDbCircle
 10
2573.6421614344
 20
1079.0543500136
 30
0.0
 40
75.00000000000182
100
AcDbArc
 50
90.0
 51
180.0
  0
LINE
  5
395
330
1F
100
AcDbEntity
  8
0
  6
Continuous
 62
     7
100
AcDbLine
 10
1984.1421614344
 20
943.0543500136
 30
0.0
 11
2923.1421614344
 21
943.0543500136
 31
0.0
  0
LINE
  5
396
330
1F
100
AcDbEntity
  8
0
  6
Continuous
 62
     7
100
AcDbLine
 10
2923.1421614344
 20
943.0543500136
 30
0.0
 11
2923.1421614344
 21
1199.0543500136
 31
0.0
  0
DIMENSION
  5
397
330
1F
100
AcDbEntity
  8
SLD-0_0
100
AcDbDimension
  2
_D_12
 10
2462.6421614344
 20
1237.0543500136
 30
0.0
 11
2458.0021104829
 21
1237.0543500136
 31
0.0
 70
   160
  1
<>
 71
     2
 42
-1.0
  3
SLDDIMSTYLE5
100
AcDbAlignedDimension
 13
2444.6421614344
 23
1199.0543500136
 33
0.0
 14
2462.6421614344
 24
1199.0543500136
 34
0.0
100
AcDbRotatedDimension
  0
DIMENSION
  5
3A4
330
1F
100
AcDbEntity
  8
SLD-0_0
100
AcDbDimension
  2
_D_13
 10
2399.078492552
 20
1199.0543500136
 30
0.0
 11
2399.078492552
 21
1169.504337129
 31
0.0
 70
   160
  1
<>
 71
     2
 42
-1.0
  3
SLDDIMSTYLE5
100
AcDbAlignedDimension
 13
2444.6421614344
 23
1149.0543500136
 33
0.0
 14
2462.6421614344
 24
1199.0543500136
 34
0.0
 50
90.0
100
AcDbRotatedDimension
  0
DIMENSION
  5
3B0
330
1F
100
AcDbEntity
  8
SLD-0_0
100
AcDbDimension
  2
_D_14
 10
2408.6421614344
 20
905.0543500136
 30
0.0
 11
2214.7918630731
 21
905.0543500136
 31
0.0
 70
   160
  1
<>
 71
     2
 42
-1.0
  3
SLDDIMSTYLE6
100
AcDbAlignedDimension
 13
2029.1421614344
 23
1063.0543500136
 33
0.0
 14
2408.6421614344
 24
1063.0543500136
 34
0.0
 50
0.0
100
AcDbRotatedDimension
  0
DIMENSION
  5
3BB
330
1F
100
AcDbEntity
  8
SLD-0_0
100
AcDbDimension
  2
_D_15
 10
1984.1421614344
 20
905.0543500136
 30
0.0
 11
2009.1281159488
 21
905.0543500136
 31
0.0
 70
   160
  1
<>
 71
     2
 42
-1.0
  3
SLDDIMSTYLE5
100
AcDbAlignedDimension
 13
2029.1421614344
 23
1063.0543500136
 33
0.0
 14
1984.1421614344
 24
943.0543500136
 34
0.0
 50
0.0
100
AcDbRotatedDimension
  0
DIMENSION
  5
3C7
330
1F
100
AcDbEntity
  8
SLD-0_0
100
AcDbDimension
  2
_D_16
 10
1939.1421614344
 20
988.0543500136
 30
0.0
 11
1939.1421614344
 21
1058.4745338693
 31
0.0
 70
   160
  1
<>
 71
     2
 42
-1.0
  3
SLDDIMSTYLE1
100
AcDbAlignedDimension
 13
2104.1421614344
 23
1154.0543500136
 33
0.0
 14
2104.1421614344
 24
988.0543500136
 34
0.0
 50
90.0
100
AcDbRotatedDimension
  0
DIMENSION
  5
3D1
330
1F
100
AcDbEntity
  8
SLD-0_0
100
AcDbDimension
  2
_D_17
 10
1939.1421614344
 20
1199.0543500136
 30
0.0
 11
1939.1421614344
 21
1178.1593849528
 31
0.0
 70
   160
  1
<>
 71
     2
 42
-1.0
  3
SLDDIMSTYLE5
100
AcDbAlignedDimension
 13
2104.1421614344
 23
1154.0543500136
 33
0.0
 14
1984.1421614344
 24
1199.0543500136
 34
0.0
 50
90.0
100
AcDbRotatedDimension
  0
DIMENSION
  5
3DD
330
1F
100
AcDbEntity
  8
SLD-0_0
100
AcDbDimension
  2
_D_18
 10
2104.1421614344
 20
1079.0543500136
 30
0.0
 11
2076.4272584651
 21
1111.972841578
 31
0.0
 70
   164
  1
<>
 71
     1
 42
-1.0
  3
SLDDIMSTYLE7
100
AcDbRadialDimension
 15
2055.8380111623
 25
1136.4277677825
 35
0.0
 40
0.0
  0
DIMENSION
  5
3E5
330
1F
100
AcDbEntity
  8
SLD-0_0
100
AcDbDimension
  2
_D_19
 10
2923.1421614344
 20
870.0543500136
 30
0.0
 11
2448.4129104775
 21
870.0543500136
 31
0.0
 70
   160
  1
<>
 71
     2
 42
-1.0
  3
SLDDIMSTYLE1
100
AcDbAlignedDimension
 13
1984.1421614344
 23
943.0543500136
 33
0.0
 14
2923.1421614344
 24
943.0543500136
 34
0.0
100
AcDbRotatedDimension
  0
DIMENSION
  5
3EF
330
1F
100
AcDbEntity
  8
SLD-0_0
100
AcDbDimension
  2
_D_20
 10
2954.1421614344
 20
1199.0543500136
 30
0.0
 11
2954.1421614344
 21
1078.0129892197
 31
0.0
 70
   160
  1
<>
 71
     2
 42
-1.0
  3
SLDDIMSTYLE1
100
AcDbAlignedDimension
 13
2923.1421614344
 23
943.0543500136
 33
0.0
 14
2923.1421614344
 24
1199.0543500136
 34
0.0
 50
90.0
100
AcDbRotatedDimension
  0
LINE
  5
3F9
330
1F
100
AcDbEntity
  8
0
  6
Continuous
 62
     7
100
AcDbLine
 10
2137.2595237106
 20
797.6149826494
 30
0.0
 11
1926.2595237106
 21
797.6149826494
 31
0.0
  0
LINE
  5
3FA
330
1F
100
AcDbEntity
  8
0
  6
Continuous
 62
     7
100
AcDbLine
 10
2137.2595237106
 20
747.6149826494
 30
0.0
 11
2137.2595237106
 21
797.6149826494
 31
0.0
  0
LINE
  5
3FB
330
1F
100
AcDbEntity
  8
0
  6
Continuous
 62
     7
100
AcDbLine
 10
2155.2595237106
 20
747.6149826494
 30
0.0
 11
2137.2595237106
 21
747.6149826494
 31
0.0
  0
LINE
  5
3FC
330
1F
100
AcDbEntity
  8
0
  6
Continuous
 62
     7
100
AcDbLine
 10
2155.2595237106
 20
797.6149826494
 30
0.0
 11
2155.2595237106
 21
747.6149826494
 31
0.0
  0
LINE
  5
3FD
330
1F
100
AcDbEntity
  8
0
  6
Continuous
 62
     7
100
AcDbLine
 10
2366.2595237106
 20
797.6149826494
 30
0.0
 11
2155.2595237106
 21
797.6149826494
 31
0.0
  0
LINE
  5
3FE
330
1F
100
AcDbEntity
  8
0
  6
Continuous
 62
     7
100
AcDbLine
 10
2366.2595237106
 20
697.6149826494
 30
0.0
 11
2366.2595237106
 21
797.6149826494
 31
0.0
  0
LINE
  5
3FF
330
1F
100
AcDbEntity
  8
0
  6
Continuous
 62
     7
100
AcDbLine
 10
1926.2595237106
 20
697.6149826494
 30
0.0
 11
2366.2595237106
 21
697.6149826494
 31
0.0
  0
LINE
  5
400
330
1F
100
AcDbEntity
  8
0
  6
Continuous
 62
     7
100
AcDbLine
 10
1926.2595237106
 20
797.6149826494
 30
0.0
 11
1926.2595237106
 21
697.6149826494
 31
0.0
  0
DIMENSION
  5
401
330
1F
100
AcDbEntity
  8
SLD-0_0
100
AcDbDimension
  2
_D_21
 10
2366.2595237106
 20
666.6149826494
 30
0.0
 11
2144.5800433679
 21
666.6149826494
 31
0.0
 70
   160
  1
<>
 71
     2
 42
-1.0
  3
SLDDIMSTYLE1
100
AcDbAlignedDimension
 13
1926.2595237106
 23
697.6149826494
 33
0.0
 14
2366.2595237106
 24
697.6149826494
 34
0.0
100
AcDbRotatedDimension
  0
DIMENSION
  5
40B
330
1F
100
AcDbEntity
  8
SLD-0_0
100
AcDbDimension
  2
_D_22
 10
2397.2595237106
 20
797.6149826494
 30
0.0
 11
2397.2595237106
 21
745.2219371736
 31
0.0
 70
   160
  1
<>
 71
     2
 42
-1.0
  3
SLDDIMSTYLE1
100
AcDbAlignedDimension
 13
2366.2595237106
 23
697.6149826494
 33
0.0
 14
2366.2595237106
 24
797.6149826494
 34
0.0
 50
90.0
100
AcDbRotatedDimension
  0
DIMENSION
  5
415
330
1F
100
AcDbEntity
  8
SLD-0_0
100
AcDbDimension
  2
_D_23
 10
2155.2595237106
 20
828.6149826494
 30
0.0
 11
2144.5800433679
 21
828.6149826494
 31
0.0
 70
   160
  1
<>
 71
     2
 42
-1.0
  3
SLDDIMSTYLE5
100
AcDbAlignedDimension
 13
2137.2595237106
 23
797.6149826494
 33
0.0
 14
2155.2595237106
 24
797.6149826494
 34
0.0
100
AcDbRotatedDimension
  0
DIMENSION
  5
421
330
1F
100
AcDbEntity
  8
SLD-0_0
100
AcDbDimension
  2
_D_24
 10
2107.264644678
 20
747.6149826494
 30
0.0
 11
2107.264644678
 21
770.840930011
 31
0.0
 70
   160
  1
<>
 71
     2
 42
-1.0
  3
SLDDIMSTYLE5
100
AcDbAlignedDimension
 13
2155.2595237106
 23
797.6149826494
 33
0.0
 14
2137.2595237106
 24
747.6149826494
 34
0.0
 50
90.0
100
AcDbRotatedDimension
  0
LINE
  5
42D
330
1F
100
AcDbEntity
  8
0
  6
Continuous
 62
     7
100
AcDbLine
 10
2027.2219240257
 20
395.1197634475
 30
0.0
 11
2112.2219240257
 21
395.1197634475
 31
0.0
  0
LINE
  5
42E
330
1F
100
AcDbEntity
  8
0
  6
Continuous
 62
     7
100
AcDbLine
 10
2027.2219240257
 20
517.1197634475
 30
0.0
 11
2027.2219240257
 21
395.1197634475
 31
0.0
  0
LINE
  5
42F
330
1F
100
AcDbEntity
  8
0
  6
Continuous
 62
     7
100
AcDbLine
 10
2112.2219240257
 20
517.1197634475
 30
0.0
 11
2027.2219240257
 21
517.1197634475
 31
0.0
  0
LINE
  5
430
330
1F
100
AcDbEntity
  8
0
  6
Continuous
 62
     7
100
AcDbLine
 10
2112.2219240257
 20
395.1197634475
 30
0.0
 11
2112.2219240257
 21
517.1197634475
 31
0.0
  0
DIMENSION
  5
431
330
1F
100
AcDbEntity
  8
SLD-0_0
100
AcDbDimension
  2
_D_25
 10
2027.2219240257
 20
327.6197634475
 30
0.0
 11
2067.7335483254
 21
327.6197634475
 31
0.0
 70
   160
  1
<>
 71
     2
 42
-1.0
  3
SLDDIMSTYLE1
100
AcDbAlignedDimension
 13
2112.2219240257
 23
395.1197634475
 33
0.0
 14
2027.2219240257
 24
395.1197634475
 34
0.0
100
AcDbRotatedDimension
  0
DIMENSION
  5
43B
330
1F
100
AcDbEntity
  8
SLD-0_0
100
AcDbDimension
  2
_D_26
 10
2143.2219240257
 20
517.1197634475
 30
0.0
 11
2143.2219240257
 21
454.5191837864
 31
0.0
 70
   160
  1
<>
 71
     2
 42
-1.0
  3
SLDDIMSTYLE1
100
AcDbAlignedDimension
 13
2112.2219240257
 23
395.1197634475
 33
0.0
 14
2112.2219240257
 24
517.1197634475
 34
0.0
 50
90.0
100
AcDbRotatedDimension
  0
LINE
  5
445
330
1F
100
AcDbEntity
  8
0
  6
Continuous
 62
     7
100
AcDbLine
 10
2646.6520488907
 20
320.3259245832
 30
0.0
 11
2768.6520488907
 21
320.3259245832
 31
0.0
  0
LINE
  5
446
330
1F
100
AcDbEntity
  8
0
  6
Continuous
 62
     7
100
AcDbLine
 10
2646.6520488907
 20
760.3259245832
 30
0.0
 11
2646.6520488907
 21
320.3259245832
 31
0.0
  0
LINE
  5
447
330
1F
100
AcDbEntity
  8
0
  6
Continuous
 62
     7
100
AcDbLine
 10
2768.6520488907
 20
760.3259245832
 30
0.0
 11
2646.6520488907
 21
760.3259245832
 31
0.0
  0
LINE
  5
448
330
1F
100
AcDbEntity
  8
0
  6
Continuous
 62
     7
100
AcDbLine
 10
2768.6520488907
 20
320.3259245832
 30
0.0
 11
2768.6520488907
 21
760.3259245832
 31
0.0
  0
DIMENSION
  5
449
330
1F
100
AcDbEntity
  8
SLD-0_0
100
AcDbDimension
  2
_D_27
 10
2608.6520488907
 20
320.3259245832
 30
0.0
 11
2608.6520488907
 21
540.3259245832
 31
0.0
 70
   160
  1
<>
 71
     2
 42
-1.0
  3
SLDDIMSTYLE1
100
AcDbAlignedDimension
 13
2646.6520488907
 23
760.3259245832
 33
0.0
 14
2646.6520488907
 24
320.3259245832
 34
0.0
 50
90.0
100
AcDbRotatedDimension
  0
DIMENSION
  5
453
330
1F
100
AcDbEntity
  8
SLD-0_0
100
AcDbDimension
  2
_D_28
 10
2768.6520488907
 20
289.3259245832
 30
0.0
 11
2706.1105868588
 21
289.3259245832
 31
0.0
 70
   160
  1
<>
 71
     2
 42
-1.0
  3
SLDDIMSTYLE1
100
AcDbAlignedDimension
 13
2646.6520488907
 23
320.3259245832
 33
0.0
 14
2768.6520488907
 24
320.3259245832
 34
0.0
100
AcDbRotatedDimension
  0
LINE
  5
45D
330
1F
100
AcDbEntity
  8
0
  6
Continuous
 62
     7
100
AcDbLine
 10
2873.6171730371
 20
320.3259245832
 30
0.0
 11
2891.6171730371
 21
320.3259245832
 31
0.0
  0
LINE
  5
45E
330
1F
100
AcDbEntity
  8
0
  6
Continuous
 62
     7
100
AcDbLine
 10
2873.6171730371
 20
320.3259245832
 30
0.0
 11
2873.6171730371
 21
760.3259245832
 31
0.0
  0
LINE
  5
45F
330
1F
100
AcDbEntity
  8
0
  6
Continuous
 62
     7
100
AcDbLine
 10
2873.6171730371
 20
760.3259245832
 30
0.0
 11
2891.6171730371
 21
760.3259245832
 31
0.0
  0
LINE
  5
460
330
1F
100
AcDbEntity
  8
0
  6
Continuous
 62
     7
100
AcDbLine
 10
2891.6171730371
 20
320.3259245832
 30
0.0
 11
2891.6171730371
 21
760.3259245832
 31
0.0
  0
DIMENSION
  5
461
330
1F
100
AcDbEntity
  8
CAJETIN
100
AcDbDimension
  2
_D_29
 10
2891.6171730371
 20
289.3259245832
 30
0.0
 11
2912.7021696614
 21
289.3259245832
 31
0.0
 70
   160
  1
<>
 71
     2
 42
-1.0
  3
SLDDIMSTYLE5
100
AcDbAlignedDimension
 13
2873.6171730371
 23
320.3259245832
 33
0.0
 14
2891.6171730371
 24
320.3259245832
 34
0.0
100
AcDbRotatedDimension
  0
LINE
  5
46D
330
1F
100
AcDbEntity
  8
0
  6
Continuous
 62
     7
100
AcDbLine
 10
2227.5504405789
 20
395.1197634475
 30
0.0
 11
2245.5504405789
 21
395.1197634475
 31
0.0
  0
LINE
  5
46E
330
1F
100
AcDbEntity
  8
0
  6
Continuous
 62
     7
100
AcDbLine
 10
2227.5504405789
 20
395.1197634475
 30
0.0
 11
2227.5504405789
 21
517.1197634475
 31
0.0
  0
LINE
  5
46F
330
1F
100
AcDbEntity
  8
0
  6
Continuous
 62
     7
100
AcDbLine
 10
2227.5504405789
 20
517.1197634475
 30
0.0
 11
2245.5504405789
 21
517.1197634475
 31
0.0
  0
LINE
  5
470
330
1F
100
AcDbEntity
  8
0
  6
Continuous
 62
     7
100
AcDbLine
 10
2245.5504405789
 20
395.1197634475
 30
0.0
 11
2245.5504405789
 21
517.1197634475
 31
0.0
  0
DIMENSION
  5
471
330
1F
100
AcDbEntity
  8
CAJETIN
100
AcDbDimension
  2
_D_30
 10
2227.5504405789
 20
364.1197634475
 30
0.0
 11
2234.1305435201
 21
364.1197634475
 31
0.0
 70
   160
  1
<>
 71
     2
 42
-1.0
  3
SLDDIMSTYLE5
100
AcDbAlignedDimension
 13
2245.5504405789
 23
395.1197634475
 33
0.0
 14
2227.5504405789
 24
395.1197634475
 34
0.0
100
AcDbRotatedDimension
  0
ENDSEC
  0
SECTION
  2
OBJECTS
  0
DICTIONARY
  5
C
330
0
100
AcDbDictionary
281
     1
  3
ACAD_GROUP
350
D
  3
ACAD_LAYOUT
350
1A
  3
ACAD_MLINESTYLE
350
17
  3
ACAD_PLOTSETTINGS
350
19
  3
ACAD_PLOTSTYLENAME
350
E
  3
ACAD_SCALELIST
350
47
  0
DICTIONARY
  5
D
102
{ACAD_REACTORS
330
C
102
}
330
C
100
AcDbDictionary
281
     1
  0
DICTIONARY
  5
1A
102
{ACAD_REACTORS
330
C
102
}
330
C
100
AcDbDictionary
281
     1
  3
Layout1
350
1E
  3
Layout2
350
26
  3
Model
350
22
  0
DICTIONARY
  5
17
102
{ACAD_REACTORS
330
C
102
}
330
C
100
AcDbDictionary
281
     1
  3
Standard
350
18
  0
DICTIONARY
  5
19
102
{ACAD_REACTORS
330
C
102
}
330
C
100
AcDbDictionary
281
     1
  0
ACDBDICTIONARYWDFLT
  5
E
102
{ACAD_REACTORS
330
C
102
}
330
C
100
AcDbDictionary
281
     1
  3
Normal
350
F
100
AcDbDictionaryWithDefault
340
F
  0
DICTIONARY
  5
47
102
{ACAD_REACTORS
330
C
102
}
330
C
100
AcDbDictionary
281
     1
  3
A0
350
48
  3
A1
350
49
  3
A2
350
4A
  3
A3
350
4B
  3
A4
350
4C
  3
A5
350
4D
  3
A6
350
4E
  3
A7
350
4F
  3
A8
350
50
  3
A9
350
51
  3
B0
350
52
  3
B1
350
53
  3
B2
350
54
  3
B3
350
55
  3
B4
350
56
  3
B5
350
57
  3
B6
350
58
  3
B7
350
59
  3
B8
350
5A
  3
B9
350
5B
  3
C0
350
5C
  3
C1
350
5D
  3
C2
350
5E
  3
C3
350
5F
  3
C4
350
60
  3
C5
350
61
  3
C6
350
62
  3
C7
350
63
  3
C8
350
64
  3
C9
350
65
  3
D0
350
66
  3
D1
350
67
  3
D2
350
68
  0
LAYOUT
  5
1E
102
{ACAD_REACTORS
330
1A
102
}
330
1A
100
AcDbPlotSettings
  1

  2
none_device
  4

  6

 40
0.0
 41
0.0
 42
0.0
 43
0.0
 44
0.0
 45
0.0
 46
0.0
 47
0.0
 48
0.0
 49
0.0
140
0.0
141
0.0
142
1.0
143
1.0
 70
   688
 72
     1
 73
     0
 74
     5
  7

 75
    16
147
1.0
148
0.0
149
0.0
100
AcDbLayout
  1
Layout1
 70
     1
 71
     1
 10
0.0
 20
0.0
 11
420.0
 21
297.0
 12
0.0
 22
0.0
 32
0.0
 14
1.0000000000E+20
 24
1.0000000000E+20
 34
1.0000000000E+20
 15
-1.0000000000E+20
 25
-1.0000000000E+20
 35
-1.0000000000E+20
146
0.0
 13
0.0
 23
0.0
 33
0.0
 16
1.0
 26
0.0
 36
0.0
 17
0.0
 27
1.0
 37
0.0
 76
     0
330
1B
  0
LAYOUT
  5
26
102
{ACAD_REACTORS
330
1A
102
}
330
1A
100
AcDbPlotSettings
  1

  2
none_device
  4

  6

 40
0.0
 41
0.0
 42
0.0
 43
0.0
 44
0.0
 45
0.0
 46
0.0
 47
0.0
 48
0.0
 49
0.0
140
0.0
141
0.0
142
1.0
143
1.0
 70
   688
 72
     1
 73
     0
 74
     5
  7

 75
    16
147
1.0
148
0.0
149
0.0
100
AcDbLayout
  1
Layout2
 70
     1
 71
     2
 10
0.0
 20
0.0
 11
0.0
 21
0.0
 12
0.0
 22
0.0
 32
0.0
 14
0.0
 24
0.0
 34
0.0
 15
0.0
 25
0.0
 35
0.0
146
0.0
 13
0.0
 23
0.0
 33
0.0
 16
1.0
 26
0.0
 36
0.0
 17
0.0
 27
1.0
 37
0.0
 76
     0
330
23
  0
LAYOUT
  5
22
102
{ACAD_REACTORS
330
1A
102
}
330
1A
100
AcDbPlotSettings
  1

  2
none_device
  4
Letter_(8.50_x_11.00_Inches)
  6

 40
6.35
 41
6.35
 42
6.35000508
 43
6.35000508
 44
215.9
 45
279.4
 46
0.0
 47
0.0
 48
0.0
 49
0.0
140
0.0
141
0.0
142
1.0
143
1.0
 70
  1712
 72
     1
 73
     0
 74
     0
  7

 75
     0
147
1.0
148
0.0
149
0.0
100
AcDbLayout
  1
Model
 70
     1
 71
     0
 10
0.0
 20
0.0
 11
3000.0
 21
2000.0
 12
0.0
 22
0.0
 32
0.0
 14
0.0
 24
0.0
 34
0.0
 15
3000.0
 25
2000.0
 35
0.0
146
0.0
 13
0.0
 23
0.0
 33
0.0
 16
1.0
 26
0.0
 36
0.0
 17
0.0
 27
1.0
 37
0.0
 76
     0
330
1F
331
29
  0
MLINESTYLE
  5
18
102
{ACAD_REACTORS
330
17
102
}
330
17
100
AcDbMlineStyle
  2
Standard
 70
     0
  3

 62
   256
 51
90.0
 52
90.0
 71
     2
 49
0.5
 62
   256
  6
BYLAYER
 49
-0.5
 62
   256
  6
BYLAYER
  0
ACDBPLACEHOLDER
  5
F
102
{ACAD_REACTORS
330
E
102
}
330
E
  0
SCALE
  5
48
102
{ACAD_REACTORS
330
47
102
}
330
47
100
AcDbScale
 70
     0
300
1:1
140
1.0
141
1.0
290
     1
  0
SCALE
  5
49
102
{ACAD_REACTORS
330
47
102
}
330
47
100
AcDbScale
 70
     0
300
1:2
140
1.0
141
2.0
290
     0
  0
SCALE
  5
4A
102
{ACAD_REACTORS
330
47
102
}
330
47
100
AcDbScale
 70
     0
300
1:4
140
1.0
141
4.0
290
     0
  0
SCALE
  5
4B
102
{ACAD_REACTORS
330
47
102
}
330
47
100
AcDbScale
 70
     0
300
1:5
140
1.0
141
5.0
290
     0
  0
SCALE
  5
4C
102
{ACAD_REACTORS
330
47
102
}
330
47
100
AcDbScale
 70
     0
300
1:8
140
1.0
141
8.0
290
     0
  0
SCALE
  5
4D
102
{ACAD_REACTORS
330
47
102
}
330
47
100
AcDbScale
 70
     0
300
1:10
140
1.0
141
10.0
290
     0
  0
SCALE
  5
4E
102
{ACAD_REACTORS
330
47
102
}
330
47
100
AcDbScale
 70
     0
300
1:16
140
1.0
141
16.0
290
     0
  0
SCALE
  5
4F
102
{ACAD_REACTORS
330
47
102
}
330
47
100
AcDbScale
 70
     0
300
1:20
140
1.0
141
20.0
290
     0
  0
SCALE
  5
50
102
{ACAD_REACTORS
330
47
102
}
330
47
100
AcDbScale
 70
     0
300
1:30
140
1.0
141
30.0
290
     0
  0
SCALE
  5
51
102
{ACAD_REACTORS
330
47
102
}
330
47
100
AcDbScale
 70
     0
300
1:40
140
1.0
141
40.0
290
     0
  0
SCALE
  5
52
102
{ACAD_REACTORS
330
47
102
}
330
47
100
AcDbScale
 70
     0
300
1:50
140
1.0
141
50.0
290
     0
  0
SCALE
  5
53
102
{ACAD_REACTORS
330
47
102
}
330
47
100
AcDbScale
 70
     0
300
1:100
140
1.0
141
100.0
290
     0
  0
SCALE
  5
54
102
{ACAD_REACTORS
330
47
102
}
330
47
100
AcDbScale
 70
     0
300
2:1
140
2.0
141
1.0
290
     0
  0
SCALE
  5
55
102
{ACAD_REACTORS
330
47
102
}
330
47
100
AcDbScale
 70
     0
300
4:1
140
4.0
141
1.0
290
     0
  0
SCALE
  5
56
102
{ACAD_REACTORS
330
47
102
}
330
47
100
AcDbScale
 70
     0
300
8:1
140
8.0
141
1.0
290
     0
  0
SCALE
  5
57
102
{ACAD_REACTORS
330
47
102
}
330
47
100
AcDbScale
 70
     0
300
10:1
140
10.0
141
1.0
290
     0
  0
SCALE
  5
58
102
{ACAD_REACTORS
330
47
102
}
330
47
100
AcDbScale
 70
     0
300
100:1
140
100.0
141
1.0
290
     0
  0
SCALE
  5
59
102
{ACAD_REACTORS
330
47
102
}
330
47
100
AcDbScale
 70
     0
300
1/128" = 1'-0"
140
0.0078125
141
12.0
290
     0
  0
SCALE
  5
5A
102
{ACAD_REACTORS
330
47
102
}
330
47
100
AcDbScale
 70
     0
300
1/64" = 1'-0"
140
0.015625
141
12.0
290
     0
  0
SCALE
  5
5B
102
{ACAD_REACTORS
330
47
102
}
330
47
100
AcDbScale
 70
     0
300
1/32" = 1'-0"
140
0.03125
141
12.0
290
     0
  0
SCALE
  5
5C
102
{ACAD_REACTORS
330
47
102
}
330
47
100
AcDbScale
 70
     0
300
1/16" = 1'-0"
140
0.0625
141
12.0
290
     0
  0
SCALE
  5
5D
102
{ACAD_REACTORS
330
47
102
}
330
47
100
AcDbScale
 70
     0
300
3/32" = 1'-0"
140
0.09375
141
12.0
290
     0
  0
SCALE
  5
5E
102
{ACAD_REACTORS
330
47
102
}
330
47
100
AcDbScale
 70
     0
300
1/8" = 1'-0"
140
0.125
141
12.0
290
     0
  0
SCALE
  5
5F
102
{ACAD_REACTORS
330
47
102
}
330
47
100
AcDbScale
 70
     0
300
3/16" = 1'-0"
140
0.1875
141
12.0
290
     0
  0
SCALE
  5
60
102
{ACAD_REACTORS
330
47
102
}
330
47
100
AcDbScale
 70
     0
300
1/4" = 1'-0"
140
0.25
141
12.0
290
     0
  0
SCALE
  5
61
102
{ACAD_REACTORS
330
47
102
}
330
47
100
AcDbScale
 70
     0
300
3/8" = 1'-0"
140
0.375
141
12.0
290
     0
  0
SCALE
  5
62
102
{ACAD_REACTORS
330
47
102
}
330
47
100
AcDbScale
 70
     0
300
1/2" = 1'-0"
140
0.5
141
12.0
290
     0
  0
SCALE
  5
63
102
{ACAD_REACTORS
330
47
102
}
330
47
100
AcDbScale
 70
     0
300
3/4" = 1'-0"
140
0.75
141
12.0
290
     0
  0
SCALE
  5
64
102
{ACAD_REACTORS
330
47
102
}
330
47
100
AcDbScale
 70
     0
300
1" = 1'-0"
140
1.0
141
12.0
290
     0
  0
SCALE
  5
65
102
{ACAD_REACTORS
330
47
102
}
330
47
100
AcDbScale
 70
     0
300
1-1/2" = 1'-0"
140
1.5
141
12.0
290
     0
  0
SCALE
  5
66
102
{ACAD_REACTORS
330
47
102
}
330
47
100
AcDbScale
 70
     0
300
3" = 1'-0"
140
3.0
141
12.0
290
     0
  0
SCALE
  5
67
102
{ACAD_REACTORS
330
47
102
}
330
47
100
AcDbScale
 70
     0
300
6" = 1'-0"
140
6.0
141
12.0
290
     0
  0
SCALE
  5
68
102
{ACAD_REACTORS
330
47
102
}
330
47
100
AcDbScale
 70
     0
300
1'-0" = 1'-0"
140
12.0
141
12.0
290
     0
  0
ENDSEC
  0
EOF
