  0
SECTION
  2
HEADER
  9
$ACADVER
  1
AC1015
  9
$ACADMAINTVER
 70
     6
  9
$DWGCODEPAGE
  3
ANSI_1252
  9
$INSBASE
 10
0.0
 20
0.0
 30
0.0
  9
$EXTMIN
 10
0.0
 20
0.0
 30
0.0
  9
$EXTMAX
 10
3500.0
 20
2000.0
 30
0.0
  9
$LIMMIN
 10
0.0
 20
0.0
  9
$LIMMAX
 10
3500.0
 20
2000.0
  9
$ORTHOMODE
 70
     0
  9
$REGENMODE
 70
     1
  9
$FILLMODE
 70
     1
  9
$QTEXTMODE
 70
     0
  9
$MIRRTEXT
 70
     1
  9
$LTSCALE
 40
1.0
  9
$ATTMODE
 70
     1
  9
$TEXTSIZE
 40
2.5
  9
$TRACEWID
 40
1.0
  9
$TEXTSTYLE
  7
Standard
  9
$CLAYER
  8
0
  9
$CELTYPE
  6
ByLayer
  9
$CECOLOR
 62
   256
  9
$CELTSCALE
 40
1.0
  9
$DISPSILH
 70
     0
  9
$DIMSCALE
 40
1.0
  9
$DIMASZ
 40
3.302
  9
$DIMEXO
 40
1.0
  9
$DIMDLI
 40
3.75
  9
$DIMRND
 40
0.0
  9
$DIMDLE
 40
0.0
  9
$DIMEXE
 40
1.0
  9
$DIMTP
 40
0.0
  9
$DIMTM
 40
0.0
  9
$DIMTXT
 40
3.5
  9
$DIMCEN
 40
2.5
  9
$DIMTSZ
 40
0.0
  9
$DIMTOL
 70
     0
  9
$DIMLIM
 70
     0
  9
$DIMTIH
 70
     1
  9
$DIMTOH
 70
     1
  9
$DIMSE1
 70
     0
  9
$DIMSE2
 70
     0
  9
$DIMTAD
 70
     1
  9
$DIMZIN
 70
     0
  9
$DIMBLK
  1

  9
$DIMASO
 70
     1
  9
$DIMSHO
 70
     1
  9
$DIMPOST
  1

  9
$DIMAPOST
  1

  9
$DIMALT
 70
     0
  9
$DIMALTD
 70
     3
  9
$DIMALTF
 40
0.0393700787
  9
$DIMLFAC
 40
1.0
  9
$DIMTOFL
 70
     1
  9
$DIMTVP
 40
0.0
  9
$DIMTIX
 70
     0
  9
$DIMSOXD
 70
     0
  9
$DIMSAH
 70
     0
  9
$DIMBLK1
  1

  9
$DIMBLK2
  1

  9
$DIMSTYLE
  2
ISO-25
  9
$DIMCLRD
 70
     0
  9
$DIMCLRE
 70
     0
  9
$DIMCLRT
 70
     0
  9
$DIMTFAC
 40
1.0
  9
$DIMGAP
 40
1.524
  9
$DIMJUST
 70
     0
  9
$DIMSD1
 70
     0
  9
$DIMSD2
 70
     0
  9
$DIMTOLJ
 70
     0
  9
$DIMTZIN
 70
     0
  9
$DIMALTZ
 70
     0
  9
$DIMALTTZ
 70
     0
  9
$DIMUPT
 70
     0
  9
$DIMDEC
 70
     2
  9
$DIMTDEC
 70
     2
  9
$DIMALTU
 70
     2
  9
$DIMALTTD
 70
     3
  9
$DIMTXSTY
  7
Standard
  9
$DIMAUNIT
 70
     0
  9
$DIMADEC
 70
     2
  9
$DIMALTRND
 40
0.0
  9
$DIMAZIN
 70
     0
  9
$DIMDSEP
 70
    44
  9
$DIMATFIT
 70
     3
  9
$DIMFRAC
 70
     0
  9
$DIMLDRBLK
  1

  9
$DIMLUNIT
 70
     2
  9
$DIMLWD
 70
    -2
  9
$DIMLWE
 70
    -2
  9
$DIMTMOVE
 70
     0
  9
$LUNITS
 70
     2
  9
$LUPREC
 70
     2
  9
$SKETCHINC
 40
1.0
  9
$FILLETRAD
 40
10.0
  9
$AUNITS
 70
     0
  9
$AUPREC
 70
     2
  9
$MENU
  1
.
  9
$ELEVATION
 40
0.0
  9
$PELEVATION
 40
0.0
  9
$THICKNESS
 40
0.0
  9
$LIMCHECK
 70
     0
  9
$CHAMFERA
 40
0.0
  9
$CHAMFERB
 40
0.0
  9
$CHAMFERC
 40
0.0
  9
$CHAMFERD
 40
0.0
  9
$SKPOLY
 70
     0
  9
$TDCREATE
 40
2459254.398642616
  9
$TDUCREATE
 40
2459254.356975949
  9
$TDUPDATE
 40
2459254.398668357
  9
$TDUUPDATE
 40
2459254.35700169
  9
$TDINDWG
 40
0.0000000116
  9
$TDUSRTIMER
 40
0.0000000116
  9
$USRTIMER
 70
     1
  9
$ANGBASE
 50
0.0
  9
$ANGDIR
 70
     0
  9
$PDMODE
 70
     0
  9
$PDSIZE
 40
-1.0
  9
$PLINEWID
 40
0.0
  9
$SPLFRAME
 70
     0
  9
$SPLINETYPE
 70
     6
  9
$SPLINESEGS
 70
     8
  9
$HANDSEED
  5
445
  9
$SURFTAB1
 70
     6
  9
$SURFTAB2
 70
     6
  9
$SURFTYPE
 70
     6
  9
$SURFU
 70
     6
  9
$SURFV
 70
     6
  9
$UCSBASE
  2

  9
$UCSNAME
  2

  9
$UCSORG
 10
0.0
 20
0.0
 30
0.0
  9
$UCSXDIR
 10
1.0
 20
0.0
 30
0.0
  9
$UCSYDIR
 10
0.0
 20
1.0
 30
0.0
  9
$UCSORTHOREF
  2

  9
$UCSORTHOVIEW
 70
     0
  9
$UCSORGTOP
 10
0.0
 20
0.0
 30
0.0
  9
$UCSORGBOTTOM
 10
0.0
 20
0.0
 30
0.0
  9
$UCSORGLEFT
 10
0.0
 20
0.0
 30
0.0
  9
$UCSORGRIGHT
 10
0.0
 20
0.0
 30
0.0
  9
$UCSORGFRONT
 10
0.0
 20
0.0
 30
0.0
  9
$UCSORGBACK
 10
0.0
 20
0.0
 30
0.0
  9
$PUCSBASE
  2

  9
$PUCSNAME
  2

  9
$PUCSORG
 10
0.0
 20
0.0
 30
0.0
  9
$PUCSXDIR
 10
1.0
 20
0.0
 30
0.0
  9
$PUCSYDIR
 10
0.0
 20
1.0
 30
0.0
  9
$PUCSORTHOREF
  2

  9
$PUCSORTHOVIEW
 70
     0
  9
$PUCSORGTOP
 10
0.0
 20
0.0
 30
0.0
  9
$PUCSORGBOTTOM
 10
0.0
 20
0.0
 30
0.0
  9
$PUCSORGLEFT
 10
0.0
 20
0.0
 30
0.0
  9
$PUCSORGRIGHT
 10
0.0
 20
0.0
 30
0.0
  9
$PUCSORGFRONT
 10
0.0
 20
0.0
 30
0.0
  9
$PUCSORGBACK
 10
0.0
 20
0.0
 30
0.0
  9
$USERI1
 70
     0
  9
$USERI2
 70
     0
  9
$USERI3
 70
     0
  9
$USERI4
 70
     0
  9
$USERI5
 70
     0
  9
$USERR1
 40
0.0
  9
$USERR2
 40
0.0
  9
$USERR3
 40
0.0
  9
$USERR4
 40
0.0
  9
$USERR5
 40
0.0
  9
$WORLDVIEW
 70
     1
  9
$SHADEDGE
 70
     3
  9
$SHADEDIF
 70
    70
  9
$TILEMODE
 70
     1
  9
$MAXACTVP
 70
    64
  9
$PINSBASE
 10
0.0
 20
0.0
 30
0.0
  9
$PLIMCHECK
 70
     0
  9
$PEXTMIN
 10
1.0000000000E+20
 20
1.0000000000E+20
 30
1.0000000000E+20
  9
$PEXTMAX
 10
-1.0000000000E+20
 20
-1.0000000000E+20
 30
-1.0000000000E+20
  9
$PLIMMIN
 10
0.0
 20
0.0
  9
$PLIMMAX
 10
420.0
 20
297.0
  9
$UNITMODE
 70
     0
  9
$VISRETAIN
 70
     1
  9
$PLINEGEN
 70
     0
  9
$PSLTSCALE
 70
     1
  9
$TREEDEPTH
 70
  3020
  9
$CMLSTYLE
  2
Standard
  9
$CMLJUST
 70
     0
  9
$CMLSCALE
 40
20.0
  9
$PROXYGRAPHICS
 70
     1
  9
$MEASUREMENT
 70
     1
  9
$CELWEIGHT
370
    -1
  9
$ENDCAPS
280
     0
  9
$JOINSTYLE
280
     0
  9
$LWDISPLAY
290
     1
  9
$INSUNITS
 70
     4
  9
$HYPERLINKBASE
  1

  9
$STYLESHEET
  1

  9
$XEDIT
290
     1
  9
$CEPSNTYPE
380
     0
  9
$PSTYLEMODE
290
     1
  9
$FINGERPRINTGUID
  2
{ECC2E842-B196-4ADA-A3C2-683D2333606D}
  9
$VERSIONGUID
  2
{FAEB1C32-E019-11D5-929B-00C0DF256EC4}
  9
$EXTNAMES
290
     1
  9
$PSVPSCALE
 40
0.0
  9
$OLESTARTUP
290
     0
  0
ENDSEC
  0
SECTION
  2
CLASSES
  0
CLASS
  1
ACDBDICTIONARYWDFLT
  2
AcDbDictionaryWithDefault
  3
ObjectDBX Classes
 90
        0
280
     0
281
     0
  0
CLASS
  1
VISUALSTYLE
  2
AcDbVisualStyle
  3
ObjectDBX Classes
 90
     4095
280
     0
281
     0
  0
CLASS
  1
MATERIAL
  2
AcDbMaterial
  3
ObjectDBX Classes
 90
     1153
280
     0
281
     0
  0
CLASS
  1
SCALE
  2
AcDbScale
  3
ObjectDBX Classes
 90
     1153
280
     0
281
     0
  0
CLASS
  1
TABLESTYLE
  2
AcDbTableStyle
  3
ObjectDBX Classes
 90
     4095
280
     0
281
     0
  0
CLASS
  1
MLEADERSTYLE
  2
AcDbMLeaderStyle
  3
ACDB_MLEADERSTYLE_CLASS
 90
     4095
280
     0
281
     0
  0
CLASS
  1
SUN
  2
AcDbSun
  3
SCENEOE
 90
     1153
280
     0
281
     0
  0
CLASS
  1
ACDBPLACEHOLDER
  2
AcDbPlaceHolder
  3
ObjectDBX Classes
 90
        0
280
     0
281
     0
  0
CLASS
  1
LAYOUT
  2
AcDbLayout
  3
ObjectDBX Classes
 90
        0
280
     0
281
     0
  0
ENDSEC
  0
SECTION
  2
TABLES
  0
TABLE
  2
VPORT
  5
8
330
0
100
AcDbSymbolTable
 70
     1
  0
VPORT
  5
29
330
8
100
AcDbSymbolTableRecord
100
AcDbViewportTableRecord
  2
*Active
 70
     0
 10
0.0
 20
0.0
 11
1.0
 21
1.0
 12
1750.0
 22
1000.0
 13
0.0
 23
0.0
 14
10.0
 24
10.0
 15
10.0
 25
10.0
 16
0.0
 26
0.0
 36
1.0
 17
0.0
 27
0.0
 37
0.0
 40
2000.0
 41
1.75
 42
50.0
 43
0.0
 44
0.0
 50
0.0
 51
0.0
 71
     0
 72
  2000
 73
     1
 74
     3
 75
     0
 76
     0
 77
     0
 78
     0
281
     0
 65
     1
110
0.0
120
0.0
130
0.0
111
1.0
121
0.0
131
0.0
112
0.0
122
1.0
132
0.0
 79
     0
146
0.0
  0
ENDTAB
  0
TABLE
  2
LTYPE
  5
5
330
0
100
AcDbSymbolTable
 70
     6
  0
LTYPE
  5
14
330
5
100
AcDbSymbolTableRecord
100
AcDbLinetypeTableRecord
  2
ByBlock
 70
     0
  3

 72
    65
 73
     0
 40
0.0
  0
LTYPE
  5
15
330
5
100
AcDbSymbolTableRecord
100
AcDbLinetypeTableRecord
  2
ByLayer
 70
     0
  3

 72
    65
 73
     0
 40
0.0
  0
LTYPE
  5
16
330
5
100
AcDbSymbolTableRecord
100
AcDbLinetypeTableRecord
  2
Continuous
 70
     0
  3
Solid line
 72
    65
 73
     0
 40
0.0
  0
LTYPE
  5
6E
330
5
100
AcDbSymbolTableRecord
100
AcDbLinetypeTableRecord
  2
HIDDEN
 70
     0
  3
Hidden __ __ __ __ __ __ __ __ __ __ __ __ __ __
 72
    65
 73
     2
 40
1.905
 49
1.27
 74
     0
 49
-0.635
 74
     0
  0
LTYPE
  5
6F
330
5
100
AcDbSymbolTableRecord
100
AcDbLinetypeTableRecord
  2
PHANTOM
 70
     0
  3
Phantom ______  __  __  ______  __  __  ______
 72
    65
 73
     6
 40
12.7
 49
6.35
 74
     0
 49
-1.27
 74
     0
 49
1.27
 74
     0
 49
-1.27
 74
     0
 49
1.27
 74
     0
 49
-1.27
 74
     0
  0
LTYPE
  5
70
330
5
100
AcDbSymbolTableRecord
100
AcDbLinetypeTableRecord
  2
CENTER
 70
     0
  3
Center ____ _ ____ _ ____ _ ____ _ ____ _ ____
 72
    65
 73
     4
 40
10.16
 49
6.35
 74
     0
 49
-1.27
 74
     0
 49
1.27
 74
     0
 49
-1.27
 74
     0
  0
LTYPE
  5
71
330
5
100
AcDbSymbolTableRecord
100
AcDbLinetypeTableRecord
  2
CENTERX2
 70
     0
  3
Center (2x) ________  __  ________  __  _____
 72
    65
 73
     4
 40
20.32
 49
12.7
 74
     0
 49
-2.54
 74
     0
 49
2.54
 74
     0
 49
-2.54
 74
     0
  0
LTYPE
  5
72
330
5
100
AcDbSymbolTableRecord
100
AcDbLinetypeTableRecord
  2
DOT2
 70
     0
  3
Dot (.5x) ........................................
 72
    65
 73
     2
 40
0.635
 49
0.0
 74
     0
 49
-0.635
 74
     0
  0
ENDTAB
  0
TABLE
  2
LAYER
  5
2
330
0
100
AcDbSymbolTable
 70
     8
  0
LAYER
  5
10
330
2
100
AcDbSymbolTableRecord
100
AcDbLayerTableRecord
  2
0
 70
     0
 62
     7
  6
Continuous
370
    -3
390
F
  0
LAYER
  5
73
330
2
100
AcDbSymbolTableRecord
100
AcDbLayerTableRecord
  2
SLD-0_0
 70
     0
 62
   179
  6
Continuous
370
    -3
390
F
  0
LAYER
  5
74
330
2
100
AcDbSymbolTableRecord
100
AcDbLayerTableRecord
  2
SLD-0
 70
     0
 62
   179
  6
Continuous
370
    -3
390
F
  0
LAYER
  5
75
330
2
100
AcDbSymbolTableRecord
100
AcDbLayerTableRecord
  2
PREDETERMINADO
 70
     0
 62
   179
  6
Continuous
370
    -3
390
F
  0
LAYER
  5
76
330
2
100
AcDbSymbolTableRecord
100
AcDbLayerTableRecord
  2
CAJETIN
 70
     0
 62
   179
  6
Continuous
370
    -3
390
F
  0
LAYER
  5
77
330
2
100
AcDbSymbolTableRecord
100
AcDbLayerTableRecord
  2
FORMATO
 70
     0
 62
   179
  6
Continuous
370
    -3
390
F
  0
LAYER
  5
78
330
2
100
AcDbSymbolTableRecord
100
AcDbLayerTableRecord
  2
NONPLOT
 70
     0
 62
    -1
  6
DOT2
290
     0
370
    -3
390
F
  0
LAYER
  5
79
330
2
100
AcDbSymbolTableRecord
100
AcDbLayerTableRecord
  2
TEXTOS
 70
     0
 62
   142
  6
Continuous
370
    -3
390
F
  0
ENDTAB
  0
TABLE
  2
STYLE
  5
3
330
0
100
AcDbSymbolTable
 70
     4
  0
STYLE
  5
11
330
3
100
AcDbSymbolTableRecord
100
AcDbTextStyleTableRecord
  2
Standard
 70
     0
 40
0.0
 41
1.0
 50
0.0
 71
     0
 42
2.5
  3
txt
  4

  0
STYLE
  5
DC
330
3
100
AcDbSymbolTableRecord
100
AcDbTextStyleTableRecord
  2
SLDTEXTSTYLE0
 70
     0
 40
0.0
 41
0.605
 50
0.0
 71
     0
 42
2.5
  3
TXT
  4

  0
STYLE
  5
140
330
3
100
AcDbSymbolTableRecord
100
AcDbTextStyleTableRecord
  2
SLDTEXTSTYLE1
 70
     0
 40
0.0
 41
0.75
 50
0.0
 71
     0
 42
2.5
  3
TXT
  4

  0
STYLE
  5
148
330
3
100
AcDbSymbolTableRecord
100
AcDbTextStyleTableRecord
  2
SLDTEXTSTYLE2
 70
     0
 40
0.0
 41
0.575
 50
0.0
 71
     0
 42
2.5
  3
TXT
  4

  0
ENDTAB
  0
TABLE
  2
VIEW
  5
6
330
0
100
AcDbSymbolTable
 70
     0
  0
ENDTAB
  0
TABLE
  2
UCS
  5
7
330
0
100
AcDbSymbolTable
 70
     0
  0
ENDTAB
  0
TABLE
  2
APPID
  5
9
330
0
100
AcDbSymbolTable
 70
     1
  0
APPID
  5
12
330
9
100
AcDbSymbolTableRecord
100
AcDbRegAppTableRecord
  2
ACAD
 70
     0
  0
ENDTAB
  0
TABLE
  2
DIMSTYLE
  5
A
330
0
100
AcDbSymbolTable
 70
     9
100
AcDbDimStyleTable
  0
DIMSTYLE
105
27
330
A
100
AcDbSymbolTableRecord
100
AcDbDimStyleTableRecord
  2
ISO-25
 70
     0
 41
2.5
 42
0.625
 43
3.75
 44
1.25
 73
     0
 74
     0
 77
     1
 78
     8
140
2.5
141
2.5
143
0.0393700787
147
0.625
171
     3
172
     1
178
     0
271
     2
272
     2
274
     3
278
    44
283
     0
284
     8
340
11
  0
DIMSTYLE
105
267
330
A
100
AcDbSymbolTableRecord
100
AcDbDimStyleTableRecord
  2
SLDDIMSTYLE0
 70
     0
 41
1.016
 44
0.0
 45
0.000000001
146
1.016
147
0.0
173
     1
178
     0
271
     0
272
     0
276
     2
340
11
341
268
343
268
344
268
  0
DIMSTYLE
105
2C3
102
{ACAD_REACTORS
330
2C2
330
2CD
330
2DB
330
2E5
330
2F3
330
2FD
330
315
330
31F
330
347
330
3AF
330
3B9
330
3C3
330
3CD
330
3D7
330
3E1
330
403
330
40B
330
415
330
41D
330
425
330
431
330
43B
102
}
330
A
100
AcDbSymbolTableRecord
100
AcDbDimStyleTableRecord
  2
SLDDIMSTYLE1
 70
     0
 41
3.302
 44
0.0
 45
0.000000001
 73
     0
 74
     0
 77
     1
 78
    12
 79
     3
140
12.3279296875
147
3.0819824219
173
     1
178
     0
271
     2
272
     2
276
     2
284
    12
340
DC
  0
DIMSTYLE
105
32A
102
{ACAD_REACTORS
330
329
102
}
330
A
100
AcDbSymbolTableRecord
100
AcDbDimStyleTableRecord
  2
SLDDIMSTYLE2
 70
     0
 41
3.302
 44
0.0
 45
0.000000001
 73
     0
 74
     0
 77
     1
 78
    12
 79
     3
140
12.3279296875
141
0.0
147
3.0819824219
172
     1
173
     1
178
     0
271
     2
272
     2
276
     2
284
    12
340
DC
  0
DIMSTYLE
105
334
102
{ACAD_REACTORS
330
333
102
}
330
A
100
AcDbSymbolTableRecord
100
AcDbDimStyleTableRecord
  2
SLDDIMSTYLE3
 70
     0
 41
3.302
 44
0.0
 45
0.000000001
 78
     4
 79
     1
140
12.3279296875
141
0.0
147
3.0819824219
173
     1
178
     0
271
     2
272
     2
276
     2
284
    12
340
DC
  0
DIMSTYLE
105
33E
102
{ACAD_REACTORS
330
33D
102
}
330
A
100
AcDbSymbolTableRecord
100
AcDbDimStyleTableRecord
  2
SLDDIMSTYLE4
 70
     0
 41
3.302
 44
0.0
 45
0.000000001
 73
     0
 74
     0
 77
     1
 78
    12
 79
     3
140
12.3279296875
141
0.0
147
3.0819824219
172
     1
173
     1
178
     0
271
     1
272
     2
276
     2
284
    12
340
DC
  0
DIMSTYLE
105
351
102
{ACAD_REACTORS
330
350
102
}
330
A
100
AcDbSymbolTableRecord
100
AcDbDimStyleTableRecord
  2
SLDDIMSTYLE5
 70
     0
 41
3.302
 44
0.0
 45
0.000000001
 73
     0
 74
     0
 77
     1
 78
    12
 79
     3
140
12.3279296875
141
0.0
147
3.0819824219
172
     1
173
     1
178
     0
271
     2
272
     2
276
     2
284
    12
340
DC
  0
DIMSTYLE
105
3EC
102
{ACAD_REACTORS
330
3EB
102
}
330
A
100
AcDbSymbolTableRecord
100
AcDbDimStyleTableRecord
  2
SLDDIMSTYLE6
 70
     0
 41
3.302
 44
0.0
 45
0.000000001
 73
     0
 74
     0
 77
     1
 78
    12
 79
     3
140
12.3279296875
141
0.0
147
3.0819824219
173
     1
178
     0
271
     2
272
     2
276
     2
279
     1
284
    12
340
DC
  0
DIMSTYLE
105
3F4
102
{ACAD_REACTORS
330
3F3
102
}
330
A
100
AcDbSymbolTableRecord
100
AcDbDimStyleTableRecord
  2
SLDDIMSTYLE7
 70
     0
 41
3.302
 44
0.0
 45
0.000000001
 73
     0
 74
     0
 77
     1
 78
    12
 79
     3
140
12.3279296875
141
0.0
147
3.0819824219
173
     1
178
     0
271
     2
272
     2
276
     2
284
    12
340
DC
  0
ENDTAB
  0
TABLE
  2
BLOCK_RECORD
  5
1
330
0
100
AcDbSymbolTable
 70
    54
  0
BLOCK_RECORD
  5
1F
330
1
100
AcDbSymbolTableRecord
100
AcDbBlockTableRecord
  2
*Model_Space
340
22
  0
BLOCK_RECORD
  5
1B
330
1
100
AcDbSymbolTableRecord
100
AcDbBlockTableRecord
  2
*Paper_Space
340
1E
  0
BLOCK_RECORD
  5
23
330
1
100
AcDbSymbolTableRecord
100
AcDbBlockTableRecord
  2
*Paper_Space0
340
26
  0
BLOCK_RECORD
  5
D9
330
1
100
AcDbSymbolTableRecord
100
AcDbBlockTableRecord
  2
SW_NOTE_0
340
0
102
{BLKREFS
331
DF
102
}
  0
BLOCK_RECORD
  5
FE
330
1
100
AcDbSymbolTableRecord
100
AcDbBlockTableRecord
  2
SW_NOTE_1
340
0
102
{BLKREFS
331
103
102
}
  0
BLOCK_RECORD
  5
104
330
1
100
AcDbSymbolTableRecord
100
AcDbBlockTableRecord
  2
SW_NOTE_2
340
0
102
{BLKREFS
331
109
102
}
  0
BLOCK_RECORD
  5
10A
330
1
100
AcDbSymbolTableRecord
100
AcDbBlockTableRecord
  2
SW_NOTE_3
340
0
102
{BLKREFS
331
10F
102
}
  0
BLOCK_RECORD
  5
110
330
1
100
AcDbSymbolTableRecord
100
AcDbBlockTableRecord
  2
SW_NOTE_4
340
0
102
{BLKREFS
331
115
102
}
  0
BLOCK_RECORD
  5
116
330
1
100
AcDbSymbolTableRecord
100
AcDbBlockTableRecord
  2
SW_NOTE_5
340
0
102
{BLKREFS
331
11B
102
}
  0
BLOCK_RECORD
  5
11C
330
1
100
AcDbSymbolTableRecord
100
AcDbBlockTableRecord
  2
SW_NOTE_6
340
0
102
{BLKREFS
331
121
102
}
  0
BLOCK_RECORD
  5
122
330
1
100
AcDbSymbolTableRecord
100
AcDbBlockTableRecord
  2
SW_NOTE_7
340
0
102
{BLKREFS
331
127
102
}
  0
BLOCK_RECORD
  5
128
330
1
100
AcDbSymbolTableRecord
100
AcDbBlockTableRecord
  2
SW_NOTE_8
340
0
102
{BLKREFS
331
12D
102
}
  0
BLOCK_RECORD
  5
12E
330
1
100
AcDbSymbolTableRecord
100
AcDbBlockTableRecord
  2
SW_TABLEANNOTATION_0
340
0
102
{BLKREFS
331
15A
102
}
  0
BLOCK_RECORD
  5
261
330
1
100
AcDbSymbolTableRecord
100
AcDbBlockTableRecord
  2
SW_NOTE_9
340
0
102
{BLKREFS
331
266
102
}
  0
BLOCK_RECORD
  5
268
330
1
100
AcDbSymbolTableRecord
100
AcDbBlockTableRecord
  2
_DOT
340
0
  0
BLOCK_RECORD
  5
271
330
1
100
AcDbSymbolTableRecord
100
AcDbBlockTableRecord
  2
SW_NOTE_10
340
0
102
{BLKREFS
331
276
102
}
  0
BLOCK_RECORD
  5
278
330
1
100
AcDbSymbolTableRecord
100
AcDbBlockTableRecord
  2
SW_NOTE_11
340
0
102
{BLKREFS
331
27D
102
}
  0
BLOCK_RECORD
  5
27F
330
1
100
AcDbSymbolTableRecord
100
AcDbBlockTableRecord
  2
SW_NOTE_12
340
0
102
{BLKREFS
331
284
102
}
  0
BLOCK_RECORD
  5
286
330
1
100
AcDbSymbolTableRecord
100
AcDbBlockTableRecord
  2
SW_NOTE_13
340
0
102
{BLKREFS
331
28B
102
}
  0
BLOCK_RECORD
  5
28D
330
1
100
AcDbSymbolTableRecord
100
AcDbBlockTableRecord
  2
SW_NOTE_14
340
0
102
{BLKREFS
331
292
102
}
  0
BLOCK_RECORD
  5
294
330
1
100
AcDbSymbolTableRecord
100
AcDbBlockTableRecord
  2
SW_NOTE_15
340
0
102
{BLKREFS
331
299
102
}
  0
BLOCK_RECORD
  5
29B
330
1
100
AcDbSymbolTableRecord
100
AcDbBlockTableRecord
  2
SW_NOTE_16
340
0
102
{BLKREFS
331
2A0
102
}
  0
BLOCK_RECORD
  5
2A2
330
1
100
AcDbSymbolTableRecord
100
AcDbBlockTableRecord
  2
SW_NOTE_17
340
0
102
{BLKREFS
331
2A7
102
}
  0
BLOCK_RECORD
  5
2A9
330
1
100
AcDbSymbolTableRecord
100
AcDbBlockTableRecord
  2
SW_NOTE_18
340
0
102
{BLKREFS
331
2AE
102
}
  0
BLOCK_RECORD
  5
2B0
330
1
100
AcDbSymbolTableRecord
100
AcDbBlockTableRecord
  2
SW_NOTE_19
340
0
102
{BLKREFS
331
2B5
102
}
  0
BLOCK_RECORD
  5
2B7
330
1
100
AcDbSymbolTableRecord
100
AcDbBlockTableRecord
  2
SW_NOTE_20
340
0
102
{BLKREFS
331
2BC
102
}
  0
BLOCK_RECORD
  5
2C4
330
1
100
AcDbSymbolTableRecord
100
AcDbBlockTableRecord
  2
_D
340
0
  0
BLOCK_RECORD
  5
2CE
330
1
100
AcDbSymbolTableRecord
100
AcDbBlockTableRecord
  2
_D_1
340
0
  0
BLOCK_RECORD
  5
2DC
330
1
100
AcDbSymbolTableRecord
100
AcDbBlockTableRecord
  2
_D_2
340
0
  0
BLOCK_RECORD
  5
2E6
330
1
100
AcDbSymbolTableRecord
100
AcDbBlockTableRecord
  2
_D_3
340
0
  0
BLOCK_RECORD
  5
2F4
330
1
100
AcDbSymbolTableRecord
100
AcDbBlockTableRecord
  2
_D_4
340
0
  0
BLOCK_RECORD
  5
2FE
330
1
100
AcDbSymbolTableRecord
100
AcDbBlockTableRecord
  2
_D_5
340
0
  0
BLOCK_RECORD
  5
316
330
1
100
AcDbSymbolTableRecord
100
AcDbBlockTableRecord
  2
_D_6
340
0
  0
BLOCK_RECORD
  5
320
330
1
100
AcDbSymbolTableRecord
100
AcDbBlockTableRecord
  2
_D_7
340
0
  0
BLOCK_RECORD
  5
32B
330
1
100
AcDbSymbolTableRecord
100
AcDbBlockTableRecord
  2
_D_8
340
0
  0
BLOCK_RECORD
  5
335
330
1
100
AcDbSymbolTableRecord
100
AcDbBlockTableRecord
  2
_D_9
340
0
  0
BLOCK_RECORD
  5
33F
330
1
100
AcDbSymbolTableRecord
100
AcDbBlockTableRecord
  2
_D_10
340
0
  0
BLOCK_RECORD
  5
348
330
1
100
AcDbSymbolTableRecord
100
AcDbBlockTableRecord
  2
_D_11
340
0
  0
BLOCK_RECORD
  5
352
330
1
100
AcDbSymbolTableRecord
100
AcDbBlockTableRecord
  2
_D_12
340
0
  0
BLOCK_RECORD
  5
35B
330
1
100
AcDbSymbolTableRecord
100
AcDbBlockTableRecord
  2
SW_CENTERMARKSYMBOL_0
340
0
102
{BLKREFS
331
396
102
}
  0
BLOCK_RECORD
  5
397
330
1
100
AcDbSymbolTableRecord
100
AcDbBlockTableRecord
  2
SW_CENTERMARKSYMBOL_1
340
0
102
{BLKREFS
331
3A2
102
}
  0
BLOCK_RECORD
  5
3B0
330
1
100
AcDbSymbolTableRecord
100
AcDbBlockTableRecord
  2
_D_13
340
0
  0
BLOCK_RECORD
  5
3BA
330
1
100
AcDbSymbolTableRecord
100
AcDbBlockTableRecord
  2
_D_14
340
0
  0
BLOCK_RECORD
  5
3C4
330
1
100
AcDbSymbolTableRecord
100
AcDbBlockTableRecord
  2
_D_15
340
0
  0
BLOCK_RECORD
  5
3CE
330
1
100
AcDbSymbolTableRecord
100
AcDbBlockTableRecord
  2
_D_16
340
0
  0
BLOCK_RECORD
  5
3D8
330
1
100
AcDbSymbolTableRecord
100
AcDbBlockTableRecord
  2
_D_17
340
0
  0
BLOCK_RECORD
  5
3E2
330
1
100
AcDbSymbolTableRecord
100
AcDbBlockTableRecord
  2
_D_18
340
0
  0
BLOCK_RECORD
  5
3ED
330
1
100
AcDbSymbolTableRecord
100
AcDbBlockTableRecord
  2
_D_19
340
0
  0
BLOCK_RECORD
  5
3F5
330
1
100
AcDbSymbolTableRecord
100
AcDbBlockTableRecord
  2
_D_20
340
0
  0
BLOCK_RECORD
  5
404
330
1
100
AcDbSymbolTableRecord
100
AcDbBlockTableRecord
  2
_D_21
340
0
  0
BLOCK_RECORD
  5
40C
330
1
100
AcDbSymbolTableRecord
100
AcDbBlockTableRecord
  2
_D_22
340
0
  0
BLOCK_RECORD
  5
416
330
1
100
AcDbSymbolTableRecord
100
AcDbBlockTableRecord
  2
_D_23
340
0
  0
BLOCK_RECORD
  5
41E
330
1
100
AcDbSymbolTableRecord
100
AcDbBlockTableRecord
  2
_D_24
340
0
  0
BLOCK_RECORD
  5
426
330
1
100
AcDbSymbolTableRecord
100
AcDbBlockTableRecord
  2
_D_25
340
0
  0
BLOCK_RECORD
  5
432
330
1
100
AcDbSymbolTableRecord
100
AcDbBlockTableRecord
  2
_D_26
340
0
  0
BLOCK_RECORD
  5
43C
330
1
100
AcDbSymbolTableRecord
100
AcDbBlockTableRecord
  2
_D_27
340
0
  0
ENDTAB
  0
ENDSEC
  0
SECTION
  2
BLOCKS
  0
BLOCK
  5
20
330
1F
100
AcDbEntity
  8
0
100
AcDbBlockBegin
  2
*Model_Space
 70
     0
 10
0.0
 20
0.0
 30
0.0
  3
*Model_Space
  1

  0
ENDBLK
  5
21
330
1F
100
AcDbEntity
  8
0
100
AcDbBlockEnd
  0
BLOCK
  5
1C
330
1B
100
AcDbEntity
 67
     1
  8
0
100
AcDbBlockBegin
  2
*Paper_Space
 70
     0
 10
0.0
 20
0.0
 30
0.0
  3
*Paper_Space
  1

  0
ENDBLK
  5
1D
330
1B
100
AcDbEntity
 67
     1
  8
0
100
AcDbBlockEnd
  0
BLOCK
  5
24
330
23
100
AcDbEntity
  8
0
100
AcDbBlockBegin
  2
*Paper_Space0
 70
     0
 10
0.0
 20
0.0
 30
0.0
  3
*Paper_Space0
  1

  0
ENDBLK
  5
25
330
23
100
AcDbEntity
  8
0
100
AcDbBlockEnd
  0
BLOCK
  5
DA
330
D9
100
AcDbEntity
  8
0
100
AcDbBlockBegin
  2
SW_NOTE_0
 70
     0
 10
0.0
 20
0.0
 30
0.0
  3
SW_NOTE_0
  1

  0
MTEXT
  5
DD
330
D9
100
AcDbEntity
  8
CAJETIN
 62
     0
100
AcDbMText
 10
43.75546875
 20
12.2400402414
 30
0.0
 40
9.525
 41
0.0
 71
     2
 72
     1
  1
S-218LEX1000
  7
SLDTEXTSTYLE0
 73
     1
 44
1.0
  0
MTEXT
  5
DE
330
D9
100
AcDbEntity
  8
CAJETIN
 62
     0
100
AcDbMText
 10
46.0871312916
 20
-0.4599596051
 30
0.0
 40
9.525
 41
0.0
 71
     2
 72
     1
  1
DIRECT RADIATION SUBWOOFER
  7
SLDTEXTSTYLE0
 73
     1
 44
1.0
  0
ENDBLK
  5
DB
330
D9
100
AcDbEntity
  8
0
100
AcDbBlockEnd
  0
BLOCK
  5
FF
330
FE
100
AcDbEntity
  8
0
100
AcDbBlockBegin
  2
SW_NOTE_1
 70
     0
 10
0.0
 20
0.0
 30
0.0
  3
SW_NOTE_1
  1

  0
MTEXT
  5
101
330
FE
100
AcDbEntity
  8
CAJETIN
 62
     0
100
AcDbMText
 10
0.0
 20
12.2400402414
 30
0.0
 40
9.525
 41
0.0
 71
     1
 72
     1
  1
Birch Plywood
  7
SLDTEXTSTYLE0
 73
     1
 44
1.0
  0
MTEXT
  5
102
330
FE
100
AcDbEntity
  8
CAJETIN
 62
     0
100
AcDbMText
 10
0.0
 20
-0.4599596051
 30
0.0
 40
9.525
 41
0.0
 71
     1
 72
     1
  1
18mm
  7
SLDTEXTSTYLE0
 73
     1
 44
1.0
  0
ENDBLK
  5
100
330
FE
100
AcDbEntity
  8
0
100
AcDbBlockEnd
  0
BLOCK
  5
105
330
104
100
AcDbEntity
  8
0
100
AcDbBlockBegin
  2
SW_NOTE_2
 70
     0
 10
0.0
 20
0.0
 30
0.0
  3
SW_NOTE_2
  1

  0
CIRCLE
  5
107
330
104
100
AcDbEntity
  8
SLD-0_0
 62
     0
100
AcDbCircle
 10
4.6550613452
 20
9.6388275523
 30
0.0
 40
10.12556669663632
  0
MTEXT
  5
108
330
104
100
AcDbEntity
  8
SLD-0_0
 62
     0
100
AcDbMText
 10
0.0
 20
16.3200536553
 30
0.0
 40
12.7
 41
0.0
 71
     1
 72
     1
  1
7
  7
SLDTEXTSTYLE0
 73
     1
 44
1.0
  0
ENDBLK
  5
106
330
104
100
AcDbEntity
  8
0
100
AcDbBlockEnd
  0
BLOCK
  5
10B
330
10A
100
AcDbEntity
  8
0
100
AcDbBlockBegin
  2
SW_NOTE_3
 70
     0
 10
0.0
 20
0.0
 30
0.0
  3
SW_NOTE_3
  1

  0
CIRCLE
  5
10D
330
10A
100
AcDbEntity
  8
SLD-0_0
 62
     0
100
AcDbCircle
 10
4.6775046973
 20
9.6134901122
 30
0.0
 40
10.14935229367233
  0
MTEXT
  5
10E
330
10A
100
AcDbEntity
  8
SLD-0_0
 62
     0
100
AcDbMText
 10
0.0
 20
16.3200536553
 30
0.0
 40
12.7
 41
0.0
 71
     1
 72
     1
  1
5
  7
SLDTEXTSTYLE0
 73
     1
 44
1.0
  0
ENDBLK
  5
10C
330
10A
100
AcDbEntity
  8
0
100
AcDbBlockEnd
  0
BLOCK
  5
111
330
110
100
AcDbEntity
  8
0
100
AcDbBlockBegin
  2
SW_NOTE_4
 70
     0
 10
0.0
 20
0.0
 30
0.0
  3
SW_NOTE_4
  1

  0
CIRCLE
  5
113
330
110
100
AcDbEntity
  8
SLD-0_0
 62
     0
100
AcDbCircle
 10
4.6775046973
 20
9.6394153546
 30
0.0
 40
10.10394225800667
  0
MTEXT
  5
114
330
110
100
AcDbEntity
  8
SLD-0_0
 62
     0
100
AcDbMText
 10
0.0
 20
16.3200536553
 30
0.0
 40
12.7
 41
0.0
 71
     1
 72
     1
  1
6
  7
SLDTEXTSTYLE0
 73
     1
 44
1.0
  0
ENDBLK
  5
112
330
110
100
AcDbEntity
  8
0
100
AcDbBlockEnd
  0
BLOCK
  5
117
330
116
100
AcDbEntity
  8
0
100
AcDbBlockBegin
  2
SW_NOTE_5
 70
     0
 10
0.0
 20
0.0
 30
0.0
  3
SW_NOTE_5
  1

  0
CIRCLE
  5
119
330
116
100
AcDbEntity
  8
SLD-0_0
 62
     0
100
AcDbCircle
 10
4.6581986657
 20
9.6123426745
 30
0.0
 40
10.14935229367254
  0
MTEXT
  5
11A
330
116
100
AcDbEntity
  8
SLD-0_0
 62
     0
100
AcDbMText
 10
0.0
 20
16.3200536553
 30
0.0
 40
12.7
 41
0.0
 71
     1
 72
     1
  1
4
  7
SLDTEXTSTYLE0
 73
     1
 44
1.0
  0
ENDBLK
  5
118
330
116
100
AcDbEntity
  8
0
100
AcDbBlockEnd
  0
BLOCK
  5
11D
330
11C
100
AcDbEntity
  8
0
100
AcDbBlockBegin
  2
SW_NOTE_6
 70
     0
 10
0.0
 20
0.0
 30
0.0
  3
SW_NOTE_6
  1

  0
CIRCLE
  5
11F
330
11C
100
AcDbEntity
  8
SLD-0_0
 62
     0
100
AcDbCircle
 10
4.6435364668
 20
9.6347031357
 30
0.0
 40
10.14935229367243
  0
MTEXT
  5
120
330
11C
100
AcDbEntity
  8
SLD-0_0
 62
     0
100
AcDbMText
 10
0.0
 20
16.3200536553
 30
0.0
 40
12.7
 41
0.0
 71
     1
 72
     1
  1
3
  7
SLDTEXTSTYLE0
 73
     1
 44
1.0
  0
ENDBLK
  5
11E
330
11C
100
AcDbEntity
  8
0
100
AcDbBlockEnd
  0
BLOCK
  5
123
330
122
100
AcDbEntity
  8
0
100
AcDbBlockBegin
  2
SW_NOTE_7
 70
     0
 10
0.0
 20
0.0
 30
0.0
  3
SW_NOTE_7
  1

  0
CIRCLE
  5
125
330
122
100
AcDbEntity
  8
SLD-0_0
 62
     0
100
AcDbCircle
 10
4.6645918546
 20
9.6347031357
 30
0.0
 40
10.12556669663622
  0
MTEXT
  5
126
330
122
100
AcDbEntity
  8
SLD-0_0
 62
     0
100
AcDbMText
 10
0.0
 20
16.3200536553
 30
0.0
 40
12.7
 41
0.0
 71
     1
 72
     1
  1
2
  7
SLDTEXTSTYLE0
 73
     1
 44
1.0
  0
ENDBLK
  5
124
330
122
100
AcDbEntity
  8
0
100
AcDbBlockEnd
  0
BLOCK
  5
129
330
128
100
AcDbEntity
  8
0
100
AcDbBlockBegin
  2
SW_NOTE_8
 70
     0
 10
0.0
 20
0.0
 30
0.0
  3
SW_NOTE_8
  1

  0
CIRCLE
  5
12B
330
128
100
AcDbEntity
  8
SLD-0_0
 62
     0
100
AcDbCircle
 10
4.6760591164
 20
9.61604131
 30
0.0
 40
10.14935229367255
  0
MTEXT
  5
12C
330
128
100
AcDbEntity
  8
SLD-0_0
 62
     0
100
AcDbMText
 10
0.0
 20
16.3200536553
 30
0.0
 40
12.7
 41
0.0
 71
     1
 72
     1
  1
1
  7
SLDTEXTSTYLE0
 73
     1
 44
1.0
  0
ENDBLK
  5
12A
330
128
100
AcDbEntity
  8
0
100
AcDbBlockEnd
  0
BLOCK
  5
12F
330
12E
100
AcDbEntity
  8
0
100
AcDbBlockBegin
  2
SW_TABLEANNOTATION_0
 70
     0
 10
0.0
 20
0.0
 30
0.0
  3
SW_TABLEANNOTATION_0
  1

  0
LINE
  5
131
330
12E
100
AcDbEntity
  8
CAJETIN
 62
     0
100
AcDbLine
 10
0.0
 20
0.0
 30
0.0
 11
0.0
 21
-251.7938590685
 31
0.0
  0
LINE
  5
132
330
12E
100
AcDbEntity
  8
CAJETIN
 62
     0
100
AcDbLine
 10
0.0
 20
-251.7938590685
 30
0.0
 11
468.5830916412
 21
-251.7938590685
 31
0.0
  0
LINE
  5
133
330
12E
100
AcDbEntity
  8
CAJETIN
 62
     0
100
AcDbLine
 10
468.5830916412
 20
-251.7938590685
 30
0.0
 11
468.5830916412
 21
0.0
 31
0.0
  0
LINE
  5
134
330
12E
100
AcDbEntity
  8
CAJETIN
 62
     0
100
AcDbLine
 10
468.5830916412
 20
0.0
 30
0.0
 11
0.0
 21
0.0
 31
0.0
  0
LINE
  5
135
330
12E
100
AcDbEntity
  8
CAJETIN
 62
     0
100
AcDbLine
 10
127.3991613102
 20
0.0
 30
0.0
 11
127.3991613102
 21
-43.2998376976
 31
0.0
  0
LINE
  5
136
330
12E
100
AcDbEntity
  8
CAJETIN
 62
     0
100
AcDbLine
 10
379.9225887342
 20
0.0
 30
0.0
 11
379.9225887342
 21
-43.2998376976
 31
0.0
  0
LINE
  5
137
330
12E
100
AcDbEntity
  8
CAJETIN
 62
     0
100
AcDbLine
 10
127.3991613102
 20
-43.2998376976
 30
0.0
 11
127.3991613102
 21
-251.7938590685
 31
0.0
  0
LINE
  5
138
330
12E
100
AcDbEntity
  8
CAJETIN
 62
     0
100
AcDbLine
 10
379.9225887342
 20
-43.2998376976
 30
0.0
 11
379.9225887342
 21
-251.7938590685
 31
0.0
  0
LINE
  5
139
330
12E
100
AcDbEntity
  8
CAJETIN
 62
     0
100
AcDbLine
 10
0.0
 20
-73.0846978934
 30
0.0
 11
468.5830916412
 21
-73.0846978934
 31
0.0
  0
LINE
  5
13A
330
12E
100
AcDbEntity
  8
CAJETIN
 62
     0
100
AcDbLine
 10
0.0
 20
-102.8695580893
 30
0.0
 11
468.5830916412
 21
-102.8695580893
 31
0.0
  0
LINE
  5
13B
330
12E
100
AcDbEntity
  8
CAJETIN
 62
     0
100
AcDbLine
 10
0.0
 20
-132.6544182851
 30
0.0
 11
468.5830916412
 21
-132.6544182851
 31
0.0
  0
LINE
  5
13C
330
12E
100
AcDbEntity
  8
CAJETIN
 62
     0
100
AcDbLine
 10
0.0
 20
-162.439278481
 30
0.0
 11
468.5830916412
 21
-162.439278481
 31
0.0
  0
LINE
  5
13D
330
12E
100
AcDbEntity
  8
CAJETIN
 62
     0
100
AcDbLine
 10
0.0
 20
-192.2241386768
 30
0.0
 11
468.5830916412
 21
-192.2241386768
 31
0.0
  0
LINE
  5
13E
330
12E
100
AcDbEntity
  8
CAJETIN
 62
     0
100
AcDbLine
 10
0.0
 20
-222.0089988727
 30
0.0
 11
468.5830916412
 21
-222.0089988727
 31
0.0
  0
LINE
  5
13F
330
12E
100
AcDbEntity
  8
CAJETIN
 62
     0
100
AcDbLine
 10
0.0
 20
-43.2998376976
 30
0.0
 11
468.5830916412
 21
-43.2998376976
 31
0.0
  0
MTEXT
  5
141
330
12E
100
AcDbEntity
  8
CAJETIN
 62
     0
100
AcDbMText
 10
27.4457856274
 20
-15.3162670072
 30
0.0
 40
12.7
 41
0.0
 71
     1
 72
     1
  1
ITEM NO.
  7
SLDTEXTSTYLE1
 73
     1
 44
1.0
  0
MTEXT
  5
142
330
12E
100
AcDbEntity
  8
CAJETIN
 62
     0
100
AcDbMText
 10
168.9942056534
 20
-15.3162670072
 30
0.0
 40
12.7
 41
0.0
 71
     1
 72
     1
  1
PARTS DIMENSIONS
  7
SLDTEXTSTYLE0
 73
     1
 44
1.0
  0
MTEXT
  5
143
330
12E
100
AcDbEntity
  8
CAJETIN
 62
     0
100
AcDbMText
 10
405.8731183971
 20
-15.3162670072
 30
0.0
 40
12.7
 41
0.0
 71
     1
 72
     1
  1
QTY.
  7
SLDTEXTSTYLE1
 73
     1
 44
1.0
  0
MTEXT
  5
144
330
12E
100
AcDbEntity
  8
CAJETIN
 62
     0
100
AcDbMText
 10
59.0076361975
 20
-51.8586159539
 30
0.0
 40
12.7
 41
0.0
 71
     1
 72
     1
  1
1
  7
SLDTEXTSTYLE1
 73
     1
 44
1.0
  0
MTEXT
  5
145
330
12E
100
AcDbEntity
  8
CAJETIN
 62
     0
100
AcDbMText
 10
193.4534671006
 20
-51.8586159539
 30
0.0
 40
12.7
 41
0.0
 71
     1
 72
     1
  1
1200 x 800 x 18
  7
SLDTEXTSTYLE0
 73
     1
 44
1.0
  0
MTEXT
  5
146
330
12E
100
AcDbEntity
  8
CAJETIN
 62
     0
100
AcDbMText
 10
419.5608957301
 20
-51.8586159539
 30
0.0
 40
12.7
 41
0.0
 71
     1
 72
     1
  1
2
  7
SLDTEXTSTYLE1
 73
     1
 44
1.0
  0
MTEXT
  5
147
330
12E
100
AcDbEntity
  8
CAJETIN
 62
     0
100
AcDbMText
 10
59.0076361975
 20
-81.6434761497
 30
0.0
 40
12.7
 41
0.0
 71
     1
 72
     1
  1
2
  7
SLDTEXTSTYLE1
 73
     1
 44
1.0
  0
MTEXT
  5
149
330
12E
100
AcDbEntity
  8
CAJETIN
 62
     0
100
AcDbMText
 10
198.1571713684
 20
-81.6434761497
 30
0.0
 40
12.7
 41
0.0
 71
     1
 72
     1
  1
500 x 800 x 18
  7
SLDTEXTSTYLE2
 73
     1
 44
1.0
  0
MTEXT
  5
14A
330
12E
100
AcDbEntity
  8
CAJETIN
 62
     0
100
AcDbMText
 10
419.5608957301
 20
-81.6434761497
 30
0.0
 40
12.7
 41
0.0
 71
     1
 72
     1
  1
2
  7
SLDTEXTSTYLE1
 73
     1
 44
1.0
  0
MTEXT
  5
14B
330
12E
100
AcDbEntity
  8
CAJETIN
 62
     0
100
AcDbMText
 10
59.0076361975
 20
-111.4283363456
 30
0.0
 40
12.7
 41
0.0
 71
     1
 72
     1
  1
3
  7
SLDTEXTSTYLE1
 73
     1
 44
1.0
  0
MTEXT
  5
14C
330
12E
100
AcDbEntity
  8
CAJETIN
 62
     0
100
AcDbMText
 10
193.4534671006
 20
-111.4283363456
 30
0.0
 40
12.7
 41
0.0
 71
     1
 72
     1
  1
1164 x 500 x 18
  7
SLDTEXTSTYLE0
 73
     1
 44
1.0
  0
MTEXT
  5
14D
330
12E
100
AcDbEntity
  8
CAJETIN
 62
     0
100
AcDbMText
 10
419.5608957301
 20
-111.4283363456
 30
0.0
 40
12.7
 41
0.0
 71
     1
 72
     1
  1
1
  7
SLDTEXTSTYLE1
 73
     1
 44
1.0
  0
MTEXT
  5
14E
330
12E
100
AcDbEntity
  8
CAJETIN
 62
     0
100
AcDbMText
 10
59.0076361975
 20
-141.2131965414
 30
0.0
 40
12.7
 41
0.0
 71
     1
 72
     1
  1
4
  7
SLDTEXTSTYLE1
 73
     1
 44
1.0
  0
MTEXT
  5
14F
330
12E
100
AcDbEntity
  8
CAJETIN
 62
     0
100
AcDbMText
 10
198.1571713684
 20
-141.2131965414
 30
0.0
 40
12.7
 41
0.0
 71
     1
 72
     1
  1
482 x 500 x 18
  7
SLDTEXTSTYLE2
 73
     1
 44
1.0
  0
MTEXT
  5
150
330
12E
100
AcDbEntity
  8
CAJETIN
 62
     0
100
AcDbMText
 10
419.5608957301
 20
-141.2131965414
 30
0.0
 40
12.7
 41
0.0
 71
     1
 72
     1
  1
2
  7
SLDTEXTSTYLE1
 73
     1
 44
1.0
  0
MTEXT
  5
151
330
12E
100
AcDbEntity
  8
CAJETIN
 62
     0
100
AcDbMText
 10
59.0076361975
 20
-170.9980567373
 30
0.0
 40
12.7
 41
0.0
 71
     1
 72
     1
  1
5
  7
SLDTEXTSTYLE1
 73
     1
 44
1.0
  0
MTEXT
  5
152
330
12E
100
AcDbEntity
  8
CAJETIN
 62
     0
100
AcDbMText
 10
198.1571713684
 20
-170.9980567373
 30
0.0
 40
12.7
 41
0.0
 71
     1
 72
     1
  1
775 x 500 x 18
  7
SLDTEXTSTYLE2
 73
     1
 44
1.0
  0
MTEXT
  5
153
330
12E
100
AcDbEntity
  8
CAJETIN
 62
     0
100
AcDbMText
 10
419.5608957301
 20
-170.9980567373
 30
0.0
 40
12.7
 41
0.0
 71
     1
 72
     1
  1
2
  7
SLDTEXTSTYLE1
 73
     1
 44
1.0
  0
MTEXT
  5
154
330
12E
100
AcDbEntity
  8
CAJETIN
 62
     0
100
AcDbMText
 10
59.0076361975
 20
-200.7829169331
 30
0.0
 40
12.7
 41
0.0
 71
     1
 72
     1
  1
6
  7
SLDTEXTSTYLE1
 73
     1
 44
1.0
  0
MTEXT
  5
155
330
12E
100
AcDbEntity
  8
CAJETIN
 62
     0
100
AcDbMText
 10
198.1571713684
 20
-200.7829169331
 30
0.0
 40
12.7
 41
0.0
 71
     1
 72
     1
  1
164 x 210 x 18
  7
SLDTEXTSTYLE2
 73
     1
 44
1.0
  0
MTEXT
  5
156
330
12E
100
AcDbEntity
  8
CAJETIN
 62
     0
100
AcDbMText
 10
419.5608957301
 20
-200.7829169331
 30
0.0
 40
12.7
 41
0.0
 71
     1
 72
     1
  1
1
  7
SLDTEXTSTYLE1
 73
     1
 44
1.0
  0
MTEXT
  5
157
330
12E
100
AcDbEntity
  8
CAJETIN
 62
     0
100
AcDbMText
 10
59.0076361975
 20
-230.567777129
 30
0.0
 40
12.7
 41
0.0
 71
     1
 72
     1
  1
7
  7
SLDTEXTSTYLE1
 73
     1
 44
1.0
  0
MTEXT
  5
158
330
12E
100
AcDbEntity
  8
CAJETIN
 62
     0
100
AcDbMText
 10
198.1571713684
 20
-230.567777129
 30
0.0
 40
12.7
 41
0.0
 71
     1
 72
     1
  1
482 x 500 x 18
  7
SLDTEXTSTYLE2
 73
     1
 44
1.0
  0
MTEXT
  5
159
330
12E
100
AcDbEntity
  8
CAJETIN
 62
     0
100
AcDbMText
 10
419.5608957301
 20
-230.567777129
 30
0.0
 40
12.7
 41
0.0
 71
     1
 72
     1
  1
2
  7
SLDTEXTSTYLE1
 73
     1
 44
1.0
  0
ENDBLK
  5
130
330
12E
100
AcDbEntity
  8
0
100
AcDbBlockEnd
  0
BLOCK
  5
262
330
261
100
AcDbEntity
  8
0
100
AcDbBlockBegin
  2
SW_NOTE_9
 70
     0
 10
0.0
 20
0.0
 30
0.0
  3
SW_NOTE_9
  1

  0
CIRCLE
  5
264
330
261
100
AcDbEntity
  8
SLD-0_0
 62
     0
100
AcDbCircle
 10
-7.6336925142
 20
16.3049732069
 30
0.0
 40
18.00348334851921
  0
MTEXT
  5
265
330
261
100
AcDbEntity
  8
SLD-0_0
 62
     0
100
AcDbMText
 10
-7.5748963163
 20
23.3960366493
 30
0.0
 40
12.7
 41
0.0
 71
     2
 72
     1
  1
2
  7
SLDTEXTSTYLE0
 73
     1
 44
1.0
  0
ENDBLK
  5
263
330
261
100
AcDbEntity
  8
0
100
AcDbBlockEnd
  0
BLOCK
  5
269
330
268
100
AcDbEntity
  8
0
100
AcDbBlockBegin
  2
_DOT
 70
     0
 10
0.0
 20
0.0
 30
0.0
  3
_DOT
  1

  0
POLYLINE
  5
26B
330
268
100
AcDbEntity
  8
0
  6
ByBlock
 62
     0
100
AcDb2dPolyline
 66
     1
 10
0.0
 20
0.0
 30
0.0
 70
     1
 40
0.5
 41
0.5
  0
VERTEX
  5
26D
330
26B
100
AcDbEntity
  8
0
  6
ByBlock
 62
     0
100
AcDbVertex
100
AcDb2dVertex
 10
-0.25
 20
0.0
 30
0.0
 42
1.0
  0
VERTEX
  5
26E
330
26B
100
AcDbEntity
  8
0
  6
ByBlock
 62
     0
100
AcDbVertex
100
AcDb2dVertex
 10
0.25
 20
0.0
 30
0.0
 42
1.0
  0
SEQEND
  5
26F
330
26B
100
AcDbEntity
  8
0
  6
ByBlock
 62
     0
  0
LINE
  5
26C
330
268
100
AcDbEntity
  8
0
  6
ByBlock
 62
     0
370
    -2
100
AcDbLine
 10
-0.5
 20
0.0
 30
0.0
 11
-1.0
 21
0.0
 31
0.0
  0
ENDBLK
  5
26A
330
268
100
AcDbEntity
  8
0
100
AcDbBlockEnd
  0
BLOCK
  5
272
330
271
100
AcDbEntity
  8
0
100
AcDbBlockBegin
  2
SW_NOTE_10
 70
     0
 10
0.0
 20
0.0
 30
0.0
  3
SW_NOTE_10
  1

  0
CIRCLE
  5
274
330
271
100
AcDbEntity
  8
SLD-0_0
 62
     0
100
AcDbCircle
 10
13.1101229364
 20
12.3389662967
 30
0.0
 40
18.00348334851918
  0
MTEXT
  5
275
330
271
100
AcDbEntity
  8
SLD-0_0
 62
     0
100
AcDbMText
 10
13.1689191344
 20
19.4300297391
 30
0.0
 40
12.7
 41
0.0
 71
     2
 72
     1
  1
1
  7
SLDTEXTSTYLE0
 73
     1
 44
1.0
  0
ENDBLK
  5
273
330
271
100
AcDbEntity
  8
0
100
AcDbBlockEnd
  0
BLOCK
  5
279
330
278
100
AcDbEntity
  8
0
100
AcDbBlockBegin
  2
SW_NOTE_11
 70
     0
 10
0.0
 20
0.0
 30
0.0
  3
SW_NOTE_11
  1

  0
CIRCLE
  5
27B
330
278
100
AcDbEntity
  8
SLD-0_0
 62
     0
100
AcDbCircle
 10
-12.5410377374
 20
12.9169572713
 30
0.0
 40
18.00348334851921
  0
MTEXT
  5
27C
330
278
100
AcDbEntity
  8
SLD-0_0
 62
     0
100
AcDbMText
 10
-12.4822415395
 20
20.0080207137
 30
0.0
 40
12.7
 41
0.0
 71
     2
 72
     1
  1
7
  7
SLDTEXTSTYLE0
 73
     1
 44
1.0
  0
ENDBLK
  5
27A
330
278
100
AcDbEntity
  8
0
100
AcDbBlockEnd
  0
BLOCK
  5
280
330
27F
100
AcDbEntity
  8
0
100
AcDbBlockBegin
  2
SW_NOTE_12
 70
     0
 10
0.0
 20
0.0
 30
0.0
  3
SW_NOTE_12
  1

  0
CIRCLE
  5
282
330
27F
100
AcDbEntity
  8
SLD-0_0
 62
     0
100
AcDbCircle
 10
15.0752705491
 20
9.8418306504
 30
0.0
 40
18.00348334851924
  0
MTEXT
  5
283
330
27F
100
AcDbEntity
  8
SLD-0_0
 62
     0
100
AcDbMText
 10
15.1340667471
 20
16.9328940928
 30
0.0
 40
12.7
 41
0.0
 71
     2
 72
     1
  1
7
  7
SLDTEXTSTYLE0
 73
     1
 44
1.0
  0
ENDBLK
  5
281
330
27F
100
AcDbEntity
  8
0
100
AcDbBlockEnd
  0
BLOCK
  5
287
330
286
100
AcDbEntity
  8
0
100
AcDbBlockBegin
  2
SW_NOTE_13
 70
     0
 10
0.0
 20
0.0
 30
0.0
  3
SW_NOTE_13
  1

  0
CIRCLE
  5
289
330
286
100
AcDbEntity
  8
SLD-0_0
 62
     0
100
AcDbCircle
 10
-15.8834593159
 20
-8.4759148675
 30
0.0
 40
18.00348334851921
  0
MTEXT
  5
28A
330
286
100
AcDbEntity
  8
SLD-0_0
 62
     0
100
AcDbMText
 10
-15.8246631179
 20
-1.3848514252
 30
0.0
 40
12.7
 41
0.0
 71
     2
 72
     1
  1
4
  7
SLDTEXTSTYLE0
 73
     1
 44
1.0
  0
ENDBLK
  5
288
330
286
100
AcDbEntity
  8
0
100
AcDbBlockEnd
  0
BLOCK
  5
28E
330
28D
100
AcDbEntity
  8
0
100
AcDbBlockBegin
  2
SW_NOTE_14
 70
     0
 10
0.0
 20
0.0
 30
0.0
  3
SW_NOTE_14
  1

  0
CIRCLE
  5
290
330
28D
100
AcDbEntity
  8
SLD-0_0
 62
     0
100
AcDbCircle
 10
17.8963878079
 20
-1.9607947648
 30
0.0
 40
18.00348334851928
  0
MTEXT
  5
291
330
28D
100
AcDbEntity
  8
SLD-0_0
 62
     0
100
AcDbMText
 10
17.9551840058
 20
5.1302686776
 30
0.0
 40
12.7
 41
0.0
 71
     2
 72
     1
  1
5
  7
SLDTEXTSTYLE0
 73
     1
 44
1.0
  0
ENDBLK
  5
28F
330
28D
100
AcDbEntity
  8
0
100
AcDbBlockEnd
  0
BLOCK
  5
295
330
294
100
AcDbEntity
  8
0
100
AcDbBlockBegin
  2
SW_NOTE_15
 70
     0
 10
0.0
 20
0.0
 30
0.0
  3
SW_NOTE_15
  1

  0
CIRCLE
  5
297
330
294
100
AcDbEntity
  8
SLD-0_0
 62
     0
100
AcDbCircle
 10
-13.1618420527
 20
12.283783068
 30
0.0
 40
18.00348334851923
  0
MTEXT
  5
298
330
294
100
AcDbEntity
  8
SLD-0_0
 62
     0
100
AcDbMText
 10
-13.1030458547
 20
19.3748465104
 30
0.0
 40
12.7
 41
0.0
 71
     2
 72
     1
  1
5
  7
SLDTEXTSTYLE0
 73
     1
 44
1.0
  0
ENDBLK
  5
296
330
294
100
AcDbEntity
  8
0
100
AcDbBlockEnd
  0
BLOCK
  5
29C
330
29B
100
AcDbEntity
  8
0
100
AcDbBlockBegin
  2
SW_NOTE_16
 70
     0
 10
0.0
 20
0.0
 30
0.0
  3
SW_NOTE_16
  1

  0
CIRCLE
  5
29E
330
29B
100
AcDbEntity
  8
SLD-0_0
 62
     0
100
AcDbCircle
 10
-1.3245605288
 20
-17.9546916455
 30
0.0
 40
18.00348334851921
  0
MTEXT
  5
29F
330
29B
100
AcDbEntity
  8
SLD-0_0
 62
     0
100
AcDbMText
 10
-1.2657643309
 20
-10.8636282031
 30
0.0
 40
12.7
 41
0.0
 71
     2
 72
     1
  1
6
  7
SLDTEXTSTYLE0
 73
     1
 44
1.0
  0
ENDBLK
  5
29D
330
29B
100
AcDbEntity
  8
0
100
AcDbBlockEnd
  0
BLOCK
  5
2A3
330
2A2
100
AcDbEntity
  8
0
100
AcDbBlockBegin
  2
SW_NOTE_17
 70
     0
 10
0.0
 20
0.0
 30
0.0
  3
SW_NOTE_17
  1

  0
CIRCLE
  5
2A5
330
2A2
100
AcDbEntity
  8
SLD-0_0
 62
     0
100
AcDbCircle
 10
15.2911471719
 20
9.5029590575
 30
0.0
 40
18.00348334851923
  0
MTEXT
  5
2A6
330
2A2
100
AcDbEntity
  8
SLD-0_0
 62
     0
100
AcDbMText
 10
15.3499433698
 20
16.5940224999
 30
0.0
 40
12.7
 41
0.0
 71
     2
 72
     1
  1
3
  7
SLDTEXTSTYLE0
 73
     1
 44
1.0
  0
ENDBLK
  5
2A4
330
2A2
100
AcDbEntity
  8
0
100
AcDbBlockEnd
  0
BLOCK
  5
2AA
330
2A9
100
AcDbEntity
  8
0
100
AcDbBlockBegin
  2
SW_NOTE_18
 70
     0
 10
0.0
 20
0.0
 30
0.0
  3
SW_NOTE_18
  1

  0
CIRCLE
  5
2AC
330
2A9
100
AcDbEntity
  8
SLD-0_0
 62
     0
100
AcDbCircle
 10
15.485252715
 20
9.1832652708
 30
0.0
 40
18.00348334851921
  0
MTEXT
  5
2AD
330
2A9
100
AcDbEntity
  8
SLD-0_0
 62
     0
100
AcDbMText
 10
15.5440489129
 20
16.2743287132
 30
0.0
 40
12.7
 41
0.0
 71
     2
 72
     1
  1
2
  7
SLDTEXTSTYLE0
 73
     1
 44
1.0
  0
ENDBLK
  5
2AB
330
2A9
100
AcDbEntity
  8
0
100
AcDbBlockEnd
  0
BLOCK
  5
2B1
330
2B0
100
AcDbEntity
  8
0
100
AcDbBlockBegin
  2
SW_NOTE_19
 70
     0
 10
0.0
 20
0.0
 30
0.0
  3
SW_NOTE_19
  1

  0
CIRCLE
  5
2B3
330
2B0
100
AcDbEntity
  8
SLD-0_0
 62
     0
100
AcDbCircle
 10
15.308673666
 20
-9.4746991124
 30
0.0
 40
18.00348334851921
  0
MTEXT
  5
2B4
330
2B0
100
AcDbEntity
  8
SLD-0_0
 62
     0
100
AcDbMText
 10
15.3674698639
 20
-2.38363567
 30
0.0
 40
12.7
 41
0.0
 71
     2
 72
     1
  1
1
  7
SLDTEXTSTYLE0
 73
     1
 44
1.0
  0
ENDBLK
  5
2B2
330
2B0
100
AcDbEntity
  8
0
100
AcDbBlockEnd
  0
BLOCK
  5
2B8
330
2B7
100
AcDbEntity
  8
0
100
AcDbBlockBegin
  2
SW_NOTE_20
 70
     0
 10
0.0
 20
0.0
 30
0.0
  3
SW_NOTE_20
  1

  0
CIRCLE
  5
2BA
330
2B7
100
AcDbEntity
  8
SLD-0_0
 62
     0
100
AcDbCircle
 10
-16.9960702489
 20
-5.9379296708
 30
0.0
 40
18.00348334851921
  0
MTEXT
  5
2BB
330
2B7
100
AcDbEntity
  8
SLD-0_0
 62
     0
100
AcDbMText
 10
-16.937274051
 20
1.1531337716
 30
0.0
 40
12.7
 41
0.0
 71
     2
 72
     1
  1
4
  7
SLDTEXTSTYLE0
 73
     1
 44
1.0
  0
ENDBLK
  5
2B9
330
2B7
100
AcDbEntity
  8
0
100
AcDbBlockEnd
  0
BLOCK
  5
2C5
330
2C4
100
AcDbEntity
  8
0
100
AcDbBlockBegin
  2
_D
 70
     0
 10
0.0
 20
0.0
 30
0.0
  3
_D
  1

  0
SOLID
  5
2C7
330
2C4
100
AcDbEntity
  8
CAJETIN
100
AcDbTrace
 10
1442.5350177342
 20
1076.6954511201
 30
0.0
 11
1443.0430177342
 21
1079.9974511201
 31
0.0
 12
1442.0270177342
 22
1079.9974511201
 32
0.0
 13
1442.0270177342
 23
1079.9974511201
 33
0.0
  0
SOLID
  5
2C8
330
2C4
100
AcDbEntity
  8
CAJETIN
100
AcDbTrace
 10
1442.5350177342
 20
1876.6954511201
 30
0.0
 11
1442.0270177342
 21
1873.3934511201
 31
0.0
 12
1443.0430177342
 22
1873.3934511201
 32
0.0
 13
1443.0430177342
 23
1873.3934511201
 33
0.0
  0
LINE
  5
2C9
330
2C4
100
AcDbEntity
  8
CAJETIN
100
AcDbLine
 10
1419.5350177342
 20
1076.6954511201
 30
0.0
 11
1443.5350177342
 21
1076.6954511201
 31
0.0
  0
LINE
  5
2CA
330
2C4
100
AcDbEntity
  8
CAJETIN
100
AcDbLine
 10
1419.5350177342
 20
1876.6954511201
 30
0.0
 11
1443.5350177342
 21
1876.6954511201
 31
0.0
  0
LINE
  5
2CB
330
2C4
100
AcDbEntity
  8
CAJETIN
100
AcDbLine
 10
1442.5350177342
 20
1076.6954511201
 30
0.0
 11
1442.5350177342
 21
1876.6954511201
 31
0.0
  0
MTEXT
  5
2CC
330
2C4
100
AcDbEntity
  8
CAJETIN
100
AcDbMText
 10
1426.1638574391
 20
1455.96459717
 30
0.0
 40
12.7
 41
0.0
 71
     1
 72
     1
  1
800
  7
SLDTEXTSTYLE0
 11
-3.491481338843133E-15
 21
1.0
 31
0.0
 73
     1
 44
1.0
  0
ENDBLK
  5
2C6
330
2C4
100
AcDbEntity
  8
0
100
AcDbBlockEnd
  0
BLOCK
  5
2CF
330
2CE
100
AcDbEntity
  8
0
100
AcDbBlockBegin
  2
_D_1
 70
     0
 10
0.0
 20
0.0
 30
0.0
  3
_D_1
  1

  0
SOLID
  5
2D1
330
2CE
100
AcDbEntity
  8
CAJETIN
100
AcDbTrace
 10
218.5350177342
 20
1052.6954511201
 30
0.0
 11
221.8370177342
 21
1052.1874511201
 31
0.0
 12
221.8370177342
 22
1053.2034511201
 32
0.0
 13
221.8370177342
 23
1053.2034511201
 33
0.0
  0
SOLID
  5
2D2
330
2CE
100
AcDbEntity
  8
CAJETIN
100
AcDbTrace
 10
1418.5350177342
 20
1052.6954511201
 30
0.0
 11
1415.2330177342
 21
1053.2034511201
 31
0.0
 12
1415.2330177342
 22
1052.1874511201
 32
0.0
 13
1415.2330177342
 23
1052.1874511201
 33
0.0
  0
LINE
  5
2D3
330
2CE
100
AcDbEntity
  8
CAJETIN
100
AcDbLine
 10
218.5350177342
 20
1075.6954511201
 30
0.0
 11
218.5350177342
 21
1051.6954511201
 31
0.0
  0
LINE
  5
2D4
330
2CE
100
AcDbEntity
  8
CAJETIN
100
AcDbLine
 10
1418.5350177342
 20
1075.6954511201
 30
0.0
 11
1418.5350177342
 21
1051.6954511201
 31
0.0
  0
LINE
  5
2D5
330
2CE
100
AcDbEntity
  8
CAJETIN
100
AcDbLine
 10
218.5350177342
 20
1052.6954511201
 30
0.0
 11
1418.5350177342
 21
1052.6954511201
 31
0.0
  0
MTEXT
  5
2D6
330
2CE
100
AcDbEntity
  8
CAJETIN
100
AcDbMText
 10
799.7202025258
 20
1069.0666114152
 30
0.0
 40
12.7
 41
0.0
 71
     1
 72
     1
  1
1200
  7
SLDTEXTSTYLE0
 73
     1
 44
1.0
  0
ENDBLK
  5
2D0
330
2CE
100
AcDbEntity
  8
0
100
AcDbBlockEnd
  0
BLOCK
  5
2DD
330
2DC
100
AcDbEntity
  8
0
100
AcDbBlockBegin
  2
_D_2
 70
     0
 10
0.0
 20
0.0
 30
0.0
  3
_D_2
  1

  0
SOLID
  5
2DF
330
2DC
100
AcDbEntity
  8
CAJETIN
100
AcDbTrace
 10
1608.6222375045
 20
1052.6954511201
 30
0.0
 11
1611.9242375045
 21
1052.1874511201
 31
0.0
 12
1611.9242375045
 22
1053.2034511201
 32
0.0
 13
1611.9242375045
 23
1053.2034511201
 33
0.0
  0
SOLID
  5
2E0
330
2DC
100
AcDbEntity
  8
CAJETIN
100
AcDbTrace
 10
2108.6222375045
 20
1052.6954511201
 30
0.0
 11
2105.3202375045
 21
1053.2034511201
 31
0.0
 12
2105.3202375045
 22
1052.1874511201
 32
0.0
 13
2105.3202375045
 23
1052.1874511201
 33
0.0
  0
LINE
  5
2E1
330
2DC
100
AcDbEntity
  8
CAJETIN
100
AcDbLine
 10
1608.6222375045
 20
1075.6954511201
 30
0.0
 11
1608.6222375045
 21
1051.6954511201
 31
0.0
  0
LINE
  5
2E2
330
2DC
100
AcDbEntity
  8
CAJETIN
100
AcDbLine
 10
2108.6222375045
 20
1075.6954511201
 30
0.0
 11
2108.6222375045
 21
1051.6954511201
 31
0.0
  0
LINE
  5
2E3
330
2DC
100
AcDbEntity
  8
CAJETIN
100
AcDbLine
 10
1608.6222375045
 20
1052.6954511201
 30
0.0
 11
2108.6222375045
 21
1052.6954511201
 31
0.0
  0
MTEXT
  5
2E4
330
2DC
100
AcDbEntity
  8
CAJETIN
100
AcDbMText
 10
1838.994674056
 20
1069.0666114152
 30
0.0
 40
12.7
 41
0.0
 71
     1
 72
     1
  1
500
  7
SLDTEXTSTYLE0
 73
     1
 44
1.0
  0
ENDBLK
  5
2DE
330
2DC
100
AcDbEntity
  8
0
100
AcDbBlockEnd
  0
BLOCK
  5
2E7
330
2E6
100
AcDbEntity
  8
0
100
AcDbBlockBegin
  2
_D_3
 70
     0
 10
0.0
 20
0.0
 30
0.0
  3
_D_3
  1

  0
SOLID
  5
2E9
330
2E6
100
AcDbEntity
  8
CAJETIN
100
AcDbTrace
 10
2132.6222375045
 20
1076.6954511201
 30
0.0
 11
2133.1302375045
 21
1079.9974511201
 31
0.0
 12
2132.1142375045
 22
1079.9974511201
 32
0.0
 13
2132.1142375045
 23
1079.9974511201
 33
0.0
  0
SOLID
  5
2EA
330
2E6
100
AcDbEntity
  8
CAJETIN
100
AcDbTrace
 10
2132.6222375045
 20
1876.6954511201
 30
0.0
 11
2132.1142375045
 21
1873.3934511201
 31
0.0
 12
2133.1302375045
 22
1873.3934511201
 32
0.0
 13
2133.1302375045
 23
1873.3934511201
 33
0.0
  0
LINE
  5
2EB
330
2E6
100
AcDbEntity
  8
CAJETIN
100
AcDbLine
 10
2109.6222375045
 20
1076.6954511201
 30
0.0
 11
2133.6222375045
 21
1076.6954511201
 31
0.0
  0
LINE
  5
2EC
330
2E6
100
AcDbEntity
  8
CAJETIN
100
AcDbLine
 10
2109.6222375045
 20
1876.6954511201
 30
0.0
 11
2133.6222375045
 21
1876.6954511201
 31
0.0
  0
LINE
  5
2ED
330
2E6
100
AcDbEntity
  8
CAJETIN
100
AcDbLine
 10
2132.6222375045
 20
1076.6954511201
 30
0.0
 11
2132.6222375045
 21
1876.6954511201
 31
0.0
  0
MTEXT
  5
2EE
330
2E6
100
AcDbEntity
  8
CAJETIN
100
AcDbMText
 10
2116.2510772094
 20
1460.3777591763
 30
0.0
 40
12.7
 41
0.0
 71
     1
 72
     1
  1
800
  7
SLDTEXTSTYLE0
 11
-3.491481338843133E-15
 21
1.0
 31
0.0
 73
     1
 44
1.0
  0
ENDBLK
  5
2E8
330
2E6
100
AcDbEntity
  8
0
100
AcDbBlockEnd
  0
BLOCK
  5
2F5
330
2F4
100
AcDbEntity
  8
0
100
AcDbBlockBegin
  2
_D_4
 70
     0
 10
0.0
 20
0.0
 30
0.0
  3
_D_4
  1

  0
SOLID
  5
2F7
330
2F4
100
AcDbEntity
  8
CAJETIN
100
AcDbTrace
 10
3403.5018559507
 20
1202.6954511201
 30
0.0
 11
3400.1998559507
 21
1203.2034511201
 31
0.0
 12
3400.1998559507
 22
1202.1874511201
 32
0.0
 13
3400.1998559507
 23
1202.1874511201
 33
0.0
  0
SOLID
  5
2F8
330
2F4
100
AcDbEntity
  8
CAJETIN
100
AcDbTrace
 10
2239.5018559507
 20
1202.6954511201
 30
0.0
 11
2242.8038559507
 21
1202.1874511201
 31
0.0
 12
2242.8038559507
 22
1203.2034511201
 32
0.0
 13
2242.8038559507
 23
1203.2034511201
 33
0.0
  0
LINE
  5
2F9
330
2F4
100
AcDbEntity
  8
CAJETIN
100
AcDbLine
 10
3403.5018559507
 20
1225.6954511201
 30
0.0
 11
3403.5018559507
 21
1201.6954511201
 31
0.0
  0
LINE
  5
2FA
330
2F4
100
AcDbEntity
  8
CAJETIN
100
AcDbLine
 10
2239.5018559507
 20
1225.6954511201
 30
0.0
 11
2239.5018559507
 21
1201.6954511201
 31
0.0
  0
LINE
  5
2FB
330
2F4
100
AcDbEntity
  8
CAJETIN
100
AcDbLine
 10
3403.5018559507
 20
1202.6954511201
 30
0.0
 11
2239.5018559507
 21
1202.6954511201
 31
0.0
  0
MTEXT
  5
2FC
330
2F4
100
AcDbEntity
  8
CAJETIN
100
AcDbMText
 10
2794.9640072313
 20
1219.0666114152
 30
0.0
 40
12.7
 41
0.0
 71
     1
 72
     1
  1
1164
  7
SLDTEXTSTYLE0
 73
     1
 44
1.0
  0
ENDBLK
  5
2F6
330
2F4
100
AcDbEntity
  8
0
100
AcDbBlockEnd
  0
BLOCK
  5
2FF
330
2FE
100
AcDbEntity
  8
0
100
AcDbBlockBegin
  2
_D_5
 70
     0
 10
0.0
 20
0.0
 30
0.0
  3
_D_5
  1

  0
SOLID
  5
301
330
2FE
100
AcDbEntity
  8
CAJETIN
100
AcDbTrace
 10
3427.5018559507
 20
1726.6954511201
 30
0.0
 11
3426.9938559507
 21
1723.3934511201
 31
0.0
 12
3428.0098559507
 22
1723.3934511201
 32
0.0
 13
3428.0098559507
 23
1723.3934511201
 33
0.0
  0
SOLID
  5
302
330
2FE
100
AcDbEntity
  8
CAJETIN
100
AcDbTrace
 10
3427.5018559507
 20
1226.6954511201
 30
0.0
 11
3428.0098559507
 21
1229.9974511201
 31
0.0
 12
3426.9938559507
 22
1229.9974511201
 32
0.0
 13
3426.9938559507
 23
1229.9974511201
 33
0.0
  0
LINE
  5
303
330
2FE
100
AcDbEntity
  8
CAJETIN
100
AcDbLine
 10
3404.5018559507
 20
1726.6954511201
 30
0.0
 11
3428.5018559507
 21
1726.6954511201
 31
0.0
  0
LINE
  5
304
330
2FE
100
AcDbEntity
  8
CAJETIN
100
AcDbLine
 10
3404.5018559507
 20
1226.6954511201
 30
0.0
 11
3428.5018559507
 21
1226.6954511201
 31
0.0
  0
LINE
  5
305
330
2FE
100
AcDbEntity
  8
CAJETIN
100
AcDbLine
 10
3427.5018559507
 20
1726.6954511201
 30
0.0
 11
3427.5018559507
 21
1226.6954511201
 31
0.0
  0
MTEXT
  5
306
330
2FE
100
AcDbEntity
  8
CAJETIN
100
AcDbMText
 10
3411.1306956556
 20
1460.3777591763
 30
0.0
 40
12.7
 41
0.0
 71
     1
 72
     1
  1
500
  7
SLDTEXTSTYLE0
 11
-7.044195017643634E-15
 21
1.0
 31
0.0
 73
     1
 44
1.0
  0
ENDBLK
  5
300
330
2FE
100
AcDbEntity
  8
0
100
AcDbBlockEnd
  0
BLOCK
  5
317
330
316
100
AcDbEntity
  8
0
100
AcDbBlockBegin
  2
_D_6
 70
     0
 10
0.0
 20
0.0
 30
0.0
  3
_D_6
  1

  0
SOLID
  5
319
330
316
100
AcDbEntity
  8
SLD-0_0
100
AcDbTrace
 10
1827.2833496983
 20
931.1673820238
 30
0.0
 11
1826.7753496983
 21
927.8653820238
 31
0.0
 12
1827.7913496983
 22
927.8653820238
 32
0.0
 13
1827.7913496983
 23
927.8653820238
 33
0.0
  0
SOLID
  5
31A
330
316
100
AcDbEntity
  8
SLD-0_0
100
AcDbTrace
 10
1827.2833496983
 20
431.1673820238
 30
0.0
 11
1827.7913496983
 21
434.4693820238
 31
0.0
 12
1826.7753496983
 22
434.4693820238
 32
0.0
 13
1826.7753496983
 23
434.4693820238
 33
0.0
  0
LINE
  5
31B
330
316
100
AcDbEntity
  8
SLD-0_0
100
AcDbLine
 10
1804.2833496983
 20
931.1673820238
 30
0.0
 11
1828.2833496983
 21
931.1673820238
 31
0.0
  0
LINE
  5
31C
330
316
100
AcDbEntity
  8
SLD-0_0
100
AcDbLine
 10
1804.2833496983
 20
431.1673820238
 30
0.0
 11
1828.2833496983
 21
431.1673820238
 31
0.0
  0
LINE
  5
31D
330
316
100
AcDbEntity
  8
SLD-0_0
100
AcDbLine
 10
1827.2833496983
 20
931.1673820238
 30
0.0
 11
1827.2833496983
 21
431.1673820238
 31
0.0
  0
MTEXT
  5
31E
330
316
100
AcDbEntity
  8
SLD-0_0
100
AcDbMText
 10
1810.9121894032
 20
665.0350942128
 30
0.0
 40
12.7
 41
0.0
 71
     1
 72
     1
  1
500
  7
SLDTEXTSTYLE0
 11
-7.044195017643634E-15
 21
1.0
 31
0.0
 73
     1
 44
1.0
  0
ENDBLK
  5
318
330
316
100
AcDbEntity
  8
0
100
AcDbBlockEnd
  0
BLOCK
  5
321
330
320
100
AcDbEntity
  8
0
100
AcDbBlockBegin
  2
_D_7
 70
     0
 10
0.0
 20
0.0
 30
0.0
  3
_D_7
  1

  0
SOLID
  5
323
330
320
100
AcDbEntity
  8
SLD-0_0
100
AcDbTrace
 10
1321.2833496983
 20
407.1673820238
 30
0.0
 11
1324.5853496983
 21
406.6593820238
 31
0.0
 12
1324.5853496983
 22
407.6753820238
 32
0.0
 13
1324.5853496983
 23
407.6753820238
 33
0.0
  0
SOLID
  5
324
330
320
100
AcDbEntity
  8
SLD-0_0
100
AcDbTrace
 10
1803.2833496983
 20
407.1673820238
 30
0.0
 11
1799.9813496983
 21
407.6753820238
 31
0.0
 12
1799.9813496983
 22
406.6593820238
 32
0.0
 13
1799.9813496983
 23
406.6593820238
 33
0.0
  0
LINE
  5
325
330
320
100
AcDbEntity
  8
SLD-0_0
100
AcDbLine
 10
1321.2833496983
 20
430.1673820238
 30
0.0
 11
1321.2833496983
 21
406.1673820238
 31
0.0
  0
LINE
  5
326
330
320
100
AcDbEntity
  8
SLD-0_0
100
AcDbLine
 10
1803.2833496983
 20
430.1673820238
 30
0.0
 11
1803.2833496983
 21
406.1673820238
 31
0.0
  0
LINE
  5
327
330
320
100
AcDbEntity
  8
SLD-0_0
100
AcDbLine
 10
1321.2833496983
 20
407.1673820238
 30
0.0
 11
1803.2833496983
 21
407.1673820238
 31
0.0
  0
MTEXT
  5
328
330
320
100
AcDbEntity
  8
SLD-0_0
100
AcDbMText
 10
1546.7048111806
 20
423.5385423189
 30
0.0
 40
12.7
 41
0.0
 71
     1
 72
     1
  1
482
  7
SLDTEXTSTYLE0
 73
     1
 44
1.0
  0
ENDBLK
  5
322
330
320
100
AcDbEntity
  8
0
100
AcDbBlockEnd
  0
BLOCK
  5
32C
330
32B
100
AcDbEntity
  8
0
100
AcDbBlockBegin
  2
_D_8
 70
     0
 10
0.0
 20
0.0
 30
0.0
  3
_D_8
  1

  0
SOLID
  5
32E
330
32B
100
AcDbEntity
  8
SLD-0_0
100
AcDbTrace
 10
1737.6182983809
 20
815.8101866839
 30
0.0
 11
1734.7321463
 21
814.127511978
 31
0.0
 12
1735.3713850361
 22
813.3378096048
 32
0.0
 13
1735.3713850361
 23
813.3378096048
 33
0.0
  0
SOLID
  5
32F
330
32B
100
AcDbEntity
  8
SLD-0_0
100
AcDbTrace
 10
1404.9484010156
 20
546.5245773636
 30
0.0
 11
1407.8345530966
 21
548.2072520695
 31
0.0
 12
1407.1953143604
 22
548.9969544427
 32
0.0
 13
1407.1953143604
 23
548.9969544427
 33
0.0
  0
LINE
  5
330
330
32B
100
AcDbEntity
  8
SLD-0_0
100
AcDbLine
 10
1404.9484010156
 20
546.5245773636
 30
0.0
 11
1737.6182983809
 21
815.8101866839
 31
0.0
  0
MTEXT
  5
331
330
32B
100
AcDbEntity
  8
SLD-0_0
100
AcDbMText
 10
1483.0665494064
 20
630.707932467
 30
0.0
 40
12.7
 41
0.0
 71
     1
 72
     1
  1
%%c
  7
SLDTEXTSTYLE0
 11
0.777266115339417
 21
0.6291719843931165
 31
0.0
 73
     1
 44
1.0
  0
MTEXT
  5
332
330
32B
100
AcDbEntity
  8
SLD-0_0
100
AcDbMText
 10
1497.0462923879
 20
642.0240859173
 30
0.0
 40
12.7
 41
0.0
 71
     1
 72
     1
  1
428
  7
SLDTEXTSTYLE0
 11
0.777266115339417
 21
0.6291719843931165
 31
0.0
 73
     1
 44
1.0
  0
ENDBLK
  5
32D
330
32B
100
AcDbEntity
  8
0
100
AcDbBlockEnd
  0
BLOCK
  5
336
330
335
100
AcDbEntity
  8
0
100
AcDbBlockBegin
  2
_D_9
 70
     0
 10
0.0
 20
0.0
 30
0.0
  3
_D_9
  1

  0
SOLID
  5
338
330
335
100
AcDbEntity
  8
SLD-0_0
100
AcDbTrace
 10
1474.8307333337
 20
886.0908972727
 30
0.0
 11
1471.9439234882
 21
887.7724432625
 31
0.0
 12
1471.5719817962
 22
886.8269722805
 32
0.0
 13
1471.5719817962
 23
886.8269722805
 33
0.0
  0
LINE
  5
339
330
335
100
AcDbEntity
  8
SLD-0_0
100
AcDbLine
 10
1474.8307333337
 20
886.0908972727
 30
0.0
 11
1438.1547988875
 21
900.5189541584
 31
0.0
  0
LINE
  5
33A
330
335
100
AcDbEntity
  8
SLD-0_0
100
AcDbLine
 10
1438.1547988875
 20
900.5189541584
 30
0.0
 11
1385.6555817707
 21
900.5189541584
 31
0.0
  0
MTEXT
  5
33B
330
335
100
AcDbEntity
  8
SLD-0_0
100
AcDbMText
 10
1385.6555817707
 20
916.8901153849
 30
0.0
 40
12.7
 41
0.0
 71
     1
 72
     1
  1
%%c
  7
SLDTEXTSTYLE0
 73
     1
 44
1.0
  0
MTEXT
  5
33C
330
335
100
AcDbEntity
  8
SLD-0_0
100
AcDbMText
 10
1403.6413690133
 20
916.8901153849
 30
0.0
 40
12.7
 41
0.0
 71
     1
 72
     1
  1
6.60
  7
SLDTEXTSTYLE0
 73
     1
 44
1.0
  0
ENDBLK
  5
337
330
335
100
AcDbEntity
  8
0
100
AcDbBlockEnd
  0
BLOCK
  5
340
330
33F
100
AcDbEntity
  8
0
100
AcDbBlockBegin
  2
_D_10
 70
     0
 10
0.0
 20
0.0
 30
0.0
  3
_D_10
  1

  0
SOLID
  5
342
330
33F
100
AcDbEntity
  8
CAJETIN
100
AcDbTrace
 10
1772.0952067952
 20
581.6951819257
 30
0.0
 11
1769.3618150985
 21
583.616076986
 31
0.0
 12
1768.9108358525
 22
582.7056519646
 32
0.0
 13
1768.9108358525
 23
582.7056519646
 33
0.0
  0
SOLID
  5
343
330
33F
100
AcDbEntity
  8
CAJETIN
100
AcDbTrace
 10
1370.4714926014
 20
780.6395821218
 30
0.0
 11
1373.204884298
 21
778.7186870615
 31
0.0
 12
1373.655863544
 22
779.6291120829
 32
0.0
 13
1373.655863544
 23
779.6291120829
 33
0.0
  0
LINE
  5
344
330
33F
100
AcDbEntity
  8
CAJETIN
100
AcDbLine
 10
1370.4714926014
 20
780.6395821218
 30
0.0
 11
1772.0952067952
 21
581.6951819257
 31
0.0
  0
MTEXT
  5
345
330
33F
100
AcDbEntity
  8
CAJETIN
100
AcDbMText
 10
1432.9886285278
 20
767.907155057
 30
0.0
 40
12.7
 41
0.0
 71
     1
 72
     1
  1
%%c
  7
SLDTEXTSTYLE0
 11
0.8960876195225367
 21
-0.443877210654516
 31
0.0
 73
     1
 44
1.0
  0
MTEXT
  5
346
330
33F
100
AcDbEntity
  8
CAJETIN
100
AcDbMText
 10
1449.1054698033
 20
759.9236739843
 30
0.0
 40
12.7
 41
0.0
 71
     1
 72
     1
  1
448.2
  7
SLDTEXTSTYLE0
 11
0.8960876195225367
 21
-0.443877210654516
 31
0.0
 73
     1
 44
1.0
  0
ENDBLK
  5
341
330
33F
100
AcDbEntity
  8
0
100
AcDbBlockEnd
  0
BLOCK
  5
349
330
348
100
AcDbEntity
  8
0
100
AcDbBlockBegin
  2
_D_11
 70
     0
 10
0.0
 20
0.0
 30
0.0
  3
_D_11
  1

  0
SOLID
  5
34B
330
348
100
AcDbEntity
  8
CAJETIN
100
AcDbTrace
 10
1571.2833496983
 20
941.1673820238
 30
0.0
 11
1574.5853496983
 21
940.6593820238
 31
0.0
 12
1574.5853496983
 22
941.6753820238
 32
0.0
 13
1574.5853496983
 23
941.6753820238
 33
0.0
  0
SOLID
  5
34C
330
348
100
AcDbEntity
  8
CAJETIN
100
AcDbTrace
 10
1803.2833496983
 20
941.1673820238
 30
0.0
 11
1799.9813496983
 21
941.6753820238
 31
0.0
 12
1799.9813496983
 22
940.6593820238
 32
0.0
 13
1799.9813496983
 23
940.6593820238
 33
0.0
  0
LINE
  5
34D
330
348
100
AcDbEntity
  8
CAJETIN
100
AcDbLine
 10
1803.2833496983
 20
932.1673820238
 30
0.0
 11
1803.2833496983
 21
942.1673820238
 31
0.0
  0
LINE
  5
34E
330
348
100
AcDbEntity
  8
CAJETIN
100
AcDbLine
 10
1571.2833496983
 20
941.1673820238
 30
0.0
 11
1803.2833496983
 21
941.1673820238
 31
0.0
  0
MTEXT
  5
34F
330
348
100
AcDbEntity
  8
CAJETIN
100
AcDbMText
 10
1674.7814791539
 20
957.5385423189
 30
0.0
 40
12.7
 41
0.0
 71
     1
 72
     1
  1
232
  7
SLDTEXTSTYLE0
 73
     1
 44
1.0
  0
ENDBLK
  5
34A
330
348
100
AcDbEntity
  8
0
100
AcDbBlockEnd
  0
BLOCK
  5
353
330
352
100
AcDbEntity
  8
0
100
AcDbBlockBegin
  2
_D_12
 70
     0
 10
0.0
 20
0.0
 30
0.0
  3
_D_12
  1

  0
SOLID
  5
355
330
352
100
AcDbEntity
  8
SLD-0_0
 62
     7
100
AcDbTrace
 10
1466.6541420503
 20
474.6607746066
 30
0.0
 11
1468.5996755286
 21
477.3766846723
 31
0.0
 12
1467.6933657526
 22
477.8358780846
 32
0.0
 13
1467.6933657526
 23
477.8358780846
 33
0.0
  0
SOLID
  5
356
330
352
100
AcDbEntity
  8
SLD-0_0
 62
     7
100
AcDbTrace
 10
1675.9125573463
 20
887.6739894409
 30
0.0
 11
1673.967023868
 21
884.9580793753
 31
0.0
 12
1674.8733336439
 22
884.4988859629
 32
0.0
 13
1674.8733336439
 23
884.4988859629
 33
0.0
  0
LINE
  5
357
330
352
100
AcDbEntity
  8
SLD-0_0
 62
     7
100
AcDbLine
 10
1675.9125573463
 20
887.6739894409
 30
0.0
 11
1466.6541420503
 21
474.6607746066
 31
0.0
  0
MTEXT
  5
358
330
352
100
AcDbEntity
  8
SLD-0_0
 62
     7
100
AcDbMText
 10
1607.5946794465
 20
789.1065707787
 30
0.0
 40
12.7
 41
0.0
 71
     1
 72
     1
  1
%%c
  7
SLDTEXTSTYLE0
 11
0.4519620200776573
 21
0.8920371810677643
 31
0.0
 73
     1
 44
1.0
  0
MTEXT
  5
359
330
352
100
AcDbEntity
  8
SLD-0_0
 62
     7
100
AcDbMText
 10
1615.7235721814
 20
805.15056173
 30
0.0
 40
12.7
 41
0.0
 71
     1
 72
     1
  1
463
  7
SLDTEXTSTYLE0
 11
0.4519620200776573
 21
0.8920371810677643
 31
0.0
 73
     1
 44
1.0
  0
MTEXT
  5
35A
330
352
100
AcDbEntity
  8
SLD-0_0
 62
     7
100
AcDbMText
 10
1615.1543993313
 20
762.1378059355
 30
0.0
 40
12.7
 41
0.0
 71
     1
 72
     1
  1
5mm Depth
  7
SLDTEXTSTYLE0
 11
0.4519620200776573
 21
0.8920371810677643
 31
0.0
 73
     1
 44
1.0
  0
ENDBLK
  5
354
330
352
100
AcDbEntity
  8
0
100
AcDbBlockEnd
  0
BLOCK
  5
35C
330
35B
100
AcDbEntity
  8
0
100
AcDbBlockBegin
  2
SW_CENTERMARKSYMBOL_0
 70
     0
 10
0.0
 20
0.0
 30
0.0
  3
SW_CENTERMARKSYMBOL_0
  1

  0
ARC
  5
35E
330
35B
100
AcDbEntity
  8
CAJETIN
 62
     0
100
AcDbCircle
 10
-78.0177358058
 20
-210.0793979494
 30
0.0
 40
224.0984617150619
100
AcDbArc
 50
69.6263821174
 51
70.2655629832
  0
ARC
  5
35F
330
35B
100
AcDbEntity
  8
CAJETIN
 62
     0
100
AcDbCircle
 10
-78.0177358058
 20
-210.0793979494
 30
0.0
 40
224.0984617150619
100
AcDbArc
 50
68.9872012516
 51
69.6263821174
  0
ARC
  5
360
330
35B
100
AcDbEntity
  8
CAJETIN
 62
     0
100
AcDbCircle
 10
-78.0177358058
 20
-210.0793979494
 30
0.0
 40
224.0984617150619
100
AcDbArc
 50
114.6263821174
 51
115.2655629832
  0
ARC
  5
361
330
35B
100
AcDbEntity
  8
CAJETIN
 62
     0
100
AcDbCircle
 10
-78.0177358058
 20
-210.0793979494
 30
0.0
 40
224.098461715062
100
AcDbArc
 50
113.9872012516
 51
114.6263821174
  0
ARC
  5
362
330
35B
100
AcDbEntity
  8
CAJETIN
 62
     0
100
AcDbCircle
 10
-78.0177358058
 20
-210.0793979494
 30
0.0
 40
224.0984617150619
100
AcDbArc
 50
24.6263821174
 51
25.2655629832
  0
ARC
  5
363
330
35B
100
AcDbEntity
  8
CAJETIN
 62
     0
100
AcDbCircle
 10
-78.0177358058
 20
-210.0793979494
 30
0.0
 40
224.0984617150618
100
AcDbArc
 50
23.9872012516
 51
24.6263821174
  0
ARC
  5
364
330
35B
100
AcDbEntity
  8
CAJETIN
 62
     0
100
AcDbCircle
 10
-78.0177358058
 20
-210.0793979494
 30
0.0
 40
224.0984617150617
100
AcDbArc
 50
339.6263821174
 51
340.2655629832
  0
ARC
  5
365
330
35B
100
AcDbEntity
  8
CAJETIN
 62
     0
100
AcDbCircle
 10
-78.0177358058
 20
-210.0793979494
 30
0.0
 40
224.0984617150619
100
AcDbArc
 50
338.9872012516
 51
339.6263821174
  0
ARC
  5
366
330
35B
100
AcDbEntity
  8
CAJETIN
 62
     0
100
AcDbCircle
 10
-78.0177358058
 20
-210.0793979494
 30
0.0
 40
224.0984617150618
100
AcDbArc
 50
294.6263821174
 51
295.2655629832
  0
ARC
  5
367
330
35B
100
AcDbEntity
  8
CAJETIN
 62
     0
100
AcDbCircle
 10
-78.0177358058
 20
-210.0793979494
 30
0.0
 40
224.0984617150618
100
AcDbArc
 50
293.9872012516
 51
294.6263821174
  0
ARC
  5
368
330
35B
100
AcDbEntity
  8
CAJETIN
 62
     0
100
AcDbCircle
 10
-78.0177358058
 20
-210.0793979494
 30
0.0
 40
224.0984617150619
100
AcDbArc
 50
249.6263821174
 51
250.2655629832
  0
ARC
  5
369
330
35B
100
AcDbEntity
  8
CAJETIN
 62
     0
100
AcDbCircle
 10
-78.0177358058
 20
-210.0793979494
 30
0.0
 40
224.0984617150619
100
AcDbArc
 50
248.9872012516
 51
249.6263821174
  0
ARC
  5
36A
330
35B
100
AcDbEntity
  8
CAJETIN
 62
     0
100
AcDbCircle
 10
-78.0177358058
 20
-210.0793979494
 30
0.0
 40
224.098461715062
100
AcDbArc
 50
204.6263821174
 51
205.2655629832
  0
ARC
  5
36B
330
35B
100
AcDbEntity
  8
CAJETIN
 62
     0
100
AcDbCircle
 10
-78.0177358058
 20
-210.0793979494
 30
0.0
 40
224.098461715062
100
AcDbArc
 50
203.9872012516
 51
204.6263821174
  0
ARC
  5
36C
330
35B
100
AcDbEntity
  8
CAJETIN
 62
     0
100
AcDbCircle
 10
-78.0177358058
 20
-210.0793979494
 30
0.0
 40
224.098461715062
100
AcDbArc
 50
159.6263821174
 51
160.2655629832
  0
ARC
  5
36D
330
35B
100
AcDbEntity
  8
CAJETIN
 62
     0
100
AcDbCircle
 10
-78.0177358058
 20
-210.0793979494
 30
0.0
 40
224.098461715062
100
AcDbArc
 50
158.9872012516
 51
159.6263821174
  0
ARC
  5
36E
330
35B
100
AcDbEntity
  8
CAJETIN
 62
     0
100
AcDbCircle
 10
-78.0177358058
 20
-210.0793979494
 30
0.0
 40
224.0984617150619
100
AcDbArc
 50
25.904743849
 51
68.3480203858
  0
ARC
  5
36F
330
35B
100
AcDbEntity
  8
CAJETIN
 62
     0
100
AcDbCircle
 10
-78.0177358058
 20
-210.0793979494
 30
0.0
 40
224.0984617150619
100
AcDbArc
 50
70.904743849
 51
113.3480203858
  0
ARC
  5
370
330
35B
100
AcDbEntity
  8
CAJETIN
 62
     0
100
AcDbCircle
 10
-78.0177358058
 20
-210.0793979494
 30
0.0
 40
224.098461715062
100
AcDbArc
 50
115.904743849
 51
158.3480203858
  0
ARC
  5
371
330
35B
100
AcDbEntity
  8
CAJETIN
 62
     0
100
AcDbCircle
 10
-78.0177358058
 20
-210.0793979494
 30
0.0
 40
224.098461715062
100
AcDbArc
 50
160.904743849
 51
203.3480203858
  0
ARC
  5
372
330
35B
100
AcDbEntity
  8
CAJETIN
 62
     0
100
AcDbCircle
 10
-78.0177358058
 20
-210.0793979494
 30
0.0
 40
224.0984617150619
100
AcDbArc
 50
205.904743849
 51
248.3480203858
  0
ARC
  5
373
330
35B
100
AcDbEntity
  8
CAJETIN
 62
     0
100
AcDbCircle
 10
-78.0177358058
 20
-210.0793979494
 30
0.0
 40
224.0984617150619
100
AcDbArc
 50
250.904743849
 51
293.3480203858
  0
ARC
  5
374
330
35B
100
AcDbEntity
  8
CAJETIN
 62
     0
100
AcDbCircle
 10
-78.0177358058
 20
-210.0793979494
 30
0.0
 40
224.0984617150619
100
AcDbArc
 50
295.904743849
 51
338.3480203858
  0
ARC
  5
375
330
35B
100
AcDbEntity
  8
CAJETIN
 62
     0
100
AcDbCircle
 10
-78.0177358058
 20
-210.0793979494
 30
0.0
 40
224.0984617150619
100
AcDbArc
 50
340.904743849
 51
23.3480203858
  0
LINE
  5
376
330
35B
100
AcDbEntity
  8
CAJETIN
 62
     0
100
AcDbLine
 10
0.0
 20
0.0
 30
0.0
 11
0.870351086
 21
2.3436059795
 31
0.0
  0
LINE
  5
377
330
35B
100
AcDbEntity
  8
CAJETIN
 62
     0
100
AcDbLine
 10
0.0
 20
0.0
 30
0.0
 11
-0.870351086
 21
-2.3436059795
 31
0.0
  0
LINE
  5
378
330
35B
100
AcDbEntity
  8
CAJETIN
 62
     0
100
AcDbLine
 10
1.7407021719
 20
4.687211959
 30
0.0
 11
2.0192145194
 21
5.4371658725
 31
0.0
  0
LINE
  5
379
330
35B
100
AcDbEntity
  8
CAJETIN
 62
     0
100
AcDbLine
 10
-1.7407021719
 20
-4.687211959
 30
0.0
 11
-2.0192145194
 21
-5.4371658725
 31
0.0
  0
LINE
  5
37A
330
35B
100
AcDbEntity
  8
CAJETIN
 62
     0
100
AcDbLine
 10
-171.3994326423
 20
-6.3639610307
 30
0.0
 11
-172.441181168
 21
-4.0913501952
 31
0.0
  0
LINE
  5
37B
330
35B
100
AcDbEntity
  8
CAJETIN
 62
     0
100
AcDbLine
 10
-171.3994326423
 20
-6.3639610307
 30
0.0
 11
-170.3576841167
 21
-8.6365718661
 31
0.0
  0
LINE
  5
37C
330
35B
100
AcDbEntity
  8
CAJETIN
 62
     0
100
AcDbLine
 10
-173.4829296936
 20
-1.8187393598
 30
0.0
 11
-173.8162892218
 21
-1.0915038925
 31
0.0
  0
LINE
  5
37D
330
35B
100
AcDbEntity
  8
CAJETIN
 62
     0
100
AcDbLine
 10
-169.315935591
 20
-10.9091827015
 30
0.0
 11
-168.9825760628
 21
-11.6364181689
 31
0.0
  0
LINE
  5
37E
330
35B
100
AcDbEntity
  8
CAJETIN
 62
     0
100
AcDbLine
 10
125.6977011129
 20
-116.6977011129
 30
0.0
 11
127.9703119483
 21
-115.6559525873
 31
0.0
  0
LINE
  5
37F
330
35B
100
AcDbEntity
  8
CAJETIN
 62
     0
100
AcDbLine
 10
125.6977011129
 20
-116.6977011129
 30
0.0
 11
123.4250902775
 21
-117.7394496386
 31
0.0
  0
LINE
  5
380
330
35B
100
AcDbEntity
  8
CAJETIN
 62
     0
100
AcDbLine
 10
130.2429227838
 20
-114.6142040616
 30
0.0
 11
130.9701582511
 21
-114.2808445334
 31
0.0
  0
LINE
  5
381
330
35B
100
AcDbEntity
  8
CAJETIN
 62
     0
100
AcDbLine
 10
121.1524794421
 20
-118.7811981642
 30
0.0
 11
120.4252439747
 21
-119.1145576924
 31
0.0
  0
LINE
  5
382
330
35B
100
AcDbEntity
  8
CAJETIN
 62
     0
100
AcDbLine
 10
132.0616621436
 20
-288.0971337552
 30
0.0
 11
134.4052681231
 21
-288.9674848412
 31
0.0
  0
LINE
  5
383
330
35B
100
AcDbEntity
  8
CAJETIN
 62
     0
100
AcDbLine
 10
132.0616621436
 20
-288.0971337552
 30
0.0
 11
129.7180561641
 21
-287.2267826693
 31
0.0
  0
LINE
  5
384
330
35B
100
AcDbEntity
  8
CAJETIN
 62
     0
100
AcDbLine
 10
136.7488741026
 20
-289.8378359272
 30
0.0
 11
137.498828016
 21
-290.1163482747
 31
0.0
  0
LINE
  5
385
330
35B
100
AcDbEntity
  8
CAJETIN
 62
     0
100
AcDbLine
 10
127.3744501846
 20
-286.3564315833
 30
0.0
 11
126.6244962711
 21
-286.0779192358
 31
0.0
  0
LINE
  5
386
330
35B
100
AcDbEntity
  8
CAJETIN
 62
     0
100
AcDbLine
 10
15.3639610307
 20
-413.7948348682
 30
0.0
 11
16.4057095563
 21
-416.0674457036
 31
0.0
  0
LINE
  5
387
330
35B
100
AcDbEntity
  8
CAJETIN
 62
     0
100
AcDbLine
 10
15.3639610307
 20
-413.7948348682
 30
0.0
 11
14.322212505
 21
-411.5222240327
 31
0.0
  0
LINE
  5
388
330
35B
100
AcDbEntity
  8
CAJETIN
 62
     0
100
AcDbLine
 10
17.447458082
 20
-418.340056539
 30
0.0
 11
17.7808176102
 21
-419.0672920064
 31
0.0
  0
LINE
  5
389
330
35B
100
AcDbEntity
  8
CAJETIN
 62
     0
100
AcDbLine
 10
13.2804639794
 20
-409.2496131973
 30
0.0
 11
12.9471044512
 21
-408.52237773
 31
0.0
  0
LINE
  5
38A
330
35B
100
AcDbEntity
  8
CAJETIN
 62
     0
100
AcDbLine
 10
-156.0354716117
 20
-420.1587958988
 30
0.0
 11
-156.9058226976
 21
-422.5024018783
 31
0.0
  0
LINE
  5
38B
330
35B
100
AcDbEntity
  8
CAJETIN
 62
     0
100
AcDbLine
 10
-156.0354716117
 20
-420.1587958988
 30
0.0
 11
-155.1651205257
 21
-417.8151899193
 31
0.0
  0
LINE
  5
38C
330
35B
100
AcDbEntity
  8
CAJETIN
 62
     0
100
AcDbLine
 10
-157.7761737836
 20
-424.8460078578
 30
0.0
 11
-158.0546861311
 21
-425.5959617713
 31
0.0
  0
LINE
  5
38D
330
35B
100
AcDbEntity
  8
CAJETIN
 62
     0
100
AcDbLine
 10
-154.2947694397
 20
-415.4715839398
 30
0.0
 11
-154.0162570922
 21
-414.7216300264
 31
0.0
  0
LINE
  5
38E
330
35B
100
AcDbEntity
  8
CAJETIN
 62
     0
100
AcDbLine
 10
-281.7331727246
 20
-303.4610947859
 30
0.0
 11
-284.00578356
 21
-304.5028433116
 31
0.0
  0
LINE
  5
38F
330
35B
100
AcDbEntity
  8
CAJETIN
 62
     0
100
AcDbLine
 10
-281.7331727246
 20
-303.4610947859
 30
0.0
 11
-279.4605618891
 21
-302.4193462603
 31
0.0
  0
LINE
  5
390
330
35B
100
AcDbEntity
  8
CAJETIN
 62
     0
100
AcDbLine
 10
-286.2783943954
 20
-305.5445918372
 30
0.0
 11
-287.0056298628
 21
-305.8779513654
 31
0.0
  0
LINE
  5
391
330
35B
100
AcDbEntity
  8
CAJETIN
 62
     0
100
AcDbLine
 10
-277.1879510537
 20
-301.3775977346
 30
0.0
 11
-276.4607155864
 21
-301.0442382064
 31
0.0
  0
LINE
  5
392
330
35B
100
AcDbEntity
  8
CAJETIN
 62
     0
100
AcDbLine
 10
-288.0971337552
 20
-132.0616621436
 30
0.0
 11
-290.4407397347
 21
-131.1913110576
 31
0.0
  0
LINE
  5
393
330
35B
100
AcDbEntity
  8
CAJETIN
 62
     0
100
AcDbLine
 10
-288.0971337552
 20
-132.0616621436
 30
0.0
 11
-285.7535277757
 21
-132.9320132295
 31
0.0
  0
LINE
  5
394
330
35B
100
AcDbEntity
  8
CAJETIN
 62
     0
100
AcDbLine
 10
-292.7843457143
 20
-130.3209599717
 30
0.0
 11
-293.5342996277
 21
-130.0424476242
 31
0.0
  0
LINE
  5
395
330
35B
100
AcDbEntity
  8
CAJETIN
 62
     0
100
AcDbLine
 10
-283.4099217962
 20
-133.8023643155
 30
0.0
 11
-282.6599678828
 21
-134.080876663
 31
0.0
  0
ENDBLK
  5
35D
330
35B
100
AcDbEntity
  8
0
100
AcDbBlockEnd
  0
BLOCK
  5
398
330
397
100
AcDbEntity
  8
0
100
AcDbBlockBegin
  2
SW_CENTERMARKSYMBOL_1
 70
     0
 10
0.0
 20
0.0
 30
0.0
  3
SW_CENTERMARKSYMBOL_1
  1

  0
LINE
  5
39A
330
397
100
AcDbEntity
  8
CAJETIN
 62
     0
100
AcDbLine
 10
0.0
 20
0.0
 30
0.0
 11
0.0
 21
2.5
 31
0.0
  0
LINE
  5
39B
330
397
100
AcDbEntity
  8
CAJETIN
 62
     0
100
AcDbLine
 10
0.0
 20
0.0
 30
0.0
 11
-2.5
 21
0.0
 31
0.0
  0
LINE
  5
39C
330
397
100
AcDbEntity
  8
CAJETIN
 62
     0
100
AcDbLine
 10
0.0
 20
0.0
 30
0.0
 11
0.0
 21
-2.5
 31
0.0
  0
LINE
  5
39D
330
397
100
AcDbEntity
  8
CAJETIN
 62
     0
100
AcDbLine
 10
0.0
 20
0.0
 30
0.0
 11
2.5
 21
0.0
 31
0.0
  0
LINE
  5
39E
330
397
100
AcDbEntity
  8
CAJETIN
 62
     0
100
AcDbLine
 10
0.0
 20
5.0
 30
0.0
 11
0.0
 21
270.7872193072
 31
0.0
  0
LINE
  5
39F
330
397
100
AcDbEntity
  8
CAJETIN
 62
     0
100
AcDbLine
 10
-5.0
 20
0.0
 30
0.0
 11
-268.7516873273
 21
0.0
 31
0.0
  0
LINE
  5
3A0
330
397
100
AcDbEntity
  8
CAJETIN
 62
     0
100
AcDbLine
 10
0.0
 20
-5.0
 30
0.0
 11
0.0
 21
-258.680700331
 31
0.0
  0
LINE
  5
3A1
330
397
100
AcDbEntity
  8
CAJETIN
 62
     0
100
AcDbLine
 10
5.0
 20
0.0
 30
0.0
 11
246.4290027334
 21
0.0
 31
0.0
  0
ENDBLK
  5
399
330
397
100
AcDbEntity
  8
0
100
AcDbBlockEnd
  0
BLOCK
  5
3B1
330
3B0
100
AcDbEntity
  8
0
100
AcDbBlockBegin
  2
_D_13
 70
     0
 10
0.0
 20
0.0
 30
0.0
  3
_D_13
  1

  0
SOLID
  5
3B3
330
3B0
100
AcDbEntity
  8
SLD-0_0
100
AcDbTrace
 10
2016.1745311351
 20
416.8235184007
 30
0.0
 11
2019.4765311351
 21
416.3155184007
 31
0.0
 12
2019.4765311351
 22
417.3315184007
 32
0.0
 13
2019.4765311351
 23
417.3315184007
 33
0.0
  0
SOLID
  5
3B4
330
3B0
100
AcDbEntity
  8
SLD-0_0
100
AcDbTrace
 10
2791.1745311351
 20
416.8235184007
 30
0.0
 11
2787.8725311351
 21
417.3315184007
 31
0.0
 12
2787.8725311351
 22
416.3155184007
 32
0.0
 13
2787.8725311351
 23
416.3155184007
 33
0.0
  0
LINE
  5
3B5
330
3B0
100
AcDbEntity
  8
SLD-0_0
100
AcDbLine
 10
2016.1745311351
 20
465.2646816271
 30
0.0
 11
2016.1745311351
 21
415.8235184007
 31
0.0
  0
LINE
  5
3B6
330
3B0
100
AcDbEntity
  8
SLD-0_0
100
AcDbLine
 10
2791.1745311351
 20
465.2646816271
 30
0.0
 11
2791.1745311351
 21
415.8235184007
 31
0.0
  0
LINE
  5
3B7
330
3B0
100
AcDbEntity
  8
SLD-0_0
100
AcDbLine
 10
2016.1745311351
 20
416.8235184007
 30
0.0
 11
2791.1745311351
 21
416.8235184007
 31
0.0
  0
MTEXT
  5
3B8
330
3B0
100
AcDbEntity
  8
SLD-0_0
100
AcDbMText
 10
2385.3728649476
 20
433.1946786958
 30
0.0
 40
12.7
 41
0.0
 71
     1
 72
     1
  1
775
  7
SLDTEXTSTYLE0
 73
     1
 44
1.0
  0
ENDBLK
  5
3B2
330
3B0
100
AcDbEntity
  8
0
100
AcDbBlockEnd
  0
BLOCK
  5
3BB
330
3BA
100
AcDbEntity
  8
0
100
AcDbBlockBegin
  2
_D_14
 70
     0
 10
0.0
 20
0.0
 30
0.0
  3
_D_14
  1

  0
SOLID
  5
3BD
330
3BA
100
AcDbEntity
  8
SLD-0_0
100
AcDbTrace
 10
2836.1745311351
 20
466.2646816271
 30
0.0
 11
2836.6825311351
 21
469.5666816271
 31
0.0
 12
2835.6665311351
 22
469.5666816271
 32
0.0
 13
2835.6665311351
 23
469.5666816271
 33
0.0
  0
SOLID
  5
3BE
330
3BA
100
AcDbEntity
  8
SLD-0_0
100
AcDbTrace
 10
2836.1745311351
 20
966.2646816271
 30
0.0
 11
2835.6665311351
 21
962.9626816271
 31
0.0
 12
2836.6825311351
 22
962.9626816271
 32
0.0
 13
2836.6825311351
 23
962.9626816271
 33
0.0
  0
LINE
  5
3BF
330
3BA
100
AcDbEntity
  8
SLD-0_0
100
AcDbLine
 10
2792.1745311351
 20
466.2646816271
 30
0.0
 11
2837.1745311351
 21
466.2646816271
 31
0.0
  0
LINE
  5
3C0
330
3BA
100
AcDbEntity
  8
SLD-0_0
100
AcDbLine
 10
2792.1745311351
 20
966.2646816271
 30
0.0
 11
2837.1745311351
 21
966.2646816271
 31
0.0
  0
LINE
  5
3C1
330
3BA
100
AcDbEntity
  8
SLD-0_0
100
AcDbLine
 10
2836.1745311351
 20
466.2646816271
 30
0.0
 11
2836.1745311351
 21
966.2646816271
 31
0.0
  0
MTEXT
  5
3C2
330
3BA
100
AcDbEntity
  8
SLD-0_0
100
AcDbMText
 10
2819.80337084
 20
680.3199189869
 30
0.0
 40
12.7
 41
0.0
 71
     1
 72
     1
  1
500
  7
SLDTEXTSTYLE0
 11
6.123233995736766E-17
 21
1.0
 31
0.0
 73
     1
 44
1.0
  0
ENDBLK
  5
3BC
330
3BA
100
AcDbEntity
  8
0
100
AcDbBlockEnd
  0
BLOCK
  5
3C5
330
3C4
100
AcDbEntity
  8
0
100
AcDbBlockBegin
  2
_D_15
 70
     0
 10
0.0
 20
0.0
 30
0.0
  3
_D_15
  1

  0
SOLID
  5
3C7
330
3C4
100
AcDbEntity
  8
SLD-0_0
100
AcDbTrace
 10
2815.1745311351
 20
930.2646816271
 30
0.0
 11
2814.6665311351
 21
926.9626816271
 31
0.0
 12
2815.6825311351
 22
926.9626816271
 32
0.0
 13
2815.6825311351
 23
926.9626816271
 33
0.0
  0
SOLID
  5
3C8
330
3C4
100
AcDbEntity
  8
SLD-0_0
100
AcDbTrace
 10
2815.1745311351
 20
502.2646816271
 30
0.0
 11
2815.6825311351
 21
505.5666816271
 31
0.0
 12
2814.6665311351
 22
505.5666816271
 32
0.0
 13
2814.6665311351
 23
505.5666816271
 33
0.0
  0
LINE
  5
3C9
330
3C4
100
AcDbEntity
  8
SLD-0_0
100
AcDbLine
 10
2656.1745311351
 20
930.2646816271
 30
0.0
 11
2816.1745311351
 21
930.2646816271
 31
0.0
  0
LINE
  5
3CA
330
3C4
100
AcDbEntity
  8
SLD-0_0
100
AcDbLine
 10
2656.1745311351
 20
502.2646816271
 30
0.0
 11
2816.1745311351
 21
502.2646816271
 31
0.0
  0
LINE
  5
3CB
330
3C4
100
AcDbEntity
  8
SLD-0_0
100
AcDbLine
 10
2815.1745311351
 20
930.2646816271
 30
0.0
 11
2815.1745311351
 21
502.2646816271
 31
0.0
  0
MTEXT
  5
3CC
330
3C4
100
AcDbEntity
  8
SLD-0_0
100
AcDbMText
 10
2798.80337084
 20
700.1078469927
 30
0.0
 40
12.7
 41
0.0
 71
     1
 72
     1
  1
428
  7
SLDTEXTSTYLE0
 11
-7.044195017643634E-15
 21
1.0
 31
0.0
 73
     1
 44
1.0
  0
ENDBLK
  5
3C6
330
3C4
100
AcDbEntity
  8
0
100
AcDbBlockEnd
  0
BLOCK
  5
3CF
330
3CE
100
AcDbEntity
  8
0
100
AcDbBlockBegin
  2
_D_16
 70
     0
 10
0.0
 20
0.0
 30
0.0
  3
_D_16
  1

  0
SOLID
  5
3D1
330
3CE
100
AcDbEntity
  8
SLD-0_0
100
AcDbTrace
 10
2815.1745311351
 20
930.2646816271
 30
0.0
 11
2815.6825311351
 21
933.5666816271
 31
0.0
 12
2814.6665311351
 22
933.5666816271
 32
0.0
 13
2814.6665311351
 23
933.5666816271
 33
0.0
  0
SOLID
  5
3D2
330
3CE
100
AcDbEntity
  8
SLD-0_0
100
AcDbTrace
 10
2815.1745311351
 20
966.2646816271
 30
0.0
 11
2814.6665311351
 21
962.9626816271
 31
0.0
 12
2815.6825311351
 22
962.9626816271
 32
0.0
 13
2815.6825311351
 23
962.9626816271
 33
0.0
  0
LINE
  5
3D3
330
3CE
100
AcDbEntity
  8
SLD-0_0
100
AcDbLine
 10
2656.1745311351
 20
930.2646816271
 30
0.0
 11
2816.1745311351
 21
930.2646816271
 31
0.0
  0
LINE
  5
3D4
330
3CE
100
AcDbEntity
  8
SLD-0_0
100
AcDbLine
 10
2792.1745311351
 20
966.2646816271
 30
0.0
 11
2816.1745311351
 21
966.2646816271
 31
0.0
  0
LINE
  5
3D5
330
3CE
100
AcDbEntity
  8
SLD-0_0
100
AcDbLine
 10
2815.1745311351
 20
930.2646816271
 30
0.0
 11
2815.1745311351
 21
966.2646816271
 31
0.0
  0
MTEXT
  5
3D6
330
3CE
100
AcDbEntity
  8
SLD-0_0
100
AcDbMText
 10
2798.80337084
 20
939.1047512681
 30
0.0
 40
12.7
 41
0.0
 71
     1
 72
     1
  1
36
  7
SLDTEXTSTYLE0
 11
6.123233995736766E-17
 21
1.0
 31
0.0
 73
     1
 44
1.0
  0
ENDBLK
  5
3D0
330
3CE
100
AcDbEntity
  8
0
100
AcDbBlockEnd
  0
BLOCK
  5
3D9
330
3D8
100
AcDbEntity
  8
0
100
AcDbBlockBegin
  2
_D_17
 70
     0
 10
0.0
 20
0.0
 30
0.0
  3
_D_17
  1

  0
SOLID
  5
3DB
330
3D8
100
AcDbEntity
  8
SLD-0_0
100
AcDbTrace
 10
2755.1745311351
 20
442.2646816271
 30
0.0
 11
2758.4765311351
 21
441.7566816271
 31
0.0
 12
2758.4765311351
 22
442.7726816271
 32
0.0
 13
2758.4765311351
 23
442.7726816271
 33
0.0
  0
SOLID
  5
3DC
330
3D8
100
AcDbEntity
  8
SLD-0_0
100
AcDbTrace
 10
2791.1745311351
 20
442.2646816271
 30
0.0
 11
2787.8725311351
 21
442.7726816271
 31
0.0
 12
2787.8725311351
 22
441.7566816271
 32
0.0
 13
2787.8725311351
 23
441.7566816271
 33
0.0
  0
LINE
  5
3DD
330
3D8
100
AcDbEntity
  8
SLD-0_0
100
AcDbLine
 10
2755.1745311351
 20
601.2646816271
 30
0.0
 11
2755.1745311351
 21
441.2646816271
 31
0.0
  0
LINE
  5
3DE
330
3D8
100
AcDbEntity
  8
SLD-0_0
100
AcDbLine
 10
2791.1745311351
 20
465.2646816271
 30
0.0
 11
2791.1745311351
 21
441.2646816271
 31
0.0
  0
LINE
  5
3DF
330
3D8
100
AcDbEntity
  8
SLD-0_0
100
AcDbLine
 10
2755.1745311351
 20
442.2646816271
 30
0.0
 11
2791.1745311351
 21
442.2646816271
 31
0.0
  0
MTEXT
  5
3E0
330
3D8
100
AcDbEntity
  8
SLD-0_0
100
AcDbMText
 10
2763.495573553
 20
458.6358419222
 30
0.0
 40
12.7
 41
0.0
 71
     1
 72
     1
  1
36
  7
SLDTEXTSTYLE0
 73
     1
 44
1.0
  0
ENDBLK
  5
3DA
330
3D8
100
AcDbEntity
  8
0
100
AcDbBlockEnd
  0
BLOCK
  5
3E3
330
3E2
100
AcDbEntity
  8
0
100
AcDbBlockBegin
  2
_D_18
 70
     0
 10
0.0
 20
0.0
 30
0.0
  3
_D_18
  1

  0
SOLID
  5
3E5
330
3E2
100
AcDbEntity
  8
SLD-0_0
100
AcDbTrace
 10
2755.1745311351
 20
442.2646816271
 30
0.0
 11
2751.8725311351
 21
442.7726816271
 31
0.0
 12
2751.8725311351
 22
441.7566816271
 32
0.0
 13
2751.8725311351
 23
441.7566816271
 33
0.0
  0
SOLID
  5
3E6
330
3E2
100
AcDbEntity
  8
SLD-0_0
100
AcDbTrace
 10
2226.1745311351
 20
442.2646816271
 30
0.0
 11
2229.4765311351
 21
441.7566816271
 31
0.0
 12
2229.4765311351
 22
442.7726816271
 32
0.0
 13
2229.4765311351
 23
442.7726816271
 33
0.0
  0
LINE
  5
3E7
330
3E2
100
AcDbEntity
  8
SLD-0_0
100
AcDbLine
 10
2755.1745311351
 20
601.2646816271
 30
0.0
 11
2755.1745311351
 21
441.2646816271
 31
0.0
  0
LINE
  5
3E8
330
3E2
100
AcDbEntity
  8
SLD-0_0
100
AcDbLine
 10
2226.1745311351
 20
521.2646816271
 30
0.0
 11
2226.1745311351
 21
441.2646816271
 31
0.0
  0
LINE
  5
3E9
330
3E2
100
AcDbEntity
  8
SLD-0_0
100
AcDbLine
 10
2755.1745311351
 20
442.2646816271
 30
0.0
 11
2226.1745311351
 21
442.2646816271
 31
0.0
  0
MTEXT
  5
3EA
330
3E2
100
AcDbEntity
  8
SLD-0_0
100
AcDbMText
 10
2476.5634201945
 20
458.6358419222
 30
0.0
 40
12.7
 41
0.0
 71
     1
 72
     1
  1
529
  7
SLDTEXTSTYLE0
 73
     1
 44
1.0
  0
ENDBLK
  5
3E4
330
3E2
100
AcDbEntity
  8
0
100
AcDbBlockEnd
  0
BLOCK
  5
3EE
330
3ED
100
AcDbEntity
  8
0
100
AcDbBlockBegin
  2
_D_19
 70
     0
 10
0.0
 20
0.0
 30
0.0
  3
_D_19
  1

  0
SOLID
  5
3F0
330
3ED
100
AcDbEntity
  8
SLD-0_0
100
AcDbTrace
 10
2236.1745311351
 20
927.5851897028
 30
0.0
 11
2237.3538956526
 21
924.4594310213
 31
0.0
 12
2238.2388929664
 22
924.9584658442
 32
0.0
 13
2238.2388929664
 23
924.9584658442
 33
0.0
  0
LINE
  5
3F1
330
3ED
100
AcDbEntity
  8
SLD-0_0
100
AcDbLine
 10
2236.1745311351
 20
927.5851897028
 30
0.0
 11
2265.2492645147
 21
876.0235355643
 31
0.0
  0
MTEXT
  5
3F2
330
3ED
100
AcDbEntity
  8
SLD-0_0
100
AcDbMText
 10
2263.9048822538
 20
911.0943945353
 30
0.0
 40
12.7
 41
0.0
 71
     1
 72
     1
  1
R20
  7
SLDTEXTSTYLE0
 11
0.5000000000000085
 21
-0.8660254037844337
 31
0.0
 73
     1
 44
1.0
  0
ENDBLK
  5
3EF
330
3ED
100
AcDbEntity
  8
0
100
AcDbBlockEnd
  0
BLOCK
  5
3F6
330
3F5
100
AcDbEntity
  8
0
100
AcDbBlockBegin
  2
_D_20
 70
     0
 10
0.0
 20
0.0
 30
0.0
  3
_D_20
  1

  0
SOLID
  5
3F8
330
3F5
100
AcDbEntity
  8
SLD-0_0
100
AcDbTrace
 10
2747.6537179707
 20
868.3120205909
 30
0.0
 11
2744.4067747394
 21
867.5254917274
 31
0.0
 12
2744.7933357033
 22
866.5859031892
 32
0.0
 13
2744.7933357033
 23
866.5859031892
 33
0.0
  0
LINE
  5
3F9
330
3F5
100
AcDbEntity
  8
SLD-0_0
100
AcDbLine
 10
2747.6537179707
 20
868.3120205909
 30
0.0
 11
2655.1745311351
 21
830.2646816271
 31
0.0
  0
MTEXT
  5
3FA
330
3F5
100
AcDbEntity
  8
SLD-0_0
100
AcDbMText
 10
2673.2274823494
 20
855.195655945
 30
0.0
 40
12.7
 41
0.0
 71
     1
 72
     1
  1
R100
  7
SLDTEXTSTYLE0
 11
0.9247918683562067
 21
0.3804733896374835
 31
0.0
 73
     1
 44
1.0
  0
ENDBLK
  5
3F7
330
3F5
100
AcDbEntity
  8
0
100
AcDbBlockEnd
  0
BLOCK
  5
405
330
404
100
AcDbEntity
  8
0
100
AcDbBlockBegin
  2
_D_21
 70
     0
 10
0.0
 20
0.0
 30
0.0
  3
_D_21
  1

  0
SOLID
  5
407
330
404
100
AcDbEntity
  8
SLD-0_0
100
AcDbTrace
 10
3413.0473699179
 20
967.2688913935
 30
0.0
 11
3412.5393699179
 21
963.9668913935
 31
0.0
 12
3413.5553699179
 22
963.9668913935
 32
0.0
 13
3413.5553699179
 23
963.9668913935
 33
0.0
  0
SOLID
  5
408
330
404
100
AcDbEntity
  8
SLD-0_0
100
AcDbTrace
 10
3413.0473699179
 20
467.2688913935
 30
0.0
 11
3413.5553699179
 21
470.5708913935
 31
0.0
 12
3412.5393699179
 22
470.5708913935
 32
0.0
 13
3412.5393699179
 23
470.5708913935
 33
0.0
  0
LINE
  5
409
330
404
100
AcDbEntity
  8
SLD-0_0
100
AcDbLine
 10
3413.0473699179
 20
967.2688913935
 30
0.0
 11
3413.0473699179
 21
467.2688913935
 31
0.0
  0
MTEXT
  5
40A
330
404
100
AcDbEntity
  8
SLD-0_0
100
AcDbMText
 10
3396.6762096228
 20
702.0544899513
 30
0.0
 40
12.7
 41
0.0
 71
     1
 72
     1
  1
500
  7
SLDTEXTSTYLE0
 11
-9.708730276744010E-15
 21
1.0
 31
0.0
 73
     1
 44
1.0
  0
ENDBLK
  5
406
330
404
100
AcDbEntity
  8
0
100
AcDbBlockEnd
  0
BLOCK
  5
40D
330
40C
100
AcDbEntity
  8
0
100
AcDbBlockBegin
  2
_D_22
 70
     0
 10
0.0
 20
0.0
 30
0.0
  3
_D_22
  1

  0
SOLID
  5
40F
330
40C
100
AcDbEntity
  8
SLD-0_0
100
AcDbTrace
 10
2942.0473699179
 20
443.2688913935
 30
0.0
 11
2945.3493699179
 21
442.7608913935
 31
0.0
 12
2945.3493699179
 22
443.7768913935
 32
0.0
 13
2945.3493699179
 23
443.7768913935
 33
0.0
  0
SOLID
  5
410
330
40C
100
AcDbEntity
  8
SLD-0_0
100
AcDbTrace
 10
3424.0473699179
 20
443.2688913935
 30
0.0
 11
3420.7453699179
 21
443.7768913935
 31
0.0
 12
3420.7453699179
 22
442.7608913935
 32
0.0
 13
3420.7453699179
 23
442.7608913935
 33
0.0
  0
LINE
  5
411
330
40C
100
AcDbEntity
  8
SLD-0_0
100
AcDbLine
 10
2942.0473699179
 20
466.2688913935
 30
0.0
 11
2942.0473699179
 21
442.2688913935
 31
0.0
  0
LINE
  5
412
330
40C
100
AcDbEntity
  8
SLD-0_0
100
AcDbLine
 10
3424.0473699179
 20
466.2688913935
 30
0.0
 11
3424.0473699179
 21
442.2688913935
 31
0.0
  0
LINE
  5
413
330
40C
100
AcDbEntity
  8
SLD-0_0
100
AcDbLine
 10
2942.0473699179
 20
443.2688913935
 30
0.0
 11
3424.0473699179
 21
443.2688913935
 31
0.0
  0
MTEXT
  5
414
330
40C
100
AcDbEntity
  8
SLD-0_0
100
AcDbMText
 10
3168.9362589773
 20
459.6400516886
 30
0.0
 40
12.7
 41
0.0
 71
     1
 72
     1
  1
482
  7
SLDTEXTSTYLE0
 73
     1
 44
1.0
  0
ENDBLK
  5
40E
330
40C
100
AcDbEntity
  8
0
100
AcDbBlockEnd
  0
BLOCK
  5
417
330
416
100
AcDbEntity
  8
0
100
AcDbBlockBegin
  2
_D_23
 70
     0
 10
0.0
 20
0.0
 30
0.0
  3
_D_23
  1

  0
SOLID
  5
419
330
416
100
AcDbEntity
  8
SLD-0_0
100
AcDbTrace
 10
2978.0473699179
 20
907.01000358
 30
0.0
 11
2974.7453699179
 21
907.51800358
 31
0.0
 12
2974.7453699179
 22
906.50200358
 32
0.0
 13
2974.7453699179
 23
906.50200358
 33
0.0
  0
SOLID
  5
41A
330
416
100
AcDbEntity
  8
SLD-0_0
100
AcDbTrace
 10
2942.0473699179
 20
907.01000358
 30
0.0
 11
2945.3493699179
 21
906.50200358
 31
0.0
 12
2945.3493699179
 22
907.51800358
 32
0.0
 13
2945.3493699179
 23
907.51800358
 33
0.0
  0
LINE
  5
41B
330
416
100
AcDbEntity
  8
SLD-0_0
100
AcDbLine
 10
2978.0473699179
 20
907.01000358
 30
0.0
 11
2942.0473699179
 21
907.01000358
 31
0.0
  0
MTEXT
  5
41C
330
416
100
AcDbEntity
  8
SLD-0_0
100
AcDbMText
 10
2950.5912359177
 20
923.3811638751
 30
0.0
 40
12.7
 41
0.0
 71
     1
 72
     1
  1
36
  7
SLDTEXTSTYLE0
 73
     1
 44
1.0
  0
ENDBLK
  5
418
330
416
100
AcDbEntity
  8
0
100
AcDbBlockEnd
  0
BLOCK
  5
41F
330
41E
100
AcDbEntity
  8
0
100
AcDbBlockBegin
  2
_D_24
 70
     0
 10
0.0
 20
0.0
 30
0.0
  3
_D_24
  1

  0
SOLID
  5
421
330
41E
100
AcDbEntity
  8
SLD-0_0
100
AcDbTrace
 10
3387.3514264908
 20
931.2688913935
 30
0.0
 11
3387.8594264908
 21
934.5708913935
 31
0.0
 12
3386.8434264908
 22
934.5708913935
 32
0.0
 13
3386.8434264908
 23
934.5708913935
 33
0.0
  0
SOLID
  5
422
330
41E
100
AcDbEntity
  8
SLD-0_0
100
AcDbTrace
 10
3387.3514264908
 20
967.2688913935
 30
0.0
 11
3386.8434264908
 21
963.9668913935
 31
0.0
 12
3387.8594264908
 22
963.9668913935
 32
0.0
 13
3387.8594264908
 23
963.9668913935
 33
0.0
  0
LINE
  5
423
330
41E
100
AcDbEntity
  8
SLD-0_0
100
AcDbLine
 10
3387.3514264908
 20
931.2688913935
 30
0.0
 11
3387.3514264908
 21
967.2688913935
 31
0.0
  0
MTEXT
  5
424
330
41E
100
AcDbEntity
  8
SLD-0_0
100
AcDbMText
 10
3370.9802661957
 20
939.3178041841
 30
0.0
 40
12.7
 41
0.0
 71
     1
 72
     1
  1
36
  7
SLDTEXTSTYLE0
 11
-2.381258314217977E-15
 21
1.0
 31
0.0
 73
     1
 44
1.0
  0
ENDBLK
  5
420
330
41E
100
AcDbEntity
  8
0
100
AcDbBlockEnd
  0
BLOCK
  5
427
330
426
100
AcDbEntity
  8
0
100
AcDbBlockBegin
  2
_D_25
 70
     0
 10
0.0
 20
0.0
 30
0.0
  3
_D_25
  1

  0
SOLID
  5
429
330
426
100
AcDbEntity
  8
SLD-0_0
100
AcDbTrace
 10
3390.8909323359
 20
503.2688913935
 30
0.0
 11
3390.3829323359
 21
499.9668913935
 31
0.0
 12
3391.3989323359
 22
499.9668913935
 32
0.0
 13
3391.3989323359
 23
499.9668913935
 33
0.0
  0
SOLID
  5
42A
330
426
100
AcDbEntity
  8
SLD-0_0
100
AcDbTrace
 10
3390.8909323359
 20
467.2688913935
 30
0.0
 11
3391.3989323359
 21
470.5708913935
 31
0.0
 12
3390.3829323359
 22
470.5708913935
 32
0.0
 13
3390.3829323359
 23
470.5708913935
 33
0.0
  0
LINE
  5
42B
330
426
100
AcDbEntity
  8
SLD-0_0
100
AcDbLine
 10
3390.8909323359
 20
503.2688913935
 30
0.0
 11
3390.8909323359
 21
467.2688913935
 31
0.0
  0
MTEXT
  5
42C
330
426
100
AcDbEntity
  8
SLD-0_0
100
AcDbMText
 10
3374.5197720408
 20
473.6953593414
 30
0.0
 40
12.7
 41
0.0
 71
     1
 72
     1
  1
36
  7
SLDTEXTSTYLE0
 11
-8.820551857043885E-15
 21
1.0
 31
0.0
 73
     1
 44
1.0
  0
ENDBLK
  5
428
330
426
100
AcDbEntity
  8
0
100
AcDbBlockEnd
  0
BLOCK
  5
433
330
432
100
AcDbEntity
  8
0
100
AcDbBlockBegin
  2
_D_26
 70
     0
 10
0.0
 20
0.0
 30
0.0
  3
_D_26
  1

  0
SOLID
  5
435
330
432
100
AcDbEntity
  8
SLD-0_0
100
AcDbTrace
 10
2016.9967222267
 20
153.8560891114
 30
0.0
 11
2020.2987222267
 21
153.3480891114
 31
0.0
 12
2020.2987222267
 22
154.3640891114
 32
0.0
 13
2020.2987222267
 23
154.3640891114
 33
0.0
  0
SOLID
  5
436
330
432
100
AcDbEntity
  8
SLD-0_0
100
AcDbTrace
 10
2226.9967222267
 20
153.8560891114
 30
0.0
 11
2223.6947222267
 21
154.3640891114
 31
0.0
 12
2223.6947222267
 22
153.3480891114
 32
0.0
 13
2223.6947222267
 23
153.3480891114
 33
0.0
  0
LINE
  5
437
330
432
100
AcDbEntity
  8
SLD-0_0
100
AcDbLine
 10
2016.9967222267
 20
176.8560891114
 30
0.0
 11
2016.9967222267
 21
152.8560891114
 31
0.0
  0
LINE
  5
438
330
432
100
AcDbEntity
  8
SLD-0_0
100
AcDbLine
 10
2226.9967222267
 20
176.8560891114
 30
0.0
 11
2226.9967222267
 21
152.8560891114
 31
0.0
  0
LINE
  5
439
330
432
100
AcDbEntity
  8
SLD-0_0
100
AcDbLine
 10
2016.9967222267
 20
153.8560891114
 30
0.0
 11
2226.9967222267
 21
153.8560891114
 31
0.0
  0
MTEXT
  5
43A
330
432
100
AcDbEntity
  8
SLD-0_0
100
AcDbMText
 10
2107.8856112861
 20
170.2272494065
 30
0.0
 40
12.7
 41
0.0
 71
     1
 72
     1
  1
210
  7
SLDTEXTSTYLE0
 73
     1
 44
1.0
  0
ENDBLK
  5
434
330
432
100
AcDbEntity
  8
0
100
AcDbBlockEnd
  0
BLOCK
  5
43D
330
43C
100
AcDbEntity
  8
0
100
AcDbBlockBegin
  2
_D_27
 70
     0
 10
0.0
 20
0.0
 30
0.0
  3
_D_27
  1

  0
SOLID
  5
43F
330
43C
100
AcDbEntity
  8
SLD-0_0
100
AcDbTrace
 10
2250.9967222267
 20
177.8560891114
 30
0.0
 11
2251.5047222267
 21
181.1580891114
 31
0.0
 12
2250.4887222267
 22
181.1580891114
 32
0.0
 13
2250.4887222267
 23
181.1580891114
 33
0.0
  0
SOLID
  5
440
330
43C
100
AcDbEntity
  8
SLD-0_0
100
AcDbTrace
 10
2250.9967222267
 20
341.8560891114
 30
0.0
 11
2250.4887222267
 21
338.5540891114
 31
0.0
 12
2251.5047222267
 22
338.5540891114
 32
0.0
 13
2251.5047222267
 23
338.5540891114
 33
0.0
  0
LINE
  5
441
330
43C
100
AcDbEntity
  8
SLD-0_0
100
AcDbLine
 10
2227.9967222267
 20
177.8560891114
 30
0.0
 11
2251.9967222267
 21
177.8560891114
 31
0.0
  0
LINE
  5
442
330
43C
100
AcDbEntity
  8
SLD-0_0
100
AcDbLine
 10
2227.9967222267
 20
341.8560891114
 30
0.0
 11
2251.9967222267
 21
341.8560891114
 31
0.0
  0
LINE
  5
443
330
43C
100
AcDbEntity
  8
SLD-0_0
100
AcDbLine
 10
2250.9967222267
 20
177.8560891114
 30
0.0
 11
2250.9967222267
 21
341.8560891114
 31
0.0
  0
MTEXT
  5
444
330
43C
100
AcDbEntity
  8
SLD-0_0
100
AcDbMText
 10
2234.6255619316
 20
243.6513990742
 30
0.0
 40
12.7
 41
0.0
 71
     1
 72
     1
  1
164
  7
SLDTEXTSTYLE0
 11
-3.491481338843133E-15
 21
1.0
 31
0.0
 73
     1
 44
1.0
  0
ENDBLK
  5
43E
330
43C
100
AcDbEntity
  8
0
100
AcDbBlockEnd
  0
ENDSEC
  0
SECTION
  2
ENTITIES
  0
LINE
  5
7A
330
1F
100
AcDbEntity
  8
PREDETERMINADO
100
AcDbLine
 10
3423.9450748383
 20
68.4534715609
 30
0.0
 11
3415.178761053
 21
68.4534715609
 31
0.0
  0
LINE
  5
7B
330
1F
100
AcDbEntity
  8
PREDETERMINADO
100
AcDbLine
 10
3409.4615998887
 20
40.0582377781
 30
0.0
 11
3414.7976169754
 21
40.0582377781
 31
0.0
  0
LINE
  5
7C
330
1F
100
AcDbEntity
  8
PREDETERMINADO
100
AcDbLine
 10
3444.9079991075
 20
68.4534715609
 30
0.0
 11
3436.9039734774
 21
68.4534715609
 31
0.0
  0
LINE
  5
7D
330
1F
100
AcDbEntity
  8
PREDETERMINADO
100
AcDbLine
 10
3431.8526715743
 20
42.5356742826
 30
0.0
 11
3439.7842056547
 21
42.5356742826
 31
0.0
  0
LINE
  5
7E
330
1F
100
AcDbEntity
  8
PREDETERMINADO
100
AcDbLine
 10
3174.8785872902
 20
149.6066352302
 30
0.0
 11
3174.8785872902
 21
108.2235927419
 31
0.0
  0
LINE
  5
7F
330
1F
100
AcDbEntity
  8
PREDETERMINADO
100
AcDbLine
 10
3174.8785872902
 20
108.2235927419
 30
0.0
 11
2687.9026886837
 21
108.2235927419
 31
0.0
  0
LINE
  5
80
330
1F
100
AcDbEntity
  8
PREDETERMINADO
100
AcDbLine
 10
2687.9026886837
 20
108.2235927419
 30
0.0
 11
2687.9026886837
 21
103.9845927419
 31
0.0
  0
LINE
  5
81
330
1F
100
AcDbEntity
  8
PREDETERMINADO
100
AcDbLine
 10
2687.9026886837
 20
103.9845927419
 30
0.0
 11
3179.1175872902
 21
103.9845927419
 31
0.0
  0
LINE
  5
82
330
1F
100
AcDbEntity
  8
PREDETERMINADO
100
AcDbLine
 10
3179.1175872902
 20
103.9845927419
 30
0.0
 11
3179.1175872902
 21
149.6066352302
 31
0.0
  0
LINE
  5
83
330
1F
100
AcDbEntity
  8
PREDETERMINADO
100
AcDbLine
 10
3179.1175872902
 20
149.6066352302
 30
0.0
 11
3174.8785872902
 21
149.6066352302
 31
0.0
  0
LINE
  5
84
330
1F
100
AcDbEntity
  8
PREDETERMINADO
100
AcDbLine
 10
3431.8526715743
 20
42.5356742826
 30
0.0
 11
3439.7842056547
 21
42.5356742826
 31
0.0
  0
LINE
  5
85
330
1F
100
AcDbEntity
  8
PREDETERMINADO
100
AcDbLine
 10
3444.9079991075
 20
68.4534715609
 30
0.0
 11
3436.9039734774
 21
68.4534715609
 31
0.0
  0
LINE
  5
86
330
1F
100
AcDbEntity
  8
PREDETERMINADO
100
AcDbLine
 10
3423.9450748383
 20
68.4534715609
 30
0.0
 11
3415.178761053
 21
68.4534715609
 31
0.0
  0
LINE
  5
87
330
1F
100
AcDbEntity
  8
PREDETERMINADO
100
AcDbLine
 10
3409.4615998887
 20
40.0582377781
 30
0.0
 11
3414.7976169754
 21
40.0582377781
 31
0.0
  0
LINE
  5
88
330
1F
100
AcDbEntity
  8
PREDETERMINADO
  6
Continuous
 62
   179
370
    15
100
AcDbLine
 10
2687.9026886837
 20
239.4950358848
 30
0.0
 11
2687.9026886837
 21
153.8456352302
 31
0.0
  0
LINE
  5
89
330
1F
100
AcDbEntity
  8
SLD-0_0
100
AcDbLine
 10
2876.6491940685
 20
103.9845927419
 30
0.0
 11
2876.6491940685
 21
27.5450358848
 31
0.0
  0
LINE
  5
8A
330
1F
100
AcDbEntity
  8
FORMATO
  6
Continuous
 62
   179
100
AcDbLine
 10
2882.3875872902
 20
153.8456352302
 30
0.0
 11
2882.3875872902
 21
239.4950358848
 31
0.0
  0
LINE
  5
8B
330
1F
100
AcDbEntity
  8
FORMATO
  6
Continuous
 62
   179
100
AcDbLine
 10
2801.8947531404
 20
153.8456352302
 30
0.0
 11
2882.3875872902
 21
153.8456352302
 31
0.0
  0
LINE
  5
8C
330
1F
100
AcDbEntity
  8
FORMATO
  6
Continuous
 62
   179
100
AcDbLine
 10
2801.8947531404
 20
153.8456352302
 30
0.0
 11
2801.8947531404
 21
239.4950358848
 31
0.0
  0
LINE
  5
8D
330
1F
100
AcDbEntity
  8
FORMATO
  6
Continuous
 62
   179
100
AcDbLine
 10
2687.9026886837
 20
175.0406352302
 30
0.0
 11
2967.1675872902
 21
175.0406352302
 31
0.0
  0
LINE
  5
8E
330
1F
100
AcDbEntity
  8
FORMATO
  6
Continuous
 62
   179
100
AcDbLine
 10
2687.9026886837
 20
196.2356352302
 30
0.0
 11
2967.1675872902
 21
196.2356352302
 31
0.0
  0
LINE
  5
8F
330
1F
100
AcDbEntity
  8
FORMATO
  6
Continuous
 62
   179
100
AcDbLine
 10
2967.1675872902
 20
153.8456352302
 30
0.0
 11
2967.1675872902
 21
239.4950358848
 31
0.0
  0
LINE
  5
90
330
1F
100
AcDbEntity
  8
FORMATO
  6
Continuous
 62
   179
100
AcDbLine
 10
3454.6525872902
 20
217.4306352302
 30
0.0
 11
2687.9026886837
 21
217.4306352302
 31
0.0
  0
LINE
  5
91
330
1F
100
AcDbEntity
  8
FORMATO
  6
Continuous
 62
   179
100
AcDbLine
 10
3274.1069850882
 20
239.4950358848
 30
0.0
 11
3274.1069850882
 21
191.7941601792
 31
0.0
  0
LINE
  5
92
330
1F
100
AcDbEntity
  8
FORMATO
  6
Continuous
 62
   179
100
AcDbLine
 10
3221.5075872902
 20
239.4950358848
 30
0.0
 11
3221.5075872902
 21
191.7941601792
 31
0.0
  0
LINE
  5
93
330
1F
100
AcDbEntity
  8
FORMATO
  6
Continuous
 62
   179
100
AcDbLine
 10
3179.1175872902
 20
191.7941601792
 30
0.0
 11
3454.6525872902
 21
191.7941601792
 31
0.0
  0
LINE
  5
94
330
1F
100
AcDbEntity
  8
FORMATO
  6
Continuous
 62
   179
100
AcDbLine
 10
3343.4738520574
 20
149.6066352302
 30
0.0
 11
3343.4738520574
 21
239.4950358848
 31
0.0
  0
LINE
  5
95
330
1F
100
AcDbEntity
  8
PREDETERMINADO
370
    15
100
AcDbLine
 10
2687.9026886837
 20
108.2235927419
 30
0.0
 11
2687.9026886837
 21
27.5450358848
 31
0.0
  0
LINE
  5
96
330
1F
100
AcDbEntity
  8
FORMATO
  6
Continuous
 62
   179
100
AcDbLine
 10
3306.2875872902
 20
94.2696909721
 30
0.0
 11
3454.6525872902
 21
94.2696909721
 31
0.0
  0
LINE
  5
97
330
1F
100
AcDbEntity
  8
FORMATO
  6
Continuous
 62
   179
100
AcDbLine
 10
3306.2875872902
 20
27.5450358848
 30
0.0
 11
3306.2875872902
 21
149.6066352302
 31
0.0
  0
LINE
  5
98
330
1F
100
AcDbEntity
  8
FORMATO
  6
Continuous
 62
   179
370
    15
100
AcDbLine
 10
2683.6636886837
 20
153.8456352302
 30
0.0
 11
3174.8785872902
 21
153.8456352302
 31
0.0
  0
LINE
  5
99
330
1F
100
AcDbEntity
  8
FORMATO
  6
Continuous
 62
   179
370
    15
100
AcDbLine
 10
3179.1175872902
 20
103.9845927419
 30
0.0
 11
3179.1175872902
 21
149.6066352302
 31
0.0
  0
LINE
  5
9A
330
1F
100
AcDbEntity
  8
FORMATO
  6
Continuous
 62
   179
100
AcDbLine
 10
3037.7963578874
 20
103.9845927419
 30
0.0
 11
3037.7963578874
 21
27.5450358848
 31
0.0
  0
LINE
  5
9B
330
1F
100
AcDbEntity
  8
SLD-0
  6
Continuous
 62
   179
100
AcDbLine
 10
3436.9039734774
 20
68.4534715609
 30
0.0
 11
3444.9079991075
 21
68.4534715609
 31
0.0
  0
LINE
  5
9C
330
1F
100
AcDbEntity
  8
SLD-0
  6
Continuous
 62
   179
100
AcDbLine
 10
3431.5679563907
 20
42.5356742826
 30
0.0
 11
3439.7842056547
 21
42.5356742826
 31
0.0
  0
LINE
  5
9D
330
1F
100
AcDbEntity
  8
SLD-0
  6
Continuous
 62
   179
100
AcDbLine
 10
3415.178761053
 20
68.4534715609
 30
0.0
 11
3423.9450748383
 21
68.4534715609
 31
0.0
  0
LINE
  5
9E
330
1F
100
AcDbEntity
  8
FORMATO
  6
Continuous
 62
   179
100
AcDbLine
 10
2970.8460916865
 20
197.6023831433
 30
0.0
 11
2977.5374753321
 21
197.6023831433
 31
0.0
  0
LINE
  5
9F
330
1F
100
AcDbEntity
  8
FORMATO
  6
Continuous
 62
   179
100
AcDbLine
 10
2970.8460916865
 20
180.6463831433
 30
0.0
 11
2977.5374753321
 21
180.6463831433
 31
0.0
  0
LINE
  5
A0
330
1F
100
AcDbEntity
  8
FORMATO
  6
Continuous
 62
   179
100
AcDbLine
 10
2970.8460916865
 20
163.6903831433
 30
0.0
 11
2977.5374753321
 21
163.6903831433
 31
0.0
  0
LINE
  5
A1
330
1F
100
AcDbEntity
  8
FORMATO
  6
Continuous
 62
   179
100
AcDbLine
 10
3181.7799167421
 20
109.322757955
 30
0.0
 11
3188.4713003877
 21
109.322757955
 31
0.0
  0
LINE
  5
A2
330
1F
100
AcDbEntity
  8
FORMATO
  6
Continuous
 62
   179
100
AcDbLine
 10
3181.7799167421
 20
87.6600415485
 30
0.0
 11
3188.4713003877
 21
87.6600415485
 31
0.0
  0
LINE
  5
A3
330
1F
100
AcDbEntity
  8
FORMATO
  6
Continuous
 62
   179
100
AcDbLine
 10
3181.7799167421
 20
65.997325142
 30
0.0
 11
3188.4713003877
 21
65.997325142
 31
0.0
  0
LINE
  5
A4
330
1F
100
AcDbEntity
  8
FORMATO
  6
Continuous
 62
   179
100
AcDbLine
 10
3181.7799167421
 20
44.3346087354
 30
0.0
 11
3188.4713003877
 21
44.3346087354
 31
0.0
  0
LINE
  5
A5
330
1F
100
AcDbEntity
  8
PREDETERMINADO
100
AcDbLine
 10
3179.1175872902
 20
149.6066352302
 30
0.0
 11
3455.0066466501
 21
149.6066352302
 31
0.0
  0
LINE
  5
A6
330
1F
100
AcDbEntity
  8
FORMATO
  6
Continuous
 62
   179
370
    15
100
AcDbLine
 10
2687.9026886837
 20
239.4950358848
 30
0.0
 11
3454.6525872902
 21
239.4950358848
 31
0.0
  0
LINE
  5
A7
330
1F
100
AcDbEntity
  8
FORMATO
  6
Continuous
 62
   179
370
    15
100
AcDbLine
 10
3179.1175872902
 20
103.9845927419
 30
0.0
 11
2687.9026886837
 21
103.9845927419
 31
0.0
  0
LINE
  5
A8
330
1F
100
AcDbEntity
  8
PREDETERMINADO
  6
Continuous
 62
   179
100
AcDbLine
 10
2723.9752939428
 20
235.6465748089
 30
0.0
 11
2723.9752939428
 21
219.3106150242
 31
0.0
  0
LINE
  5
A9
330
1F
100
AcDbEntity
  8
PREDETERMINADO
  6
Continuous
 62
   179
100
AcDbLine
 10
2707.5795109296
 20
231.8987946326
 30
0.0
 11
2707.5795109296
 21
223.0583952006
 31
0.0
  0
LINE
  5
AA
330
1F
100
AcDbEntity
  8
PREDETERMINADO
  6
CENTER
 62
   179
100
AcDbLine
 10
2744.0733505395
 20
236.6928960833
 30
0.0
 11
2744.0733505395
 21
218.0803309218
 31
0.0
  0
LINE
  5
AB
330
1F
100
AcDbEntity
  8
PREDETERMINADO
  6
Continuous
 62
   179
100
AcDbLine
 10
2723.9752939428
 20
235.6465748089
 30
0.0
 11
2707.5795109296
 21
231.8987946326
 31
0.0
  0
LINE
  5
AC
330
1F
100
AcDbEntity
  8
PREDETERMINADO
  6
Continuous
 62
   179
100
AcDbLine
 10
2707.5795109296
 20
223.0583952006
 30
0.0
 11
2723.9752939428
 21
219.3106150242
 31
0.0
  0
LINE
  5
AD
330
1F
100
AcDbEntity
  8
PREDETERMINADO
  6
CENTER
 62
   179
100
AcDbLine
 10
2753.9018899249
 20
227.4785949166
 30
0.0
 11
2705.8885848903
 21
227.4785949166
 31
0.0
  0
LINE
  5
AE
330
1F
100
AcDbEntity
  8
PREDETERMINADO
370
    15
100
AcDbLine
 10
2687.9026886837
 20
27.5450358848
 30
0.0
 11
3454.6525872902
 21
27.5450358848
 31
0.0
  0
LINE
  5
AF
330
1F
100
AcDbEntity
  8
PREDETERMINADO
370
    15
100
AcDbLine
 10
3454.6525872902
 20
27.5450358848
 30
0.0
 11
3454.6525872902
 21
239.4950358848
 31
0.0
  0
LINE
  5
B0
330
1F
100
AcDbEntity
  8
PREDETERMINADO
370
    15
100
AcDbLine
 10
3174.8785872902
 20
149.6066352302
 30
0.0
 11
3179.1175872902
 21
149.6066352302
 31
0.0
  0
LINE
  5
B1
330
1F
100
AcDbEntity
  8
PREDETERMINADO
100
AcDbLine
 10
3179.1175872902
 20
149.6066352302
 30
0.0
 11
3179.1175872902
 21
239.4950358848
 31
0.0
  0
LINE
  5
B2
330
1F
100
AcDbEntity
  8
PREDETERMINADO
100
AcDbLine
 10
3179.1175872902
 20
103.9845927419
 30
0.0
 11
3179.1175872902
 21
27.5450358848
 31
0.0
  0
LINE
  5
B3
330
1F
100
AcDbEntity
  8
PREDETERMINADO
370
    15
100
AcDbLine
 10
2683.6636886837
 20
153.8456352302
 30
0.0
 11
2683.6636886837
 21
108.2235927419
 31
0.0
  0
LINE
  5
B4
330
1F
100
AcDbEntity
  8
PREDETERMINADO
370
    15
100
AcDbLine
 10
2683.6636886837
 20
108.2235927419
 30
0.0
 11
3174.8785872902
 21
108.2235927419
 31
0.0
  0
LINE
  5
B5
330
1F
100
AcDbEntity
  8
PREDETERMINADO
370
    15
100
AcDbLine
 10
3174.8785872902
 20
108.2235927419
 30
0.0
 11
3174.8785872902
 21
153.8456352302
 31
0.0
  0
LINE
  5
B6
330
1F
100
AcDbEntity
  8
SLD-0
  6
Continuous
 62
   179
100
AcDbLine
 10
3409.4615998887
 20
40.0582377781
 30
0.0
 11
3414.7976169754
 21
40.0582377781
 31
0.0
  0
LINE
  5
B7
330
1F
100
AcDbEntity
  8
NONPLOT
100
AcDbLine
 10
20.2752616314
 20
271.0131637688
 30
0.0
 11
414.1539079938
 21
271.0131637688
 31
0.0
  0
LINE
  5
B8
330
1F
100
AcDbEntity
  8
NONPLOT
100
AcDbLine
 10
20.2752616314
 20
261.0131637688
 30
0.0
 11
414.1539079938
 21
261.0131637688
 31
0.0
  0
LINE
  5
B9
330
1F
100
AcDbEntity
  8
NONPLOT
100
AcDbLine
 10
35.2752616314
 20
271.0131637688
 30
0.0
 11
35.2752616314
 21
261.0131637688
 31
0.0
  0
LINE
  5
BA
330
1F
100
AcDbEntity
  8
NONPLOT
370
    15
100
AcDbLine
 10
414.1539079938
 20
5.5413915315
 30
0.0
 11
294.1539079938
 21
5.5413915315
 31
0.0
  0
LINE
  5
BB
330
1F
100
AcDbEntity
  8
NONPLOT
  6
Continuous
 62
   179
370
    15
100
AcDbLine
 10
414.1539079938
 20
5.5413915315
 30
0.0
 11
414.1539079938
 21
291.0131637688
 31
0.0
  0
LINE
  5
BC
330
1F
100
AcDbEntity
  8
NONPLOT
  6
Continuous
 62
   179
370
    15
100
AcDbLine
 10
414.1539079938
 20
291.0131637688
 30
0.0
 11
20.2752616314
 21
291.0131637688
 31
0.0
  0
LINE
  5
BD
330
1F
100
AcDbEntity
  8
NONPLOT
  6
Continuous
 62
     7
370
    15
100
AcDbLine
 10
20.2752616314
 20
291.0131637688
 30
0.0
 11
20.2752616314
 21
5.5413915315
 31
0.0
  0
LINE
  5
BE
330
1F
100
AcDbEntity
  8
NONPLOT
  6
Continuous
 62
     7
100
AcDbLine
 10
-0.0123065099
 20
140.7183915315
 30
0.0
 11
20.2752616314
 21
140.7183915315
 31
0.0
  0
LINE
  5
BF
330
1F
100
AcDbEntity
  8
NONPLOT
  6
Continuous
 62
   179
100
AcDbLine
 10
244.5621101288
 20
5.5413915315
 30
0.0
 11
244.5621101288
 21
2.7153915315
 31
0.0
  0
LINE
  5
C0
330
1F
100
AcDbEntity
  8
NONPLOT
  6
Continuous
 62
   179
100
AcDbLine
 10
246.359907498
 20
293.8391637688
 30
0.0
 11
246.359907498
 21
291.0131637688
 31
0.0
  0
LINE
  5
C1
330
1F
100
AcDbEntity
  8
NONPLOT
  6
Continuous
 62
   179
370
    15
100
AcDbLine
 10
20.2752616314
 20
5.5413915315
 30
0.0
 11
414.1539079938
 21
5.5413915315
 31
0.0
  0
LINE
  5
C2
330
1F
100
AcDbEntity
  8
NONPLOT
370
    15
100
AcDbLine
 10
414.1539079938
 20
5.5413915315
 30
0.0
 11
414.1539079938
 21
105.5413915315
 31
0.0
  0
LINE
  5
C3
330
1F
100
AcDbEntity
  8
NONPLOT
370
    15
100
AcDbLine
 10
414.1539079938
 20
105.5413915315
 30
0.0
 11
294.1539079938
 21
105.5413915315
 31
0.0
  0
LINE
  5
C4
330
1F
100
AcDbEntity
  8
NONPLOT
370
    15
100
AcDbLine
 10
294.1539079938
 20
5.5413915315
 30
0.0
 11
294.1539079938
 21
105.5413915315
 31
0.0
  0
LINE
  5
C5
330
1F
100
AcDbEntity
  8
NONPLOT
100
AcDbLine
 10
399.1539079938
 20
261.0131637688
 30
0.0
 11
399.1539079938
 21
271.0131637688
 31
0.0
  0
LINE
  5
C6
330
1F
100
AcDbEntity
  8
NONPLOT
100
AcDbLine
 10
35.2752616314
 20
15.5413915315
 30
0.0
 11
35.2752616314
 21
5.5413915315
 31
0.0
  0
ARC
  5
C7
330
1F
100
AcDbEntity
  8
PREDETERMINADO
100
AcDbCircle
 10
3341.8053499105
 20
68.4534715609
 30
0.0
 40
73.37341114252969
100
AcDbArc
 50
337.2322750577
 51
0.0
  0
ARC
  5
C8
330
1F
100
AcDbEntity
  8
PREDETERMINADO
100
AcDbCircle
 10
3375.2995768064
 20
68.4534715609
 30
0.0
 40
48.64549803190812
100
AcDbArc
 50
324.2875534854
 51
0.0
  0
ARC
  5
C9
330
1F
100
AcDbEntity
  8
PREDETERMINADO
100
AcDbCircle
 10
3367.8873239046
 20
68.4534715609
 30
0.0
 40
69.01664957284522
100
AcDbArc
 50
337.9429486592
 51
0.0
  0
ARC
  5
CA
330
1F
100
AcDbEntity
  8
PREDETERMINADO
100
AcDbCircle
 10
3376.7958199634
 20
68.4534715609
 30
0.0
 40
68.11217914413874
100
AcDbArc
 50
337.634330245
 51
0.0
  0
ARC
  5
CB
330
1F
100
AcDbEntity
  8
PREDETERMINADO
100
AcDbCircle
 10
3376.7958199634
 20
68.4534715609
 30
0.0
 40
68.11217914413874
100
AcDbArc
 50
337.634330245
 51
0.0
  0
ARC
  5
CC
330
1F
100
AcDbEntity
  8
PREDETERMINADO
100
AcDbCircle
 10
3367.8873239046
 20
68.4534715609
 30
0.0
 40
69.01664957284522
100
AcDbArc
 50
337.9429486592
 51
0.0
  0
ARC
  5
CD
330
1F
100
AcDbEntity
  8
PREDETERMINADO
100
AcDbCircle
 10
3375.2995768064
 20
68.4534715609
 30
0.0
 40
48.64549803190812
100
AcDbArc
 50
324.2875534854
 51
0.0
  0
ARC
  5
CE
330
1F
100
AcDbEntity
  8
PREDETERMINADO
100
AcDbCircle
 10
3341.8053499105
 20
68.4534715609
 30
0.0
 40
73.37341114252969
100
AcDbArc
 50
337.2322750577
 51
0.0
  0
CIRCLE
  5
CF
330
1F
100
AcDbEntity
  8
PREDETERMINADO
  6
Continuous
 62
   179
100
AcDbCircle
 10
2744.0733505395
 20
227.4785949166
 30
0.0
 40
8.16797989235628
  0
CIRCLE
  5
D0
330
1F
100
AcDbEntity
  8
PREDETERMINADO
  6
Continuous
 62
   179
100
AcDbCircle
 10
2744.0621261771
 20
227.4785949166
 30
0.0
 40
4.420199715999228
  0
ARC
  5
D1
330
1F
100
AcDbEntity
  8
SLD-0
  6
Continuous
 62
   179
100
AcDbCircle
 10
3367.8873239046
 20
68.4534715609
 30
0.0
 40
69.01664957284522
100
AcDbArc
 50
337.9429486592
 51
0.0
  0
ARC
  5
D2
330
1F
100
AcDbEntity
  8
SLD-0
  6
Continuous
 62
   179
100
AcDbCircle
 10
3376.7958199634
 20
68.4534715609
 30
0.0
 40
68.11217914413874
100
AcDbArc
 50
337.634330245
 51
0.0
  0
ARC
  5
D3
330
1F
100
AcDbEntity
  8
SLD-0
  6
Continuous
 62
   179
100
AcDbCircle
 10
3375.2995768064
 20
68.4534715609
 30
0.0
 40
48.64549803190812
100
AcDbArc
 50
324.2875534854
 51
0.0
  0
ARC
  5
D4
330
1F
100
AcDbEntity
  8
SLD-0
  6
Continuous
 62
   179
100
AcDbCircle
 10
3341.8053499105
 20
68.4534715609
 30
0.0
 40
73.37341114252969
100
AcDbArc
 50
337.2322750577
 51
0.0
  0
HATCH
  5
D5
330
1F
100
AcDbEntity
  8
0
  6
Continuous
 62
   179
100
AcDbHatch
 10
0.0
 20
0.0
 30
0.0
210
0.0
220
0.0
230
1.0
  2
ANSI31
 70
     0
 71
     0
 91
        1
 92
        0
 93
        4
 72
     1
 10
3409.461599888659
 20
40.05823777806694
 11
3414.797616975368
 21
40.05823777806694
 72
     2
 10
3375.299576806387
 20
68.45347156090287
 40
48.64549803190779
 50
324.2875534853735
 51
360.0000000000008
 73
     1
 72
     1
 10
3423.945074838295
 20
68.45347156090287
 11
3415.178761053016
 21
68.45347156090287
 72
     2
 10
3341.805349910488
 20
68.45347156090287
 40
73.37341114252924
 50
0.0
 51
22.76772494225711
 73
     0
 97
        0
 75
     0
 76
     1
 52
90.0
 41
0.03125
 77
     0
 78
     1
 53
135.0000000000002
 43
0.0
 44
0.0
 45
-0.0701582509458525
 46
-0.070158250945853
 79
     0
 98
        1
 10
0.0
 20
0.0
  0
HATCH
  5
D6
330
1F
100
AcDbEntity
  8
0
  6
Continuous
 62
   179
100
AcDbHatch
 10
0.0
 20
0.0
 30
0.0
210
0.0
220
0.0
230
1.0
  2
ANSI31
 70
     0
 71
     0
 91
        1
 92
        0
 93
        4
 72
     1
 10
3431.852671574268
 20
42.53567428261063
 11
3439.784205654727
 21
42.53567428261063
 72
     2
 10
3376.79581996336
 20
68.45347156090287
 40
68.11217914413834
 50
337.6343302449529
 51
360.0000000000008
 73
     1
 72
     1
 10
3444.907999107499
 20
68.45347156090287
 11
3436.903973477439
 21
68.45347156090287
 72
     2
 10
3367.887323904594
 20
68.45347156090287
 40
69.01664957284504
 50
0.0
 51
22.05705134075546
 73
     0
 97
        0
 75
     0
 76
     1
 52
90.0
 41
0.03125
 77
     0
 78
     1
 53
135.0000000000002
 43
0.0
 44
0.0
 45
-0.0701582509458525
 46
-0.070158250945853
 79
     0
 98
        1
 10
0.0
 20
0.0
  0
HATCH
  5
D7
330
1F
100
AcDbEntity
  8
0
  6
Continuous
 62
   179
100
AcDbHatch
 10
0.0
 20
0.0
 30
0.0
210
0.0
220
0.0
230
1.0
  2
ANSI31
 70
     0
 71
     0
 91
        1
 92
        0
 93
        6
 72
     1
 10
3179.117587290223
 20
103.9845927419085
 11
3179.117587290223
 21
149.6066352302441
 72
     1
 10
3179.117587290223
 20
149.6066352302441
 11
3174.878587290221
 21
149.6066352302441
 72
     1
 10
3174.878587290221
 20
149.6066352302441
 11
3174.878587290221
 21
108.2235927419082
 72
     1
 10
3174.878587290221
 20
108.2235927419082
 11
2687.902688683655
 21
108.2235927419082
 72
     1
 10
2687.902688683655
 20
108.2235927419082
 11
2687.902688683655
 21
103.9845927419085
 72
     1
 10
2687.902688683655
 20
103.9845927419085
 11
3179.117587290223
 21
103.9845927419085
 97
        0
 75
     0
 76
     1
 52
0.0
 41
0.0625
 77
     0
 78
     1
 53
45.0
 43
0.0
 44
0.0
 45
-0.1403165018917055
 46
0.1403165018917055
 79
     0
 98
        1
 10
0.0
 20
0.0
  0
POINT
  5
D8
330
1F
100
AcDbEntity
  8
NONPLOT
100
AcDbPoint
 10
217.2145848126
 20
261.0131637688
 30
0.0
  0
INSERT
  5
DF
330
1F
100
AcDbEntity
  8
CAJETIN
100
AcDbBlockReference
  2
SW_NOTE_0
 10
2896.1503760814
 20
132.2793499349
 30
0.0
  0
MTEXT
  5
E0
330
1F
100
AcDbEntity
  8
CAJETIN
100
AcDbMText
 10
3187.8776124989
 20
210.2705759593
 30
0.0
 40
9.525
 41
0.0
 71
     1
 72
     1
  1
mm
  7
SLDTEXTSTYLE0
 73
     1
 44
1.0
  0
MTEXT
  5
E1
330
1F
100
AcDbEntity
  8
CAJETIN
100
AcDbMText
 10
2894.3906620658
 20
170.748179518
 30
0.0
 40
9.525
 41
0.0
 71
     1
 72
     1
  1
11/06/2020
  7
SLDTEXTSTYLE0
 73
     1
 44
1.0
  0
MTEXT
  5
E2
330
1F
100
AcDbEntity
  8
CAJETIN
100
AcDbMText
 10
2894.3906620658
 20
192.0243936127
 30
0.0
 40
9.525
 41
0.0
 71
     1
 72
     1
  1
11/06/2020
  7
SLDTEXTSTYLE0
 73
     1
 44
1.0
  0
MTEXT
  5
E3
330
1F
100
AcDbEntity
  8
CAJETIN
100
AcDbMText
 10
2815.4193961691
 20
170.748179518
 30
0.0
 40
9.525
 41
0.0
 71
     1
 72
     1
  1
J. Serrano
  7
SLDTEXTSTYLE0
 73
     1
 44
1.0
  0
MTEXT
  5
E4
330
1F
100
AcDbEntity
  8
CAJETIN
100
AcDbMText
 10
2815.4193961691
 20
192.0243936127
 30
0.0
 40
9.525
 41
0.0
 71
     1
 72
     1
  1
R. Climent
  7
SLDTEXTSTYLE0
 73
     1
 44
1.0
  0
MTEXT
  5
E5
330
1F
100
AcDbEntity
  8
CAJETIN
100
AcDbMText
 10
2894.3906620658
 20
212.8758228265
 30
0.0
 40
9.525
 41
0.0
 71
     1
 72
     1
  1
11/06/2020
  7
SLDTEXTSTYLE0
 73
     1
 44
1.0
  0
MTEXT
  5
E6
330
1F
100
AcDbEntity
  8
CAJETIN
100
AcDbMText
 10
3205.7203487205
 20
144.5193901763
 30
0.0
 40
9.525
 41
0.0
 71
     1
 72
     1
  1
MATERIAL
  7
SLDTEXTSTYLE0
 73
     1
 44
1.0
  0
MTEXT
  5
E7
330
1F
100
AcDbEntity
  8
CAJETIN
100
AcDbMText
 10
2923.5525420025
 20
99.1671084216
 30
0.0
 40
9.525
 41
0.0
 71
     1
 72
     1
  1
SIGNED
  7
SLDTEXTSTYLE0
 73
     1
 44
1.0
  0
MTEXT
  5
E8
330
1F
100
AcDbEntity
  8
CAJETIN
100
AcDbMText
 10
3191.2779840477
 20
186.8045477054
 30
0.0
 40
9.525
 41
0.0
 71
     1
 72
     1
  1
DRAWING NUMBER
  7
SLDTEXTSTYLE0
 73
     1
 44
1.0
  0
MTEXT
  5
E9
330
1F
100
AcDbEntity
  8
CAJETIN
100
AcDbMText
 10
3376.4951763926
 20
235.9367160252
 30
0.0
 40
9.525
 41
0.0
 71
     1
 72
     1
  1
SCALE
  7
SLDTEXTSTYLE0
 73
     1
 44
1.0
  0
MTEXT
  5
EA
330
1F
100
AcDbEntity
  8
CAJETIN
100
AcDbMText
 10
3289.2118188251
 20
234.9804666019
 30
0.0
 40
9.525
 41
0.0
 71
     1
 72
     1
  1
DATE
  7
SLDTEXTSTYLE0
 73
     1
 44
1.0
  0
MTEXT
  5
EB
330
1F
100
AcDbEntity
  8
CAJETIN
100
AcDbMText
 10
3225.9090217874
 20
234.9804666019
 30
0.0
 40
9.525
 41
0.0
 71
     1
 72
     1
  1
LEVEL
  7
SLDTEXTSTYLE0
 73
     1
 44
1.0
  0
MTEXT
  5
EC
330
1F
100
AcDbEntity
  8
CAJETIN
100
AcDbMText
 10
3182.3169877364
 20
234.9804666019
 30
0.0
 40
9.525
 41
0.0
 71
     1
 72
     1
  1
UNIT
  7
SLDTEXTSTYLE0
 73
     1
 44
1.0
  0
MTEXT
  5
ED
330
1F
100
AcDbEntity
  8
CAJETIN
100
AcDbMText
 10
3038.0937011036
 20
235.9367160252
 30
0.0
 40
9.525
 41
0.0
 71
     1
 72
     1
  1
NOTES
  7
SLDTEXTSTYLE0
 73
     1
 44
1.0
  0
MTEXT
  5
EE
330
1F
100
AcDbEntity
  8
CAJETIN
100
AcDbMText
 10
3048.8872310194
 20
99.1671084216
 30
0.0
 40
9.525
 41
0.0
 71
     1
 72
     1
  1
PART NUMBER
  7
SLDTEXTSTYLE0
 73
     1
 44
1.0
  0
MTEXT
  5
EF
330
1F
100
AcDbEntity
  8
CAJETIN
100
AcDbMText
 10
2693.0046345166
 20
98.7130629884
 30
0.0
 40
9.525
 41
0.0
 71
     1
 72
     1
  1
MODEL CODE:
  7
SLDTEXTSTYLE0
 73
     1
 44
1.0
  0
MTEXT
  5
F0
330
1F
100
AcDbEntity
  8
CAJETIN
100
AcDbMText
 10
2687.518869626
 20
148.9845116171
 30
0.0
 40
9.525
 41
0.0
 71
     1
 72
     1
  1
TITLE:
  7
SLDTEXTSTYLE0
 73
     1
 44
1.0
  0
MTEXT
  5
F1
330
1F
100
AcDbEntity
  8
CAJETIN
100
AcDbMText
 10
2693.0046345166
 20
193.0963015094
 30
0.0
 40
9.525
 41
0.0
 71
     1
 72
     1
  1
DRAWN BY
  7
SLDTEXTSTYLE0
 73
     1
 44
1.0
  0
MTEXT
  5
F2
330
1F
100
AcDbEntity
  8
CAJETIN
100
AcDbMText
 10
2693.0046345166
 20
171.8525067607
 30
0.0
 40
9.525
 41
0.0
 71
     1
 72
     1
  1
REVISED BY
  7
SLDTEXTSTYLE0
 73
     1
 44
1.0
  0
MTEXT
  5
F3
330
1F
100
AcDbEntity
  8
CAJETIN
100
AcDbMText
 10
2693.0046345166
 20
213.1010254985
 30
0.0
 40
9.525
 41
0.0
 71
     1
 72
     1
  1
DESIGNED BY
  7
SLDTEXTSTYLE0
 73
     1
 44
1.0
  0
MTEXT
  5
F4
330
1F
100
AcDbEntity
  8
CAJETIN
100
AcDbMText
 10
2912.2340556979
 20
235.9367160252
 30
0.0
 40
9.525
 41
0.0
 71
     1
 72
     1
  1
DATE
  7
SLDTEXTSTYLE0
 73
     1
 44
1.0
  0
MTEXT
  5
F5
330
1F
100
AcDbEntity
  8
CAJETIN
100
AcDbMText
 10
2752.8151415482
 20
235.066390175
 30
0.0
 40
9.525
 41
0.0
 71
     1
 72
     1
  1
CAD
  7
SLDTEXTSTYLE0
 73
     1
 44
1.0
  0
MTEXT
  5
F6
330
1F
100
AcDbEntity
  8
CAJETIN
100
AcDbMText
 10
3370.9404912563
 20
186.8045477054
 30
0.0
 40
9.525
 41
0.0
 71
     1
 72
     1
  1
WEIGHT
  7
SLDTEXTSTYLE0
 73
     1
 44
1.0
  0
MTEXT
  5
F7
330
1F
100
AcDbEntity
  8
CAJETIN
100
AcDbMText
 10
2827.0235239513
 20
235.9367160252
 30
0.0
 40
9.525
 41
0.0
 71
     1
 72
     1
  1
NAME
  7
SLDTEXTSTYLE0
 73
     1
 44
1.0
  0
MTEXT
  5
F8
330
1F
100
AcDbEntity
  8
CAJETIN
100
AcDbMText
 10
3399.0307639576
 20
211.1866376958
 30
0.0
 40
9.525
 41
0.0
 71
     2
 72
     1
  1
1:1
  7
SLDTEXTSTYLE0
 73
     1
 44
1.0
  0
MTEXT
  5
F9
330
1F
100
AcDbEntity
  8
CAJETIN
100
AcDbMText
 10
3226.2101484058
 20
168.6192950807
 30
0.0
 40
9.525
 41
0.0
 71
     1
 72
     1
  1
S-218LEX1000
  7
SLDTEXTSTYLE0
 73
     1
 44
1.0
  0
MTEXT
  5
FA
330
1F
100
AcDbEntity
  8
CAJETIN
100
AcDbMText
 10
3243.0479249499
 20
210.2705759593
 30
0.0
 40
9.525
 41
0.0
 71
     1
 72
     1
  1
01
  7
SLDTEXTSTYLE0
 73
     1
 44
1.0
  0
MTEXT
  5
FB
330
1F
100
AcDbEntity
  8
PREDETERMINADO
100
AcDbMText
 10
3319.9523364483
 20
71.8721946192
 30
0.0
 40
19.05
 41
0.0
 71
     1
 72
     1
  1
beyma
  7
SLDTEXTSTYLE0
 73
     1
 44
1.0
  0
MTEXT
  5
FC
330
1F
100
AcDbEntity
  8
CAJETIN
100
AcDbMText
 10
2814.0443973407
 20
212.8758228265
 30
0.0
 40
9.525
 41
0.0
 71
     1
 72
     1
  1
R&D Dep.
  7
SLDTEXTSTYLE0
 73
     1
 44
1.0
  0
MTEXT
  5
FD
330
1F
100
AcDbEntity
  8
CAJETIN
100
AcDbMText
 10
3409.5436028177
 20
168.6192950807
 30
0.0
 40
9.525
 41
0.0
 71
     1
 72
     1
  1
g.
  7
SLDTEXTSTYLE0
 73
     1
 44
1.0
  0
INSERT
  5
103
330
1F
100
AcDbEntity
  8
CAJETIN
100
AcDbBlockReference
  2
SW_NOTE_1
 10
3198.7849509376
 20
112.4470625505
 30
0.0
  0
INSERT
  5
109
330
1F
100
AcDbEntity
  8
SLD-0_0
100
AcDbBlockReference
  2
SW_NOTE_2
 10
2912.2340556979
 20
1008.272845959
 30
0.0
  0
INSERT
  5
10F
330
1F
100
AcDbEntity
  8
SLD-0_0
100
AcDbBlockReference
  2
SW_NOTE_3
 10
1942.7557601898
 20
932.7335016742
 30
0.0
  0
INSERT
  5
115
330
1F
100
AcDbEntity
  8
SLD-0_0
100
AcDbBlockReference
  2
SW_NOTE_4
 10
1942.7557601898
 20
336.3523402922
 30
0.0
  0
INSERT
  5
11B
330
1F
100
AcDbEntity
  8
SLD-0_0
100
AcDbBlockReference
  2
SW_NOTE_5
 10
1256.1220888086
 20
937.4574417197
 30
0.0
  0
INSERT
  5
121
330
1F
100
AcDbEntity
  8
SLD-0_0
100
AcDbBlockReference
  2
SW_NOTE_6
 10
2307.2661144573
 20
1924.2933974803
 30
0.0
  0
INSERT
  5
127
330
1F
100
AcDbEntity
  8
SLD-0_0
100
AcDbBlockReference
  2
SW_NOTE_7
 10
1675.1608701577
 20
1924.2933974803
 30
0.0
  0
INSERT
  5
12D
330
1F
100
AcDbEntity
  8
SLD-0_0
100
AcDbBlockReference
  2
SW_NOTE_8
 10
171.8126472492
 20
1920.8212995524
 30
0.0
  0
INSERT
  5
15A
330
1F
100
AcDbEntity
  8
CAJETIN
100
AcDbBlockReference
  2
SW_TABLEANNOTATION_0
 10
1138.4555303857
 20
287.0271842231
 30
0.0
  0
LINE
  5
15B
330
1F
100
AcDbEntity
  8
0
  6
Continuous
 62
     7
100
AcDbLine
 10
1027.34063222
 20
298.1848801463
 30
0.0
 11
1027.083855755
 21
533.7749311899
 31
0.0
  0
LINE
  5
15C
330
1F
100
AcDbEntity
  8
0
  6
Continuous
 62
     7
100
AcDbLine
 10
60.3299993779
 20
551.3203130105
 30
0.0
 11
60.5867758429
 21
315.7302619669
 31
0.0
  0
ARC
  5
15D
330
1F
100
AcDbEntity
  8
0
  6
Continuous
 62
     7
100
AcDbCircle
 10
705.2377415374
 20
71.4416195318
 30
0.0
 40
4.999999999999987
100
AcDbArc
 50
260.2482931143
 51
302.9735484022
  0
LINE
  5
15E
330
1F
100
AcDbEntity
  8
0
  6
Continuous
 62
     7
100
AcDbLine
 10
180.1903898721
 20
156.6040545029
 30
0.0
 11
704.3908472161
 21
66.5138644639
 31
0.0
  0
LINE
  5
15F
330
1F
100
AcDbEntity
  8
0
  6
Continuous
 62
     7
100
AcDbLine
 10
707.9590004877
 20
67.2470099283
 30
0.0
 11
886.9390448571
 21
183.3605684509
 31
0.0
  0
LINE
  5
160
330
1F
100
AcDbEntity
  8
0
  6
Continuous
 62
     7
100
AcDbLine
 10
176.0331787397
 20
165.2958007449
 30
0.0
 11
176.0372871632
 21
161.5263599282
 31
0.0
  0
ARC
  5
161
330
1F
100
AcDbEntity
  8
0
  6
Continuous
 62
     7
100
AcDbCircle
 10
181.0372841933
 20
161.5318095708
 30
0.0
 40
5.00000000000007
100
AcDbArc
 50
180.0624483158
 51
260.2482931143
  0
LINE
  5
162
330
1F
100
AcDbEntity
  8
0
  6
Continuous
 62
     7
100
AcDbLine
 10
889.2177829369
 20
187.5606276969
 30
0.0
 11
889.2136745135
 21
191.3300685136
 31
0.0
  0
ARC
  5
163
330
1F
100
AcDbEntity
  8
0
  6
Continuous
 62
     7
100
AcDbCircle
 10
884.2177859068
 20
187.5551780544
 30
0.0
 40
4.999999999999898
100
AcDbArc
 50
302.9735484022
 51
0.0624483158
  0
ARC
  5
164
330
1F
100
AcDbEntity
  8
0
  6
Continuous
 62
     7
100
AcDbCircle
 10
180.4160441134
 20
731.5138838571
 30
0.0
 40
5.000000000000109
100
AcDbArc
 50
122.9735484022
 51
180.0624483158
  0
LINE
  5
165
330
1F
100
AcDbEntity
  8
0
  6
Continuous
 62
     7
100
AcDbLine
 10
175.4160470832
 20
731.5084342146
 30
0.0
 11
175.4201555067
 21
727.7389933979
 31
0.0
  0
LINE
  5
166
330
1F
100
AcDbEntity
  8
0
  6
Continuous
 62
     7
100
AcDbLine
 10
356.6748295324
 20
851.8220519831
 30
0.0
 11
177.694785163
 21
735.7084934605
 31
0.0
  0
ARC
  5
167
330
1F
100
AcDbEntity
  8
0
  6
Continuous
 62
     7
100
AcDbCircle
 10
883.5965458268
 20
757.5372523407
 30
0.0
 40
5.000000000000099
100
AcDbArc
 50
0.0624483158
 51
80.2482931143
  0
LINE
  5
168
330
1F
100
AcDbEntity
  8
0
  6
Continuous
 62
     7
100
AcDbLine
 10
888.6006512804
 20
753.7732611665
 30
0.0
 11
888.5965428569
 21
757.5427019832
 31
0.0
  0
LINE
  5
169
330
1F
100
AcDbEntity
  8
0
  6
Continuous
 62
     7
100
AcDbLine
 10
884.4434401481
 20
762.4650074085
 30
0.0
 11
360.242982804
 21
852.5551974475
 31
0.0
  0
ARC
  5
16A
330
1F
100
AcDbEntity
  8
0
  6
Continuous
 62
     7
100
AcDbCircle
 10
359.3960884827
 20
847.6274423797
 30
0.0
 40
5.000000000000049
100
AcDbArc
 50
80.2482931143
 51
122.9735484022
  0
LWPOLYLINE
  5
16B
330
1F
100
AcDbEntity
  8
0
  6
Continuous
 62
     7
100
AcDbPolyline
 90
        9
 70
   128
 43
0.0
 10
847.8029675776
 20
181.3023957944
 10
847.2699511886
 20
181.0266474224
 10
846.5867002731
 20
180.7908358674
 10
845.7794717805
 20
180.6040232351
 10
844.8792870491
 20
180.4733886304
 10
843.9207396734
 20
180.4039522678
 10
842.9406660914
 20
180.3983825478
 10
841.9767299812
 20
180.4568935115
 10
841.065974867
 20
180.5772366155
  0
LWPOLYLINE
  5
16C
330
1F
100
AcDbEntity
  8
0
  6
Continuous
 62
     7
100
AcDbPolyline
 90
        9
 70
   128
 43
0.0
 10
840.809198402
 20
416.1672876591
 10
841.7199535162
 20
416.0469445551
 10
842.6838896264
 20
415.9884335914
 10
843.6639632084
 20
415.9940033114
 10
844.6225105841
 20
416.0634396741
 10
845.5226953155
 20
416.1940742788
 10
846.3299238081
 20
416.380886911
 10
847.0131747236
 20
416.616698466
 10
847.5461911126
 20
416.892446838
  0
LINE
  5
16D
330
1F
100
AcDbEntity
  8
0
  6
Continuous
 62
     7
100
AcDbLine
 10
840.809198402
 20
416.1672876591
 30
0.0
 11
837.2552969963
 21
416.7780686085
 31
0.0
  0
LINE
  5
16E
330
1F
100
AcDbEntity
  8
0
  6
Continuous
 62
     7
100
AcDbLine
 10
1020.8245732726
 20
535.8688978625
 30
0.0
 11
837.2552969963
 21
416.7780686085
 31
0.0
  0
LINE
  5
16F
330
1F
100
AcDbEntity
  8
0
  6
Continuous
 62
     7
100
AcDbLine
 10
1024.3784746783
 20
535.2581169131
 30
0.0
 11
1020.8245732726
 21
535.8688978625
 31
0.0
  0
LWPOLYLINE
  5
170
330
1F
100
AcDbEntity
  8
0
  6
Continuous
 62
     7
100
AcDbPolyline
 90
        9
 70
   128
 43
0.0
 10
1026.526235482
 20
533.0060053606
 10
1026.8885338235
 20
533.3110936943
 10
1027.0661911955
 20
533.6337976162
 10
1027.0523803248
 20
533.9617157954
 10
1026.8476319553
 20
534.2822465202
 10
1026.4598144522
 20
534.5830719748
 10
1025.9038314245
 20
534.8526316054
 10
1025.2010489882
 20
535.0805663868
 10
1024.3784746783
 20
535.2581169131
  0
LINE
  5
171
330
1F
100
AcDbEntity
  8
0
  6
Continuous
 62
     7
100
AcDbLine
 10
1026.526235482
 20
533.0060053606
 30
0.0
 11
847.5461911126
 21
416.892446838
 31
0.0
  0
LINE
  5
172
330
1F
100
AcDbEntity
  8
0
  6
Continuous
 62
     7
100
AcDbLine
 10
837.2552969963
 20
416.7780686085
 30
0.0
 11
837.5120734613
 21
181.1880175649
 31
0.0
  0
LINE
  5
173
330
1F
100
AcDbEntity
  8
0
  6
Continuous
 62
     7
100
AcDbLine
 10
841.065974867
 20
180.5772366155
 30
0.0
 11
837.5120734613
 21
181.1880175649
 31
0.0
  0
LINE
  5
174
330
1F
100
AcDbEntity
  8
0
  6
Continuous
 62
     7
100
AcDbLine
 10
847.8029675776
 20
181.3023957944
 30
0.0
 11
1026.783011947
 21
297.415954317
 31
0.0
  0
ARC
  5
175
330
1F
100
AcDbEntity
  8
0
  6
Continuous
 62
     7
100
AcDbCircle
 10
1026.3958557887
 20
298.2833718847
 30
0.0
 40
0.9498963772865053
100
AcDbArc
 50
294.0527323614
 51
354.0484858576
  0
LINE
  5
176
330
1F
100
AcDbEntity
  8
0
  6
Continuous
 62
     7
100
AcDbLine
 10
250.1585581366
 20
668.3171755919
 30
0.0
 11
66.5892818603
 21
549.226346338
 31
0.0
  0
LINE
  5
177
330
1F
100
AcDbEntity
  8
0
  6
Continuous
 62
     7
100
AcDbLine
 10
250.4153346016
 20
432.7271245483
 30
0.0
 11
250.3918329488
 21
454.2896754518
 31
0.0
  0
LINE
  5
178
330
1F
100
AcDbEntity
  8
0
  6
Continuous
 62
     7
100
AcDbLine
 10
250.3696717564
 20
474.6223661032
 30
0.0
 11
250.2548438777
 21
579.975891414
 31
0.0
  0
LINE
  5
179
330
1F
100
AcDbEntity
  8
0
  6
Continuous
 62
     7
100
AcDbLine
 10
250.2326610882
 20
600.3283972767
 30
0.0
 11
250.1585581366
 21
668.3171755919
 31
0.0
  0
LINE
  5
17A
330
1F
100
AcDbEntity
  8
0
  6
Continuous
 62
     7
100
AcDbLine
 10
66.8460583253
 20
313.6362952943
 30
0.0
 11
125.4936411429
 21
351.683998119
 31
0.0
  0
LINE
  5
17B
330
1F
100
AcDbEntity
  8
0
  6
Continuous
 62
     7
100
AcDbLine
 10
146.0483212304
 20
365.0188760807
 30
0.0
 11
178.6811472936
 21
386.1894684347
 31
0.0
  0
LINE
  5
17C
330
1F
100
AcDbEntity
  8
0
  6
Continuous
 62
     7
100
AcDbLine
 10
198.7897185307
 20
399.2349326448
 30
0.0
 11
250.4153346016
 21
432.7271245483
 31
0.0
  0
LINE
  5
17D
330
1F
100
AcDbEntity
  8
0
  6
Continuous
 62
     7
100
AcDbLine
 10
66.5892818603
 20
549.226346338
 30
0.0
 11
66.8460583253
 21
313.6362952943
 31
0.0
  0
LWPOLYLINE
  5
17E
330
1F
100
AcDbEntity
  8
0
  6
Continuous
 62
     7
100
AcDbPolyline
 90
        9
 70
   128
 43
0.0
 10
246.6046567309
 20
668.9279565413
 10
245.6939016167
 20
669.0482996453
 10
244.7299655065
 20
669.1068106091
 10
243.7498919245
 20
669.101240889
 10
242.7913445488
 20
669.0318045264
 10
241.8911598174
 20
668.9011699217
 10
241.0839313248
 20
668.7143572895
 10
240.4006804093
 20
668.4785457345
 10
239.8676640203
 20
668.2027973624
  0
LINE
  5
17F
330
1F
100
AcDbEntity
  8
0
  6
Continuous
 62
     7
100
AcDbLine
 10
250.1585581366
 20
668.3171755919
 30
0.0
 11
246.6046567309
 21
668.9279565413
 31
0.0
  0
LINE
  5
180
330
1F
100
AcDbEntity
  8
0
  6
Continuous
 62
     7
100
AcDbLine
 10
66.5892818603
 20
549.226346338
 30
0.0
 11
63.0353804546
 21
549.8371272874
 31
0.0
  0
LWPOLYLINE
  5
181
330
1F
100
AcDbEntity
  8
0
  6
Continuous
 62
     7
100
AcDbPolyline
 90
        9
 70
   128
 43
0.0
 10
60.8876196509
 20
552.0892388398
 10
60.5253213094
 20
551.7841505061
 10
60.3476639374
 20
551.4614465843
 10
60.3614748082
 20
551.1335284051
 10
60.5662231776
 20
550.8129976802
 10
60.9540406807
 20
550.5121722257
 10
61.5100237084
 20
550.242612595
 10
62.2128061447
 20
550.0146778137
 10
63.0353804546
 20
549.8371272874
  0
LINE
  5
182
330
1F
100
AcDbEntity
  8
0
  6
Continuous
 62
     7
100
AcDbLine
 10
239.8676640203
 20
668.2027973624
 30
0.0
 11
60.8876196509
 21
552.0892388398
 31
0.0
  0
LINE
  5
183
330
1F
100
AcDbEntity
  8
0
  6
Continuous
 62
     7
100
AcDbLine
 10
66.8460583253
 20
313.6362952943
 30
0.0
 11
63.2921569196
 21
314.2470762438
 31
0.0
  0
LWPOLYLINE
  5
184
330
1F
100
AcDbEntity
  8
0
  6
Continuous
 62
     7
100
AcDbPolyline
 90
        7
 70
   128
 43
0.0
 10
63.2921569196
 20
314.2470762438
 10
62.4695826097
 20
314.42462677
 10
61.7668001734
 20
314.6525615514
 10
61.2108171457
 20
314.9221211821
 10
60.8229996426
 20
315.2229466366
 10
60.6182512732
 20
315.5434773615
 10
60.5867758429
 20
315.7302619669
  0
LWPOLYLINE
  5
185
330
1F
100
AcDbEntity
  8
0
  6
Continuous
 62
     7
100
AcDbPolyline
 90
        9
 70
   128
 43
0.0
 10
888.6560542405
 20
190.5611426843
 10
889.018352582
 20
190.866231018
 10
889.196009954
 20
191.1889349398
 10
889.1821990833
 20
191.516853119
 10
888.9774507138
 20
191.8373838439
 10
888.5896332107
 20
192.1382092984
 10
888.033650183
 20
192.4077689291
 10
887.3308677467
 20
192.6357037105
 10
886.5082934368
 20
192.8132542367
  0
LINE
  5
186
330
1F
100
AcDbEntity
  8
0
  6
Continuous
 62
     7
100
AcDbLine
 10
888.6560542405
 20
190.5611426843
 30
0.0
 11
709.6760098711
 21
74.4475841617
 31
0.0
  0
LWPOLYLINE
  5
187
330
1F
100
AcDbEntity
  8
0
  6
Continuous
 62
     7
100
AcDbPolyline
 90
        9
 70
   128
 43
0.0
 10
702.9390171605
 20
73.7224249828
 10
703.8497722747
 20
73.6020818788
 10
704.8137083849
 20
73.543570915
 10
705.7937819669
 20
73.5491406351
 10
706.7523293426
 20
73.6185769977
 10
707.652514074
 20
73.7492116024
 10
708.4597425666
 20
73.9360242347
 10
709.1429934821
 20
74.1718357897
 10
709.6760098711
 20
74.4475841617
  0
LINE
  5
188
330
1F
100
AcDbEntity
  8
0
  6
Continuous
 62
     7
100
AcDbLine
 10
702.9390171605
 20
73.7224249828
 30
0.0
 11
178.7385598164
 21
163.8126150218
 31
0.0
  0
LWPOLYLINE
  5
189
330
1F
100
AcDbEntity
  8
0
  6
Continuous
 62
     7
100
AcDbPolyline
 90
        9
 70
   128
 43
0.0
 10
176.5907990127
 20
166.0647265742
 10
176.2285006712
 20
165.7596382405
 10
176.0508432992
 20
165.4369343187
 10
176.06465417
 20
165.1090161395
 10
176.2694025394
 20
164.7884854146
 10
176.6572200425
 20
164.4876599601
 10
177.2132030702
 20
164.2181003294
 10
177.9159855065
 20
163.9901655481
 10
178.7385598164
 20
163.8126150218
  0
LINE
  5
18A
330
1F
100
AcDbEntity
  8
0
  6
Continuous
 62
     7
100
AcDbLine
 10
176.5907990127
 20
166.0647265742
 30
0.0
 11
276.8842029002
 21
231.1302150914
 31
0.0
  0
LINE
  5
18B
330
1F
100
AcDbEntity
  8
0
  6
Continuous
 62
     7
100
AcDbLine
 10
365.832102956
 20
282.2977563809
 30
0.0
 11
428.4943482004
 21
271.5284914876
 31
0.0
  0
LINE
  5
18C
330
1F
100
AcDbEntity
  8
0
  6
Continuous
 62
     7
100
AcDbLine
 10
455.840150316
 20
266.8287845819
 30
0.0
 11
530.8423536108
 21
253.9387486166
 31
0.0
  0
LINE
  5
18D
330
1F
100
AcDbEntity
  8
0
  6
Continuous
 62
     7
100
AcDbLine
 10
561.6806734142
 20
248.638810296
 30
0.0
 11
614.0020808529
 21
239.6467434765
 31
0.0
  0
LINE
  5
18E
330
1F
100
AcDbEntity
  8
0
  6
Continuous
 62
     7
100
AcDbLine
 10
646.7509114955
 20
234.018460756
 30
0.0
 11
837.4902208336
 21
201.2376030031
 31
0.0
  0
LINE
  5
18F
330
1F
100
AcDbEntity
  8
0
  6
Continuous
 62
     7
100
AcDbLine
 10
869.9362087038
 20
195.6613674767
 30
0.0
 11
886.5082934368
 21
192.8132542367
 31
0.0
  0
LWPOLYLINE
  5
190
330
1F
100
AcDbEntity
  8
0
  6
Continuous
 62
     7
100
AcDbPolyline
 90
        9
 70
   128
 43
0.0
 10
709.062986638
 20
636.8907768146
 10
708.529970249
 20
636.6150284426
 10
707.8467193335
 20
636.3792168876
 10
707.0394908409
 20
636.1924042554
 10
706.1393061095
 20
636.0617696506
 10
705.1807587338
 20
635.992333288
 10
704.2006851518
 20
635.986763568
 10
703.2367490416
 20
636.0452745317
 10
702.3259939274
 20
636.1656176357
  0
LINE
  5
191
330
1F
100
AcDbEntity
  8
0
  6
Continuous
 62
     7
100
AcDbLine
 10
702.3259939274
 20
636.1656176357
 30
0.0
 11
178.1255365833
 21
726.2558076747
 31
0.0
  0
LINE
  5
192
330
1F
100
AcDbEntity
  8
0
  6
Continuous
 62
     7
100
AcDbLine
 10
888.0430310074
 20
753.0043353372
 30
0.0
 11
709.062986638
 21
636.8907768146
 31
0.0
  0
LWPOLYLINE
  5
193
330
1F
100
AcDbEntity
  8
0
  6
Continuous
 62
     7
100
AcDbPolyline
 90
        7
 70
   128
 43
0.0
 10
178.1255365833
 20
726.2558076747
 10
177.3029622734
 20
726.433358201
 10
176.6001798371
 20
726.6612929824
 10
176.0441968095
 20
726.930852613
 10
175.6563793063
 20
727.2316780675
 10
175.4516309369
 20
727.5522087924
 10
175.4201555067
 20
727.7389933979
  0
ARC
  5
194
330
1F
100
AcDbEntity
  8
0
  6
Continuous
 62
     7
100
AcDbCircle
 10
887.6558748491
 20
753.8717529049
 30
0.0
 40
0.9498963772855772
100
AcDbArc
 50
294.0527323613
 51
354.0484858576
  0
LINE
  5
195
330
1F
100
AcDbEntity
  8
0
  6
Continuous
 62
     7
100
AcDbLine
 10
405.7421555987
 20
378.7237832684
 30
0.0
 11
405.7513995515
 21
370.2425414308
 31
0.0
  0
LINE
  5
196
330
1F
100
AcDbEntity
  8
0
  6
Continuous
 62
     7
100
AcDbLine
 10
405.7421555987
 20
378.7237832684
 30
0.0
 11
428.3817537199
 21
374.8328944518
 31
0.0
  0
LINE
  5
197
330
1F
100
AcDbEntity
  8
0
  6
Continuous
 62
     7
100
AcDbLine
 10
452.2761852165
 20
370.7263473394
 30
0.0
 11
478.5971344161
 21
366.2027738054
 31
0.0
  0
LINE
  5
198
330
1F
100
AcDbEntity
  8
0
  6
Continuous
 62
     7
100
AcDbLine
 10
478.5971344161
 20
366.2027738054
 30
0.0
 11
478.6063783688
 21
357.7215319678
 31
0.0
  0
LINE
  5
199
330
1F
100
AcDbEntity
  8
0
  6
Continuous
 62
     7
100
AcDbLine
 10
405.7513995515
 20
370.2425414308
 30
0.0
 11
428.3909976727
 21
366.3516526142
 31
0.0
  0
LINE
  5
19A
330
1F
100
AcDbEntity
  8
0
  6
Continuous
 62
     7
100
AcDbLine
 10
448.3643643306
 20
362.9189879289
 30
0.0
 11
478.6063783688
 21
357.7215319678
 31
0.0
  0
LINE
  5
19B
330
1F
100
AcDbEntity
  8
0
  6
Continuous
 62
     7
100
AcDbLine
 10
478.5971344161
 20
366.2027738054
 30
0.0
 11
526.7840694386
 21
397.4641164845
 31
0.0
  0
LINE
  5
19C
330
1F
100
AcDbEntity
  8
0
  6
Continuous
 62
     7
100
AcDbLine
 10
526.7840694386
 20
397.4641164845
 30
0.0
 11
526.7933133913
 21
388.9828746469
 31
0.0
  0
LINE
  5
19D
330
1F
100
AcDbEntity
  8
0
  6
Continuous
 62
     7
100
AcDbLine
 10
478.6063783688
 20
357.7215319678
 30
0.0
 11
526.7933133913
 21
388.9828746469
 31
0.0
  0
LINE
  5
19E
330
1F
100
AcDbEntity
  8
0
  6
Continuous
 62
     7
100
AcDbLine
 10
428.3615189313
 20
393.398127424
 30
0.0
 11
405.7421555987
 21
378.7237832684
 31
0.0
  0
LINE
  5
19F
330
1F
100
AcDbEntity
  8
0
  6
Continuous
 62
     7
100
AcDbLine
 10
526.7840694386
 20
397.4641164845
 30
0.0
 11
490.7926090382
 21
403.6496843562
 31
0.0
  0
LINE
  5
1A0
330
1F
100
AcDbEntity
  8
0
  6
Continuous
 62
     7
100
AcDbLine
 10
837.4256542296
 20
260.4768698384
 30
0.0
 11
646.6863448915
 21
293.2577275913
 31
0.0
  0
LINE
  5
1A1
330
1F
100
AcDbEntity
  8
0
  6
Continuous
 62
     7
100
AcDbLine
 10
646.667856986
 20
310.2202112664
 30
0.0
 11
837.4071663241
 21
277.4393535135
 31
0.0
  0
LINE
  5
1A2
330
1F
100
AcDbEntity
  8
0
  6
Continuous
 62
     7
100
AcDbLine
 10
842.5487212286
 20
420.2121851132
 30
0.0
 11
842.4855252841
 21
478.1938843834
 31
0.0
  0
LINE
  5
1A3
330
1F
100
AcDbEntity
  8
0
  6
Continuous
 62
     7
100
AcDbLine
 10
842.4855252841
 20
478.1938843834
 30
0.0
 11
644.3555219151
 21
512.2449223134
 31
0.0
  0
LINE
  5
1A4
330
1F
100
AcDbEntity
  8
0
  6
Continuous
 62
     7
100
AcDbLine
 10
644.3555219151
 20
512.2449223134
 30
0.0
 11
644.3370340096
 21
529.2074059886
 31
0.0
  0
LINE
  5
1A5
330
1F
100
AcDbEntity
  8
0
  6
Continuous
 62
     7
100
AcDbLine
 10
644.3370340096
 20
529.2074059886
 30
0.0
 11
858.4595937044
 21
492.4078537862
 31
0.0
  0
LINE
  5
1A6
330
1F
100
AcDbEntity
  8
0
  6
Continuous
 62
     7
100
AcDbLine
 10
858.4595937044
 20
492.4078537862
 30
0.0
 11
858.5269837495
 21
430.5781056651
 31
0.0
  0
LINE
  5
1A7
330
1F
100
AcDbEntity
  8
0
  6
Continuous
 62
     7
100
AcDbLine
 10
648.4673427258
 20
531.8869496468
 30
0.0
 11
644.3370340096
 21
529.2074059886
 31
0.0
  0
LINE
  5
1A8
330
1F
100
AcDbEntity
  8
0
  6
Continuous
 62
     7
100
AcDbLine
 10
648.4673427258
 20
531.8869496468
 30
0.0
 11
862.5899024206
 21
495.0873974444
 31
0.0
  0
LINE
  5
1A9
330
1F
100
AcDbEntity
  8
0
  6
Continuous
 62
     7
100
AcDbLine
 10
862.5899024206
 20
495.0873974444
 30
0.0
 11
858.4595937044
 21
492.4078537862
 31
0.0
  0
LINE
  5
1AA
330
1F
100
AcDbEntity
  8
0
  6
Continuous
 62
     7
100
AcDbLine
 10
862.5899024206
 20
495.0873974444
 30
0.0
 11
862.6572924657
 21
433.2576493233
 31
0.0
  0
LINE
  5
1AB
330
1F
100
AcDbEntity
  8
0
  6
Continuous
 62
     7
100
AcDbLine
 10
648.7056312854
 20
313.2593822783
 30
0.0
 11
646.6659867235
 21
311.9361599658
 31
0.0
  0
LINE
  5
1AC
330
1F
100
AcDbEntity
  8
0
  6
Continuous
 62
     7
100
AcDbLine
 10
648.7056312854
 20
313.2593822783
 30
0.0
 11
837.4034714401
 21
280.829375701
 31
0.0
  0
LINE
  5
1AD
330
1F
100
AcDbEntity
  8
0
  6
Continuous
 62
     7
100
AcDbLine
 10
178.4379968262
 20
609.2777916794
 30
0.0
 11
392.560556521
 21
572.478239477
 31
0.0
  0
LINE
  5
1AE
330
1F
100
AcDbEntity
  8
0
  6
Continuous
 62
     7
100
AcDbLine
 10
392.560556521
 20
572.478239477
 30
0.0
 11
392.5790444265
 21
555.5157558019
 31
0.0
  0
LINE
  5
1AF
330
1F
100
AcDbEntity
  8
0
  6
Continuous
 62
     7
100
AcDbLine
 10
392.5790444265
 20
555.5157558019
 30
0.0
 11
194.4490410574
 21
589.5667937319
 31
0.0
  0
LINE
  5
1B0
330
1F
100
AcDbEntity
  8
0
  6
Continuous
 62
     7
100
AcDbLine
 10
194.4490410574
 20
589.5667937319
 30
0.0
 11
194.5638689361
 21
484.2132684211
 31
0.0
  0
LINE
  5
1B1
330
1F
100
AcDbEntity
  8
0
  6
Continuous
 62
     7
100
AcDbLine
 10
194.5968984263
 20
453.9090141797
 30
0.0
 11
194.6688417115
 21
387.9017100386
 31
0.0
  0
LINE
  5
1B2
330
1F
100
AcDbEntity
  8
0
  6
Continuous
 62
     7
100
AcDbLine
 10
194.6688417115
 20
387.9017100386
 30
0.0
 11
329.9993844849
 21
364.6435191199
 31
0.0
  0
LINE
  5
1B3
330
1F
100
AcDbEntity
  8
0
  6
Continuous
 62
     7
100
AcDbLine
 10
391.1370488087
 20
354.1362719012
 30
0.0
 11
392.7988450805
 21
353.8506721085
 31
0.0
  0
LINE
  5
1B4
330
1F
100
AcDbEntity
  8
0
  6
Continuous
 62
     7
100
AcDbLine
 10
392.7988450805
 20
353.8506721085
 30
0.0
 11
392.817332986
 21
336.8881884334
 31
0.0
  0
LINE
  5
1B5
330
1F
100
AcDbEntity
  8
0
  6
Continuous
 62
     7
100
AcDbLine
 10
392.817332986
 20
336.8881884334
 30
0.0
 11
391.1555367142
 21
337.1737882261
 31
0.0
  0
LINE
  5
1B6
330
1F
100
AcDbEntity
  8
0
  6
Continuous
 62
     7
100
AcDbLine
 10
332.5069501085
 20
347.2532573276
 30
0.0
 11
178.6947732912
 21
373.6877406358
 31
0.0
  0
LINE
  5
1B7
330
1F
100
AcDbEntity
  8
0
  6
Continuous
 62
     7
100
AcDbLine
 10
178.6947732912
 20
373.6877406358
 30
0.0
 11
178.6163472305
 21
445.6429318542
 31
0.0
  0
LINE
  5
1B8
330
1F
100
AcDbEntity
  8
0
  6
Continuous
 62
     7
100
AcDbLine
 10
178.5713126104
 20
486.9617826935
 30
0.0
 11
178.4379968262
 21
609.2777916794
 31
0.0
  0
LINE
  5
1B9
330
1F
100
AcDbEntity
  8
0
  6
Continuous
 62
     7
100
AcDbLine
 10
182.5683055424
 20
611.9573353376
 30
0.0
 11
178.4379968262
 21
609.2777916794
 31
0.0
  0
LINE
  5
1BA
330
1F
100
AcDbEntity
  8
0
  6
Continuous
 62
     7
100
AcDbLine
 10
182.5683055424
 20
611.9573353376
 30
0.0
 11
396.6908652372
 21
575.1577831353
 31
0.0
  0
LINE
  5
1BB
330
1F
100
AcDbEntity
  8
0
  6
Continuous
 62
     7
100
AcDbLine
 10
396.6908652372
 20
575.1577831353
 30
0.0
 11
392.560556521
 21
572.478239477
 31
0.0
  0
LINE
  5
1BC
330
1F
100
AcDbEntity
  8
0
  6
Continuous
 62
     7
100
AcDbLine
 10
396.6908652372
 20
575.1577831353
 30
0.0
 11
396.7093531427
 21
558.1952994601
 31
0.0
  0
LINE
  5
1BD
330
1F
100
AcDbEntity
  8
0
  6
Continuous
 62
     7
100
AcDbLine
 10
396.7093531427
 20
558.1952994601
 30
0.0
 11
392.5790444265
 21
555.5157558019
 31
0.0
  0
LINE
  5
1BE
330
1F
100
AcDbEntity
  8
0
  6
Continuous
 62
     7
100
AcDbLine
 10
198.7991504277
 20
390.5812536968
 30
0.0
 11
194.6688417115
 21
387.9017100386
 31
0.0
  0
LINE
  5
1BF
330
1F
100
AcDbEntity
  8
0
  6
Continuous
 62
     7
100
AcDbLine
 10
396.9291537967
 20
356.5302157668
 30
0.0
 11
392.7988450805
 21
353.8506721085
 31
0.0
  0
LINE
  5
1C0
330
1F
100
AcDbEntity
  8
0
  6
Continuous
 62
     7
100
AcDbLine
 10
198.7991504277
 20
390.5812536968
 30
0.0
 11
329.1556591109
 21
368.1779107092
 31
0.0
  0
LINE
  5
1C1
330
1F
100
AcDbEntity
  8
0
  6
Continuous
 62
     7
100
AcDbLine
 10
391.1333539247
 20
357.5262940887
 30
0.0
 11
396.9291537967
 21
356.5302157668
 31
0.0
  0
LINE
  5
1C2
330
1F
100
AcDbEntity
  8
0
  6
Continuous
 62
     7
100
AcDbLine
 10
396.9476417022
 20
339.5677320916
 30
0.0
 11
392.817332986
 21
336.8881884334
 31
0.0
  0
LINE
  5
1C3
330
1F
100
AcDbEntity
  8
0
  6
Continuous
 62
     7
100
AcDbLine
 10
396.9291537967
 20
356.5302157668
 30
0.0
 11
396.9476417022
 21
339.5677320916
 31
0.0
  0
LINE
  5
1C4
330
1F
100
AcDbEntity
  8
0
  6
Continuous
 62
     7
100
AcDbLine
 10
198.5830446576
 20
588.8563152026
 30
0.0
 11
198.6978725364
 21
483.5027898918
 31
0.0
  0
LINE
  5
1C5
330
1F
100
AcDbEntity
  8
0
  6
Continuous
 62
     7
100
AcDbLine
 10
198.7286227023
 20
455.2897946833
 30
0.0
 11
198.7991504277
 21
390.5812536968
 31
0.0
  0
LINE
  5
1C6
330
1F
100
AcDbEntity
  8
0
  6
Continuous
 62
     7
100
AcDbLine
 10
334.757422416
 20
504.4565022688
 30
0.0
 11
342.7537005789
 21
503.0822451326
 31
0.0
  0
LINE
  5
1C7
330
1F
100
AcDbEntity
  8
0
  6
Continuous
 62
     7
100
AcDbLine
 10
334.757422416
 20
504.4565022688
 30
0.0
 11
512.5901588086
 21
619.8257431086
 31
0.0
  0
LINE
  5
1C8
330
1F
100
AcDbEntity
  8
0
  6
Continuous
 62
     7
100
AcDbLine
 10
512.5901588086
 20
619.8257431086
 30
0.0
 11
520.5864369715
 21
618.4514859724
 31
0.0
  0
LINE
  5
1C9
330
1F
100
AcDbEntity
  8
0
  6
Continuous
 62
     7
100
AcDbLine
 10
342.7537005789
 20
503.0822451326
 30
0.0
 11
520.5864369715
 21
618.4514859724
 31
0.0
  0
LWPOLYLINE
  5
1CA
330
1F
100
AcDbEntity
  8
0
  6
Continuous
 62
     7
100
AcDbPolyline
 90
       12
 70
   128
 43
0.0
 10
395.7681560678
 20
318.6932911746
 10
395.1149357266
 20
318.3655000531
 10
394.4748039787
 20
318.2362191756
 10
393.8607920605
 20
318.3080803281
 10
393.2853994839
 20
318.5796206248
 10
392.7603395826
 20
319.0453122881
 10
392.2963010619
 20
319.6956751789
 10
391.9027304081
 20
320.5174697842
 10
391.5876395845
 20
321.4939667356
 10
391.3574429318
 20
322.6052873712
 10
391.21682659
 20
323.8288084077
 10
391.1686531023
 20
325.139622485
  0
LINE
  5
1CB
330
1F
100
AcDbEntity
  8
0
  6
Continuous
 62
     7
100
AcDbLine
 10
460.6768982223
 20
360.8029300304
 30
0.0
 11
443.8190726369
 21
349.8663916886
 31
0.0
  0
LINE
  5
1CC
330
1F
100
AcDbEntity
  8
0
  6
Continuous
 62
     7
100
AcDbLine
 10
428.4198541202
 20
339.8761267584
 30
0.0
 11
395.7681560678
 21
318.6932911746
 31
0.0
  0
ARC
  5
1CD
330
1F
100
AcDbEntity
  8
0
  6
Continuous
 62
     7
100
AcDbCircle
 10
405.6100776218
 20
441.6843535525
 30
0.0
 40
106.9027233804173
100
AcDbArc
 50
353.5557536527
 51
359.9455934041
  0
ARC
  5
1CE
330
1F
100
AcDbEntity
  8
0
  6
Continuous
 62
     7
100
AcDbCircle
 10
416.9605695237
 20
436.7596907362
 30
0.0
 40
94.74644871179348
100
AcDbArc
 50
337.9841017582
 51
341.9537868565
  0
LINE
  5
1CF
330
1F
100
AcDbEntity
  8
0
  6
Continuous
 62
     7
100
AcDbLine
 10
512.3956627375
 20
549.0119047721
 30
0.0
 11
512.5127528056
 21
441.5828414962
 31
0.0
  0
LWPOLYLINE
  5
1D0
330
1F
100
AcDbEntity
  8
0
  6
Continuous
 62
     7
100
AcDbPolyline
 90
       27
 70
   128
 43
0.0
 10
489.39814791
 20
581.243561324
 10
490.7836962393
 20
582.0564127352
 10
492.1643762428
 20
582.6943696303
 10
493.5351499691
 20
583.1551041737
 10
494.8910156133
 20
583.4369351951
 10
496.227025769
 20
583.5388343236
 10
497.5383054797
 20
583.4604297404
 10
498.8200700282
 20
583.2020075353
 10
500.0676423945
 20
582.764510663
 10
501.2764703224
 20
582.1495355019
 10
502.4421429299
 20
581.3593260299
 10
503.560406804
 20
580.3967656355
 10
504.6271815212
 20
579.2653665974
 10
505.6385745361
 20
577.9692572678
 10
506.5908953855
 20
576.5131670091
 10
507.4806691536
 20
574.9024089368
 10
508.3046491526
 20
573.1428605325
 10
509.0598287689
 20
571.2409421974
 10
509.7434524338
 20
569.2035938253
 10
510.3530256788
 20
567.0382494794
 10
510.8863242372
 20
564.7528102665
 10
511.3414021604
 20
562.3556155063
 10
511.7165989184
 20
559.8554123027
 10
512.0105454589
 20
557.2613236258
 10
512.2221692029
 20
554.5828150241
 10
512.3506979583
 20
551.8296600849
 10
512.3956627375
 20
549.0119047721
  0
LINE
  5
1D1
330
1F
100
AcDbEntity
  8
0
  6
Continuous
 62
     7
100
AcDbLine
 10
395.5483554138
 20
520.358374868
 30
0.0
 11
489.39814791
 21
581.243561324
 31
0.0
  0
LWPOLYLINE
  5
1D2
330
1F
100
AcDbEntity
  8
0
  6
Continuous
 62
     7
100
AcDbPolyline
 90
       12
 70
   128
 43
0.0
 10
390.9693945655
 20
507.9575020949
 10
391.0146446051
 20
509.3289248186
 10
391.1523970118
 20
510.7330379768
 10
391.3798475438
 20
512.1412578748
 10
391.6923659642
 20
513.5249172165
 10
392.0835902991
 20
514.8558486877
 10
392.5455563494
 20
516.1069583619
 10
393.0688598184
 20
517.2527772538
 10
393.6428477566
 20
518.2699797953
 10
394.2558354247
 20
519.1378586759
 10
394.8953441617
 20
519.8387463843
 10
395.5483554138
 20
520.358374868
  0
LINE
  5
1D3
330
1F
100
AcDbEntity
  8
0
  6
Continuous
 62
     7
100
AcDbLine
 10
391.1686531023
 20
325.139622485
 30
0.0
 11
390.9693945655
 21
507.9575020949
 31
0.0
  0
LINE
  5
1D4
330
1F
100
AcDbEntity
  8
0
  6
Continuous
 62
     7
100
AcDbLine
 10
520.8432134365
 20
382.8614349287
 30
0.0
 11
440.7734499875
 21
330.9160619298
 31
0.0
  0
LINE
  5
1D5
330
1F
100
AcDbEntity
  8
0
  6
Continuous
 62
     7
100
AcDbLine
 10
428.4383420256
 20
322.9136430833
 30
0.0
 11
343.8005256257
 21
268.0047392309
 31
0.0
  0
LINE
  5
1D6
330
1F
100
AcDbEntity
  8
0
  6
Continuous
 62
     7
100
AcDbLine
 10
342.8020340307
 20
458.7367464583
 30
0.0
 11
342.7537005789
 21
503.0822451326
 31
0.0
  0
LINE
  5
1D7
330
1F
100
AcDbEntity
  8
0
  6
Continuous
 62
     7
100
AcDbLine
 10
520.5864369715
 20
618.4514859724
 30
0.0
 11
520.7938557073
 21
428.1466986711
 31
0.0
  0
LINE
  5
1D8
330
1F
100
AcDbEntity
  8
0
  6
Continuous
 62
     7
100
AcDbLine
 10
520.8158510564
 20
407.9661676654
 30
0.0
 11
520.8261815314
 21
398.4880515961
 31
0.0
  0
LINE
  5
1D9
330
1F
100
AcDbEntity
  8
0
  6
Continuous
 62
     7
100
AcDbLine
 10
520.840750517
 20
385.1211410101
 30
0.0
 11
520.8432134365
 21
382.8614349287
 31
0.0
  0
LINE
  5
1DA
330
1F
100
AcDbEntity
  8
0
  6
Continuous
 62
     7
100
AcDbLine
 10
334.8057558678
 20
460.1110035945
 30
0.0
 11
334.757422416
 21
504.4565022688
 31
0.0
  0
LINE
  5
1DB
330
1F
100
AcDbEntity
  8
0
  6
Continuous
 62
     7
100
AcDbLine
 10
452.6806200595
 20
362.1771871666
 30
0.0
 11
446.428383601
 21
358.1210398655
 31
0.0
  0
LINE
  5
1DC
330
1F
100
AcDbEntity
  8
0
  6
Continuous
 62
     7
100
AcDbLine
 10
428.4127072177
 20
346.4333441706
 30
0.0
 11
391.3892264926
 21
322.4143083555
 31
0.0
  0
LWPOLYLINE
  5
1DD
330
1F
100
AcDbEntity
  8
0
  6
Continuous
 62
     7
100
AcDbPolyline
 90
       18
 70
   128
 43
0.0
 10
493.7701466269
 20
583.2165024743
 10
494.445864767
 20
582.7335831661
 10
495.5641286411
 20
581.7710227717
 10
496.6309033583
 20
580.6396237336
 10
497.6422963733
 20
579.3435144039
 10
498.5946172226
 20
577.8874241453
 10
499.4843909907
 20
576.276666073
 10
500.3083709898
 20
574.5171176687
 10
501.063550606
 20
572.6151993336
 10
501.7471742709
 20
570.5778509615
 10
502.3567475159
 20
568.4125066156
 10
502.8900460743
 20
566.1270674027
 10
503.3451239975
 20
563.7298726425
 10
503.7203207555
 20
561.2296694388
 10
504.014267296
 20
558.635580762
 10
504.22589104
 20
555.9570721603
 10
504.3544197954
 20
553.2039172211
 10
504.3993845747
 20
550.3861619083
  0
ARC
  5
1DE
330
1F
100
AcDbEntity
  8
0
  6
Continuous
 62
     7
100
AcDbCircle
 10
397.6137994587
 20
443.0586106887
 30
0.0
 40
106.9027233806455
100
AcDbArc
 50
353.5557536527
 51
359.9455934041
  0
ARC
  5
1DF
330
1F
100
AcDbEntity
  8
0
  6
Continuous
 62
     7
100
AcDbCircle
 10
411.8107834197
 20
437.0348246146
 30
0.0
 40
91.69551423571407
100
AcDbArc
 50
337.9540641009
 51
340.0627674894
  0
LINE
  5
1E0
330
1F
100
AcDbEntity
  8
0
  6
Continuous
 62
     7
100
AcDbLine
 10
504.3993845747
 20
550.3861619083
 30
0.0
 11
504.5164746427
 21
442.9570986324
 31
0.0
  0
LWPOLYLINE
  5
1E1
330
1F
100
AcDbEntity
  8
0
  6
Continuous
 62
     7
100
AcDbPolyline
 90
       12
 70
   128
 43
0.0
 10
591.616726526
 20
285.0343450897
 10
590.9635061848
 20
284.7065539681
 10
590.3233744369
 20
284.5772730907
 10
589.7093625186
 20
284.6491342432
 10
589.1339699421
 20
284.9206745398
 10
588.6089100407
 20
285.3863662032
 10
588.1448715201
 20
286.036729094
 10
587.7513008662
 20
286.8585236993
 10
587.4362100427
 20
287.8350206507
 10
587.20601339
 20
288.9463412863
 10
587.0653970482
 20
290.1698623227
 10
587.0172235605
 20
291.4806764001
  0
LINE
  5
1E2
330
1F
100
AcDbEntity
  8
0
  6
Continuous
 62
     7
100
AcDbLine
 10
685.4665190222
 20
345.9195315458
 30
0.0
 11
646.6563896304
 21
320.7414048653
 31
0.0
  0
LINE
  5
1E3
330
1F
100
AcDbEntity
  8
0
  6
Continuous
 62
     7
100
AcDbLine
 10
626.2232899297
 20
307.4854023526
 30
0.0
 11
591.616726526
 21
285.0343450897
 31
0.0
  0
LWPOLYLINE
  5
1E4
330
1F
100
AcDbEntity
  8
0
  6
Continuous
 62
     7
100
AcDbPolyline
 90
       27
 70
   128
 43
0.0
 10
708.3613232638
 20
407.9238954112
 10
708.3225599953
 20
405.0518214082
 10
708.2002101221
 20
402.1359086017
 10
707.9947200857
 20
399.1867968412
 10
707.7068396967
 20
396.2152471158
 10
707.3376193996
 20
393.2321022881
 10
706.8884064391
 20
390.2482475302
 10
706.3608399447
 20
387.2745706043
 10
705.7568449493
 20
384.3219221353
 10
705.0786253651
 20
381.401076017
 10
704.3286559419
 20
378.5226901003
 10
703.5096732366
 20
375.6972673032
 10
702.6246656285
 20
372.935117287
 10
701.6768624142
 20
370.2463188377
 10
700.669722025
 20
367.6406830892
 10
699.6069194068
 20
365.1277177237
 10
698.4923326112
 20
362.7165922795
 10
697.3300286446
 20
360.4161046916
 10
696.124248628
 20
358.2346491899
 10
694.8793923219
 20
356.1801856689
 10
693.6000020721
 20
354.2602106432
 10
692.2907462348
 20
352.4817298935
 10
690.9564021426
 20
350.8512329031
 10
689.6018386723
 20
349.3746691788
 10
688.2319984792
 20
348.0574265413
 10
686.8518799616
 20
346.9043114664
 10
685.4665190222
 20
345.9195315458
  0
LINE
  5
1E5
330
1F
100
AcDbEntity
  8
0
  6
Continuous
 62
     7
100
AcDbLine
 10
708.2595910863
 20
501.2622349555
 30
0.0
 11
708.3613232638
 21
407.9238954112
 31
0.0
  0
LWPOLYLINE
  5
1E6
330
1F
100
AcDbEntity
  8
0
  6
Continuous
 62
     7
100
AcDbPolyline
 90
       25
 70
   128
 43
0.0
 10
685.2467183682
 20
547.5846152391
 10
686.6322666974
 20
548.3974666503
 10
688.012946701
 20
549.0354235453
 10
689.3837204272
 20
549.4961580887
 10
690.7395860715
 20
549.7779891101
 10
692.0755962271
 20
549.8798882387
 10
693.3868759379
 20
549.8014836555
 10
694.6686404863
 20
549.5430614504
 10
695.9162128527
 20
549.105564578
 10
697.1250407806
 20
548.490589417
 10
698.290713388
 20
547.7003799449
 10
699.4089772622
 20
546.7378195506
 10
700.4757519793
 20
545.6064205124
 10
701.4871449943
 20
544.3103111828
 10
702.4394658436
 20
542.8542209242
 10
703.3292396118
 20
541.2434628519
 10
704.1532196108
 20
539.4839144476
 10
704.908399227
 20
537.5819961125
 10
705.592022892
 20
535.5446477403
 10
706.201596137
 20
533.3793033945
 10
706.7348946953
 20
531.0938641815
 10
707.1899726185
 20
528.6966694214
 10
707.5651693765
 20
526.1964662177
 10
707.859115917
 20
523.6023775409
 10
708.0219827728
 20
521.6517643005
  0
LINE
  5
1E7
330
1F
100
AcDbEntity
  8
0
  6
Continuous
 62
     7
100
AcDbLine
 10
591.3969258719
 20
486.699428783
 30
0.0
 11
644.345924822
 21
521.0501672129
 31
0.0
  0
LINE
  5
1E8
330
1F
100
AcDbEntity
  8
0
  6
Continuous
 62
     7
100
AcDbLine
 10
658.4147863123
 20
530.1773611286
 30
0.0
 11
685.2467183682
 21
547.5846152391
 31
0.0
  0
LWPOLYLINE
  5
1E9
330
1F
100
AcDbEntity
  8
0
  6
Continuous
 62
     7
100
AcDbPolyline
 90
       12
 70
   128
 43
0.0
 10
586.8179650236
 20
474.2985560099
 10
586.8632150633
 20
475.6699787336
 10
587.00096747
 20
477.0740918919
 10
587.228418002
 20
478.4823117899
 10
587.5409364223
 20
479.8659711316
 10
587.9321607573
 20
481.1969026028
 10
588.3941268076
 20
482.4480122769
 10
588.9174302766
 20
483.5938311689
 10
589.4914182147
 20
484.6110337104
 10
590.1044058829
 20
485.4789125909
 10
590.7439146199
 20
486.1798002993
 10
591.3969258719
 20
486.699428783
  0
LINE
  5
1EA
330
1F
100
AcDbEntity
  8
0
  6
Continuous
 62
     7
100
AcDbLine
 10
587.0172235605
 20
291.4806764001
 30
0.0
 11
586.9215447023
 21
379.2651510011
 31
0.0
  0
LINE
  5
1EB
330
1F
100
AcDbEntity
  8
0
  6
Continuous
 62
     7
100
AcDbLine
 10
586.8806464916
 20
416.7888841988
 30
0.0
 11
586.8179650236
 21
474.2985560099
 31
0.0
  0
LINE
  5
1EC
330
1F
100
AcDbEntity
  8
0
  6
Continuous
 62
     7
100
AcDbLine
 10
716.6917838947
 20
349.2024888438
 30
0.0
 11
658.6530748718
 21
311.5497937601
 31
0.0
  0
LINE
  5
1ED
330
1F
100
AcDbEntity
  8
0
  6
Continuous
 62
     7
100
AcDbLine
 10
627.6965063828
 20
291.4666758931
 30
0.0
 11
538.859047502
 21
233.833248004
 31
0.0
  0
LINE
  5
1EE
330
1F
100
AcDbEntity
  8
0
  6
Continuous
 62
     7
100
AcDbLine
 10
538.859047502
 20
233.833248004
 30
0.0
 11
538.6719898408
 21
405.4569361727
 31
0.0
  0
LINE
  5
1EF
330
1F
100
AcDbEntity
  8
0
  6
Continuous
 62
     7
100
AcDbLine
 10
538.6506044889
 20
425.0778003734
 30
0.0
 11
538.602271037
 21
469.4232990476
 31
0.0
  0
LINE
  5
1F0
330
1F
100
AcDbEntity
  8
0
  6
Continuous
 62
     7
100
AcDbLine
 10
538.602271037
 20
469.4232990476
 30
0.0
 11
716.4350074297
 21
584.7925398874
 31
0.0
  0
LINE
  5
1F1
330
1F
100
AcDbEntity
  8
0
  6
Continuous
 62
     7
100
AcDbLine
 10
716.4350074297
 20
584.7925398874
 30
0.0
 11
716.5054154973
 21
520.1937837596
 31
0.0
  0
LINE
  5
1F2
330
1F
100
AcDbEntity
  8
0
  6
Continuous
 62
     7
100
AcDbLine
 10
716.5275982868
 20
499.841277897
 30
0.0
 11
716.6917838947
 21
349.2024888438
 31
0.0
  0
LINE
  5
1F3
330
1F
100
AcDbEntity
  8
0
  6
Continuous
 62
     7
100
AcDbLine
 10
530.6059928741
 20
470.7975561838
 30
0.0
 11
538.602271037
 21
469.4232990476
 31
0.0
  0
LINE
  5
1F4
330
1F
100
AcDbEntity
  8
0
  6
Continuous
 62
     7
100
AcDbLine
 10
530.6059928741
 20
470.7975561838
 30
0.0
 11
708.4387292668
 21
586.1667970236
 31
0.0
  0
LINE
  5
1F5
330
1F
100
AcDbEntity
  8
0
  6
Continuous
 62
     7
100
AcDbLine
 10
708.4387292668
 20
586.1667970236
 30
0.0
 11
716.4350074297
 21
584.7925398874
 31
0.0
  0
LINE
  5
1F6
330
1F
100
AcDbEntity
  8
0
  6
Continuous
 62
     7
100
AcDbLine
 10
530.8627693391
 20
235.2075051402
 30
0.0
 11
538.859047502
 21
233.833248004
 31
0.0
  0
LINE
  5
1F7
330
1F
100
AcDbEntity
  8
0
  6
Continuous
 62
     7
100
AcDbLine
 10
530.8627693391
 20
235.2075051402
 30
0.0
 11
530.6755038741
 21
407.0218513918
 31
0.0
  0
LINE
  5
1F8
330
1F
100
AcDbEntity
  8
0
  6
Continuous
 62
     7
100
AcDbLine
 10
530.654326326
 20
426.4520575096
 30
0.0
 11
530.6059928741
 21
470.7975561838
 31
0.0
  0
LINE
  5
1F9
330
1F
100
AcDbEntity
  8
0
  6
Continuous
 62
     7
100
AcDbLine
 10
677.4702408593
 20
347.2937886819
 30
0.0
 11
646.6492427279
 21
327.2986222774
 31
0.0
  0
LINE
  5
1FA
330
1F
100
AcDbEntity
  8
0
  6
Continuous
 62
     7
100
AcDbLine
 10
625.1102530857
 20
313.3251720911
 30
0.0
 11
587.2377969507
 21
288.7553622706
 31
0.0
  0
LWPOLYLINE
  5
1FB
330
1F
100
AcDbEntity
  8
0
  6
Continuous
 62
     7
100
AcDbPolyline
 90
       16
 70
   128
 43
0.0
 10
689.6187170851
 20
549.5575563894
 10
690.2944352252
 20
549.0746370811
 10
691.4126990993
 20
548.1120766868
 10
692.4794738165
 20
546.9806776486
 10
693.4908668314
 20
545.684568319
 10
694.4431876807
 20
544.2284780603
 10
695.3329614489
 20
542.6177199881
 10
696.1569414479
 20
540.8581715838
 10
696.9121210642
 20
538.9562532487
 10
697.5957447291
 20
536.9189048765
 10
698.2053179741
 20
534.7535605307
 10
698.7386165325
 20
532.4681213177
 10
699.1936944557
 20
530.0709265576
 10
699.5688912136
 20
527.5707233539
 10
699.8628377542
 20
524.9766346771
 10
700.02570461
 20
523.0260214367
  0
LWPOLYLINE
  5
1FC
330
1F
100
AcDbEntity
  8
0
  6
Continuous
 62
     7
100
AcDbPolyline
 90
       27
 70
   128
 43
0.0
 10
700.3650451009
 20
409.2981525474
 10
700.3262818324
 20
406.4260785444
 10
700.2039319593
 20
403.5101657379
 10
699.9984419228
 20
400.5610539774
 10
699.7105615338
 20
397.589504252
 10
699.3413412367
 20
394.6063594243
 10
698.8921282763
 20
391.6225046664
 10
698.3645617819
 20
388.6488277405
 10
697.7605667865
 20
385.6961792715
 10
697.0823472023
 20
382.7753331532
 10
696.332377779
 20
379.8969472365
 10
695.5133950737
 20
377.0715244393
 10
694.6283874656
 20
374.3093744232
 10
693.6805842513
 20
371.6205759739
 10
692.6734438621
 20
369.0149402254
 10
691.6106412439
 20
366.5019748599
 10
690.4960544483
 20
364.0908494156
 10
689.3337504817
 20
361.7903618278
 10
688.1279704651
 20
359.6089063261
 10
686.8831141591
 20
357.5544428051
 10
685.6037239092
 20
355.6344677794
 10
684.2944680719
 20
353.8559870297
 10
682.9601239797
 20
352.2254900393
 10
681.6055605094
 20
350.7489263149
 10
680.2357203163
 20
349.4316836775
 10
678.8556017987
 20
348.2785686026
 10
677.4702408593
 20
347.2937886819
  0
LINE
  5
1FD
330
1F
100
AcDbEntity
  8
0
  6
Continuous
 62
     7
100
AcDbLine
 10
700.2633129234
 20
502.6364920917
 30
0.0
 11
700.3650451009
 21
409.2981525474
 31
0.0
  0
LINE
  5
1FE
330
1F
100
AcDbEntity
  8
0
  6
Continuous
 62
     7
100
AcDbLine
 10
339.4624806566
 20
455.9213019285
 30
0.0
 11
343.5927893728
 21
458.6008455867
 31
0.0
  0
LINE
  5
1FF
330
1F
100
AcDbEntity
  8
0
  6
Continuous
 62
     7
100
AcDbLine
 10
339.4624806566
 20
455.9213019285
 30
0.0
 11
125.3399209618
 21
492.7208541309
 31
0.0
  0
LINE
  5
200
330
1F
100
AcDbEntity
  8
0
  6
Continuous
 62
     7
100
AcDbLine
 10
125.3399209618
 20
492.7208541309
 30
0.0
 11
129.470229678
 21
495.4003977891
 31
0.0
  0
LINE
  5
201
330
1F
100
AcDbEntity
  8
0
  6
Continuous
 62
     7
100
AcDbLine
 10
343.5927893728
 20
458.6008455867
 30
0.0
 11
129.470229678
 21
495.4003977891
 31
0.0
  0
LINE
  5
202
330
1F
100
AcDbEntity
  8
0
  6
Continuous
 62
     7
100
AcDbLine
 10
339.7192571216
 20
220.3312508849
 30
0.0
 11
343.8495658378
 21
223.0107945431
 31
0.0
  0
LINE
  5
203
330
1F
100
AcDbEntity
  8
0
  6
Continuous
 62
     7
100
AcDbLine
 10
339.7192571216
 20
220.3312508849
 30
0.0
 11
339.4624806566
 21
455.9213019285
 31
0.0
  0
LINE
  5
204
330
1F
100
AcDbEntity
  8
0
  6
Continuous
 62
     7
100
AcDbLine
 10
343.8495658378
 20
223.0107945431
 30
0.0
 11
343.5927893728
 21
458.6008455867
 31
0.0
  0
LINE
  5
205
330
1F
100
AcDbEntity
  8
0
  6
Continuous
 62
     7
100
AcDbLine
 10
125.5966974268
 20
257.1308030873
 30
0.0
 11
339.7192571216
 21
220.3312508849
 31
0.0
  0
LINE
  5
206
330
1F
100
AcDbEntity
  8
0
  6
Continuous
 62
     7
100
AcDbLine
 10
125.3399209618
 20
492.7208541309
 30
0.0
 11
125.5966974268
 21
257.1308030873
 31
0.0
  0
LWPOLYLINE
  5
207
330
1F
100
AcDbEntity
  8
0
  6
Continuous
 62
     7
100
AcDbPolyline
 90
      162
 70
   128
 43
0.0
 10
339.3687500512
 20
338.1644502161
 10
339.2858065694
 20
342.4337125083
 10
339.0463794841
 20
346.7233887263
 10
338.6508334034
 20
351.0269464008
 10
338.0997706787
 20
355.3378319234
 10
337.3940304877
 20
359.6494805264
 10
336.5346875562
 20
363.9553262803
 10
335.5230505217
 20
368.2488120923
 10
334.3606599406
 20
372.5233996917
 10
333.0492859421
 20
376.7725795866
 10
331.5909255323
 20
380.9898809769
 10
329.9877995537
 20
385.1688816085
 10
328.2423493027
 20
389.3032175524
 10
326.3572328121
 20
393.3865928972
 10
324.3353208033
 20
397.4127893358
 10
322.1796923149
 20
401.3756756349
 10
319.8936300134
 20
405.2692169726
 10
317.4806151946
 20
409.0874841276
 10
314.9443224821
 20
412.8246625089
 10
312.2886142313
 20
416.4750610102
 10
309.5175346479
 20
420.0331206767
 10
306.6353036289
 20
423.4934231706
 10
303.6463103367
 20
426.8506990218
 10
300.5551065151
 20
430.099835653
 10
297.3663995576
 20
433.2358851652
 10
294.0850453389
 20
436.2540718721
 10
290.7160408203
 20
439.1497995733
 10
287.2645164399
 20
441.9186585532
 10
283.7357283
 20
444.5564322962
 10
280.1350501628
 20
447.059103908
 10
276.4679652672
 20
449.4228622327
 10
272.7400579787
 20
451.6441076561
 10
268.9570052851
 20
453.7194575879
 10
265.1245681516
 20
455.6457516126
 10
261.2485827478
 20
457.4200563019
 10
257.3349515602
 20
459.0396696826
 10
253.3896344034
 20
460.5021253506
 10
249.4186393448
 20
461.8051962272
 10
245.4280135548
 20
462.9468979504
 10
241.4238340982
 20
463.9254918968
 10
237.4121986798
 20
464.7394878292
 10
233.3992163586
 20
465.3876461661
 10
229.3909982448
 20
465.8689798692
 10
225.3936481934
 20
466.1827559468
 10
221.4132535091
 20
466.3284965696
 10
217.4558756765
 20
466.3059797987
 10
213.5275411293
 20
466.1152399234
 10
209.6342320729
 20
465.7565674091
 10
205.781877375
 20
465.2305084548
 10
201.9763435361
 20
464.5378641616
 10
198.2234257567
 20
463.6796893125
 10
194.5288391114
 20
462.6572907662
 10
190.8982098463
 20
461.4722254671
 10
187.3370668109
 20
460.1262980741
 10
183.8508330386
 20
458.6215582126
 10
180.4448174884
 20
456.9602973533
 10
177.1242069602
 20
455.1450453223
 10
173.894058196
 20
453.1785664492
 10
170.7592901795
 20
451.0638553568
 10
167.7246766455
 20
448.8041324014
 10
164.7948388097
 20
446.4028387682
 10
161.9742383319
 20
443.8636312314
 10
159.2671705214
 20
441.1903765851
 10
156.6777577959
 20
438.3871457554
 10
154.2099434038
 20
435.4582076002
 10
151.8674854194
 20
432.4080224093
 10
149.6539510198
 20
429.2412351117
 10
147.5727110528
 20
425.9626682019
 10
145.6269349036
 20
422.5773143966
 10
143.8195856682
 20
419.0903290312
 10
142.1534156414
 20
415.5070222093
 10
140.6309621254
 20
411.8328507161
 10
139.2545435657
 20
408.0734097086
 10
138.0262560208
 20
404.2344241955
 10
136.9479699699
 20
400.3217403184
 10
136.0213274648
 20
396.3413164494
 10
135.2477396293
 20
392.2992141176
 10
134.62838451
 20
388.201588778
 10
134.1642052826
 20
384.0546804382
 10
133.8559088155
 20
379.8648041554
 10
133.7039645933
 20
375.6383404201
 10
133.7086040021
 20
371.3817254395
 10
133.8698199767
 20
367.101441336
 10
134.1873670119
 20
362.8040062762
 10
134.6607615359
 20
358.495964545
 10
135.2892826469
 20
354.1838765792
 10
136.071973211
 20
349.8743089776
 10
137.0076413194
 20
345.5738245006
 10
138.0948621041
 20
341.2889720769
 10
139.3319799071
 20
337.0262768298
 10
140.7171108021
 20
332.7922301411
 10
142.2481454632
 20
328.5932797655
 10
143.9227523771
 20
324.4358200117
 10
145.7383813938
 20
320.3261820053
 10
147.6922676097
 20
316.2706240469
 10
149.7814355784
 20
312.2753220824
 10
152.0027038418
 20
308.3463602977
 10
154.3526897746
 20
304.4897218534
 10
156.827814736
 20
300.7112797738
 10
159.4243095188
 20
297.0167880029
 10
162.1382200899
 20
293.4118726422
 10
164.965413611
 20
289.9020233833
 10
167.9015847329
 20
286.4925851474
 10
170.9422621511
 20
283.1887499468
 10
174.0828154157
 20
279.9955489775
 10
177.3184619819
 20
276.9178449578
 10
180.6442744938
 20
273.9603247232
 10
184.0551882875
 20
271.1274920892
 10
187.5460091039
 20
268.4236609927
 10
191.1114209989
 20
265.8529489223
 10
194.7459944381
 20
263.4192706486
 10
198.4441945657
 20
261.1263322622
 10
202.2003896331
 20
258.9776255299
 10
206.0088595746
 20
256.9764225776
 10
209.8638047188
 20
255.1257709075
 10
213.75935462
 20
253.4284887566
 10
217.6895769985
 20
251.8871608058
 10
221.6484867737
 20
250.5041342433
 10
225.6300551792
 20
249.2815151903
 10
229.628218943
 20
248.2211654941
 10
233.6368895211
 20
247.3246998923
 10
237.6499623696
 20
246.5934835542
 10
241.6613262405
 20
246.0286300016
 10
245.6648724882
 20
245.6309994133
 10
249.6545043723
 20
245.4011973151
 10
253.6241463414
 20
245.3395736577
 10
257.5677532856
 20
245.4462222838
 10
261.4793197421
 20
245.720980785
 10
265.3528890403
 20
246.1634307496
 10
269.1825623732
 20
246.7728983992
 10
272.96250778
 20
247.5484556152
 10
276.6869690274
 20
248.4889213517
 10
280.3502743752
 20
249.5928634346
 10
283.9468452136
 20
250.8586007423
 10
287.4712045586
 20
252.2842057655
 10
290.9179853921
 20
253.867507543
 10
294.2819388356
 20
255.6060949674
 10
297.5579421427
 20
257.4973204568
 10
300.741006501
 20
259.5383039867
 10
303.8262846283
 20
261.7259374758
 10
306.8090781551
 20
264.0568895193
 10
309.6848447788
 20
266.5276104616
 10
312.4492051811
 20
269.1343378024
 10
315.0979496973
 20
271.8731019258
 10
317.6270447263
 20
274.7397321458
 10
320.0326388735
 20
277.7298630575
 10
322.3110688159
 20
280.8389411848
 10
324.4588648805
 20
284.0622319144
 10
326.4727563281
 20
287.3948267064
 10
328.3496763344
 20
290.8316505684
 10
330.0867666597
 20
294.3674697848
 10
331.681382002
 20
297.9968998861
 10
333.1310940252
 20
301.7144138489
 10
334.4336950569
 20
305.5143505126
 10
335.5872014507
 20
309.3909232006
 10
336.5898566067
 20
313.338228532
 10
337.4401336463
 20
317.350255412
 10
338.136737738
 20
321.4208941854
 10
338.6786080686
 20
325.5439459408
 10
339.0649194589
 20
329.7131319505
 10
339.2950836205
 20
333.9221032319
 10
339.3687500512
 20
338.1644502161
  0
LWPOLYLINE
  5
208
330
1F
100
AcDbEntity
  8
0
  6
Continuous
 62
     7
100
AcDbPolyline
 90
       82
 70
   128
 43
0.0
 10
174.1058061452
 20
453.313877019
 10
171.9065981563
 20
451.8081730397
 10
168.8719846222
 20
449.5484500842
 10
165.9421467865
 20
447.1471564511
 10
163.1215463087
 20
444.6079489142
 10
160.4144784981
 20
441.934694268
 10
157.8250657726
 20
439.1314634382
 10
155.3572513805
 20
436.202525283
 10
153.0147933961
 20
433.1523400922
 10
150.8012589965
 20
429.9855527945
 10
148.7200190295
 20
426.7069858847
 10
146.7742428803
 20
423.3216320794
 10
144.9668936449
 20
419.8346467141
 10
143.3007236182
 20
416.2513398922
 10
141.7782701021
 20
412.5771683989
 10
140.4018515424
 20
408.8177273915
 10
139.1735639975
 20
404.9787418784
 10
138.0952779466
 20
401.0660580012
 10
137.1686354415
 20
397.0856341323
 10
136.395047606
 20
393.0435318005
 10
135.7756924867
 20
388.9459064609
 10
135.3115132593
 20
384.798998121
 10
135.0032167922
 20
380.6091218382
 10
134.85127257
 20
376.3826581029
 10
134.8559119788
 20
372.1260431223
 10
135.0171279534
 20
367.8457590188
 10
135.3346749886
 20
363.5483239591
 10
135.8080695126
 20
359.2402822279
 10
136.4365906236
 20
354.9281942621
 10
137.2192811877
 20
350.6186266604
 10
138.1549492962
 20
346.3181421835
 10
139.2421700809
 20
342.0332897597
 10
140.4792878839
 20
337.7705945127
 10
141.8644187788
 20
333.5365478239
 10
143.3954534399
 20
329.3375974483
 10
145.0700603538
 20
325.1801376946
 10
146.8856893705
 20
321.0704996881
 10
148.8395755864
 20
317.0149417297
 10
150.9287435552
 20
313.0196397652
 10
153.1500118185
 20
309.0906779805
 10
155.4999977514
 20
305.2340395363
 10
157.9751227127
 20
301.4555974567
 10
160.5716174956
 20
297.7611056857
 10
163.2855280666
 20
294.1561903251
 10
166.1127215878
 20
290.6463410661
 10
169.0488927096
 20
287.2369028303
 10
172.0895701279
 20
283.9330676297
 10
175.2301233924
 20
280.7398666603
 10
178.4657699586
 20
277.6621626406
 10
181.7915824705
 20
274.704642406
 10
185.2024962642
 20
271.871809772
 10
188.6933170807
 20
269.1679786755
 10
192.2587289756
 20
266.5972666052
 10
195.8933024148
 20
264.1635883315
 10
199.5915025425
 20
261.870649945
 10
203.3476976098
 20
259.7219432127
 10
207.1561675513
 20
257.7207402605
 10
211.0111126955
 20
255.8700885903
 10
214.9066625968
 20
254.1728064395
 10
218.8368849752
 20
252.6314784887
 10
222.7957947505
 20
251.2484519261
 10
226.7773631559
 20
250.0258328732
 10
230.7755269197
 20
248.9654831769
 10
234.7841974978
 20
248.0690175752
 10
238.7972703464
 20
247.337801237
 10
242.8086342172
 20
246.7729476844
 10
246.8121804649
 20
246.3753170961
 10
250.801812349
 20
246.1455149979
 10
254.7714543181
 20
246.0838913405
 10
258.7150612623
 20
246.1905399666
 10
262.6266277188
 20
246.4652984679
 10
266.500197017
 20
246.9077484325
 10
270.32987035
 20
247.5172160821
 10
274.1098157568
 20
248.292773298
 10
277.8342770041
 20
249.2332390345
 10
281.4975823519
 20
250.3371811175
 10
285.0941531903
 20
251.6029184251
 10
288.6185125353
 20
253.0285234483
 10
292.0652933688
 20
254.6118252259
 10
295.4292468123
 20
256.3504126502
 10
298.7052501195
 20
258.2416381396
 10
300.0969580749
 20
259.1082885417
  0
LWPOLYLINE
  5
209
330
1F
100
AcDbEntity
  8
0
  6
Continuous
 62
     7
100
AcDbPolyline
 90
      156
 70
   128
 43
0.0
 10
332.7418987029
 20
340.2448512257
 10
332.6593476258
 20
344.3445702837
 10
332.4207375742
 20
348.4643974465
 10
332.0264605839
 20
352.5975638489
 10
331.4771644509
 20
356.7372787095
 10
330.7737516673
 20
360.8767404875
 10
329.9173779385
 20
365.0091480582
 10
328.9094502843
 20
369.1277118867
 10
327.7516247271
 20
373.2256651836
 10
326.4458035714
 20
377.2962750222
 10
324.9941322777
 20
381.3328534013
 10
323.3989959384
 20
385.3287682333
 10
321.6630153581
 20
389.2774542405
 10
319.7890427484
 20
393.1724237422
 10
317.7801570414
 20
397.0072773138
 10
315.6396588311
 20
400.7757143009
 10
313.3710649503
 20
404.4715431714
 10
310.9781026929
 20
408.0886916883
 10
308.4647036895
 20
411.6212168859
 10
305.8349974482
 20
415.0633148346
 10
303.0933045694
 20
418.4093301767
 10
300.2441296472
 20
421.6537654176
 10
297.2921538686
 20
424.7912899587
 10
294.2422273221
 20
427.8167488556
 10
291.0993610289
 20
430.7251712871
 10
287.8687187102
 20
433.5117787228
 10
284.5556083027
 20
436.1719927741
 10
281.1654732382
 20
438.7014427162
 10
277.7038834996
 20
441.0959726695
 10
274.1765264699
 20
443.3516484277
 10
270.5891975874
 20
445.4647639213
 10
266.947790824
 20
447.4318473072
 10
263.2582890014
 20
449.2496666724
 10
259.5267539615
 20
450.9152353446
 10
255.7593166065
 20
452.4258167989
 10
251.9621668261
 20
453.7789291538
 10
248.1415433274
 20
454.9723492493
 10
244.3037233849
 20
456.0041162993
 10
240.4550125266
 20
456.8725351132
 10
236.6017341742
 20
457.5761788813
 10
232.7502192542
 20
458.1138915187
 10
228.9067957952
 20
458.4847895649
 10
225.0777785321
 20
458.6882636354
 10
221.2694585301
 20
458.7239794228
 10
217.488092849
 20
458.5918782462
 10
213.7398942626
 20
458.2921771476
 10
210.0310210514
 20
457.8253685349
 10
206.3675668843
 20
457.1922193735
 10
202.7555508069
 20
456.3937699258
 10
199.2009073522
 20
455.4313320423
 10
195.70947679
 20
454.3064870057
 10
192.2869955316
 20
453.0210829336
 10
188.9390867046
 20
451.5772317414
 10
185.6712509145
 20
449.9773056729
 10
182.4888572069
 20
448.2239334024
 10
179.3971342464
 20
446.3199957159
 10
176.4011617255
 20
444.2686207781
 10
173.5058620194
 20
442.0731789925
 10
170.7159920978
 20
439.7372774644
 10
168.0361357096
 20
437.2647540737
 10
165.470695852
 20
434.6596711699
 10
163.0238875358
 20
431.9263088974
 10
160.6997308606
 20
429.0691581631
 10
158.5020444099
 20
426.0929132583
 10
156.4344389765
 20
423.0024641456
 10
154.500311631
 20
419.8028884246
 10
152.7028401393
 20
416.49944299
 10
151.0449777425
 20
413.0975553938
 10
149.5294483041
 20
409.6028149285
 10
148.158741835
 20
406.0209634435
 10
146.9351104024
 20
402.3578859113
 10
145.8605644293
 20
398.6196007588
 10
144.9368693922
 20
394.8122499785
 10
144.1655429194
 20
390.942089038
 10
143.5478522984
 20
387.0154766013
 10
143.0848123933
 20
383.0388640825
 10
142.7771839773
 20
379.0187850454
 10
142.6254724831
 20
374.9618444695
 10
142.6299271724
 20
370.8747078973
 10
142.7905407262
 20
366.7640904835
 10
143.1070492566
 20
362.6367459618
 10
143.5789327411
 20
358.4994555483
 10
144.2054158764
 20
354.3590168004
 10
144.9854693523
 20
350.2222324481
 10
145.9178115429
 20
346.0958992171
 10
147.0009106126
 20
341.9867966622
 10
148.2329870323
 20
337.901676028
 10
149.6120165038
 20
333.847249157
 10
151.1357332853
 20
329.8301774619
 10
152.8016339141
 20
325.857060981
 10
154.6069813198
 20
321.9344275342
 10
156.5488093213
 20
318.068721998
 10
158.6239275005
 20
314.2662957164
 10
160.8289264435
 20
310.5333960658
 10
163.1601833429
 20
306.8761561906
 10
165.6138679497
 20
303.3005849262
 10
168.1859488666
 20
299.8125569268
 10
170.8722001713
 20
296.4178030133
 10
173.6682083601
 20
293.1219007575
 10
176.5693795987
 20
289.9302653181
 10
179.5709472706
 20
286.8481405437
 10
182.6679798078
 20
283.8805903573
 10
185.8553887941
 20
281.032490436
 10
189.1279373248
 20
278.3085202005
 10
192.4802486113
 20
275.7131551268
 10
195.906814815
 20
273.2506593929
 10
199.4020060966
 20
270.9250788728
 10
202.960079866
 20
268.7402344891
 10
206.5751902174
 20
266.6997159355
 10
210.2413975339
 20
264.8068757786
 10
213.9526782464
 20
263.0648239498
 10
217.7029347307
 20
261.4764226356
 10
221.4860053251
 20
260.0442815754
 10
225.2956744545
 20
258.770753773
 10
229.1256828426
 20
257.6579316313
 10
232.9697377956
 20
256.7076435141
 10
236.8215235415
 20
255.9214507424
 10
240.6747116062
 20
255.3006450288
 10
244.5229712119
 20
254.8462463555
 10
248.3599796782
 20
254.5590012982
 10
252.1794328103
 20
254.4393817999
 10
255.9750552566
 20
254.4875843951
 10
259.7406108196
 20
254.703529887
 10
263.4699127012
 20
255.0868634778
 10
267.1568336683
 20
255.6369553514
 10
270.7953161194
 20
256.3529017082
 10
274.3793820374
 20
257.2335262504
 10
277.9031428114
 20
258.277382114
 10
281.3608089117
 20
259.4827542467
 10
284.7466994019
 20
260.8476622252
 10
288.055251273
 20
262.3698635092
 10
291.2810285828
 20
264.0468571261
 10
294.4187313878
 20
265.8758877798
 10
297.4632044504
 20
267.8539503776
 10
300.4094457093
 20
269.977794968
 10
303.252614498
 20
272.2439320798
 10
305.9880394976
 20
274.6486384557
 10
308.611226412
 20
277.1879631695
 10
311.117865352
 20
279.8577341173
 10
313.5038379163
 20
282.6535648725
 10
315.7652239584
 20
285.5708618925
 10
317.8983080269
 20
288.6048320659
 10
319.8995854702
 20
291.7504905877
 10
321.7657681948
 20
295.0026691492
 10
323.4937900674
 20
298.3560244296
 10
325.0808119526
 20
301.8050468749
 10
326.5242263776
 20
305.3440697504
 10
327.8216618162
 20
308.9672784507
 10
328.9709865855
 20
312.6687200535
 10
329.9703123479
 20
316.4423130999
 10
330.8179972137
 20
320.2818575865
 10
331.512648439
 20
324.1810451517
 10
332.0531247136
 20
328.1334694407
 10
332.4385380365
 20
332.1326366306
 10
332.6682551745
 20
336.1719761003
 10
332.7418987029
 20
340.2448512257
  0
LWPOLYLINE
  5
20A
330
1F
100
AcDbEntity
  8
0
  6
Continuous
 62
     7
100
AcDbPolyline
 90
       20
 70
   128
 43
0.0
 10
197.5527338132
 20
459.4474250266
 10
197.4727524624
 20
459.9659495836
 10
197.2425761827
 20
460.4555863412
 10
196.8871481457
 20
460.8632755593
 10
196.4449844942
 20
461.1448377852
 10
195.9640005206
 20
461.2697613827
 10
195.4963183018
 20
461.2245089418
 10
195.092618463
 20
461.0139842665
 10
194.7966481458
 20
460.6610009721
 10
194.6404803265
 20
460.2038102756
 10
194.6410382115
 20
459.691955883
 10
194.7982613453
 20
459.1809051599
 10
195.0951121619
 20
458.7260383821
 10
195.4994222691
 20
458.3766474228
 10
195.9673783932
 20
458.1705942139
 10
196.4482702272
 20
458.1302078178
 10
196.8899856791
 20
458.2598647271
 10
197.2446580256
 20
458.545514604
 10
197.4738530148
 20
458.9562028519
 10
197.5527338132
 20
459.4474250266
  0
LWPOLYLINE
  5
20B
330
1F
100
AcDbEntity
  8
0
  6
Continuous
 62
     7
100
AcDbPolyline
 90
       20
 70
   128
 43
0.0
 10
273.6915511583
 20
449.3600583099
 10
273.6115698075
 20
449.8785828668
 10
273.3813935279
 20
450.3682196244
 10
273.0259654908
 20
450.7759088426
 10
272.5838018393
 20
451.0574710684
 10
272.1028178657
 20
451.182394666
 10
271.6351356469
 20
451.1371422251
 10
271.2314358081
 20
450.9266175498
 10
270.9354654909
 20
450.5736342554
 10
270.7792976716
 20
450.1164435589
 10
270.7798555566
 20
449.6045891662
 10
270.9370786905
 20
449.0935384432
 10
271.233929507
 20
448.6386716654
 10
271.6382396142
 20
448.2892807061
 10
272.1061957384
 20
448.0832274972
 10
272.5870875724
 20
448.042841101
 10
273.0288030242
 20
448.1724980104
 10
273.3834753707
 20
448.4581478872
 10
273.6126703599
 20
448.8688361351
 10
273.6915511583
 20
449.3600583099
  0
LWPOLYLINE
  5
20C
330
1F
100
AcDbEntity
  8
0
  6
Continuous
 62
     7
100
AcDbPolyline
 90
       20
 70
   128
 43
0.0
 10
329.5911361898
 20
384.777703433
 10
329.511154839
 20
385.2962279899
 10
329.2809785594
 20
385.7858647476
 10
328.9255505223
 20
386.1935539657
 10
328.4833868708
 20
386.4751161915
 10
328.0024028972
 20
386.6000397891
 10
327.5347206784
 20
386.5547873482
 10
327.1310208396
 20
386.3442626729
 10
326.8350505224
 20
385.9912793785
 10
326.6788827031
 20
385.534088682
 10
326.6794405881
 20
385.0222342893
 10
326.8366637219
 20
384.5111835663
 10
327.1335145385
 20
384.0563167885
 10
327.5378246457
 20
383.7069258292
 10
328.0057807698
 20
383.5008726203
 10
328.4866726039
 20
383.4604862242
 10
328.9283880557
 20
383.5901431335
 10
329.2830604022
 20
383.8757930103
 10
329.5122553914
 20
384.2864812582
 10
329.5911361898
 20
384.777703433
  0
LWPOLYLINE
  5
20D
330
1F
100
AcDbEntity
  8
0
  6
Continuous
 62
     7
100
AcDbPolyline
 90
       20
 70
   128
 43
0.0
 10
332.5062701273
 20
303.5318279928
 10
332.4262887764
 20
304.0503525498
 10
332.1961124968
 20
304.5399893074
 10
331.8406844598
 20
304.9476785255
 10
331.3985208082
 20
305.2292407514
 10
330.9175368346
 20
305.3541643489
 10
330.4498546158
 20
305.308911908
 10
330.046154777
 20
305.0983872328
 10
329.7501844598
 20
304.7454039383
 10
329.5940166405
 20
304.2882132418
 10
329.5945745255
 20
303.7763588492
 10
329.7517976594
 20
303.2653081261
 10
330.048648476
 20
302.8104413483
 10
330.4529585831
 20
302.461050389
 10
330.9209147073
 20
302.2549971801
 10
331.4018065413
 20
302.214610784
 10
331.8435219931
 20
302.3442676933
 10
332.1981943397
 20
302.6299175702
 10
332.4273893288
 20
303.0406058181
 10
332.5062701273
 20
303.5318279928
  0
LWPOLYLINE
  5
20E
330
1F
100
AcDbEntity
  8
0
  6
Continuous
 62
     7
100
AcDbPolyline
 90
       20
 70
   128
 43
0.0
 10
280.7293070462
 20
253.2151639354
 10
280.6493256954
 20
253.7336884923
 10
280.4191494158
 20
254.2233252499
 10
280.0637213787
 20
254.6310144681
 10
279.6215577272
 20
254.9125766939
 10
279.1405737536
 20
255.0375002915
 10
278.6728915348
 20
254.9922478506
 10
278.269191696
 20
254.7817231753
 10
277.9732213788
 20
254.4287398809
 10
277.8170535595
 20
253.9715491844
 10
277.8176114445
 20
253.4596947917
 10
277.9748345784
 20
252.9486440687
 10
278.2716853949
 20
252.4937772909
 10
278.6759955021
 20
252.1443863316
 10
279.1439516263
 20
251.9383331227
 10
279.6248434603
 20
251.8979467265
 10
280.0665589121
 20
252.0276036359
 10
280.4212312586
 20
252.3132535127
 10
280.6504262478
 20
252.7239417606
 10
280.7293070462
 20
253.2151639354
  0
LWPOLYLINE
  5
20F
330
1F
100
AcDbEntity
  8
0
  6
Continuous
 62
     7
100
AcDbPolyline
 90
       20
 70
   128
 43
0.0
 10
204.5904897011
 20
263.3025306521
 10
204.5105083503
 20
263.8210552091
 10
204.2803320707
 20
264.3106919667
 10
203.9249040336
 20
264.7183811848
 10
203.4827403821
 20
264.9999434107
 10
203.0017564085
 20
265.1248670082
 10
202.5340741897
 20
265.0796145673
 10
202.1303743509
 20
264.869089892
 10
201.8344040337
 20
264.5161065976
 10
201.6782362144
 20
264.0589159011
 10
201.6787940994
 20
263.5470615085
 10
201.8360172333
 20
263.0360107854
 10
202.1328680498
 20
262.5811440076
 10
202.537178157
 20
262.2317530483
 10
203.0051342811
 20
262.0256998394
 10
203.4860261152
 20
261.9853134433
 10
203.927741567
 20
262.1149703526
 10
204.2824139135
 20
262.4006202295
 10
204.5116089027
 20
262.8113084774
 10
204.5904897011
 20
263.3025306521
  0
LWPOLYLINE
  5
210
330
1F
100
AcDbEntity
  8
0
  6
Continuous
 62
     7
100
AcDbPolyline
 90
       20
 70
   128
 43
0.0
 10
148.6909046696
 20
327.884885529
 10
148.6109233188
 20
328.403410086
 10
148.3807470392
 20
328.8930468436
 10
148.0253190021
 20
329.3007360617
 10
147.5831553506
 20
329.5822982876
 10
147.102171377
 20
329.7072218851
 10
146.6344891582
 20
329.6619694442
 10
146.2307893194
 20
329.4514447689
 10
145.9348190022
 20
329.0984614745
 10
145.7786511829
 20
328.641270778
 10
145.7792090679
 20
328.1294163854
 10
145.9364322018
 20
327.6183656623
 10
146.2332830183
 20
327.1634988845
 10
146.6375931255
 20
326.8141079252
 10
147.1055492497
 20
326.6080547163
 10
147.5864410837
 20
326.5676683202
 10
148.0281565355
 20
326.6973252295
 10
148.382828882
 20
326.9829751064
 10
148.6120238712
 20
327.3936633543
 10
148.6909046696
 20
327.884885529
  0
LWPOLYLINE
  5
211
330
1F
100
AcDbEntity
  8
0
  6
Continuous
 62
     7
100
AcDbPolyline
 90
       20
 70
   128
 43
0.0
 10
145.7757707322
 20
409.1307609692
 10
145.6957893814
 20
409.6492855261
 10
145.4656131017
 20
410.1389222837
 10
145.1101850647
 20
410.5466115018
 10
144.6680214131
 20
410.8281737277
 10
144.1870374396
 20
410.9530973253
 10
143.7193552208
 20
410.9078448844
 10
143.315655382
 20
410.6973202091
 10
143.0196850647
 20
410.3443369147
 10
142.8635172454
 20
409.8871462181
 10
142.8640751305
 20
409.3752918255
 10
143.0212982643
 20
408.8642411025
 10
143.3181490809
 20
408.4093743247
 10
143.722459188
 20
408.0599833654
 10
144.1904153122
 20
407.8539301565
 10
144.6713071462
 20
407.8135437603
 10
145.1130225981
 20
407.9432006697
 10
145.4676949446
 20
408.2288505465
 10
145.6968899338
 20
408.6395387944
 10
145.7757707322
 20
409.1307609692
  0
LWPOLYLINE
  5
212
330
1F
100
AcDbEntity
  8
0
  6
Continuous
 62
     7
100
AcDbPolyline
 90
       78
 70
   128
 43
0.0
 10
180.9430677637
 20
447.2978156449
 10
179.384162465
 20
446.2038467535
 10
176.4888627589
 20
444.0084049679
 10
173.6989928373
 20
441.6725034398
 10
171.0191364491
 20
439.1999800491
 10
168.4536965915
 20
436.5948971453
 10
166.0068882753
 20
433.8615348727
 10
163.6827316001
 20
431.0043841385
 10
161.4850451493
 20
428.0281392337
 10
159.417439716
 20
424.937690121
 10
157.4833123705
 20
421.7381144
 10
155.6858408788
 20
418.4346689653
 10
154.027978482
 20
415.0327813692
 10
152.5124490436
 20
411.5380409039
 10
151.1417425745
 20
407.9561894188
 10
149.9181111418
 20
404.2931118867
 10
148.8435651688
 20
400.5548267341
 10
147.9198701317
 20
396.7474759539
 10
147.1485436589
 20
392.8773150133
 10
146.5308530379
 20
388.9507025767
 10
146.0678131328
 20
384.9740900579
 10
145.7601847168
 20
380.9540110208
 10
145.6084732226
 20
376.8970704448
 10
145.6129279119
 20
372.8099338726
 10
145.7735414656
 20
368.6993164589
 10
146.0900499961
 20
364.5719719372
 10
146.5619334806
 20
360.4346815237
 10
147.1884166159
 20
356.2942427758
 10
147.9684700918
 20
352.1574584235
 10
148.9008122824
 20
348.0311251925
 10
149.9839113521
 20
343.9220226375
 10
151.2159877718
 20
339.8369020033
 10
152.5950172433
 20
335.7824751324
 10
154.1187340248
 20
331.7654034373
 10
155.7846346536
 20
327.7922869564
 10
157.5899820592
 20
323.8696535096
 10
159.5318100608
 20
320.0039479734
 10
161.60692824
 20
316.2015216918
 10
163.811927183
 20
312.4686220412
 10
166.1431840824
 20
308.811382166
 10
168.5968686892
 20
305.2358109015
 10
171.1689496061
 20
301.7477829022
 10
173.8552009108
 20
298.3530289887
 10
176.6512090996
 20
295.0571267329
 10
179.5523803382
 20
291.8654912934
 10
182.5539480101
 20
288.7833665191
 10
185.6509805473
 20
285.8158163327
 10
188.8383895335
 20
282.9677164114
 10
192.1109380643
 20
280.2437461759
 10
195.4632493508
 20
277.6483811022
 10
198.8898155545
 20
275.1858853683
 10
202.3850068361
 20
272.8603048481
 10
205.9430806055
 20
270.6754604645
 10
209.5581909569
 20
268.6349419109
 10
213.2243982733
 20
266.742101754
 10
216.9356789859
 20
265.0000499252
 10
220.6859354702
 20
263.411648611
 10
224.4690060646
 20
261.9795075508
 10
228.278675194
 20
260.7059797483
 10
232.1086835821
 20
259.5931576066
 10
235.9527385351
 20
258.6428694895
 10
239.8045242809
 20
257.8566767178
 10
243.6577123457
 20
257.2358710042
 10
247.5059719514
 20
256.7814723309
 10
251.3429804177
 20
256.4942272736
 10
255.1624335498
 20
256.3746077753
 10
258.9580559961
 20
256.4228103705
 10
262.7236115591
 20
256.6387558624
 10
266.4529134407
 20
257.0220894532
 10
270.1398344078
 20
257.5721813268
 10
273.7783168589
 20
258.2881276836
 10
277.3623827769
 20
259.1687522258
 10
280.8861435509
 20
260.2126080894
 10
284.3438096511
 20
261.4179802221
 10
287.7297001414
 20
262.7828882006
 10
291.0382520125
 20
264.3050894846
 10
294.2640293223
 20
265.9820831015
 10
297.3900051753
 20
267.8038935756
  0
LINE
  5
213
330
1F
100
AcDbEntity
  8
0
  6
Continuous
 62
     7
100
AcDbLine
 10
642.4325754944
 20
403.8522259907
 30
0.0
 11
646.5628842107
 21
406.5317696489
 31
0.0
  0
LINE
  5
214
330
1F
100
AcDbEntity
  8
0
  6
Continuous
 62
     7
100
AcDbLine
 10
642.4325754944
 20
403.8522259907
 30
0.0
 11
428.3100157997
 21
440.6517781931
 31
0.0
  0
LINE
  5
215
330
1F
100
AcDbEntity
  8
0
  6
Continuous
 62
     7
100
AcDbLine
 10
428.3100157997
 20
440.6517781931
 30
0.0
 11
432.4403245159
 21
443.3313218513
 31
0.0
  0
LINE
  5
216
330
1F
100
AcDbEntity
  8
0
  6
Continuous
 62
     7
100
AcDbLine
 10
646.5628842107
 20
406.5317696489
 30
0.0
 11
432.4403245159
 21
443.3313218513
 31
0.0
  0
LINE
  5
217
330
1F
100
AcDbEntity
  8
0
  6
Continuous
 62
     7
100
AcDbLine
 10
642.6893519594
 20
168.2621749471
 30
0.0
 11
646.8196606757
 21
170.9417186053
 31
0.0
  0
LINE
  5
218
330
1F
100
AcDbEntity
  8
0
  6
Continuous
 62
     7
100
AcDbLine
 10
642.6893519594
 20
168.2621749471
 30
0.0
 11
642.4325754944
 21
403.8522259907
 31
0.0
  0
LINE
  5
219
330
1F
100
AcDbEntity
  8
0
  6
Continuous
 62
     7
100
AcDbLine
 10
646.8196606757
 20
170.9417186053
 30
0.0
 11
646.5628842107
 21
406.5317696489
 31
0.0
  0
LINE
  5
21A
330
1F
100
AcDbEntity
  8
0
  6
Continuous
 62
     7
100
AcDbLine
 10
428.5667922647
 20
205.0617271495
 30
0.0
 11
642.6893519594
 21
168.2621749471
 31
0.0
  0
LINE
  5
21B
330
1F
100
AcDbEntity
  8
0
  6
Continuous
 62
     7
100
AcDbLine
 10
428.3100157997
 20
440.6517781931
 30
0.0
 11
428.5667922647
 21
205.0617271495
 31
0.0
  0
LWPOLYLINE
  5
21C
330
1F
100
AcDbEntity
  8
0
  6
Continuous
 62
     7
100
AcDbPolyline
 90
      162
 70
   128
 43
0.0
 10
428.66052287
 20
322.818578862
 10
428.7434663519
 20
318.5493165697
 10
428.9828934371
 20
314.2596403517
 10
429.3784395178
 20
309.9560826772
 10
429.9295022425
 20
305.6451971547
 10
430.6352424336
 20
301.3335485516
 10
431.4945853651
 20
297.0277027977
 10
432.5062223995
 20
292.7342169857
 10
433.6686129806
 20
288.4596293864
 10
434.9799869792
 20
284.2104494914
 10
436.4383473889
 20
279.9931481011
 10
438.0414733675
 20
275.8141474696
 10
439.7869236185
 20
271.6798115256
 10
441.6720401092
 20
267.5964361808
 10
443.6939521179
 20
263.5702397423
 10
445.8495806064
 20
259.6073534431
 10
448.1356429079
 20
255.7138121054
 10
450.5486577266
 20
251.8955449504
 10
453.0849504391
 20
248.1583665691
 10
455.7406586899
 20
244.5079680678
 10
458.5117382734
 20
240.9499084013
 10
461.3939692924
 20
237.4896059074
 10
464.3829625846
 20
234.1323300562
 10
467.4741664062
 20
230.883193425
 10
470.6628733636
 20
227.7471439129
 10
473.9442275823
 20
224.7289572059
 10
477.3132321009
 20
221.8332295047
 10
480.7647564813
 20
219.0643705249
 10
484.2935446213
 20
216.4265967818
 10
487.8942227585
 20
213.92392517
 10
491.561307654
 20
211.5601668453
 10
495.2892149425
 20
209.3389214219
 10
499.0722676362
 20
207.2635714901
 10
502.9047047697
 20
205.3372774655
 10
506.7806901734
 20
203.5629727761
 10
510.6943213611
 20
201.9433593954
 10
514.6396385178
 20
200.4809037274
 10
518.6106335764
 20
199.1778328508
 10
522.6012593664
 20
198.0361311276
 10
526.6054388231
 20
197.0575371812
 10
530.6170742415
 20
196.2435412488
 10
534.6300565627
 20
195.5953829119
 10
538.6382746765
 20
195.1140492088
 10
542.6356247279
 20
194.8002731312
 10
546.6160194121
 20
194.6545325084
 10
550.5733972447
 20
194.6770492793
 10
554.5017317919
 20
194.8677891546
 10
558.3950408483
 20
195.2264616689
 10
562.2473955463
 20
195.7525206232
 10
566.0529293851
 20
196.4451649164
 10
569.8058471646
 20
197.3033397655
 10
573.5004338099
 20
198.3257383118
 10
577.1310630749
 20
199.5108036109
 10
580.6922061103
 20
200.8567310039
 10
584.1784398826
 20
202.3614708654
 10
587.5844554328
 20
204.0227317247
 10
590.9050659611
 20
205.8379837557
 10
594.1352147253
 20
207.8044626288
 10
597.2699827417
 20
209.9191737212
 10
600.3045962757
 20
212.1788966766
 10
603.2344341115
 20
214.5801903098
 10
606.0550345893
 20
217.1193978466
 10
608.7621023998
 20
219.7926524929
 10
611.3515151254
 20
222.5958833226
 10
613.8193295175
 20
225.5248214778
 10
616.1617875019
 20
228.5750066687
 10
618.3753219014
 20
231.7417939664
 10
620.4565618684
 20
235.0203608761
 10
622.4023380177
 20
238.4057146814
 10
624.2096872531
 20
241.8927000468
 10
625.8758572798
 20
245.4760068687
 10
627.3983107958
 20
249.1501783619
 10
628.7747293555
 20
252.9096193694
 10
630.0030169005
 20
256.7486048825
 10
631.0813029514
 20
260.6612887596
 10
632.0079454564
 20
264.6417126286
 10
632.7815332919
 20
268.6838149604
 10
633.4008884112
 20
272.7814403
 10
633.8650676386
 20
276.9283486399
 10
634.1733641058
 20
281.1182249226
 10
634.3253083279
 20
285.3446886579
 10
634.3206689192
 20
289.6013036385
 10
634.1594529445
 20
293.881587742
 10
633.8419059093
 20
298.1790228018
 10
633.3685113853
 20
302.487064533
 10
632.7399902743
 20
306.7991524988
 10
631.9572997103
 20
311.1087201004
 10
631.0216316018
 20
315.4092045774
 10
629.9344108171
 20
319.6940570011
 10
628.6972930141
 20
323.9567522482
 10
627.3121621191
 20
328.1907989369
 10
625.7811274581
 20
332.3897493125
 10
624.1065205441
 20
336.5472090663
 10
622.2908915275
 20
340.6568470728
 10
620.3370053116
 20
344.7124050311
 10
618.2478373428
 20
348.7077069956
 10
616.0265690794
 20
352.6366687803
 10
613.6765831466
 20
356.4933072246
 10
611.2014581853
 20
360.2717493042
 10
608.6049634024
 20
363.9662410751
 10
605.8910528314
 20
367.5711564358
 10
603.0638593102
 20
371.0810056948
 10
600.1276881884
 20
374.4904439306
 10
597.0870107701
 20
377.7942791312
 10
593.9464575056
 20
380.9874801005
 10
590.7108109394
 20
384.0651841203
 10
587.3849984275
 20
387.0227043549
 10
583.9740846338
 20
389.8555369888
 10
580.4832638173
 20
392.5593680854
 10
576.9178519224
 20
395.1300801557
 10
573.2832784832
 20
397.5637584294
 10
569.5850783555
 20
399.8566968158
 10
565.8288832882
 20
402.0054035481
 10
562.0204133467
 20
404.0066065004
 10
558.1654682025
 20
405.8572581705
 10
554.2699183012
 20
407.5545403214
 10
550.3396959227
 20
409.0958682722
 10
546.3807861475
 20
410.4788948347
 10
542.3992177421
 20
411.7015138877
 10
538.4010539783
 20
412.7618635839
 10
534.3923834001
 20
413.6583291857
 10
530.3793105516
 20
414.3895455238
 10
526.3679466807
 20
414.9543990764
 10
522.364400433
 20
415.3520296647
 10
518.374768549
 20
415.5818317629
 10
514.4051265799
 20
415.6434554203
 10
510.4615196357
 20
415.5368067942
 10
506.5499531792
 20
415.262048293
 10
502.6763838809
 20
414.8195983284
 10
498.846710548
 20
414.2101306788
 10
495.0667651412
 20
413.4345734628
 10
491.3423038938
 20
412.4941077263
 10
487.6789985461
 20
411.3901656434
 10
484.0824277076
 20
410.1244283357
 10
480.5580683627
 20
408.6988233125
 10
477.1112875291
 20
407.115521535
 10
473.7473340857
 20
405.3769341106
 10
470.4713307785
 20
403.4857086212
 10
467.2882664203
 20
401.4447250914
 10
464.2029882929
 20
399.2570916022
 10
461.2201947662
 20
396.9261395587
 10
458.3444281425
 20
394.4554186164
 10
455.5800677401
 20
391.8486912756
 10
452.931323224
 20
389.1099271523
 10
450.402228195
 20
386.2432969322
 10
447.9966340478
 20
383.2531660205
 10
445.7182041054
 20
380.1440878932
 10
443.5704080408
 20
376.9207971636
 10
441.5565165931
 20
373.5882023717
 10
439.6795965868
 20
370.1513785096
 10
437.9425062615
 20
366.6155592932
 10
436.3478909192
 20
362.9861291919
 10
434.8981788961
 20
359.2686152291
 10
433.5955778643
 20
355.4686785654
 10
432.4420714705
 20
351.5921058775
 10
431.4394163146
 20
347.644800546
 10
430.5891392749
 20
343.632773666
 10
429.8925351833
 20
339.5621348926
 10
429.3506648527
 20
335.4390831372
 10
428.9643534624
 20
331.2698971275
 10
428.7341893008
 20
327.0609258461
 10
428.66052287
 20
322.818578862
  0
LWPOLYLINE
  5
21D
330
1F
100
AcDbEntity
  8
0
  6
Continuous
 62
     7
100
AcDbPolyline
 90
       58
 70
   128
 43
0.0
 10
429.8078308467
 20
323.5628965448
 10
429.8907743286
 20
319.2936342526
 10
430.1302014139
 20
315.0039580346
 10
430.5257474945
 20
310.7004003601
 10
431.0768102192
 20
306.3895148375
 10
431.7825504103
 20
302.0778662344
 10
432.6418933418
 20
297.7720204805
 10
433.6535303763
 20
293.4785346685
 10
434.8159209573
 20
289.2039470692
 10
436.1272949559
 20
284.9547671743
 10
437.5856553656
 20
280.7374657839
 10
439.1887813442
 20
276.5584651524
 10
440.9342315952
 20
272.4241292084
 10
442.8193480859
 20
268.3407538636
 10
444.8412600946
 20
264.3145574251
 10
446.9968885831
 20
260.3516711259
 10
449.2829508846
 20
256.4581297882
 10
451.6959657034
 20
252.6398626332
 10
454.2322584158
 20
248.9026842519
 10
456.8879666666
 20
245.2522857507
 10
459.6590462501
 20
241.6942260841
 10
462.5412772691
 20
238.2339235903
 10
465.5302705613
 20
234.8766477391
 10
468.6214743829
 20
231.6275111078
 10
471.8101813404
 20
228.4914615957
 10
475.091535559
 20
225.4732748888
 10
478.4605400776
 20
222.5775471876
 10
481.9120644581
 20
219.8086882077
 10
485.440852598
 20
217.1709144647
 10
489.0415307352
 20
214.6682428528
 10
492.7086156307
 20
212.3044845282
 10
496.4365229193
 20
210.0832391047
 10
500.2195756129
 20
208.0078891729
 10
504.0520127464
 20
206.0815951483
 10
507.9279981502
 20
204.307290459
 10
511.8416293378
 20
202.6876770783
 10
515.7869464945
 20
201.2252214102
 10
519.7579415531
 20
199.9221505336
 10
523.7485673432
 20
198.7804488104
 10
527.7527467998
 20
197.8018548641
 10
531.7643822182
 20
196.9878589317
 10
535.7773645394
 20
196.3397005948
 10
539.7855826532
 20
195.8583668916
 10
543.7829327046
 20
195.544590814
 10
547.7633273889
 20
195.3988501912
 10
551.7207052214
 20
195.4213669622
 10
555.6490397687
 20
195.6121068375
 10
559.542348825
 20
195.9707793518
 10
563.394703523
 20
196.496838306
 10
567.2002373619
 20
197.1894825992
 10
570.9531551413
 20
198.0476574483
 10
574.6477417866
 20
199.0700559946
 10
578.2783710517
 20
200.2551212938
 10
581.8395140871
 20
201.6010486868
 10
585.3257478594
 20
203.1057885482
 10
588.7317634096
 20
204.7670494076
 10
592.0523739378
 20
206.5823014385
 10
595.0707747736
 20
208.4134697552
  0
LWPOLYLINE
  5
21E
330
1F
100
AcDbEntity
  8
0
  6
Continuous
 62
     7
100
AcDbPolyline
 90
       25
 70
   128
 43
0.0
 10
469.0796228205
 20
402.6190582176
 10
468.435574397
 20
402.1890427742
 10
465.3502962697
 20
400.001409285
 10
462.3675027429
 20
397.6704572416
 10
459.4917361192
 20
395.1997362992
 10
456.7273757168
 20
392.5930089585
 10
454.0786312007
 20
389.8542448351
 10
451.5495361717
 20
386.987614615
 10
449.1439420245
 20
383.9974837033
 10
446.8655120821
 20
380.8884055761
 10
444.7177160175
 20
377.6651148464
 10
442.7038245698
 20
374.3325200545
 10
440.8269045636
 20
370.8956961924
 10
439.0898142383
 20
367.359876976
 10
437.495198896
 20
363.7304468748
 10
436.0454868728
 20
360.012932912
 10
434.7428858411
 20
356.2129962482
 10
433.5893794472
 20
352.3364235603
 10
432.5867242913
 20
348.3891182289
 10
431.7364472517
 20
344.3770913489
 10
431.03984316
 20
340.3064525755
 10
430.4979728294
 20
336.1834008201
 10
430.1116614391
 20
332.0142148104
 10
429.8814972775
 20
327.8052435289
 10
429.8078308467
 20
323.5628965448
  0
LWPOLYLINE
  5
21F
330
1F
100
AcDbEntity
  8
0
  6
Continuous
 62
     7
100
AcDbPolyline
 90
      156
 70
   128
 43
0.0
 10
437.5819901718
 20
322.2268132179
 10
437.6645412489
 20
318.12709416
 10
437.9031513005
 20
314.0072669972
 10
438.2974282908
 20
309.8741005948
 10
438.8467244238
 20
305.7343857342
 10
439.5501372074
 20
301.5949239562
 10
440.4065109362
 20
297.4625163855
 10
441.4144385904
 20
293.3439525569
 10
442.5722641476
 20
289.2459992601
 10
443.8780853033
 20
285.1753894215
 10
445.3297565969
 20
281.1388110424
 10
446.9248929363
 20
277.1428962104
 10
448.6608735166
 20
273.1942102032
 10
450.5348461263
 20
269.2992407015
 10
452.5437318333
 20
265.4643871299
 10
454.6842300436
 20
261.6959501428
 10
456.9528239244
 20
258.0001212722
 10
459.3457861818
 20
254.3829727554
 10
461.8591851852
 20
250.8504475578
 10
464.4888914265
 20
247.408349609
 10
467.2305843053
 20
244.062334267
 10
470.0797592275
 20
240.8178990261
 10
473.0317350061
 20
237.680374485
 10
476.0816615526
 20
234.6549155881
 10
479.2245278458
 20
231.7464931566
 10
482.4551701645
 20
228.9598857209
 10
485.768280572
 20
226.2996716696
 10
489.1584156365
 20
223.7702217275
 10
492.6200053751
 20
221.3756917741
 10
496.1473624048
 20
219.120016016
 10
499.7346912873
 20
217.0069005224
 10
503.3760980507
 20
215.0398171365
 10
507.0655998733
 20
213.2219977713
 10
510.7971349132
 20
211.556429099
 10
514.5645722682
 20
210.0458476448
 10
518.3617220486
 20
208.6927352899
 10
522.1823455473
 20
207.4993151944
 10
526.0201654898
 20
206.4675481444
 10
529.8688763481
 20
205.5991293305
 10
533.7221547005
 20
204.8954855623
 10
537.5736696205
 20
204.357772925
 10
541.4170930794
 20
203.9868748788
 10
545.2461103426
 20
203.7834008083
 10
549.0544303446
 20
203.7476850209
 10
552.8357960257
 20
203.8797861974
 10
556.5839946121
 20
204.1794872961
 10
560.2928678233
 20
204.6462959088
 10
563.9563219904
 20
205.2794450702
 10
567.5683380678
 20
206.0778945178
 10
571.1229815225
 20
207.0403324014
 10
574.6144120847
 20
208.165177438
 10
578.0368933431
 20
209.4505815101
 10
581.3848021701
 20
210.8944327023
 10
584.6526379602
 20
212.4943587708
 10
587.8350316677
 20
214.2477310413
 10
590.9267546283
 20
216.1516687278
 10
593.9227271492
 20
218.2030436656
 10
596.8180268553
 20
220.3984854511
 10
599.6078967769
 20
222.7343869793
 10
602.287753165
 20
225.20691037
 10
604.8531930227
 20
227.8119932738
 10
607.3000013389
 20
230.5453555463
 10
609.6241580141
 20
233.4025062806
 10
611.8218444648
 20
236.3787511853
 10
613.8894498982
 20
239.4692002981
 10
615.8235772437
 20
242.6687760191
 10
617.6210487354
 20
245.9722214537
 10
619.2789111322
 20
249.3741090499
 10
620.7944405706
 20
252.8688495152
 10
622.1651470397
 20
256.4507010002
 10
623.3887784723
 20
260.1137785324
 10
624.4633244454
 20
263.8520636849
 10
625.3870194825
 20
267.6594144652
 10
626.1583459553
 20
271.5295754057
 10
626.7760365763
 20
275.4561878424
 10
627.2390764814
 20
279.4328003612
 10
627.5467048974
 20
283.4528793982
 10
627.6984163916
 20
287.5098199742
 10
627.6939617022
 20
291.5969565464
 10
627.5333481485
 20
295.7075739602
 10
627.2168396181
 20
299.8349184819
 10
626.7449561336
 20
303.9722088953
 10
626.1184729983
 20
308.1126476432
 10
625.3384195224
 20
312.2494319956
 10
624.4060773318
 20
316.3757652266
 10
623.3229782621
 20
320.4848677815
 10
622.0909018424
 20
324.5699884157
 10
620.7118723709
 20
328.6244152867
 10
619.1881555894
 20
332.6414869818
 10
617.5222549606
 20
336.6146034627
 10
615.7169075549
 20
340.5372369094
 10
613.7750795534
 20
344.4029424456
 10
611.6999613742
 20
348.2053687272
 10
609.4949624312
 20
351.9382683778
 10
607.1637055318
 20
355.5955082531
 10
604.710020925
 20
359.1710795175
 10
602.1379400081
 20
362.6591075169
 10
599.4516887034
 20
366.0538614304
 10
596.6556805146
 20
369.3497636862
 10
593.754509276
 20
372.5413991256
 10
590.7529416041
 20
375.6235239
 10
587.6559090669
 20
378.5910740864
 10
584.4685000806
 20
381.4391740077
 10
581.1959515499
 20
384.1631442431
 10
577.8436402634
 20
386.7585093168
 10
574.4170740597
 20
389.2210050508
 10
570.9218827781
 20
391.5465855709
 10
567.3638090087
 20
393.7314299546
 10
563.7486986573
 20
395.7719485082
 10
560.0824913408
 20
397.6647886651
 10
556.3712106282
 20
399.4068404939
 10
552.620954144
 20
400.995241808
 10
548.8378835496
 20
402.4273828683
 10
545.0282144202
 20
403.7009106707
 10
541.1982060321
 20
404.8137328124
 10
537.354151079
 20
405.7640209296
 10
533.5023653332
 20
406.5502137013
 10
529.6491772685
 20
407.1710194149
 10
525.8009176628
 20
407.6254180882
 10
521.9639091965
 20
407.9126631455
 10
518.1444560644
 20
408.0322826438
 10
514.3488336181
 20
407.9840800486
 10
510.5832780551
 20
407.7681345567
 10
506.8539761735
 20
407.3848009659
 10
503.1670552064
 20
406.8347090923
 10
499.5285727553
 20
406.1187627354
 10
495.9445068373
 20
405.2381381933
 10
492.4207460633
 20
404.1942823296
 10
488.963079963
 20
402.988910197
 10
485.5771894728
 20
401.6240022185
 10
482.2686376017
 20
400.1018009344
 10
479.0428602919
 20
398.4248073175
 10
475.9051574869
 20
396.5957766639
 10
472.8606844243
 20
394.6177140661
 10
469.9144431654
 20
392.4938694757
 10
467.0712743767
 20
390.2277323639
 10
464.3358493771
 20
387.823025988
 10
461.7126624627
 20
385.2837012742
 10
459.2060235227
 20
382.6139303263
 10
456.8200509584
 20
379.8180995712
 10
454.5586649163
 20
376.9008025512
 10
452.4255808478
 20
373.8668323778
 10
450.4243034045
 20
370.721173856
 10
448.5581206799
 20
367.4689952945
 10
446.8300988072
 20
364.1156400141
 10
445.2430769221
 20
360.6666175688
 10
443.7996624971
 20
357.1275946933
 10
442.5022270585
 20
353.504385993
 10
441.3529022892
 20
349.8029443902
 10
440.3535765268
 20
346.0293513438
 10
439.505891661
 20
342.1898068572
 10
438.8112404357
 20
338.290619292
 10
438.2707641611
 20
334.338195003
 10
437.8853508382
 20
330.3390278131
 10
437.6556337002
 20
326.2996883433
 10
437.5819901718
 20
322.2268132179
  0
LWPOLYLINE
  5
220
330
1F
100
AcDbEntity
  8
0
  6
Continuous
 62
     7
100
AcDbPolyline
 90
       20
 70
   128
 43
0.0
 10
572.7711550615
 20
203.024239417
 10
572.8511364123
 20
202.5057148601
 10
573.081312692
 20
202.0160781025
 10
573.436740729
 20
201.6083888844
 10
573.8789043805
 20
201.3268266585
 10
574.3598883541
 20
201.201903061
 10
574.8275705729
 20
201.2471555019
 10
575.2312704117
 20
201.4576801771
 10
575.5272407289
 20
201.8106634716
 10
575.6834085482
 20
202.2678541681
 10
575.6828506632
 20
202.7797085607
 10
575.5256275294
 20
203.2907592837
 10
575.2287767128
 20
203.7456260616
 10
574.8244666056
 20
204.0950170209
 10
574.3565104815
 20
204.3010702298
 10
573.8756186475
 20
204.3414566259
 10
573.4339031956
 20
204.2117997166
 10
573.0792308491
 20
203.9261498397
 10
572.8500358599
 20
203.5154615918
 10
572.7711550615
 20
203.024239417
  0
LWPOLYLINE
  5
221
330
1F
100
AcDbEntity
  8
0
  6
Continuous
 62
     7
100
AcDbPolyline
 90
       20
 70
   128
 43
0.0
 10
496.6323377164
 20
213.1116061338
 10
496.7123190672
 20
212.5930815769
 10
496.9424953468
 20
212.1034448192
 10
497.2979233839
 20
211.6957556011
 10
497.7400870354
 20
211.4141933753
 10
498.221071009
 20
211.2892697777
 10
498.6887532278
 20
211.3345222186
 10
499.0924530666
 20
211.5450468939
 10
499.3884233838
 20
211.8980301883
 10
499.5445912031
 20
212.3552208848
 10
499.5440333181
 20
212.8670752775
 10
499.3868101842
 20
213.3781260005
 10
499.0899593677
 20
213.8329927783
 10
498.6856492605
 20
214.1823837376
 10
498.2176931363
 20
214.3884369465
 10
497.7368013023
 20
214.4288233426
 10
497.2950858505
 20
214.2991664333
 10
496.940413504
 20
214.0135165564
 10
496.7112185148
 20
213.6028283086
 10
496.6323377164
 20
213.1116061338
  0
LWPOLYLINE
  5
222
330
1F
100
AcDbEntity
  8
0
  6
Continuous
 62
     7
100
AcDbPolyline
 90
       20
 70
   128
 43
0.0
 10
440.7327526849
 20
277.6939610107
 10
440.8127340357
 20
277.1754364537
 10
441.0429103153
 20
276.6857996961
 10
441.3983383524
 20
276.278110478
 10
441.8405020039
 20
275.9965482522
 10
442.3214859775
 20
275.8716246546
 10
442.7891681963
 20
275.9168770955
 10
443.1928680351
 20
276.1274017708
 10
443.4888383523
 20
276.4803850652
 10
443.6450061716
 20
276.9375757617
 10
443.6444482866
 20
277.4494301543
 10
443.4872251527
 20
277.9604808774
 10
443.1903743362
 20
278.4153476552
 10
442.786064229
 20
278.7647386145
 10
442.3181081048
 20
278.9707918234
 10
441.8372162708
 20
279.0111782195
 10
441.395500819
 20
278.8815213102
 10
441.0408284725
 20
278.5958714333
 10
440.8116334833
 20
278.1851831855
 10
440.7327526849
 20
277.6939610107
  0
LWPOLYLINE
  5
223
330
1F
100
AcDbEntity
  8
0
  6
Continuous
 62
     7
100
AcDbPolyline
 90
       20
 70
   128
 43
0.0
 10
437.8176187474
 20
358.9398364508
 10
437.8976000983
 20
358.4213118939
 10
438.1277763779
 20
357.9316751363
 10
438.4832044149
 20
357.5239859182
 10
438.9253680665
 20
357.2424236923
 10
439.4063520401
 20
357.1175000947
 10
439.8740342589
 20
357.1627525357
 10
440.2777340977
 20
357.3732772109
 10
440.5737044149
 20
357.7262605054
 10
440.7298722342
 20
358.1834512019
 10
440.7293143492
 20
358.6953055945
 10
440.5720912153
 20
359.2063563175
 10
440.2752403987
 20
359.6612230954
 10
439.8709302916
 20
360.0106140546
 10
439.4029741674
 20
360.2166672636
 10
438.9220823334
 20
360.2570536597
 10
438.4803668816
 20
360.1273967503
 10
438.125694535
 20
359.8417468735
 10
437.8964995459
 20
359.4310586256
 10
437.8176187474
 20
358.9398364508
  0
LWPOLYLINE
  5
224
330
1F
100
AcDbEntity
  8
0
  6
Continuous
 62
     7
100
AcDbPolyline
 90
       20
 70
   128
 43
0.0
 10
489.5945818285
 20
409.2565005083
 10
489.6745631793
 20
408.7379759514
 10
489.9047394589
 20
408.2483391937
 10
490.2601674959
 20
407.8406499756
 10
490.7023311475
 20
407.5590877498
 10
491.1833151211
 20
407.4341641522
 10
491.6509973399
 20
407.4794165931
 10
492.0546971787
 20
407.6899412684
 10
492.3506674959
 20
408.0429245628
 10
492.5068353152
 20
408.5001152593
 10
492.5062774302
 20
409.011969652
 10
492.3490542963
 20
409.523020375
 10
492.0522034798
 20
409.9778871528
 10
491.6478933726
 20
410.3272781121
 10
491.1799372484
 20
410.533331321
 10
490.6990454144
 20
410.5737177171
 10
490.2573299626
 20
410.4440608078
 10
489.9026576161
 20
410.1584109309
 10
489.6734626269
 20
409.7477226831
 10
489.5945818285
 20
409.2565005083
  0
LWPOLYLINE
  5
225
330
1F
100
AcDbEntity
  8
0
  6
Continuous
 62
     7
100
AcDbPolyline
 90
       20
 70
   128
 43
0.0
 10
565.7333991736
 20
399.1691337915
 10
565.8133805244
 20
398.6506092346
 10
566.043556804
 20
398.160972477
 10
566.3989848411
 20
397.7532832589
 10
566.8411484926
 20
397.471721033
 10
567.3221324662
 20
397.3467974355
 10
567.789814685
 20
397.3920498764
 10
568.1935145238
 20
397.6025745516
 10
568.489484841
 20
397.9555578461
 10
568.6456526603
 20
398.4127485426
 10
568.6450947753
 20
398.9246029352
 10
568.4878716414
 20
399.4356536582
 10
568.1910208249
 20
399.8905204361
 10
567.7867107177
 20
400.2399113954
 10
567.3187545935
 20
400.4459646043
 10
566.8378627595
 20
400.4863510004
 10
566.3961473077
 20
400.3566940911
 10
566.0414749612
 20
400.0710442142
 10
565.812279972
 20
399.6603559663
 10
565.7333991736
 20
399.1691337915
  0
LWPOLYLINE
  5
226
330
1F
100
AcDbEntity
  8
0
  6
Continuous
 62
     7
100
AcDbPolyline
 90
       20
 70
   128
 43
0.0
 10
621.6329842051
 20
334.5867789147
 10
621.7129655559
 20
334.0682543577
 10
621.9431418355
 20
333.5786176001
 10
622.2985698726
 20
333.170928382
 10
622.7407335241
 20
332.8893661561
 10
623.2217174977
 20
332.7644425586
 10
623.6893997165
 20
332.8096949995
 10
624.0930995553
 20
333.0202196747
 10
624.3890698725
 20
333.3732029692
 10
624.5452376918
 20
333.8303936657
 10
624.5446798068
 20
334.3422480583
 10
624.3874566729
 20
334.8532987813
 10
624.0906058564
 20
335.3081655592
 10
623.6862957492
 20
335.6575565185
 10
623.218339625
 20
335.8636097274
 10
622.737447791
 20
335.9039961235
 10
622.2957323392
 20
335.7743392142
 10
621.9410599927
 20
335.4886893373
 10
621.7118650035
 20
335.0780010894
 10
621.6329842051
 20
334.5867789147
  0
LWPOLYLINE
  5
227
330
1F
100
AcDbEntity
  8
0
  6
Continuous
 62
     7
100
AcDbPolyline
 90
       20
 70
   128
 43
0.0
 10
624.5481181425
 20
253.3409034745
 10
624.6280994933
 20
252.8223789176
 10
624.858275773
 20
252.3327421599
 10
625.21370381
 20
251.9250529418
 10
625.6558674616
 20
251.643490716
 10
626.1368514351
 20
251.5185671184
 10
626.6045336539
 20
251.5638195593
 10
627.0082334927
 20
251.7743442346
 10
627.30420381
 20
252.127327529
 10
627.4603716293
 20
252.5845182255
 10
627.4598137442
 20
253.0963726182
 10
627.3025906104
 20
253.6074233412
 10
627.0057397938
 20
254.062290119
 10
626.6014296866
 20
254.4116810783
 10
626.1334735625
 20
254.6177342872
 10
625.6525817285
 20
254.6581206833
 10
625.2108662766
 20
254.528463774
 10
624.8561939301
 20
254.2428138972
 10
624.6269989409
 20
253.8321256493
 10
624.5481181425
 20
253.3409034745
  0
LWPOLYLINE
  5
228
330
1F
100
AcDbEntity
  8
0
  6
Continuous
 62
     7
100
AcDbPolyline
 90
       56
 70
   128
 43
0.0
 10
440.5649909112
 20
324.1620391933
 10
440.6475419884
 20
320.0623201354
 10
440.88615204
 20
315.9424929726
 10
441.2804290303
 20
311.8093265702
 10
441.8297251633
 20
307.6696117096
 10
442.5331379469
 20
303.5301499315
 10
443.3895116757
 20
299.3977423609
 10
444.3974393299
 20
295.2791785323
 10
445.555264887
 20
291.1812252355
 10
446.8610860428
 20
287.1106153969
 10
448.3127573364
 20
283.0740370178
 10
449.9078936758
 20
279.0781221858
 10
451.6438742561
 20
275.1294361786
 10
453.5178468658
 20
271.2344666768
 10
455.5267325727
 20
267.3996131052
 10
457.6672307831
 20
263.6311761181
 10
459.9358246639
 20
259.9353472476
 10
462.3287869213
 20
256.3181987308
 10
464.8421859247
 20
252.7856735332
 10
467.471892166
 20
249.3435755844
 10
470.2135850448
 20
245.9975602424
 10
473.062759967
 20
242.7531250015
 10
476.0147357456
 20
239.6156004603
 10
479.0646622921
 20
236.5901415635
 10
482.2075285853
 20
233.681719132
 10
485.438170904
 20
230.8951116963
 10
488.7512813115
 20
228.234897645
 10
492.141416376
 20
225.7054477029
 10
495.6030061145
 20
223.3109177495
 10
499.1303631442
 20
221.0552419914
 10
502.7176920268
 20
218.9421264978
 10
506.3590987902
 20
216.9750431119
 10
510.0486006128
 20
215.1572237466
 10
513.7801356527
 20
213.4916550744
 10
517.5475730077
 20
211.9810736202
 10
521.3447227881
 20
210.6279612653
 10
525.1653462867
 20
209.4345411698
 10
529.0031662293
 20
208.4027741198
 10
532.8518770876
 20
207.5343553058
 10
536.7051554399
 20
206.8307115377
 10
540.55667036
 20
206.2929989004
 10
544.4000938189
 20
205.9221008542
 10
548.2291110821
 20
205.7186267837
 10
552.0374310841
 20
205.6829109962
 10
555.8187967652
 20
205.8150121728
 10
559.5669953516
 20
206.1147132715
 10
563.2758685628
 20
206.5815218842
 10
566.9393227299
 20
207.2146710456
 10
570.5513388072
 20
208.0131204932
 10
574.105982262
 20
208.9755583768
 10
577.5974128242
 20
210.1004034133
 10
581.0198940826
 20
211.3858074855
 10
584.3678029096
 20
212.8296586777
 10
587.6356386997
 20
214.4295847462
 10
590.8180324072
 20
216.1829570167
 10
592.3638218505
 20
217.1090747741
  0
LWPOLYLINE
  5
229
330
1F
100
AcDbEntity
  8
0
  6
Continuous
 62
     7
100
AcDbPolyline
 90
       24
 70
   128
 43
0.0
 10
475.9168844387
 20
396.6029968433
 10
475.8436851638
 20
396.5529400414
 10
472.8974439049
 20
394.4290954511
 10
470.0542751162
 20
392.1629583393
 10
467.3188501166
 20
389.7582519633
 10
464.6956632022
 20
387.2189272495
 10
462.1890242622
 20
384.5491563017
 10
459.8030516979
 20
381.7533255465
 10
457.5416656558
 20
378.8360285266
 10
455.4085815873
 20
375.8020583532
 10
453.407304144
 20
372.6563998314
 10
451.5411214193
 20
369.4042212699
 10
449.8130995467
 20
366.0508659895
 10
448.2260776616
 20
362.6018435441
 10
446.7826632366
 20
359.0628206687
 10
445.485227798
 20
355.4396119683
 10
444.3359030287
 20
351.7381703656
 10
443.3365772663
 20
347.9645773191
 10
442.4888924005
 20
344.1250328326
 10
441.7942411752
 20
340.2258452673
 10
441.2537649006
 20
336.2734209784
 10
440.8683515777
 20
332.2742537885
 10
440.6386344397
 20
328.2349143187
 10
440.5649909112
 20
324.1620391933
  0
LINE
  5
22A
330
1F
100
AcDbEntity
  8
0
  6
Continuous
 62
     7
100
AcDbLine
 10
955.4889357652
 20
606.9479852819
 30
0.0
 11
959.6192444814
 21
609.6275289402
 31
0.0
  0
LINE
  5
22B
330
1F
100
AcDbEntity
  8
0
  6
Continuous
 62
     7
100
AcDbLine
 10
955.4889357652
 20
606.9479852819
 30
0.0
 11
724.1839767478
 21
646.7005406697
 31
0.0
  0
LINE
  5
22C
330
1F
100
AcDbEntity
  8
0
  6
Continuous
 62
     7
100
AcDbLine
 10
959.6192444814
 20
609.6275289402
 30
0.0
 11
728.3142854641
 21
649.3800843279
 31
0.0
  0
LINE
  5
22D
330
1F
100
AcDbEntity
  8
0
  6
Continuous
 62
     7
100
AcDbLine
 10
955.6125179285
 20
493.5624841433
 30
0.0
 11
955.4889357652
 21
606.9479852819
 31
0.0
  0
LINE
  5
22E
330
1F
100
AcDbEntity
  8
0
  6
Continuous
 62
     7
100
AcDbLine
 10
438.6530576976
 20
460.2265623785
 30
0.0
 11
504.509988307
 21
448.9082521579
 31
0.0
  0
LINE
  5
22F
330
1F
100
AcDbEntity
  8
0
  6
Continuous
 62
     7
100
AcDbLine
 10
520.7742736703
 20
446.1130379632
 30
0.0
 11
530.634744289
 21
444.4183968017
 31
0.0
  0
LINE
  5
230
330
1F
100
AcDbEntity
  8
0
  6
Continuous
 62
     7
100
AcDbLine
 10
586.8610644546
 20
434.7552234909
 30
0.0
 11
700.3585587651
 21
415.249306073
 31
0.0
  0
LINE
  5
231
330
1F
100
AcDbEntity
  8
0
  6
Continuous
 62
     7
100
AcDbLine
 10
716.6228441285
 20
412.4540918783
 30
0.0
 11
837.2826115118
 21
391.7172511882
 31
0.0
  0
LINE
  5
232
330
1F
100
AcDbEntity
  8
0
  6
Continuous
 62
     7
100
AcDbLine
 10
438.4118608536
 20
681.5224540701
 30
0.0
 11
438.531472283
 21
571.7800648191
 31
0.0
  0
LINE
  5
233
330
1F
100
AcDbEntity
  8
0
  6
Continuous
 62
     7
100
AcDbLine
 10
438.5571070909
 20
548.2603637318
 30
0.0
 11
438.6530576976
 21
460.2265623785
 31
0.0
  0
LINE
  5
234
330
1F
100
AcDbEntity
  8
0
  6
Continuous
 62
     7
100
AcDbLine
 10
959.7428266447
 20
496.2420278015
 30
0.0
 11
959.6192444814
 21
609.6275289402
 31
0.0
  0
LINE
  5
235
330
1F
100
AcDbEntity
  8
0
  6
PHANTOM
 62
     8
370
     0
100
AcDbLine
 10
847.5461911126
 20
416.892446838
 30
0.0
 11
847.8029675776
 21
181.3023957944
 31
0.0
  0
LINE
  5
236
330
1F
100
AcDbEntity
  8
0
  6
PHANTOM
 62
     8
370
     0
100
AcDbLine
 10
841.065974867
 20
180.5772366155
 30
0.0
 11
840.809198402
 21
416.1672876591
 31
0.0
  0
LINE
  5
237
330
1F
100
AcDbEntity
  8
0
  6
PHANTOM
 62
     8
370
     0
100
AcDbLine
 10
1026.783011947
 20
297.415954317
 30
0.0
 11
1026.526235482
 21
533.0060053606
 31
0.0
  0
LINE
  5
238
330
1F
100
AcDbEntity
  8
0
  6
PHANTOM
 62
     8
370
     0
100
AcDbLine
 10
63.0353804546
 20
549.8371272874
 30
0.0
 11
63.2921569196
 21
314.2470762438
 31
0.0
  0
LINE
  5
239
330
1F
100
AcDbEntity
  8
0
  6
PHANTOM
 62
     8
370
     0
100
AcDbLine
 10
709.6760098711
 20
74.4475841617
 30
0.0
 11
709.6801182946
 21
70.678143345
 31
0.0
  0
LWPOLYLINE
  5
23A
330
1F
100
AcDbEntity
  8
0
  6
PHANTOM
 62
     8
370
     0
100
AcDbPolyline
 90
        9
 70
   128
 43
0.0
 10
709.6801182946
 20
70.678143345
 10
709.1471019056
 20
70.402394973
 10
708.46385099
 20
70.166583418
 10
707.6566224974
 20
69.9797707857
 10
706.7564377661
 20
69.849136181
 10
705.7978903903
 20
69.7796998184
 10
704.8178168083
 20
69.7741300984
 10
703.8538806981
 20
69.8326410621
 10
702.9431255839
 20
69.9529841661
  0
LINE
  5
23B
330
1F
100
AcDbEntity
  8
0
  6
PHANTOM
 62
     8
370
     0
100
AcDbLine
 10
702.9431255839
 20
69.9529841661
 30
0.0
 11
702.9390171605
 21
73.7224249828
 31
0.0
  0
ARC
  5
23C
330
1F
100
AcDbEntity
  8
0
  6
PHANTOM
 62
     8
370
     0
100
AcDbCircle
 10
705.7177078407
 20
70.5185207779
 30
0.0
 40
3.96562428491217
100
AcDbArc
 50
304.4148112686
 51
2.3068677658
  0
LWPOLYLINE
  5
23D
330
1F
100
AcDbEntity
  8
0
  6
PHANTOM
 62
     8
370
     0
100
AcDbPolyline
 90
        8
 70
   128
 43
0.0
 10
702.9431255839
 20
69.9529841661
 10
702.9882178781
 20
69.0623610988
 10
703.119758105
 20
68.2631715987
 10
703.3326912474
 20
67.5861280703
 10
703.6188344041
 20
67.0572489165
 10
703.967191254
 20
66.6968586667
 10
704.3643746388
 20
66.518806916
 10
704.3908472161
 20
66.5138644639
  0
LINE
  5
23E
330
1F
100
AcDbEntity
  8
0
  6
PHANTOM
 62
     8
370
     0
100
AcDbLine
 10
178.7385598164
 20
163.8126150218
 30
0.0
 11
178.7426682399
 21
160.0431742051
 31
0.0
  0
LINE
  5
23F
330
1F
100
AcDbEntity
  8
0
  6
PHANTOM
 62
     8
370
     0
100
AcDbLine
 10
178.7426682399
 20
160.0431742051
 30
0.0
 11
702.9431255839
 21
69.9529841661
 31
0.0
  0
LWPOLYLINE
  5
240
330
1F
100
AcDbEntity
  8
0
  6
PHANTOM
 62
     8
370
     0
100
AcDbPolyline
 90
        8
 70
   128
 43
0.0
 10
178.7426682399
 20
160.0431742051
 10
178.7877605341
 20
159.1525511378
 10
178.9193007609
 20
158.3533616378
 10
179.1322339033
 20
157.6763181093
 10
179.41837706
 20
157.1474389555
 10
179.7667339099
 20
156.7870487057
 10
180.1639172947
 20
156.608996955
 10
180.1903898721
 20
156.6040545029
  0
LINE
  5
241
330
1F
100
AcDbEntity
  8
0
  6
PHANTOM
 62
     8
370
     0
100
AcDbLine
 10
888.6601626639
 20
186.7917018676
 30
0.0
 11
888.6560542405
 21
190.5611426843
 31
0.0
  0
LINE
  5
242
330
1F
100
AcDbEntity
  8
0
  6
PHANTOM
 62
     8
370
     0
100
AcDbLine
 10
709.6801182946
 20
70.678143345
 30
0.0
 11
888.6601626639
 21
186.7917018676
 31
0.0
  0
ARC
  5
243
330
1F
100
AcDbEntity
  8
0
  6
PHANTOM
 62
     8
370
     0
100
AcDbCircle
 10
884.662759916
 20
186.6496320602
 30
0.0
 40
3.999926569225326
100
AcDbArc
 50
304.6862134647
 51
2.0354655697
  0
LWPOLYLINE
  5
244
330
1F
100
AcDbEntity
  8
0
  6
PHANTOM
 62
     8
370
     0
100
AcDbPolyline
 90
        7
 70
   128
 43
0.0
 10
178.7426682399
 20
160.0431742051
 10
177.9200939299
 20
160.2207247314
 10
177.2173114937
 20
160.4486595127
 10
176.661328466
 20
160.7182191434
 10
176.2735109628
 20
161.0190445979
 10
176.0687625934
 20
161.3395753228
 10
176.0372871632
 20
161.5263599282
  0
ARC
  5
245
330
1F
100
AcDbEntity
  8
0
  6
PHANTOM
 62
     8
370
     0
100
AcDbCircle
 10
888.2730065057
 20
187.6591194353
 30
0.0
 40
0.9498963772845921
100
AcDbArc
 50
294.0527323613
 51
354.0484858576
  0
LWPOLYLINE
  5
246
330
1F
100
AcDbEntity
  8
0
  6
PHANTOM
 62
     8
370
     0
100
AcDbPolyline
 90
        9
 70
   128
 43
0.0
 10
702.321885504
 20
639.9350584524
 10
702.3649740141
 20
640.882888942
 10
702.4945874611
 20
641.8515022596
 10
702.705744873
 20
642.8036751388
 10
702.9903315889
 20
643.7028161097
 10
703.3374111009
 20
644.5143716891
 10
703.733645338
 20
645.2071542512
 10
704.1638072406
 20
645.7545405507
 10
704.6113659281
 20
646.1354948389
  0
ARC
  5
247
330
1F
100
AcDbEntity
  8
0
  6
PHANTOM
 62
     8
370
     0
100
AcDbCircle
 10
703.4183545728
 20
640.6224505609
 30
0.0
 40
5.640650078249303
100
AcDbArc
 50
0.3836277512
 51
77.789585347
  0
LWPOLYLINE
  5
248
330
1F
100
AcDbEntity
  8
0
  6
PHANTOM
 62
     8
370
     0
100
AcDbPolyline
 90
        9
 70
   128
 43
0.0
 10
702.321885504
 20
639.9350584524
 10
703.2326406182
 20
639.8147153484
 10
704.1965767284
 20
639.7562043847
 10
705.1766503104
 20
639.7617741047
 10
706.1351976861
 20
639.8312104673
 10
707.0353824175
 20
639.9618450721
 10
707.8426109101
 20
640.1486577043
 10
708.5258618256
 20
640.3844692593
 10
709.0588782146
 20
640.6602176313
  0
LINE
  5
249
330
1F
100
AcDbEntity
  8
0
  6
PHANTOM
 62
     8
370
     0
100
AcDbLine
 10
702.3259939274
 20
636.1656176357
 30
0.0
 11
702.321885504
 21
639.9350584524
 31
0.0
  0
LINE
  5
24A
330
1F
100
AcDbEntity
  8
0
  6
PHANTOM
 62
     8
370
     0
100
AcDbLine
 10
709.0588782146
 20
640.6602176313
 30
0.0
 11
709.062986638
 21
636.8907768146
 31
0.0
  0
LINE
  5
24B
330
1F
100
AcDbEntity
  8
0
  6
PHANTOM
 62
     8
370
     0
100
AcDbLine
 10
702.321885504
 20
639.9350584524
 30
0.0
 11
178.1214281599
 21
730.0252484914
 31
0.0
  0
LWPOLYLINE
  5
24C
330
1F
100
AcDbEntity
  8
0
  6
PHANTOM
 62
     8
370
     0
100
AcDbPolyline
 90
        9
 70
   128
 43
0.0
 10
178.1214281599
 20
730.0252484914
 10
178.16451667
 20
730.973078981
 10
178.294130117
 20
731.9416922987
 10
178.5052875289
 20
732.8938651778
 10
178.7898742449
 20
733.7930061488
 10
179.1369537568
 20
734.6045617282
 10
179.5331879939
 20
735.2973442903
 10
179.9633498965
 20
735.8447305897
 10
180.4109085841
 20
736.225684878
  0
LINE
  5
24D
330
1F
100
AcDbEntity
  8
0
  6
PHANTOM
 62
     8
370
     0
100
AcDbLine
 10
180.4109085841
 20
736.225684878
 30
0.0
 11
704.6113659281
 21
646.1354948389
 31
0.0
  0
LINE
  5
24E
330
1F
100
AcDbEntity
  8
0
  6
PHANTOM
 62
     8
370
     0
100
AcDbLine
 10
178.1214281599
 20
730.0252484914
 30
0.0
 11
178.1255365833
 21
726.2558076747
 31
0.0
  0
LINE
  5
24F
330
1F
100
AcDbEntity
  8
0
  6
PHANTOM
 62
     8
370
     0
100
AcDbLine
 10
704.6113659281
 20
646.1354948389
 30
0.0
 11
883.5914102975
 21
762.2490533615
 31
0.0
  0
ARC
  5
250
330
1F
100
AcDbEntity
  8
0
  6
PHANTOM
 62
     8
370
     0
100
AcDbCircle
 10
882.3983989422
 20
756.7360090835
 30
0.0
 40
5.6406500782497
100
AcDbArc
 50
0.3836277512
 51
77.789585347
  0
LINE
  5
251
330
1F
100
AcDbEntity
  8
0
  6
PHANTOM
 62
     8
370
     0
100
AcDbLine
 10
888.038922584
 20
756.7737761539
 30
0.0
 11
709.0588782146
 21
640.6602176313
 31
0.0
  0
LINE
  5
252
330
1F
100
AcDbEntity
  8
0
  6
PHANTOM
 62
     8
370
     0
100
AcDbLine
 10
888.0430310074
 20
753.0043353372
 30
0.0
 11
888.038922584
 21
756.7737761539
 31
0.0
  0
LINE
  5
253
330
1F
100
AcDbEntity
  8
0
  6
PHANTOM
 62
     8
370
     0
100
AcDbLine
 10
359.3909529534
 20
852.3392434006
 30
0.0
 11
180.4109085841
 21
736.225684878
 31
0.0
  0
LINE
  5
254
330
1F
100
AcDbEntity
  8
0
  6
PHANTOM
 62
     8
370
     0
100
AcDbLine
 10
883.5914102975
 20
762.2490533615
 30
0.0
 11
359.3909529534
 21
852.3392434006
 31
0.0
  0
ARC
  5
255
330
1F
100
AcDbEntity
  8
0
  6
PHANTOM
 62
     8
370
     0
100
AcDbCircle
 10
179.7051343595
 20
732.5414845318
 30
0.0
 40
3.751193069720265
100
AcDbArc
 50
79.1553583479
 51
122.4065024949
  0
LWPOLYLINE
  5
256
330
1F
100
AcDbEntity
  8
0
  6
PHANTOM
 62
     8
370
     0
100
AcDbPolyline
 90
        7
 70
   128
 43
0.0
 10
175.4160470832
 20
731.5084342146
 10
175.4475225134
 20
731.3216496091
 10
175.6522708829
 20
731.0011188842
 10
176.040088386
 20
730.7002934297
 10
176.5960714137
 20
730.4307337991
 10
177.29885385
 20
730.2027990177
 10
178.1214281599
 20
730.0252484914
  0
ARC
  5
257
330
1F
100
AcDbEntity
  8
0
  6
PHANTOM
 62
     8
370
     0
100
AcDbCircle
 10
358.6851787289
 20
848.6550430545
 30
0.0
 40
3.751193069722156
100
AcDbArc
 50
79.1553583479
 51
122.4065024949
  0
LWPOLYLINE
  5
258
330
1F
100
AcDbEntity
  8
0
  6
PHANTOM
 62
     8
370
     0
100
AcDbPolyline
 90
        3
 70
   128
 43
0.0
 10
883.5914102975
 20
762.2490533615
 10
884.0391663405
 20
762.448935779
 10
884.4434401481
 20
762.4650074085
  0
ARC
  5
259
330
1F
100
AcDbEntity
  8
0
  6
PHANTOM
 62
     8
370
     0
100
AcDbCircle
 10
887.6517664257
 20
757.6411937216
 30
0.0
 40
0.9498963772862674
100
AcDbArc
 50
294.0527323614
 51
354.0484858576
  0
LWPOLYLINE
  5
25A
330
1F
100
AcDbEntity
  8
0
  6
PHANTOM
 62
     8
370
     0
100
AcDbPolyline
 90
        3
 70
   128
 43
0.0
 10
359.3909529534
 20
852.3392434006
 10
359.8387089964
 20
852.539125818
 10
360.242982804
 20
852.5551974475
  0
LINE
  5
25B
330
1F
100
AcDbEntity
  8
0
  6
PHANTOM
 62
     8
370
     0
100
AcDbLine
 10
392.6020110253
 20
319.2374315022
 30
0.0
 11
395.7681560678
 21
318.6932911746
 31
0.0
  0
LINE
  5
25C
330
1F
100
AcDbEntity
  8
0
  6
PHANTOM
 62
     8
370
     0
100
AcDbLine
 10
504.3993845747
 20
550.3861619083
 30
0.0
 11
512.3956627375
 21
549.0119047721
 31
0.0
  0
LINE
  5
25D
330
1F
100
AcDbEntity
  8
0
  6
PHANTOM
 62
     8
370
     0
100
AcDbLine
 10
504.5164746427
 20
442.9570986324
 30
0.0
 11
512.5127528056
 21
441.5828414962
 31
0.0
  0
LINE
  5
25E
330
1F
100
AcDbEntity
  8
0
  6
PHANTOM
 62
     8
370
     0
100
AcDbLine
 10
588.4505814835
 20
285.5784854172
 30
0.0
 11
591.616726526
 21
285.0343450897
 31
0.0
  0
LINE
  5
25F
330
1F
100
AcDbEntity
  8
0
  6
PHANTOM
 62
     8
370
     0
100
AcDbLine
 10
677.4702408593
 20
347.2937886819
 30
0.0
 11
685.4665190222
 21
345.9195315458
 31
0.0
  0
LINE
  5
260
330
1F
100
AcDbEntity
  8
0
  6
PHANTOM
 62
     8
370
     0
100
AcDbLine
 10
700.3650451009
 20
409.2981525474
 30
0.0
 11
708.3613232638
 21
407.9238954112
 31
0.0
  0
INSERT
  5
266
330
1F
100
AcDbEntity
  8
SLD-0_0
100
AcDbBlockReference
  2
SW_NOTE_9
 10
99.5228095573
 20
637.4896571832
 30
0.0
  0
LEADER
  5
270
330
1F
100
AcDbEntity
  8
SLD-0_0
100
AcDbLeader
  3
SLDDIMSTYLE0
 76
     2
 10
148.2470885648
 20
533.4183886243
 30
0.0
 10
99.5228095573
 20
637.4896571832
 30
0.0
  0
INSERT
  5
276
330
1F
100
AcDbEntity
  8
SLD-0_0
100
AcDbBlockReference
  2
SW_NOTE_10
 10
556.6024027309
 20
860.0388263111
 30
0.0
  0
LEADER
  5
277
330
1F
100
AcDbEntity
  8
SLD-0_0
100
AcDbLeader
  3
SLDDIMSTYLE0
 76
     2
 10
475.598929974
 20
783.8000965057
 30
0.0
 10
556.6024027309
 20
860.0388263111
 30
0.0
  0
INSERT
  5
27D
330
1F
100
AcDbEntity
  8
SLD-0_0
100
AcDbBlockReference
  2
SW_NOTE_11
 10
163.8757399961
 20
683.7934842071
 30
0.0
  0
LEADER
  5
27E
330
1F
100
AcDbEntity
  8
SLD-0_0
100
AcDbLeader
  3
SLDDIMSTYLE0
 76
     2
 10
260.2794006971
 20
584.5001089579
 30
0.0
 10
163.8757399961
 20
683.7934842071
 30
0.0
  0
INSERT
  5
284
330
1F
100
AcDbEntity
  8
SLD-0_0
100
AcDbBlockReference
  2
SW_NOTE_12
 10
1003.8158998821
 20
629.2710748938
 30
0.0
  0
LEADER
  5
285
330
1F
100
AcDbEntity
  8
SLD-0_0
100
AcDbLeader
  3
SLDDIMSTYLE0
 76
     2
 10
800.7131480342
 20
496.676248035
 30
0.0
 10
1003.8158998821
 20
629.2710748938
 30
0.0
  0
INSERT
  5
28B
330
1F
100
AcDbEntity
  8
SLD-0_0
100
AcDbBlockReference
  2
SW_NOTE_13
 10
414.3434182481
 20
93.5847136355
 30
0.0
  0
LEADER
  5
28C
330
1F
100
AcDbEntity
  8
SLD-0_0
100
AcDbLeader
  3
SLDDIMSTYLE0
 76
     2
 10
608.7108758136
 20
197.3053194924
 30
0.0
 10
414.3434182481
 20
93.5847136355
 30
0.0
  0
INSERT
  5
292
330
1F
100
AcDbEntity
  8
SLD-0_0
100
AcDbBlockReference
  2
SW_NOTE_14
 10
754.7935505905
 20
349.2872526703
 30
0.0
  0
LEADER
  5
293
330
1F
100
AcDbEntity
  8
SLD-0_0
100
AcDbLeader
  3
SLDDIMSTYLE0
 76
     2
 10
705.631457143
 20
354.673634352
 30
0.0
 10
754.7935505905
 20
349.2872526703
 30
0.0
  0
INSERT
  5
299
330
1F
100
AcDbEntity
  8
SLD-0_0
100
AcDbBlockReference
  2
SW_NOTE_15
 10
307.3096859952
 20
524.4677261723
 30
0.0
  0
LEADER
  5
29A
330
1F
100
AcDbEntity
  8
SLD-0_0
100
AcDbLeader
  3
SLDDIMSTYLE0
 76
     2
 10
385.5850961131
 20
451.4142619537
 30
0.0
 10
307.3096859952
 20
524.4677261723
 30
0.0
  0
INSERT
  5
2A0
330
1F
100
AcDbEntity
  8
SLD-0_0
100
AcDbBlockReference
  2
SW_NOTE_16
 10
469.5997145329
 20
324.0080489351
 30
0.0
  0
LEADER
  5
2A1
330
1F
100
AcDbEntity
  8
SLD-0_0
100
AcDbLeader
  3
SLDDIMSTYLE0
 76
     2
 10
473.4726394727
 20
376.5063467093
 30
0.0
 10
469.5997145329
 20
324.0080489351
 30
0.0
  0
INSERT
  5
2A7
330
1F
100
AcDbEntity
  8
SLD-0_0
100
AcDbBlockReference
  2
SW_NOTE_17
 10
892.819735785
 20
662.5668253368
 30
0.0
  0
LEADER
  5
2A8
330
1F
100
AcDbEntity
  8
SLD-0_0
100
AcDbLeader
  3
SLDDIMSTYLE0
 76
     2
 10
749.5746608543
 20
573.5445912985
 30
0.0
 10
892.819735785
 20
662.5668253368
 30
0.0
  0
INSERT
  5
2AE
330
1F
100
AcDbEntity
  8
SLD-0_0
100
AcDbBlockReference
  2
SW_NOTE_18
 10
1052.6872318846
 20
433.625738836
 30
0.0
  0
LEADER
  5
2AF
330
1F
100
AcDbEntity
  8
SLD-0_0
100
AcDbLeader
  3
SLDDIMSTYLE0
 76
     2
 10
962.7046498672
 20
380.2631017757
 30
0.0
 10
1052.6872318846
 20
433.625738836
 30
0.0
  0
INSERT
  5
2B5
330
1F
100
AcDbEntity
  8
SLD-0_0
100
AcDbBlockReference
  2
SW_NOTE_19
 10
811.3853715086
 20
94.5834978803
 30
0.0
  0
LEADER
  5
2B6
330
1F
100
AcDbEntity
  8
SLD-0_0
100
AcDbLeader
  3
SLDDIMSTYLE0
 76
     2
 10
723.1466874082
 20
149.1953473562
 30
0.0
 10
811.3853715086
 20
94.5834978803
 30
0.0
  0
INSERT
  5
2BC
330
1F
100
AcDbEntity
  8
SLD-0_0
100
AcDbBlockReference
  2
SW_NOTE_20
 10
185.5792324666
 20
206.9604861389
 30
0.0
  0
LEADER
  5
2BD
330
1F
100
AcDbEntity
  8
SLD-0_0
100
AcDbLeader
  3
SLDDIMSTYLE0
 76
     2
 10
303.1993536389
 20
248.0535151251
 30
0.0
 10
185.5792324666
 20
206.9604861389
 30
0.0
  0
LINE
  5
2BE
330
1F
100
AcDbEntity
  8
0
  6
Continuous
 62
     7
100
AcDbLine
 10
218.5350177342
 20
1876.6954511201
 30
0.0
 11
218.5350177342
 21
1076.6954511201
 31
0.0
  0
LINE
  5
2BF
330
1F
100
AcDbEntity
  8
0
  6
Continuous
 62
     7
100
AcDbLine
 10
1418.5350177342
 20
1876.6954511201
 30
0.0
 11
218.5350177342
 21
1876.6954511201
 31
0.0
  0
LINE
  5
2C0
330
1F
100
AcDbEntity
  8
0
  6
Continuous
 62
     7
100
AcDbLine
 10
1418.5350177342
 20
1076.6954511201
 30
0.0
 11
1418.5350177342
 21
1876.6954511201
 31
0.0
  0
LINE
  5
2C1
330
1F
100
AcDbEntity
  8
0
  6
Continuous
 62
     7
100
AcDbLine
 10
218.5350177342
 20
1076.6954511201
 30
0.0
 11
1418.5350177342
 21
1076.6954511201
 31
0.0
  0
DIMENSION
  5
2C2
330
1F
100
AcDbEntity
  8
CAJETIN
100
AcDbDimension
  2
_D
 10
1442.5350177342
 20
1876.6954511201
 30
0.0
 11
1442.5350177342
 21
1470.0757081106
 31
0.0
 70
   160
  1
<>
 71
     2
 42
-1.0
  3
SLDDIMSTYLE1
100
AcDbAlignedDimension
 13
1418.5350177342
 23
1076.6954511201
 33
0.0
 14
1418.5350177342
 24
1876.6954511201
 34
0.0
 50
90.0
100
AcDbRotatedDimension
  0
DIMENSION
  5
2CD
330
1F
100
AcDbEntity
  8
CAJETIN
100
AcDbDimension
  2
_D_1
 10
1418.5350177342
 20
1052.6954511201
 30
0.0
 11
818.5350177342
 21
1052.6954511201
 31
0.0
 70
   160
  1
<>
 71
     2
 42
-1.0
  3
SLDDIMSTYLE1
100
AcDbAlignedDimension
 13
218.5350177342
 23
1076.6954511201
 33
0.0
 14
1418.5350177342
 24
1076.6954511201
 34
0.0
 50
0.0
100
AcDbRotatedDimension
  0
LINE
  5
2D7
330
1F
100
AcDbEntity
  8
0
  6
Continuous
 62
     7
100
AcDbLine
 10
1608.6222375045
 20
1876.6954511201
 30
0.0
 11
1608.6222375045
 21
1076.6954511201
 31
0.0
  0
LINE
  5
2D8
330
1F
100
AcDbEntity
  8
0
  6
Continuous
 62
     7
100
AcDbLine
 10
2108.6222375045
 20
1876.6954511201
 30
0.0
 11
1608.6222375045
 21
1876.6954511201
 31
0.0
  0
LINE
  5
2D9
330
1F
100
AcDbEntity
  8
0
  6
Continuous
 62
     7
100
AcDbLine
 10
2108.6222375045
 20
1076.6954511201
 30
0.0
 11
2108.6222375045
 21
1876.6954511201
 31
0.0
  0
LINE
  5
2DA
330
1F
100
AcDbEntity
  8
0
  6
Continuous
 62
     7
100
AcDbLine
 10
1608.6222375045
 20
1076.6954511201
 30
0.0
 11
2108.6222375045
 21
1076.6954511201
 31
0.0
  0
DIMENSION
  5
2DB
330
1F
100
AcDbEntity
  8
CAJETIN
100
AcDbDimension
  2
_D_2
 10
2108.6222375045
 20
1052.6954511201
 30
0.0
 11
1853.1057849966
 21
1052.6954511201
 31
0.0
 70
   160
  1
<>
 71
     2
 42
-1.0
  3
SLDDIMSTYLE1
100
AcDbAlignedDimension
 13
1608.6222375045
 23
1076.6954511201
 33
0.0
 14
2108.6222375045
 24
1076.6954511201
 34
0.0
 50
0.0
100
AcDbRotatedDimension
  0
DIMENSION
  5
2E5
330
1F
100
AcDbEntity
  8
CAJETIN
100
AcDbDimension
  2
_D_3
 10
2132.6222375045
 20
1876.6954511201
 30
0.0
 11
2132.6222375045
 21
1474.4888701169
 31
0.0
 70
   160
  1
<>
 71
     2
 42
-1.0
  3
SLDDIMSTYLE1
100
AcDbAlignedDimension
 13
2108.6222375045
 23
1076.6954511201
 33
0.0
 14
2108.6222375045
 24
1876.6954511201
 34
0.0
 50
90.0
100
AcDbRotatedDimension
  0
LINE
  5
2EF
330
1F
100
AcDbEntity
  8
0
  6
Continuous
 62
     7
100
AcDbLine
 10
2239.5018559507
 20
1726.6954511201
 30
0.0
 11
3403.5018559507
 21
1726.6954511201
 31
0.0
  0
LINE
  5
2F0
330
1F
100
AcDbEntity
  8
0
  6
Continuous
 62
     7
100
AcDbLine
 10
2239.5018559507
 20
1226.6954511201
 30
0.0
 11
2239.5018559507
 21
1726.6954511201
 31
0.0
  0
LINE
  5
2F1
330
1F
100
AcDbEntity
  8
0
  6
Continuous
 62
     7
100
AcDbLine
 10
3403.5018559507
 20
1226.6954511201
 30
0.0
 11
2239.5018559507
 21
1226.6954511201
 31
0.0
  0
LINE
  5
2F2
330
1F
100
AcDbEntity
  8
0
  6
Continuous
 62
     7
100
AcDbLine
 10
3403.5018559507
 20
1726.6954511201
 30
0.0
 11
3403.5018559507
 21
1226.6954511201
 31
0.0
  0
DIMENSION
  5
2F3
330
1F
100
AcDbEntity
  8
CAJETIN
100
AcDbDimension
  2
_D_4
 10
2239.5018559507
 20
1202.6954511201
 30
0.0
 11
2813.7788224396
 21
1202.6954511201
 31
0.0
 70
   160
  1
<>
 71
     2
 42
-1.0
  3
SLDDIMSTYLE1
100
AcDbAlignedDimension
 13
3403.5018559507
 23
1226.6954511201
 33
0.0
 14
2239.5018559507
 24
1226.6954511201
 34
0.0
100
AcDbRotatedDimension
  0
DIMENSION
  5
2FD
330
1F
100
AcDbEntity
  8
CAJETIN
100
AcDbDimension
  2
_D_5
 10
3427.5018559507
 20
1226.6954511201
 30
0.0
 11
3427.5018559507
 21
1474.4888701169
 31
0.0
 70
   160
  1
<>
 71
     2
 42
-1.0
  3
SLDDIMSTYLE1
100
AcDbAlignedDimension
 13
3403.5018559507
 23
1726.6954511201
 33
0.0
 14
3403.5018559507
 24
1226.6954511201
 34
0.0
 50
90.0
100
AcDbRotatedDimension
  0
LINE
  5
307
330
1F
100
AcDbEntity
  8
0
  6
Continuous
 62
     7
100
AcDbLine
 10
1321.2833496983
 20
431.1673820238
 30
0.0
 11
1803.2833496983
 21
431.1673820238
 31
0.0
  0
LINE
  5
308
330
1F
100
AcDbEntity
  8
0
  6
Continuous
 62
     7
100
AcDbLine
 10
1803.2833496983
 20
431.1673820238
 30
0.0
 11
1803.2833496983
 21
931.1673820238
 31
0.0
  0
CIRCLE
  5
309
330
1F
100
AcDbEntity
  8
0
  6
Continuous
 62
     7
100
AcDbCircle
 10
1571.2833496983
 20
681.1673820238
 30
0.0
 40
231.4999999999998
  0
LINE
  5
30A
330
1F
100
AcDbEntity
  8
0
  6
Continuous
 62
     7
100
AcDbLine
 10
1321.2833496983
 20
931.1673820238
 30
0.0
 11
1321.2833496983
 21
431.1673820238
 31
0.0
  0
LINE
  5
30B
330
1F
100
AcDbEntity
  8
0
  6
Continuous
 62
     7
100
AcDbLine
 10
1803.2833496983
 20
931.1673820238
 30
0.0
 11
1321.2833496983
 21
931.1673820238
 31
0.0
  0
CIRCLE
  5
30C
330
1F
100
AcDbEntity
  8
0
  6
Continuous
 62
     7
100
AcDbCircle
 10
1571.2833496983
 20
681.1673820238
 30
0.0
 40
213.9999999999998
  0
CIRCLE
  5
30D
330
1F
100
AcDbEntity
  8
0
  6
Continuous
 62
     7
100
AcDbCircle
 10
1477.9016528618
 20
884.8828189425
 30
0.0
 40
3.299999999999955
  0
CIRCLE
  5
30E
330
1F
100
AcDbEntity
  8
0
  6
Continuous
 62
     7
100
AcDbCircle
 10
1649.3010855041
 20
891.2467799732
 30
0.0
 40
3.299999999999727
  0
CIRCLE
  5
30F
330
1F
100
AcDbEntity
  8
0
  6
Continuous
 62
     7
100
AcDbCircle
 10
1774.998786617
 20
774.5490788603
 30
0.0
 40
3.299999999999955
  0
CIRCLE
  5
310
330
1F
100
AcDbEntity
  8
0
  6
Continuous
 62
     7
100
AcDbCircle
 10
1781.3627476477
 20
603.1496462179
 30
0.0
 40
3.300000000000182
  0
CIRCLE
  5
311
330
1F
100
AcDbEntity
  8
0
  6
Continuous
 62
     7
100
AcDbCircle
 10
1664.6650465348
 20
477.451945105
 30
0.0
 40
3.299999999999955
  0
CIRCLE
  5
312
330
1F
100
AcDbEntity
  8
0
  6
Continuous
 62
     7
100
AcDbCircle
 10
1493.2656138924
 20
471.0879840743
 30
0.0
 40
3.299999999999727
  0
CIRCLE
  5
313
330
1F
100
AcDbEntity
  8
0
  6
Continuous
 62
     7
100
AcDbCircle
 10
1367.5679127795
 20
587.7856851873
 30
0.0
 40
3.300000000000182
  0
CIRCLE
  5
314
330
1F
100
AcDbEntity
  8
0
  6
Continuous
 62
     7
100
AcDbCircle
 10
1361.2039517489
 20
759.1851178296
 30
0.0
 40
3.299999999999955
  0
DIMENSION
  5
315
330
1F
100
AcDbEntity
  8
SLD-0_0
100
AcDbDimension
  2
_D_6
 10
1827.2833496983
 20
431.1673820238
 30
0.0
 11
1827.2833496983
 21
679.1462051533
 31
0.0
 70
   160
  1
<>
 71
     2
 42
-1.0
  3
SLDDIMSTYLE1
100
AcDbAlignedDimension
 13
1803.2833496983
 23
931.1673820238
 33
0.0
 14
1803.2833496983
 24
431.1673820238
 34
0.0
 50
90.0
100
AcDbRotatedDimension
  0
DIMENSION
  5
31F
330
1F
100
AcDbEntity
  8
SLD-0_0
100
AcDbDimension
  2
_D_7
 10
1803.2833496983
 20
407.1673820238
 30
0.0
 11
1560.8159221212
 21
407.1673820238
 31
0.0
 70
   160
  1
<>
 71
     2
 42
-1.0
  3
SLDDIMSTYLE1
100
AcDbAlignedDimension
 13
1321.2833496983
 23
431.1673820238
 33
0.0
 14
1803.2833496983
 24
431.1673820238
 34
0.0
100
AcDbRotatedDimension
  0
DIMENSION
  5
329
330
1F
100
AcDbEntity
  8
SLD-0_0
100
AcDbDimension
  2
_D_8
 10
1404.9484010156
 20
546.5245773636
 30
0.0
 11
1510.7502564823
 21
632.1677869719
 31
0.0
 70
   163
  1
<>
 71
     1
 42
-1.0
  3
SLDDIMSTYLE2
100
AcDbDiametricDimension
 15
1737.6182983809
 25
815.8101866839
 35
0.0
 40
0.0
  0
DIMENSION
  5
333
330
1F
100
AcDbEntity
  8
SLD-0_0
100
AcDbDimension
  2
_D_9
 10
1480.9725723899
 20
883.6747406123
 30
0.0
 11
1411.1114403291
 21
910.7847878567
 31
0.0
 70
   163
  1
<>
 71
     1
 42
-1.0
  3
SLDDIMSTYLE3
100
AcDbDiametricDimension
 15
1474.8307333337
 25
886.0908972727
 35
0.0
 40
0.0
  0
DIMENSION
  5
33D
330
1F
100
AcDbEntity
  8
CAJETIN
100
AcDbDimension
  2
_D_10
 10
1370.4714926014
 20
780.6395821218
 30
0.0
 11
1452.4067084859
 21
740.0529688385
 31
0.0
 70
   163
  1
<>
 71
     1
 42
-1.0
  3
SLDDIMSTYLE4
100
AcDbDiametricDimension
 15
1772.0952067952
 25
581.6951819257
 35
0.0
 40
0.0
  0
DIMENSION
  5
347
330
1F
100
AcDbEntity
  8
CAJETIN
100
AcDbDimension
  2
_D_11
 10
1803.2833496983
 20
941.1673820238
 30
0.0
 11
1688.8925900945
 21
941.1673820238
 31
0.0
 70
   160
  1
<>
 71
     2
 42
-1.0
  3
SLDDIMSTYLE1
100
AcDbAlignedDimension
 13
1571.2833496983
 23
951.954601331
 33
0.0
 14
1803.2833496983
 24
931.1673820238
 34
0.0
100
AcDbRotatedDimension
  0
DIMENSION
  5
350
330
1F
100
AcDbEntity
  8
SLD-0_0
 62
     7
100
AcDbDimension
  2
_D_12
 10
1675.9125573463
 20
887.6739894409
 30
0.0
 11
1632.6614312252
 21
802.3092567647
 31
0.0
 70
   163
  1
<>
 71
     1
 42
-1.0
  3
SLDDIMSTYLE5
100
AcDbDiametricDimension
 15
1466.6541420503
 25
474.6607746066
 35
0.0
 40
0.0
  0
INSERT
  5
396
330
1F
100
AcDbEntity
  8
CAJETIN
100
AcDbBlockReference
  2
SW_CENTERMARKSYMBOL_0
 10
1649.3010855041
 20
891.2467799732
 30
0.0
  0
INSERT
  5
3A2
330
1F
100
AcDbEntity
  8
CAJETIN
100
AcDbBlockReference
  2
SW_CENTERMARKSYMBOL_1
 10
1571.2833496983
 20
681.1673820238
 30
0.0
  0
LINE
  5
3A3
330
1F
100
AcDbEntity
  8
0
  6
Continuous
 62
     7
100
AcDbLine
 10
2246.1745311351
 20
502.2646816271
 30
0.0
 11
2655.1745311351
 21
502.2646816271
 31
0.0
  0
ARC
  5
3A4
330
1F
100
AcDbEntity
  8
0
  6
Continuous
 62
     7
100
AcDbCircle
 10
2655.1745311351
 20
602.2646816271
 30
0.0
 40
100.0000000000001
100
AcDbArc
 50
270.0
 51
0.0
  0
LINE
  5
3A5
330
1F
100
AcDbEntity
  8
0
  6
Continuous
 62
     7
100
AcDbLine
 10
2755.1745311351
 20
602.2646816271
 30
0.0
 11
2755.1745311351
 21
830.2646816271
 31
0.0
  0
ARC
  5
3A6
330
1F
100
AcDbEntity
  8
0
  6
Continuous
 62
     7
100
AcDbCircle
 10
2655.1745311351
 20
830.2646816271
 30
0.0
 40
100.0
100
AcDbArc
 50
0.0
 51
90.0
  0
LINE
  5
3A7
330
1F
100
AcDbEntity
  8
0
  6
Continuous
 62
     7
100
AcDbLine
 10
2655.1745311351
 20
930.2646816271
 30
0.0
 11
2246.1745311351
 21
930.2646816271
 31
0.0
  0
ARC
  5
3A8
330
1F
100
AcDbEntity
  8
0
  6
Continuous
 62
     7
100
AcDbCircle
 10
2246.1745311351
 20
910.2646816271
 30
0.0
 40
20.0
100
AcDbArc
 50
90.0
 51
180.0
  0
LINE
  5
3A9
330
1F
100
AcDbEntity
  8
0
  6
Continuous
 62
     7
100
AcDbLine
 10
2226.1745311351
 20
910.2646816271
 30
0.0
 11
2226.1745311351
 21
522.2646816271
 31
0.0
  0
ARC
  5
3AA
330
1F
100
AcDbEntity
  8
0
  6
Continuous
 62
     7
100
AcDbCircle
 10
2246.1745311351
 20
522.2646816271
 30
0.0
 40
20.0
100
AcDbArc
 50
180.0
 51
270.0
  0
LINE
  5
3AB
330
1F
100
AcDbEntity
  8
0
  6
Continuous
 62
     7
100
AcDbLine
 10
2016.1745311351
 20
466.2646816271
 30
0.0
 11
2791.1745311351
 21
466.2646816271
 31
0.0
  0
LINE
  5
3AC
330
1F
100
AcDbEntity
  8
0
  6
Continuous
 62
     7
100
AcDbLine
 10
2016.1745311351
 20
966.2646816271
 30
0.0
 11
2016.1745311351
 21
466.2646816271
 31
0.0
  0
LINE
  5
3AD
330
1F
100
AcDbEntity
  8
0
  6
Continuous
 62
     7
100
AcDbLine
 10
2791.1745311351
 20
966.2646816271
 30
0.0
 11
2016.1745311351
 21
966.2646816271
 31
0.0
  0
LINE
  5
3AE
330
1F
100
AcDbEntity
  8
0
  6
Continuous
 62
     7
100
AcDbLine
 10
2791.1745311351
 20
466.2646816271
 30
0.0
 11
2791.1745311351
 21
966.2646816271
 31
0.0
  0
DIMENSION
  5
3AF
330
1F
100
AcDbEntity
  8
SLD-0_0
100
AcDbDimension
  2
_D_13
 10
2791.1745311351
 20
416.8235184007
 30
0.0
 11
2399.4839758882
 21
416.8235184007
 31
0.0
 70
   160
  1
<>
 71
     2
 42
-1.0
  3
SLDDIMSTYLE1
100
AcDbAlignedDimension
 13
2016.1745311351
 23
466.2646816271
 33
0.0
 14
2791.1745311351
 24
466.2646816271
 34
0.0
100
AcDbRotatedDimension
  0
DIMENSION
  5
3B9
330
1F
100
AcDbEntity
  8
SLD-0_0
100
AcDbDimension
  2
_D_14
 10
2836.1745311351
 20
966.2646816271
 30
0.0
 11
2836.1745311351
 21
694.4310299275
 31
0.0
 70
   160
  1
<>
 71
     2
 42
-1.0
  3
SLDDIMSTYLE1
100
AcDbAlignedDimension
 13
2791.1745311351
 23
466.2646816271
 33
0.0
 14
2791.1745311351
 24
966.2646816271
 34
0.0
 50
90.0
100
AcDbRotatedDimension
  0
DIMENSION
  5
3C3
330
1F
100
AcDbEntity
  8
SLD-0_0
100
AcDbDimension
  2
_D_15
 10
2815.1745311351
 20
502.2646816271
 30
0.0
 11
2815.1745311351
 21
714.2189579333
 31
0.0
 70
   160
  1
<>
 71
     2
 42
-1.0
  3
SLDDIMSTYLE1
100
AcDbAlignedDimension
 13
2655.1745311351
 23
930.2646816271
 33
0.0
 14
2655.1745311351
 24
502.2646816271
 34
0.0
 50
90.0
100
AcDbRotatedDimension
  0
DIMENSION
  5
3CD
330
1F
100
AcDbEntity
  8
SLD-0_0
100
AcDbDimension
  2
_D_16
 10
2815.1745311351
 20
966.2646816271
 30
0.0
 11
2815.1745311351
 21
948.5121588723
 31
0.0
 70
   160
  1
<>
 71
     2
 42
-1.0
  3
SLDDIMSTYLE1
100
AcDbAlignedDimension
 13
2655.1745311351
 23
930.2646816271
 33
0.0
 14
2791.1745311351
 24
966.2646816271
 34
0.0
 50
90.0
100
AcDbRotatedDimension
  0
DIMENSION
  5
3D7
330
1F
100
AcDbEntity
  8
SLD-0_0
100
AcDbDimension
  2
_D_17
 10
2791.1745311351
 20
442.2646816271
 30
0.0
 11
2772.9029811572
 21
442.2646816271
 31
0.0
 70
   160
  1
<>
 71
     2
 42
-1.0
  3
SLDDIMSTYLE1
100
AcDbAlignedDimension
 13
2755.1745311351
 23
602.2646816271
 33
0.0
 14
2791.1745311351
 24
466.2646816271
 34
0.0
100
AcDbRotatedDimension
  0
DIMENSION
  5
3E1
330
1F
100
AcDbEntity
  8
SLD-0_0
100
AcDbDimension
  2
_D_18
 10
2226.1745311351
 20
442.2646816271
 30
0.0
 11
2490.6745311351
 21
442.2646816271
 31
0.0
 70
   160
  1
<>
 71
     2
 42
-1.0
  3
SLDDIMSTYLE1
100
AcDbAlignedDimension
 13
2755.1745311351
 23
602.2646816271
 33
0.0
 14
2226.1745311351
 24
522.2646816271
 34
0.0
 50
0.0
100
AcDbRotatedDimension
  0
DIMENSION
  5
3EB
330
1F
100
AcDbEntity
  8
SLD-0_0
100
AcDbDimension
  2
_D_19
 10
2246.1745311351
 20
910.2646816271
 30
0.0
 11
2258.8117833685
 21
888.3763460112
 31
0.0
 70
   164
  1
<>
 71
     1
 42
-1.0
  3
SLDDIMSTYLE6
100
AcDbRadialDimension
 15
2236.1745311351
 25
927.5851897028
 35
0.0
 40
0.0
  0
DIMENSION
  5
3F3
330
1F
100
AcDbEntity
  8
SLD-0_0
100
AcDbDimension
  2
_D_20
 10
2655.1745311351
 20
830.2646816271
 30
0.0
 11
2698.9411959377
 21
848.2709566859
 31
0.0
 70
   164
  1
<>
 71
     1
 42
-1.0
  3
SLDDIMSTYLE7
100
AcDbRadialDimension
 15
2747.6537179707
 25
868.3120205909
 35
0.0
 40
0.0
  0
LINE
  5
3FB
330
1F
100
AcDbEntity
  8
0
  6
Continuous
 62
     7
100
AcDbLine
 10
3424.0473699179
 20
967.2688913935
 30
0.0
 11
2942.0473699179
 21
967.2688913935
 31
0.0
  0
LINE
  5
3FC
330
1F
100
AcDbEntity
  8
0
  6
Continuous
 62
     7
100
AcDbLine
 10
3424.0473699179
 20
931.2688913935
 30
0.0
 11
3424.0473699179
 21
967.2688913935
 31
0.0
  0
LINE
  5
3FD
330
1F
100
AcDbEntity
  8
0
  6
Continuous
 62
     7
100
AcDbLine
 10
2978.0473699179
 20
931.2688913935
 30
0.0
 11
3424.0473699179
 21
931.2688913935
 31
0.0
  0
LINE
  5
3FE
330
1F
100
AcDbEntity
  8
0
  6
Continuous
 62
     7
100
AcDbLine
 10
2978.0473699179
 20
503.2688913935
 30
0.0
 11
2978.0473699179
 21
931.2688913935
 31
0.0
  0
LINE
  5
3FF
330
1F
100
AcDbEntity
  8
0
  6
Continuous
 62
     7
100
AcDbLine
 10
3424.0473699179
 20
503.2688913935
 30
0.0
 11
2978.0473699179
 21
503.2688913935
 31
0.0
  0
LINE
  5
400
330
1F
100
AcDbEntity
  8
0
  6
Continuous
 62
     7
100
AcDbLine
 10
3424.0473699179
 20
467.2688913935
 30
0.0
 11
3424.0473699179
 21
503.2688913935
 31
0.0
  0
LINE
  5
401
330
1F
100
AcDbEntity
  8
0
  6
Continuous
 62
     7
100
AcDbLine
 10
2942.0473699179
 20
467.2688913935
 30
0.0
 11
3424.0473699179
 21
467.2688913935
 31
0.0
  0
LINE
  5
402
330
1F
100
AcDbEntity
  8
0
  6
Continuous
 62
     7
100
AcDbLine
 10
2942.0473699179
 20
967.2688913935
 30
0.0
 11
2942.0473699179
 21
467.2688913935
 31
0.0
  0
DIMENSION
  5
403
330
1F
100
AcDbEntity
  8
SLD-0_0
100
AcDbDimension
  2
_D_21
 10
3413.0473699179
 20
467.2688913935
 30
0.0
 11
3413.0473699179
 21
716.1656008919
 31
0.0
 70
   160
  1
<>
 71
     2
 42
-1.0
  3
SLDDIMSTYLE1
100
AcDbAlignedDimension
 13
3424.0473699179
 23
967.2688913935
 33
0.0
 14
3424.0473699179
 24
467.2688913935
 34
0.0
 50
90.0
100
AcDbRotatedDimension
  0
DIMENSION
  5
40B
330
1F
100
AcDbEntity
  8
SLD-0_0
100
AcDbDimension
  2
_D_22
 10
3424.0473699179
 20
443.2688913935
 30
0.0
 11
3183.0473699179
 21
443.2688913935
 31
0.0
 70
   160
  1
<>
 71
     2
 42
-1.0
  3
SLDDIMSTYLE1
100
AcDbAlignedDimension
 13
2942.0473699179
 23
467.2688913935
 33
0.0
 14
3424.0473699179
 24
467.2688913935
 34
0.0
 50
0.0
100
AcDbRotatedDimension
  0
DIMENSION
  5
415
330
1F
100
AcDbEntity
  8
SLD-0_0
100
AcDbDimension
  2
_D_23
 10
2942.0473699179
 20
907.01000358
 30
0.0
 11
2959.9986435219
 21
907.01000358
 31
0.0
 70
   160
  1
<>
 71
     2
 42
-1.0
  3
SLDDIMSTYLE1
100
AcDbAlignedDimension
 13
2978.0473699179
 23
931.2688913935
 33
0.0
 14
2942.0473699179
 24
967.2688913935
 34
0.0
100
AcDbRotatedDimension
  0
DIMENSION
  5
41D
330
1F
100
AcDbEntity
  8
SLD-0_0
100
AcDbDimension
  2
_D_24
 10
3387.3514264908
 20
967.2688913935
 30
0.0
 11
3387.3514264908
 21
948.7252117882
 31
0.0
 70
   160
  1
<>
 71
     2
 42
-1.0
  3
SLDDIMSTYLE1
100
AcDbAlignedDimension
 13
3424.0473699179
 23
931.2688913935
 33
0.0
 14
3424.0473699179
 24
967.2688913935
 34
0.0
 50
90.0
100
AcDbRotatedDimension
  0
DIMENSION
  5
425
330
1F
100
AcDbEntity
  8
SLD-0_0
100
AcDbDimension
  2
_D_25
 10
3390.8909323359
 20
467.2688913935
 30
0.0
 11
3390.8909323359
 21
483.1027669456
 31
0.0
 70
   160
  1
<>
 71
     2
 42
-1.0
  3
SLDDIMSTYLE1
100
AcDbAlignedDimension
 13
3424.0473699179
 23
503.2688913935
 33
0.0
 14
3424.0473699179
 24
467.2688913935
 34
0.0
 50
90.0
100
AcDbRotatedDimension
  0
LINE
  5
42D
330
1F
100
AcDbEntity
  8
0
  6
Continuous
 62
     7
100
AcDbLine
 10
2226.9967222267
 20
177.8560891114
 30
0.0
 11
2226.9967222267
 21
341.8560891114
 31
0.0
  0
LINE
  5
42E
330
1F
100
AcDbEntity
  8
0
  6
Continuous
 62
     7
100
AcDbLine
 10
2016.9967222267
 20
177.8560891114
 30
0.0
 11
2226.9967222267
 21
177.8560891114
 31
0.0
  0
LINE
  5
42F
330
1F
100
AcDbEntity
  8
0
  6
Continuous
 62
     7
100
AcDbLine
 10
2016.9967222267
 20
341.8560891114
 30
0.0
 11
2016.9967222267
 21
177.8560891114
 31
0.0
  0
LINE
  5
430
330
1F
100
AcDbEntity
  8
0
  6
Continuous
 62
     7
100
AcDbLine
 10
2226.9967222267
 20
341.8560891114
 30
0.0
 11
2016.9967222267
 21
341.8560891114
 31
0.0
  0
DIMENSION
  5
431
330
1F
100
AcDbEntity
  8
SLD-0_0
100
AcDbDimension
  2
_D_26
 10
2226.9967222267
 20
153.8560891114
 30
0.0
 11
2121.9967222267
 21
153.8560891114
 31
0.0
 70
   160
  1
<>
 71
     2
 42
-1.0
  3
SLDDIMSTYLE1
100
AcDbAlignedDimension
 13
2016.9967222267
 23
177.8560891114
 33
0.0
 14
2226.9967222267
 24
177.8560891114
 34
0.0
 50
0.0
100
AcDbRotatedDimension
  0
DIMENSION
  5
43B
330
1F
100
AcDbEntity
  8
SLD-0_0
100
AcDbDimension
  2
_D_27
 10
2250.9967222267
 20
341.8560891114
 30
0.0
 11
2250.9967222267
 21
257.7625100148
 31
0.0
 70
   160
  1
<>
 71
     2
 42
-1.0
  3
SLDDIMSTYLE1
100
AcDbAlignedDimension
 13
2226.9967222267
 23
177.8560891114
 33
0.0
 14
2226.9967222267
 24
341.8560891114
 34
0.0
 50
90.0
100
AcDbRotatedDimension
  0
ENDSEC
  0
SECTION
  2
OBJECTS
  0
DICTIONARY
  5
C
330
0
100
AcDbDictionary
281
     1
  3
ACAD_GROUP
350
D
  3
ACAD_LAYOUT
350
1A
  3
ACAD_MLINESTYLE
350
17
  3
ACAD_PLOTSETTINGS
350
19
  3
ACAD_PLOTSTYLENAME
350
E
  3
ACAD_SCALELIST
350
47
  0
DICTIONARY
  5
D
102
{ACAD_REACTORS
330
C
102
}
330
C
100
AcDbDictionary
281
     1
  0
DICTIONARY
  5
1A
102
{ACAD_REACTORS
330
C
102
}
330
C
100
AcDbDictionary
281
     1
  3
Layout1
350
1E
  3
Layout2
350
26
  3
Model
350
22
  0
DICTIONARY
  5
17
102
{ACAD_REACTORS
330
C
102
}
330
C
100
AcDbDictionary
281
     1
  3
Standard
350
18
  0
DICTIONARY
  5
19
102
{ACAD_REACTORS
330
C
102
}
330
C
100
AcDbDictionary
281
     1
  0
ACDBDICTIONARYWDFLT
  5
E
102
{ACAD_REACTORS
330
C
102
}
330
C
100
AcDbDictionary
281
     1
  3
Normal
350
F
100
AcDbDictionaryWithDefault
340
F
  0
DICTIONARY
  5
47
102
{ACAD_REACTORS
330
C
102
}
330
C
100
AcDbDictionary
281
     1
  3
A0
350
48
  3
A1
350
49
  3
A2
350
4A
  3
A3
350
4B
  3
A4
350
4C
  3
A5
350
4D
  3
A6
350
4E
  3
A7
350
4F
  3
A8
350
50
  3
A9
350
51
  3
B0
350
52
  3
B1
350
53
  3
B2
350
54
  3
B3
350
55
  3
B4
350
56
  3
B5
350
57
  3
B6
350
58
  3
B7
350
59
  3
B8
350
5A
  3
B9
350
5B
  3
C0
350
5C
  3
C1
350
5D
  3
C2
350
5E
  3
C3
350
5F
  3
C4
350
60
  3
C5
350
61
  3
C6
350
62
  3
C7
350
63
  3
C8
350
64
  3
C9
350
65
  3
D0
350
66
  3
D1
350
67
  3
D2
350
68
  0
LAYOUT
  5
1E
102
{ACAD_REACTORS
330
1A
102
}
330
1A
100
AcDbPlotSettings
  1

  2
none_device
  4

  6

 40
0.0
 41
0.0
 42
0.0
 43
0.0
 44
0.0
 45
0.0
 46
0.0
 47
0.0
 48
0.0
 49
0.0
140
0.0
141
0.0
142
1.0
143
1.0
 70
   688
 72
     1
 73
     0
 74
     5
  7

 75
    16
147
1.0
148
0.0
149
0.0
100
AcDbLayout
  1
Layout1
 70
     1
 71
     1
 10
0.0
 20
0.0
 11
420.0
 21
297.0
 12
0.0
 22
0.0
 32
0.0
 14
1.0000000000E+20
 24
1.0000000000E+20
 34
1.0000000000E+20
 15
-1.0000000000E+20
 25
-1.0000000000E+20
 35
-1.0000000000E+20
146
0.0
 13
0.0
 23
0.0
 33
0.0
 16
1.0
 26
0.0
 36
0.0
 17
0.0
 27
1.0
 37
0.0
 76
     0
330
1B
  0
LAYOUT
  5
26
102
{ACAD_REACTORS
330
1A
102
}
330
1A
100
AcDbPlotSettings
  1

  2
none_device
  4

  6

 40
0.0
 41
0.0
 42
0.0
 43
0.0
 44
0.0
 45
0.0
 46
0.0
 47
0.0
 48
0.0
 49
0.0
140
0.0
141
0.0
142
1.0
143
1.0
 70
   688
 72
     1
 73
     0
 74
     5
  7

 75
    16
147
1.0
148
0.0
149
0.0
100
AcDbLayout
  1
Layout2
 70
     1
 71
     2
 10
0.0
 20
0.0
 11
0.0
 21
0.0
 12
0.0
 22
0.0
 32
0.0
 14
0.0
 24
0.0
 34
0.0
 15
0.0
 25
0.0
 35
0.0
146
0.0
 13
0.0
 23
0.0
 33
0.0
 16
1.0
 26
0.0
 36
0.0
 17
0.0
 27
1.0
 37
0.0
 76
     0
330
23
  0
LAYOUT
  5
22
102
{ACAD_REACTORS
330
1A
102
}
330
1A
100
AcDbPlotSettings
  1

  2
none_device
  4
Letter_(8.50_x_11.00_Inches)
  6

 40
6.35
 41
6.35
 42
6.35000508
 43
6.35000508
 44
215.9
 45
279.4
 46
0.0
 47
0.0
 48
0.0
 49
0.0
140
0.0
141
0.0
142
1.0
143
1.0
 70
  1712
 72
     1
 73
     0
 74
     0
  7

 75
     0
147
1.0
148
0.0
149
0.0
100
AcDbLayout
  1
Model
 70
     1
 71
     0
 10
0.0
 20
0.0
 11
3500.0
 21
2000.0
 12
0.0
 22
0.0
 32
0.0
 14
0.0
 24
0.0
 34
0.0
 15
3500.0
 25
2000.0
 35
0.0
146
0.0
 13
0.0
 23
0.0
 33
0.0
 16
1.0
 26
0.0
 36
0.0
 17
0.0
 27
1.0
 37
0.0
 76
     0
330
1F
331
29
  0
MLINESTYLE
  5
18
102
{ACAD_REACTORS
330
17
102
}
330
17
100
AcDbMlineStyle
  2
Standard
 70
     0
  3

 62
   256
 51
90.0
 52
90.0
 71
     2
 49
0.5
 62
   256
  6
BYLAYER
 49
-0.5
 62
   256
  6
BYLAYER
  0
ACDBPLACEHOLDER
  5
F
102
{ACAD_REACTORS
330
E
102
}
330
E
  0
SCALE
  5
48
102
{ACAD_REACTORS
330
47
102
}
330
47
100
AcDbScale
 70
     0
300
1:1
140
1.0
141
1.0
290
     1
  0
SCALE
  5
49
102
{ACAD_REACTORS
330
47
102
}
330
47
100
AcDbScale
 70
     0
300
1:2
140
1.0
141
2.0
290
     0
  0
SCALE
  5
4A
102
{ACAD_REACTORS
330
47
102
}
330
47
100
AcDbScale
 70
     0
300
1:4
140
1.0
141
4.0
290
     0
  0
SCALE
  5
4B
102
{ACAD_REACTORS
330
47
102
}
330
47
100
AcDbScale
 70
     0
300
1:5
140
1.0
141
5.0
290
     0
  0
SCALE
  5
4C
102
{ACAD_REACTORS
330
47
102
}
330
47
100
AcDbScale
 70
     0
300
1:8
140
1.0
141
8.0
290
     0
  0
SCALE
  5
4D
102
{ACAD_REACTORS
330
47
102
}
330
47
100
AcDbScale
 70
     0
300
1:10
140
1.0
141
10.0
290
     0
  0
SCALE
  5
4E
102
{ACAD_REACTORS
330
47
102
}
330
47
100
AcDbScale
 70
     0
300
1:16
140
1.0
141
16.0
290
     0
  0
SCALE
  5
4F
102
{ACAD_REACTORS
330
47
102
}
330
47
100
AcDbScale
 70
     0
300
1:20
140
1.0
141
20.0
290
     0
  0
SCALE
  5
50
102
{ACAD_REACTORS
330
47
102
}
330
47
100
AcDbScale
 70
     0
300
1:30
140
1.0
141
30.0
290
     0
  0
SCALE
  5
51
102
{ACAD_REACTORS
330
47
102
}
330
47
100
AcDbScale
 70
     0
300
1:40
140
1.0
141
40.0
290
     0
  0
SCALE
  5
52
102
{ACAD_REACTORS
330
47
102
}
330
47
100
AcDbScale
 70
     0
300
1:50
140
1.0
141
50.0
290
     0
  0
SCALE
  5
53
102
{ACAD_REACTORS
330
47
102
}
330
47
100
AcDbScale
 70
     0
300
1:100
140
1.0
141
100.0
290
     0
  0
SCALE
  5
54
102
{ACAD_REACTORS
330
47
102
}
330
47
100
AcDbScale
 70
     0
300
2:1
140
2.0
141
1.0
290
     0
  0
SCALE
  5
55
102
{ACAD_REACTORS
330
47
102
}
330
47
100
AcDbScale
 70
     0
300
4:1
140
4.0
141
1.0
290
     0
  0
SCALE
  5
56
102
{ACAD_REACTORS
330
47
102
}
330
47
100
AcDbScale
 70
     0
300
8:1
140
8.0
141
1.0
290
     0
  0
SCALE
  5
57
102
{ACAD_REACTORS
330
47
102
}
330
47
100
AcDbScale
 70
     0
300
10:1
140
10.0
141
1.0
290
     0
  0
SCALE
  5
58
102
{ACAD_REACTORS
330
47
102
}
330
47
100
AcDbScale
 70
     0
300
100:1
140
100.0
141
1.0
290
     0
  0
SCALE
  5
59
102
{ACAD_REACTORS
330
47
102
}
330
47
100
AcDbScale
 70
     0
300
1/128" = 1'-0"
140
0.0078125
141
12.0
290
     0
  0
SCALE
  5
5A
102
{ACAD_REACTORS
330
47
102
}
330
47
100
AcDbScale
 70
     0
300
1/64" = 1'-0"
140
0.015625
141
12.0
290
     0
  0
SCALE
  5
5B
102
{ACAD_REACTORS
330
47
102
}
330
47
100
AcDbScale
 70
     0
300
1/32" = 1'-0"
140
0.03125
141
12.0
290
     0
  0
SCALE
  5
5C
102
{ACAD_REACTORS
330
47
102
}
330
47
100
AcDbScale
 70
     0
300
1/16" = 1'-0"
140
0.0625
141
12.0
290
     0
  0
SCALE
  5
5D
102
{ACAD_REACTORS
330
47
102
}
330
47
100
AcDbScale
 70
     0
300
3/32" = 1'-0"
140
0.09375
141
12.0
290
     0
  0
SCALE
  5
5E
102
{ACAD_REACTORS
330
47
102
}
330
47
100
AcDbScale
 70
     0
300
1/8" = 1'-0"
140
0.125
141
12.0
290
     0
  0
SCALE
  5
5F
102
{ACAD_REACTORS
330
47
102
}
330
47
100
AcDbScale
 70
     0
300
3/16" = 1'-0"
140
0.1875
141
12.0
290
     0
  0
SCALE
  5
60
102
{ACAD_REACTORS
330
47
102
}
330
47
100
AcDbScale
 70
     0
300
1/4" = 1'-0"
140
0.25
141
12.0
290
     0
  0
SCALE
  5
61
102
{ACAD_REACTORS
330
47
102
}
330
47
100
AcDbScale
 70
     0
300
3/8" = 1'-0"
140
0.375
141
12.0
290
     0
  0
SCALE
  5
62
102
{ACAD_REACTORS
330
47
102
}
330
47
100
AcDbScale
 70
     0
300
1/2" = 1'-0"
140
0.5
141
12.0
290
     0
  0
SCALE
  5
63
102
{ACAD_REACTORS
330
47
102
}
330
47
100
AcDbScale
 70
     0
300
3/4" = 1'-0"
140
0.75
141
12.0
290
     0
  0
SCALE
  5
64
102
{ACAD_REACTORS
330
47
102
}
330
47
100
AcDbScale
 70
     0
300
1" = 1'-0"
140
1.0
141
12.0
290
     0
  0
SCALE
  5
65
102
{ACAD_REACTORS
330
47
102
}
330
47
100
AcDbScale
 70
     0
300
1-1/2" = 1'-0"
140
1.5
141
12.0
290
     0
  0
SCALE
  5
66
102
{ACAD_REACTORS
330
47
102
}
330
47
100
AcDbScale
 70
     0
300
3" = 1'-0"
140
3.0
141
12.0
290
     0
  0
SCALE
  5
67
102
{ACAD_REACTORS
330
47
102
}
330
47
100
AcDbScale
 70
     0
300
6" = 1'-0"
140
6.0
141
12.0
290
     0
  0
SCALE
  5
68
102
{ACAD_REACTORS
330
47
102
}
330
47
100
AcDbScale
 70
     0
300
1'-0" = 1'-0"
140
12.0
141
12.0
290
     0
  0
ENDSEC
  0
EOF
