  0
SECTION
  2
HEADER
  9
$ACADVER
  1
AC1015
  9
$ACADMAINTVER
 70
     6
  9
$DWGCODEPAGE
  3
ANSI_1252
  9
$INSBASE
 10
0.0
 20
0.0
 30
0.0
  9
$EXTMIN
 10
0.0
 20
0.0
 30
0.0
  9
$EXTMAX
 10
3000.0
 20
2000.0
 30
0.0
  9
$LIMMIN
 10
0.0
 20
0.0
  9
$LIMMAX
 10
3000.0
 20
2000.0
  9
$ORTHOMODE
 70
     0
  9
$REGENMODE
 70
     1
  9
$FILLMODE
 70
     1
  9
$QTEXTMODE
 70
     0
  9
$MIRRTEXT
 70
     1
  9
$LTSCALE
 40
1.0
  9
$ATTMODE
 70
     1
  9
$TEXTSIZE
 40
2.5
  9
$TRACEWID
 40
1.0
  9
$TEXTSTYLE
  7
Standard
  9
$CLAYER
  8
0
  9
$CELTYPE
  6
ByLayer
  9
$CECOLOR
 62
   256
  9
$CELTSCALE
 40
1.0
  9
$DISPSILH
 70
     0
  9
$DIMSCALE
 40
1.0
  9
$DIMASZ
 40
3.302
  9
$DIMEXO
 40
1.0
  9
$DIMDLI
 40
3.75
  9
$DIMRND
 40
0.0
  9
$DIMDLE
 40
0.0
  9
$DIMEXE
 40
1.0
  9
$DIMTP
 40
0.0
  9
$DIMTM
 40
0.0
  9
$DIMTXT
 40
3.5
  9
$DIMCEN
 40
2.5
  9
$DIMTSZ
 40
0.0
  9
$DIMTOL
 70
     0
  9
$DIMLIM
 70
     0
  9
$DIMTIH
 70
     1
  9
$DIMTOH
 70
     1
  9
$DIMSE1
 70
     0
  9
$DIMSE2
 70
     0
  9
$DIMTAD
 70
     1
  9
$DIMZIN
 70
     0
  9
$DIMBLK
  1

  9
$DIMASO
 70
     1
  9
$DIMSHO
 70
     1
  9
$DIMPOST
  1

  9
$DIMAPOST
  1

  9
$DIMALT
 70
     0
  9
$DIMALTD
 70
     3
  9
$DIMALTF
 40
0.0393700787
  9
$DIMLFAC
 40
1.0
  9
$DIMTOFL
 70
     1
  9
$DIMTVP
 40
0.0
  9
$DIMTIX
 70
     0
  9
$DIMSOXD
 70
     0
  9
$DIMSAH
 70
     0
  9
$DIMBLK1
  1

  9
$DIMBLK2
  1

  9
$DIMSTYLE
  2
ISO-25
  9
$DIMCLRD
 70
     0
  9
$DIMCLRE
 70
     0
  9
$DIMCLRT
 70
     0
  9
$DIMTFAC
 40
1.0
  9
$DIMGAP
 40
1.524
  9
$DIMJUST
 70
     0
  9
$DIMSD1
 70
     0
  9
$DIMSD2
 70
     0
  9
$DIMTOLJ
 70
     0
  9
$DIMTZIN
 70
     0
  9
$DIMALTZ
 70
     0
  9
$DIMALTTZ
 70
     0
  9
$DIMUPT
 70
     0
  9
$DIMDEC
 70
     2
  9
$DIMTDEC
 70
     2
  9
$DIMALTU
 70
     2
  9
$DIMALTTD
 70
     3
  9
$DIMTXSTY
  7
Standard
  9
$DIMAUNIT
 70
     0
  9
$DIMADEC
 70
     2
  9
$DIMALTRND
 40
0.0
  9
$DIMAZIN
 70
     0
  9
$DIMDSEP
 70
    44
  9
$DIMATFIT
 70
     3
  9
$DIMFRAC
 70
     0
  9
$DIMLDRBLK
  1

  9
$DIMLUNIT
 70
     2
  9
$DIMLWD
 70
    -2
  9
$DIMLWE
 70
    -2
  9
$DIMTMOVE
 70
     0
  9
$LUNITS
 70
     2
  9
$LUPREC
 70
     2
  9
$SKETCHINC
 40
1.0
  9
$FILLETRAD
 40
10.0
  9
$AUNITS
 70
     0
  9
$AUPREC
 70
     2
  9
$MENU
  1
.
  9
$ELEVATION
 40
0.0
  9
$PELEVATION
 40
0.0
  9
$THICKNESS
 40
0.0
  9
$LIMCHECK
 70
     0
  9
$CHAMFERA
 40
0.0
  9
$CHAMFERB
 40
0.0
  9
$CHAMFERC
 40
0.0
  9
$CHAMFERD
 40
0.0
  9
$SKPOLY
 70
     0
  9
$TDCREATE
 40
2458516.497164826
  9
$TDUCREATE
 40
2458516.45549816
  9
$TDUPDATE
 40
2458516.497192176
  9
$TDUUPDATE
 40
2458516.455525509
  9
$TDINDWG
 40
0.0000000116
  9
$TDUSRTIMER
 40
0.0000000116
  9
$USRTIMER
 70
     1
  9
$ANGBASE
 50
0.0
  9
$ANGDIR
 70
     0
  9
$PDMODE
 70
     0
  9
$PDSIZE
 40
-1.0
  9
$PLINEWID
 40
0.0
  9
$SPLFRAME
 70
     0
  9
$SPLINETYPE
 70
     6
  9
$SPLINESEGS
 70
     8
  9
$HANDSEED
  5
41F
  9
$SURFTAB1
 70
     6
  9
$SURFTAB2
 70
     6
  9
$SURFTYPE
 70
     6
  9
$SURFU
 70
     6
  9
$SURFV
 70
     6
  9
$UCSBASE
  2

  9
$UCSNAME
  2

  9
$UCSORG
 10
0.0
 20
0.0
 30
0.0
  9
$UCSXDIR
 10
1.0
 20
0.0
 30
0.0
  9
$UCSYDIR
 10
0.0
 20
1.0
 30
0.0
  9
$UCSORTHOREF
  2

  9
$UCSORTHOVIEW
 70
     0
  9
$UCSORGTOP
 10
0.0
 20
0.0
 30
0.0
  9
$UCSORGBOTTOM
 10
0.0
 20
0.0
 30
0.0
  9
$UCSORGLEFT
 10
0.0
 20
0.0
 30
0.0
  9
$UCSORGRIGHT
 10
0.0
 20
0.0
 30
0.0
  9
$UCSORGFRONT
 10
0.0
 20
0.0
 30
0.0
  9
$UCSORGBACK
 10
0.0
 20
0.0
 30
0.0
  9
$PUCSBASE
  2

  9
$PUCSNAME
  2

  9
$PUCSORG
 10
0.0
 20
0.0
 30
0.0
  9
$PUCSXDIR
 10
1.0
 20
0.0
 30
0.0
  9
$PUCSYDIR
 10
0.0
 20
1.0
 30
0.0
  9
$PUCSORTHOREF
  2

  9
$PUCSORTHOVIEW
 70
     0
  9
$PUCSORGTOP
 10
0.0
 20
0.0
 30
0.0
  9
$PUCSORGBOTTOM
 10
0.0
 20
0.0
 30
0.0
  9
$PUCSORGLEFT
 10
0.0
 20
0.0
 30
0.0
  9
$PUCSORGRIGHT
 10
0.0
 20
0.0
 30
0.0
  9
$PUCSORGFRONT
 10
0.0
 20
0.0
 30
0.0
  9
$PUCSORGBACK
 10
0.0
 20
0.0
 30
0.0
  9
$USERI1
 70
     0
  9
$USERI2
 70
     0
  9
$USERI3
 70
     0
  9
$USERI4
 70
     0
  9
$USERI5
 70
     0
  9
$USERR1
 40
0.0
  9
$USERR2
 40
0.0
  9
$USERR3
 40
0.0
  9
$USERR4
 40
0.0
  9
$USERR5
 40
0.0
  9
$WORLDVIEW
 70
     1
  9
$SHADEDGE
 70
     3
  9
$SHADEDIF
 70
    70
  9
$TILEMODE
 70
     1
  9
$MAXACTVP
 70
    64
  9
$PINSBASE
 10
0.0
 20
0.0
 30
0.0
  9
$PLIMCHECK
 70
     0
  9
$PEXTMIN
 10
1.0000000000E+20
 20
1.0000000000E+20
 30
1.0000000000E+20
  9
$PEXTMAX
 10
-1.0000000000E+20
 20
-1.0000000000E+20
 30
-1.0000000000E+20
  9
$PLIMMIN
 10
0.0
 20
0.0
  9
$PLIMMAX
 10
420.0
 20
297.0
  9
$UNITMODE
 70
     0
  9
$VISRETAIN
 70
     1
  9
$PLINEGEN
 70
     0
  9
$PSLTSCALE
 70
     1
  9
$TREEDEPTH
 70
  3020
  9
$CMLSTYLE
  2
Standard
  9
$CMLJUST
 70
     0
  9
$CMLSCALE
 40
20.0
  9
$PROXYGRAPHICS
 70
     1
  9
$MEASUREMENT
 70
     1
  9
$CELWEIGHT
370
    -1
  9
$ENDCAPS
280
     0
  9
$JOINSTYLE
280
     0
  9
$LWDISPLAY
290
     1
  9
$INSUNITS
 70
     4
  9
$HYPERLINKBASE
  1

  9
$STYLESHEET
  1

  9
$XEDIT
290
     1
  9
$CEPSNTYPE
380
     0
  9
$PSTYLEMODE
290
     1
  9
$FINGERPRINTGUID
  2
{4CB6279B-05E1-41B5-8A58-024C6EB302BB}
  9
$VERSIONGUID
  2
{FAEB1C32-E019-11D5-929B-00C0DF256EC4}
  9
$EXTNAMES
290
     1
  9
$PSVPSCALE
 40
0.0
  9
$OLESTARTUP
290
     0
  0
ENDSEC
  0
SECTION
  2
CLASSES
  0
CLASS
  1
ACDBDICTIONARYWDFLT
  2
AcDbDictionaryWithDefault
  3
ObjectDBX Classes
 90
        0
280
     0
281
     0
  0
CLASS
  1
VISUALSTYLE
  2
AcDbVisualStyle
  3
ObjectDBX Classes
 90
     4095
280
     0
281
     0
  0
CLASS
  1
MATERIAL
  2
AcDbMaterial
  3
ObjectDBX Classes
 90
     1153
280
     0
281
     0
  0
CLASS
  1
SCALE
  2
AcDbScale
  3
ObjectDBX Classes
 90
     1153
280
     0
281
     0
  0
CLASS
  1
TABLESTYLE
  2
AcDbTableStyle
  3
ObjectDBX Classes
 90
     4095
280
     0
281
     0
  0
CLASS
  1
MLEADERSTYLE
  2
AcDbMLeaderStyle
  3
ACDB_MLEADERSTYLE_CLASS
 90
     4095
280
     0
281
     0
  0
CLASS
  1
SUN
  2
AcDbSun
  3
SCENEOE
 90
     1153
280
     0
281
     0
  0
CLASS
  1
ACDBPLACEHOLDER
  2
AcDbPlaceHolder
  3
ObjectDBX Classes
 90
        0
280
     0
281
     0
  0
CLASS
  1
LAYOUT
  2
AcDbLayout
  3
ObjectDBX Classes
 90
        0
280
     0
281
     0
  0
ENDSEC
  0
SECTION
  2
TABLES
  0
TABLE
  2
VPORT
  5
8
330
0
100
AcDbSymbolTable
 70
     1
  0
VPORT
  5
29
330
8
100
AcDbSymbolTableRecord
100
AcDbViewportTableRecord
  2
*Active
 70
     0
 10
0.0
 20
0.0
 11
1.0
 21
1.0
 12
1500.0
 22
1000.0
 13
0.0
 23
0.0
 14
10.0
 24
10.0
 15
10.0
 25
10.0
 16
0.0
 26
0.0
 36
1.0
 17
0.0
 27
0.0
 37
0.0
 40
2000.0
 41
1.5
 42
50.0
 43
0.0
 44
0.0
 50
0.0
 51
0.0
 71
     0
 72
  2000
 73
     1
 74
     3
 75
     0
 76
     0
 77
     0
 78
     0
281
     0
 65
     1
110
0.0
120
0.0
130
0.0
111
1.0
121
0.0
131
0.0
112
0.0
122
1.0
132
0.0
 79
     0
146
0.0
  0
ENDTAB
  0
TABLE
  2
LTYPE
  5
5
330
0
100
AcDbSymbolTable
 70
     6
  0
LTYPE
  5
14
330
5
100
AcDbSymbolTableRecord
100
AcDbLinetypeTableRecord
  2
ByBlock
 70
     0
  3

 72
    65
 73
     0
 40
0.0
  0
LTYPE
  5
15
330
5
100
AcDbSymbolTableRecord
100
AcDbLinetypeTableRecord
  2
ByLayer
 70
     0
  3

 72
    65
 73
     0
 40
0.0
  0
LTYPE
  5
16
330
5
100
AcDbSymbolTableRecord
100
AcDbLinetypeTableRecord
  2
Continuous
 70
     0
  3
Solid line
 72
    65
 73
     0
 40
0.0
  0
LTYPE
  5
6E
330
5
100
AcDbSymbolTableRecord
100
AcDbLinetypeTableRecord
  2
HIDDEN
 70
     0
  3
Hidden __ __ __ __ __ __ __ __ __ __ __ __ __ __
 72
    65
 73
     2
 40
1.905
 49
1.27
 74
     0
 49
-0.635
 74
     0
  0
LTYPE
  5
6F
330
5
100
AcDbSymbolTableRecord
100
AcDbLinetypeTableRecord
  2
PHANTOM
 70
     0
  3
Phantom ______  __  __  ______  __  __  ______
 72
    65
 73
     6
 40
12.7
 49
6.35
 74
     0
 49
-1.27
 74
     0
 49
1.27
 74
     0
 49
-1.27
 74
     0
 49
1.27
 74
     0
 49
-1.27
 74
     0
  0
LTYPE
  5
70
330
5
100
AcDbSymbolTableRecord
100
AcDbLinetypeTableRecord
  2
CENTER
 70
     0
  3
Center ____ _ ____ _ ____ _ ____ _ ____ _ ____
 72
    65
 73
     4
 40
10.16
 49
6.35
 74
     0
 49
-1.27
 74
     0
 49
1.27
 74
     0
 49
-1.27
 74
     0
  0
LTYPE
  5
71
330
5
100
AcDbSymbolTableRecord
100
AcDbLinetypeTableRecord
  2
CENTERX2
 70
     0
  3
Center (2x) ________  __  ________  __  _____
 72
    65
 73
     4
 40
20.32
 49
12.7
 74
     0
 49
-2.54
 74
     0
 49
2.54
 74
     0
 49
-2.54
 74
     0
  0
LTYPE
  5
72
330
5
100
AcDbSymbolTableRecord
100
AcDbLinetypeTableRecord
  2
DOT2
 70
     0
  3
Dot (.5x) ........................................
 72
    65
 73
     2
 40
0.635
 49
0.0
 74
     0
 49
-0.635
 74
     0
  0
ENDTAB
  0
TABLE
  2
LAYER
  5
2
330
0
100
AcDbSymbolTable
 70
     8
  0
LAYER
  5
10
330
2
100
AcDbSymbolTableRecord
100
AcDbLayerTableRecord
  2
0
 70
     0
 62
     7
  6
Continuous
370
    -3
390
F
  0
LAYER
  5
73
330
2
100
AcDbSymbolTableRecord
100
AcDbLayerTableRecord
  2
SLD-0_0
 70
     0
 62
   179
  6
Continuous
370
    -3
390
F
  0
LAYER
  5
74
330
2
100
AcDbSymbolTableRecord
100
AcDbLayerTableRecord
  2
SLD-0
 70
     0
 62
   179
  6
Continuous
370
    -3
390
F
  0
LAYER
  5
75
330
2
100
AcDbSymbolTableRecord
100
AcDbLayerTableRecord
  2
PREDETERMINADO
 70
     0
 62
   179
  6
Continuous
370
    -3
390
F
  0
LAYER
  5
76
330
2
100
AcDbSymbolTableRecord
100
AcDbLayerTableRecord
  2
CAJETIN
 70
     0
 62
   179
  6
Continuous
370
    -3
390
F
  0
LAYER
  5
77
330
2
100
AcDbSymbolTableRecord
100
AcDbLayerTableRecord
  2
FORMATO
 70
     0
 62
   179
  6
Continuous
370
    -3
390
F
  0
LAYER
  5
78
330
2
100
AcDbSymbolTableRecord
100
AcDbLayerTableRecord
  2
NONPLOT
 70
     0
 62
    -1
  6
DOT2
290
     0
370
    -3
390
F
  0
LAYER
  5
79
330
2
100
AcDbSymbolTableRecord
100
AcDbLayerTableRecord
  2
TEXTOS
 70
     0
 62
   142
  6
Continuous
370
    -3
390
F
  0
ENDTAB
  0
TABLE
  2
STYLE
  5
3
330
0
100
AcDbSymbolTable
 70
     6
  0
STYLE
  5
11
330
3
100
AcDbSymbolTableRecord
100
AcDbTextStyleTableRecord
  2
Standard
 70
     0
 40
0.0
 41
1.0
 50
0.0
 71
     0
 42
2.5
  3
txt
  4

  0
STYLE
  5
CB
330
3
100
AcDbSymbolTableRecord
100
AcDbTextStyleTableRecord
  2
SLDTEXTSTYLE0
 70
     0
 40
0.0
 41
0.605
 50
0.0
 71
     0
 42
2.5
  3
TXT
  4

  0
STYLE
  5
D1
330
3
100
AcDbSymbolTableRecord
100
AcDbTextStyleTableRecord
  2
SLDTEXTSTYLE1
 70
     0
 40
0.0
 41
0.5636394322
 50
0.0
 71
     0
 42
2.5
  3
TXT
  4

  0
STYLE
  5
106
330
3
100
AcDbSymbolTableRecord
100
AcDbTextStyleTableRecord
  2
SLDTEXTSTYLE2
 70
     0
 40
0.0
 41
0.75
 50
0.0
 71
     0
 42
2.5
  3
TXT
  4

  0
STYLE
  5
10B
330
3
100
AcDbSymbolTableRecord
100
AcDbTextStyleTableRecord
  2
SLDTEXTSTYLE3
 70
     0
 40
0.0
 41
0.6785714286
 50
0.0
 71
     0
 42
2.5
  3
TXT
  4

  0
STYLE
  5
11E
330
3
100
AcDbSymbolTableRecord
100
AcDbTextStyleTableRecord
  2
SLDTEXTSTYLE4
 70
     0
 40
0.0
 41
0.6730769231
 50
0.0
 71
     0
 42
2.5
  3
TXT
  4

  0
ENDTAB
  0
TABLE
  2
VIEW
  5
6
330
0
100
AcDbSymbolTable
 70
     0
  0
ENDTAB
  0
TABLE
  2
UCS
  5
7
330
0
100
AcDbSymbolTable
 70
     0
  0
ENDTAB
  0
TABLE
  2
APPID
  5
9
330
0
100
AcDbSymbolTable
 70
     1
  0
APPID
  5
12
330
9
100
AcDbSymbolTableRecord
100
AcDbRegAppTableRecord
  2
ACAD
 70
     0
  0
ENDTAB
  0
TABLE
  2
DIMSTYLE
  5
A
330
0
100
AcDbSymbolTable
 70
    10
100
AcDbDimStyleTable
  0
DIMSTYLE
105
27
330
A
100
AcDbSymbolTableRecord
100
AcDbDimStyleTableRecord
  2
ISO-25
 70
     0
 41
2.5
 42
0.625
 43
3.75
 44
1.25
 73
     0
 74
     0
 77
     1
 78
     8
140
2.5
141
2.5
143
0.0393700787
147
0.625
171
     3
172
     1
178
     0
271
     2
272
     2
274
     3
278
    44
283
     0
284
     8
340
11
  0
DIMSTYLE
105
1F4
330
A
100
AcDbSymbolTableRecord
100
AcDbDimStyleTableRecord
  2
SLDDIMSTYLE0
 70
     0
 41
1.016
 44
0.0
 45
0.000000001
146
1.016
147
0.0
173
     1
178
     0
271
     0
272
     0
276
     2
340
11
341
1F5
343
1F5
344
1F5
  0
DIMSTYLE
105
265
102
{ACAD_REACTORS
330
264
330
26F
330
27D
330
287
330
295
330
29F
330
2BA
330
2C4
330
2E6
330
2F0
330
357
330
361
330
383
330
38D
330
397
330
3A1
330
3B4
330
3CA
330
3D4
330
3E8
102
}
330
A
100
AcDbSymbolTableRecord
100
AcDbDimStyleTableRecord
  2
SLDDIMSTYLE1
 70
     0
 41
3.302
 44
0.0
 45
0.000000001
 73
     0
 74
     0
 77
     1
 78
    12
 79
     3
140
3.5
147
0.875
173
     1
178
     0
271
     2
272
     2
276
     2
284
    12
340
CB
  0
DIMSTYLE
105
2CF
102
{ACAD_REACTORS
330
2CE
102
}
330
A
100
AcDbSymbolTableRecord
100
AcDbDimStyleTableRecord
  2
SLDDIMSTYLE2
 70
     0
 41
3.302
 44
0.0
 45
0.000000001
 73
     0
 74
     0
 77
     1
 78
    12
 79
     3
140
3.5
141
0.0
147
0.875
172
     1
173
     1
178
     0
271
     2
272
     2
276
     2
284
    12
340
CB
  0
DIMSTYLE
105
2D9
102
{ACAD_REACTORS
330
2D8
102
}
330
A
100
AcDbSymbolTableRecord
100
AcDbDimStyleTableRecord
  2
SLDDIMSTYLE3
 70
     0
 41
3.302
 44
0.0
 45
0.000000001
 78
     4
 79
     1
140
3.5
141
0.0
147
0.875
172
     1
173
     1
178
     0
271
     2
272
     2
276
     2
284
    12
340
CB
341
2DA
343
2DA
  0
DIMSTYLE
105
2FB
102
{ACAD_REACTORS
330
2FA
102
}
330
A
100
AcDbSymbolTableRecord
100
AcDbDimStyleTableRecord
  2
SLDDIMSTYLE4
 70
     0
 41
3.302
 44
0.0
 73
     0
 74
     0
 77
     1
 78
    12
 79
     3
140
3.5
147
0.875
173
     1
178
     0
179
     2
272
     2
276
     2
284
    12
340
CB
  0
DIMSTYLE
105
305
102
{ACAD_REACTORS
330
304
102
}
330
A
100
AcDbSymbolTableRecord
100
AcDbDimStyleTableRecord
  2
SLDDIMSTYLE5
 70
     0
 41
3.302
 44
0.0
 45
0.000000001
 73
     0
 74
     0
 77
     1
 78
     4
 79
     1
140
3.5
141
0.0
147
0.875
172
     1
173
     1
178
     0
271
     2
272
     2
276
     2
284
    12
340
CB
  0
DIMSTYLE
105
3AC
102
{ACAD_REACTORS
330
3AB
102
}
330
A
100
AcDbSymbolTableRecord
100
AcDbDimStyleTableRecord
  2
SLDDIMSTYLE6
 70
     0
 41
3.302
 44
0.0
 45
0.000000001
 73
     0
 74
     0
 77
     1
 78
    12
 79
     3
140
3.5
141
0.0
147
0.875
173
     1
178
     0
271
     2
272
     2
276
     2
284
    12
340
CB
  0
DIMSTYLE
105
3BE
102
{ACAD_REACTORS
330
3BD
102
}
330
A
100
AcDbSymbolTableRecord
100
AcDbDimStyleTableRecord
  2
SLDDIMSTYLE7
 70
     0
 41
3.302
 44
0.0
 45
0.000000001
 73
     0
 74
     0
 77
     1
 78
    12
 79
     3
140
3.5
147
0.875
172
     1
173
     1
178
     0
271
     2
272
     2
276
     2
284
    12
289
     0
340
CB
  0
DIMSTYLE
105
3F3
102
{ACAD_REACTORS
330
3F2
330
415
102
}
330
A
100
AcDbSymbolTableRecord
100
AcDbDimStyleTableRecord
  2
SLDDIMSTYLE8
 70
     0
 41
3.302
 44
0.0
 45
0.000000001
 73
     0
 74
     0
 77
     1
 78
     4
 79
     1
140
3.5
147
0.875
173
     1
178
     0
271
     2
272
     2
276
     2
284
    12
340
CB
  0
ENDTAB
  0
TABLE
  2
BLOCK_RECORD
  5
1
330
0
100
AcDbSymbolTable
 70
    53
  0
BLOCK_RECORD
  5
1F
330
1
100
AcDbSymbolTableRecord
100
AcDbBlockTableRecord
  2
*Model_Space
340
22
  0
BLOCK_RECORD
  5
1B
330
1
100
AcDbSymbolTableRecord
100
AcDbBlockTableRecord
  2
*Paper_Space
340
1E
  0
BLOCK_RECORD
  5
23
330
1
100
AcDbSymbolTableRecord
100
AcDbBlockTableRecord
  2
*Paper_Space0
340
26
  0
BLOCK_RECORD
  5
C8
330
1
100
AcDbSymbolTableRecord
100
AcDbBlockTableRecord
  2
SW_NOTE_0
340
0
102
{BLKREFS
331
CE
102
}
  0
BLOCK_RECORD
  5
EE
330
1
100
AcDbSymbolTableRecord
100
AcDbBlockTableRecord
  2
SW_NOTE_1
340
0
102
{BLKREFS
331
F3
102
}
  0
BLOCK_RECORD
  5
F4
330
1
100
AcDbSymbolTableRecord
100
AcDbBlockTableRecord
  2
SW_TABLEANNOTATION_0
340
0
102
{BLKREFS
331
121
102
}
  0
BLOCK_RECORD
  5
1EE
330
1
100
AcDbSymbolTableRecord
100
AcDbBlockTableRecord
  2
SW_NOTE_2
340
0
102
{BLKREFS
331
1F3
102
}
  0
BLOCK_RECORD
  5
1F5
330
1
100
AcDbSymbolTableRecord
100
AcDbBlockTableRecord
  2
_DOT
340
0
  0
BLOCK_RECORD
  5
1FE
330
1
100
AcDbSymbolTableRecord
100
AcDbBlockTableRecord
  2
SW_NOTE_3
340
0
102
{BLKREFS
331
203
102
}
  0
BLOCK_RECORD
  5
205
330
1
100
AcDbSymbolTableRecord
100
AcDbBlockTableRecord
  2
SW_NOTE_4
340
0
102
{BLKREFS
331
20A
102
}
  0
BLOCK_RECORD
  5
20C
330
1
100
AcDbSymbolTableRecord
100
AcDbBlockTableRecord
  2
SW_NOTE_5
340
0
102
{BLKREFS
331
211
102
}
  0
BLOCK_RECORD
  5
213
330
1
100
AcDbSymbolTableRecord
100
AcDbBlockTableRecord
  2
SW_NOTE_6
340
0
102
{BLKREFS
331
218
102
}
  0
BLOCK_RECORD
  5
21A
330
1
100
AcDbSymbolTableRecord
100
AcDbBlockTableRecord
  2
SW_NOTE_7
340
0
102
{BLKREFS
331
21F
102
}
  0
BLOCK_RECORD
  5
221
330
1
100
AcDbSymbolTableRecord
100
AcDbBlockTableRecord
  2
SW_NOTE_8
340
0
102
{BLKREFS
331
226
102
}
  0
BLOCK_RECORD
  5
228
330
1
100
AcDbSymbolTableRecord
100
AcDbBlockTableRecord
  2
SW_NOTE_9
340
0
102
{BLKREFS
331
22D
102
}
  0
BLOCK_RECORD
  5
22F
330
1
100
AcDbSymbolTableRecord
100
AcDbBlockTableRecord
  2
SW_NOTE_10
340
0
102
{BLKREFS
331
234
102
}
  0
BLOCK_RECORD
  5
236
330
1
100
AcDbSymbolTableRecord
100
AcDbBlockTableRecord
  2
SW_NOTE_11
340
0
102
{BLKREFS
331
23B
102
}
  0
BLOCK_RECORD
  5
23C
330
1
100
AcDbSymbolTableRecord
100
AcDbBlockTableRecord
  2
SW_NOTE_12
340
0
102
{BLKREFS
331
241
102
}
  0
BLOCK_RECORD
  5
242
330
1
100
AcDbSymbolTableRecord
100
AcDbBlockTableRecord
  2
SW_NOTE_13
340
0
102
{BLKREFS
331
247
102
}
  0
BLOCK_RECORD
  5
248
330
1
100
AcDbSymbolTableRecord
100
AcDbBlockTableRecord
  2
SW_NOTE_14
340
0
102
{BLKREFS
331
24D
102
}
  0
BLOCK_RECORD
  5
24E
330
1
100
AcDbSymbolTableRecord
100
AcDbBlockTableRecord
  2
SW_NOTE_15
340
0
102
{BLKREFS
331
253
102
}
  0
BLOCK_RECORD
  5
254
330
1
100
AcDbSymbolTableRecord
100
AcDbBlockTableRecord
  2
SW_NOTE_16
340
0
102
{BLKREFS
331
259
102
}
  0
BLOCK_RECORD
  5
25A
330
1
100
AcDbSymbolTableRecord
100
AcDbBlockTableRecord
  2
SW_NOTE_17
340
0
102
{BLKREFS
331
25F
102
}
  0
BLOCK_RECORD
  5
266
330
1
100
AcDbSymbolTableRecord
100
AcDbBlockTableRecord
  2
_D
340
0
  0
BLOCK_RECORD
  5
270
330
1
100
AcDbSymbolTableRecord
100
AcDbBlockTableRecord
  2
_D_1
340
0
  0
BLOCK_RECORD
  5
27E
330
1
100
AcDbSymbolTableRecord
100
AcDbBlockTableRecord
  2
_D_2
340
0
  0
BLOCK_RECORD
  5
288
330
1
100
AcDbSymbolTableRecord
100
AcDbBlockTableRecord
  2
_D_3
340
0
  0
BLOCK_RECORD
  5
296
330
1
100
AcDbSymbolTableRecord
100
AcDbBlockTableRecord
  2
_D_4
340
0
  0
BLOCK_RECORD
  5
2A0
330
1
100
AcDbSymbolTableRecord
100
AcDbBlockTableRecord
  2
_D_5
340
0
  0
BLOCK_RECORD
  5
2BB
330
1
100
AcDbSymbolTableRecord
100
AcDbBlockTableRecord
  2
_D_6
340
0
  0
BLOCK_RECORD
  5
2C5
330
1
100
AcDbSymbolTableRecord
100
AcDbBlockTableRecord
  2
_D_7
340
0
  0
BLOCK_RECORD
  5
2D0
330
1
100
AcDbSymbolTableRecord
100
AcDbBlockTableRecord
  2
_D_8
340
0
  0
BLOCK_RECORD
  5
2DA
330
1
100
AcDbSymbolTableRecord
100
AcDbBlockTableRecord
  2
_NONE
340
0
  0
BLOCK_RECORD
  5
2DD
330
1
100
AcDbSymbolTableRecord
100
AcDbBlockTableRecord
  2
_D_9
340
0
  0
BLOCK_RECORD
  5
2E7
330
1
100
AcDbSymbolTableRecord
100
AcDbBlockTableRecord
  2
_D_10
340
0
  0
BLOCK_RECORD
  5
2F1
330
1
100
AcDbSymbolTableRecord
100
AcDbBlockTableRecord
  2
_D_11
340
0
  0
BLOCK_RECORD
  5
2FC
330
1
100
AcDbSymbolTableRecord
100
AcDbBlockTableRecord
  2
_D_12
340
0
  0
BLOCK_RECORD
  5
306
330
1
100
AcDbSymbolTableRecord
100
AcDbBlockTableRecord
  2
_D_13
340
0
  0
BLOCK_RECORD
  5
30F
330
1
100
AcDbSymbolTableRecord
100
AcDbBlockTableRecord
  2
SW_CENTERMARKSYMBOL_0
340
0
102
{BLKREFS
331
352
102
}
  0
BLOCK_RECORD
  5
358
330
1
100
AcDbSymbolTableRecord
100
AcDbBlockTableRecord
  2
_D_14
340
0
  0
BLOCK_RECORD
  5
362
330
1
100
AcDbSymbolTableRecord
100
AcDbBlockTableRecord
  2
_D_15
340
0
  0
BLOCK_RECORD
  5
384
330
1
100
AcDbSymbolTableRecord
100
AcDbBlockTableRecord
  2
_D_16
340
0
  0
BLOCK_RECORD
  5
38E
330
1
100
AcDbSymbolTableRecord
100
AcDbBlockTableRecord
  2
_D_17
340
0
  0
BLOCK_RECORD
  5
398
330
1
100
AcDbSymbolTableRecord
100
AcDbBlockTableRecord
  2
_D_18
340
0
  0
BLOCK_RECORD
  5
3A2
330
1
100
AcDbSymbolTableRecord
100
AcDbBlockTableRecord
  2
_D_19
340
0
  0
BLOCK_RECORD
  5
3AD
330
1
100
AcDbSymbolTableRecord
100
AcDbBlockTableRecord
  2
_D_20
340
0
  0
BLOCK_RECORD
  5
3B5
330
1
100
AcDbSymbolTableRecord
100
AcDbBlockTableRecord
  2
_D_21
340
0
  0
BLOCK_RECORD
  5
3BF
330
1
100
AcDbSymbolTableRecord
100
AcDbBlockTableRecord
  2
_D_22
340
0
  0
BLOCK_RECORD
  5
3CB
330
1
100
AcDbSymbolTableRecord
100
AcDbBlockTableRecord
  2
_D_23
340
0
  0
BLOCK_RECORD
  5
3D5
330
1
100
AcDbSymbolTableRecord
100
AcDbBlockTableRecord
  2
_D_24
340
0
  0
BLOCK_RECORD
  5
3E9
330
1
100
AcDbSymbolTableRecord
100
AcDbBlockTableRecord
  2
_D_25
340
0
  0
BLOCK_RECORD
  5
3F4
330
1
100
AcDbSymbolTableRecord
100
AcDbBlockTableRecord
  2
_D_26
340
0
  0
BLOCK_RECORD
  5
401
330
1
100
AcDbSymbolTableRecord
100
AcDbBlockTableRecord
  2
SW_ANGULAR_DIMENSION_0
340
0
102
{BLKREFS
331
40A
102
}
  0
BLOCK_RECORD
  5
40B
330
1
100
AcDbSymbolTableRecord
100
AcDbBlockTableRecord
  2
SW_ANGULAR_DIMENSION_1
340
0
102
{BLKREFS
331
414
102
}
  0
BLOCK_RECORD
  5
416
330
1
100
AcDbSymbolTableRecord
100
AcDbBlockTableRecord
  2
_D_27
340
0
  0
ENDTAB
  0
ENDSEC
  0
SECTION
  2
BLOCKS
  0
BLOCK
  5
20
330
1F
100
AcDbEntity
  8
0
100
AcDbBlockBegin
  2
*Model_Space
 70
     0
 10
0.0
 20
0.0
 30
0.0
  3
*Model_Space
  1

  0
ENDBLK
  5
21
330
1F
100
AcDbEntity
  8
0
100
AcDbBlockEnd
  0
BLOCK
  5
1C
330
1B
100
AcDbEntity
 67
     1
  8
0
100
AcDbBlockBegin
  2
*Paper_Space
 70
     0
 10
0.0
 20
0.0
 30
0.0
  3
*Paper_Space
  1

  0
ENDBLK
  5
1D
330
1B
100
AcDbEntity
 67
     1
  8
0
100
AcDbBlockEnd
  0
BLOCK
  5
24
330
23
100
AcDbEntity
  8
0
100
AcDbBlockBegin
  2
*Paper_Space0
 70
     0
 10
0.0
 20
0.0
 30
0.0
  3
*Paper_Space0
  1

  0
ENDBLK
  5
25
330
23
100
AcDbEntity
  8
0
100
AcDbBlockEnd
  0
BLOCK
  5
C9
330
C8
100
AcDbEntity
  8
0
100
AcDbBlockBegin
  2
SW_NOTE_0
 70
     0
 10
0.0
 20
0.0
 30
0.0
  3
SW_NOTE_0
  1

  0
MTEXT
  5
CC
330
C8
100
AcDbEntity
  8
CAJETIN
 62
     0
100
AcDbMText
 10
0.0
 20
12.2400402414
 30
0.0
 40
9.525
 41
0.0
 71
     1
 72
     1
  1
Birch Plywood
  7
SLDTEXTSTYLE0
 73
     1
 44
1.0
  0
MTEXT
  5
CD
330
C8
100
AcDbEntity
  8
CAJETIN
 62
     0
100
AcDbMText
 10
0.0
 20
-0.4599596051
 30
0.0
 40
9.525
 41
0.0
 71
     1
 72
     1
  1
18mm
  7
SLDTEXTSTYLE0
 73
     1
 44
1.0
  0
ENDBLK
  5
CA
330
C8
100
AcDbEntity
  8
0
100
AcDbBlockEnd
  0
BLOCK
  5
EF
330
EE
100
AcDbEntity
  8
0
100
AcDbBlockBegin
  2
SW_NOTE_1
 70
     0
 10
0.0
 20
0.0
 30
0.0
  3
SW_NOTE_1
  1

  0
MTEXT
  5
F1
330
EE
100
AcDbEntity
  8
CAJETIN
 62
     0
100
AcDbMText
 10
25.89609375
 20
12.2400402414
 30
0.0
 40
9.525
 41
0.0
 71
     2
 72
     1
  1
S-21LEX
  7
SLDTEXTSTYLE0
 73
     1
 44
1.0
  0
MTEXT
  5
F2
330
EE
100
AcDbEntity
  8
CAJETIN
 62
     0
100
AcDbMText
 10
28.4482393563
 20
-0.4599596051
 30
0.0
 40
9.525
 41
0.0
 71
     2
 72
     1
  1
DIRECT RADIATION SUBWOOFER
  7
SLDTEXTSTYLE0
 73
     1
 44
1.0
  0
ENDBLK
  5
F0
330
EE
100
AcDbEntity
  8
0
100
AcDbBlockEnd
  0
BLOCK
  5
F5
330
F4
100
AcDbEntity
  8
0
100
AcDbBlockBegin
  2
SW_TABLEANNOTATION_0
 70
     0
 10
0.0
 20
0.0
 30
0.0
  3
SW_TABLEANNOTATION_0
  1

  0
LINE
  5
F7
330
F4
100
AcDbEntity
  8
SLD-0_0
 62
     0
100
AcDbLine
 10
0.0
 20
0.0
 30
0.0
 11
0.0
 21
-198.9448900611
 31
0.0
  0
LINE
  5
F8
330
F4
100
AcDbEntity
  8
SLD-0_0
 62
     0
100
AcDbLine
 10
0.0
 20
-198.9448900611
 30
0.0
 11
373.912334355
 21
-198.9448900611
 31
0.0
  0
LINE
  5
F9
330
F4
100
AcDbEntity
  8
SLD-0_0
 62
     0
100
AcDbLine
 10
373.912334355
 20
-198.9448900611
 30
0.0
 11
373.912334355
 21
0.0
 31
0.0
  0
LINE
  5
FA
330
F4
100
AcDbEntity
  8
SLD-0_0
 62
     0
100
AcDbLine
 10
373.912334355
 20
0.0
 30
0.0
 11
0.0
 21
0.0
 31
0.0
  0
LINE
  5
FB
330
F4
100
AcDbEntity
  8
SLD-0_0
 62
     0
100
AcDbLine
 10
79.3628748516
 20
0.0
 30
0.0
 11
79.3628748516
 21
-35.2226406265
 31
0.0
  0
LINE
  5
FC
330
F4
100
AcDbEntity
  8
SLD-0_0
 62
     0
100
AcDbLine
 10
308.2042803064
 20
0.0
 30
0.0
 11
308.2042803064
 21
-35.2226406265
 31
0.0
  0
LINE
  5
FD
330
F4
100
AcDbEntity
  8
SLD-0_0
 62
     0
100
AcDbLine
 10
79.3628748516
 20
-35.2226406265
 30
0.0
 11
79.3628748516
 21
-198.9448900611
 31
0.0
  0
LINE
  5
FE
330
F4
100
AcDbEntity
  8
SLD-0_0
 62
     0
100
AcDbLine
 10
308.2042803064
 20
-35.2226406265
 30
0.0
 11
308.2042803064
 21
-198.9448900611
 31
0.0
  0
LINE
  5
FF
330
F4
100
AcDbEntity
  8
SLD-0_0
 62
     0
100
AcDbLine
 10
0.0
 20
-58.6115334029
 30
0.0
 11
373.912334355
 21
-58.6115334029
 31
0.0
  0
LINE
  5
100
330
F4
100
AcDbEntity
  8
SLD-0_0
 62
     0
100
AcDbLine
 10
0.0
 20
-82.0004261793
 30
0.0
 11
373.912334355
 21
-82.0004261793
 31
0.0
  0
LINE
  5
101
330
F4
100
AcDbEntity
  8
SLD-0_0
 62
     0
100
AcDbLine
 10
0.0
 20
-105.3893189556
 30
0.0
 11
373.912334355
 21
-105.3893189556
 31
0.0
  0
LINE
  5
102
330
F4
100
AcDbEntity
  8
SLD-0_0
 62
     0
100
AcDbLine
 10
0.0
 20
-128.778211732
 30
0.0
 11
373.912334355
 21
-128.778211732
 31
0.0
  0
LINE
  5
103
330
F4
100
AcDbEntity
  8
SLD-0_0
 62
     0
100
AcDbLine
 10
0.0
 20
-152.1671045084
 30
0.0
 11
373.912334355
 21
-152.1671045084
 31
0.0
  0
LINE
  5
104
330
F4
100
AcDbEntity
  8
SLD-0_0
 62
     0
100
AcDbLine
 10
0.0
 20
-175.5559972847
 30
0.0
 11
373.912334355
 21
-175.5559972847
 31
0.0
  0
LINE
  5
105
330
F4
100
AcDbEntity
  8
SLD-0_0
 62
     0
100
AcDbLine
 10
0.0
 20
-35.2226406265
 30
0.0
 11
373.912334355
 21
-35.2226406265
 31
0.0
  0
MTEXT
  5
107
330
F4
100
AcDbEntity
  8
SLD-0_0
 62
     0
100
AcDbMText
 10
12.491091155
 20
-12.8756110313
 30
0.0
 40
9.525
 41
0.0
 71
     1
 72
     1
  1
ITEM NO.
  7
SLDTEXTSTYLE2
 73
     1
 44
1.0
  0
MTEXT
  5
108
330
F4
100
AcDbEntity
  8
SLD-0_0
 62
     0
100
AcDbMText
 10
153.8138539074
 20
-12.8756110313
 30
0.0
 40
9.525
 41
0.0
 71
     1
 72
     1
  1
DESCRIPTION
  7
SLDTEXTSTYLE2
 73
     1
 44
1.0
  0
MTEXT
  5
109
330
F4
100
AcDbEntity
  8
SLD-0_0
 62
     0
100
AcDbMText
 10
327.2735159878
 20
-12.8756110313
 30
0.0
 40
9.525
 41
0.0
 71
     1
 72
     1
  1
QTY.
  7
SLDTEXTSTYLE2
 73
     1
 44
1.0
  0
MTEXT
  5
10A
330
F4
100
AcDbEntity
  8
SLD-0_0
 62
     0
100
AcDbMText
 10
36.1624790826
 20
-42.1813777328
 30
0.0
 40
9.525
 41
0.0
 71
     1
 72
     1
  1
1
  7
SLDTEXTSTYLE2
 73
     1
 44
1.0
  0
MTEXT
  5
10C
330
F4
100
AcDbEntity
  8
SLD-0_0
 62
     0
100
AcDbMText
 10
152.508579242
 20
-42.1813777328
 30
0.0
 40
9.525
 41
0.0
 71
     1
 72
     1
  1
694 x 838 x 18
  7
SLDTEXTSTYLE3
 73
     1
 44
1.0
  0
MTEXT
  5
10D
330
F4
100
AcDbEntity
  8
SLD-0_0
 62
     0
100
AcDbMText
 10
337.5393489875
 20
-42.1813777328
 30
0.0
 40
9.525
 41
0.0
 71
     1
 72
     1
  1
2
  7
SLDTEXTSTYLE2
 73
     1
 44
1.0
  0
MTEXT
  5
10E
330
F4
100
AcDbEntity
  8
SLD-0_0
 62
     0
100
AcDbMText
 10
36.1624790826
 20
-65.5702705091
 30
0.0
 40
9.525
 41
0.0
 71
     1
 72
     1
  1
2
  7
SLDTEXTSTYLE2
 73
     1
 44
1.0
  0
MTEXT
  5
10F
330
F4
100
AcDbEntity
  8
SLD-0_0
 62
     0
100
AcDbMText
 10
152.508579242
 20
-65.5702705091
 30
0.0
 40
9.525
 41
0.0
 71
     1
 72
     1
  1
664 x 838 x 18
  7
SLDTEXTSTYLE3
 73
     1
 44
1.0
  0
MTEXT
  5
110
330
F4
100
AcDbEntity
  8
SLD-0_0
 62
     0
100
AcDbMText
 10
337.5393489875
 20
-65.5702705091
 30
0.0
 40
9.525
 41
0.0
 71
     1
 72
     1
  1
1
  7
SLDTEXTSTYLE2
 73
     1
 44
1.0
  0
MTEXT
  5
111
330
F4
100
AcDbEntity
  8
SLD-0_0
 62
     0
100
AcDbMText
 10
36.1624790826
 20
-88.9591632855
 30
0.0
 40
9.525
 41
0.0
 71
     1
 72
     1
  1
3
  7
SLDTEXTSTYLE2
 73
     1
 44
1.0
  0
MTEXT
  5
112
330
F4
100
AcDbEntity
  8
SLD-0_0
 62
     0
100
AcDbMText
 10
152.508579242
 20
-88.9591632855
 30
0.0
 40
9.525
 41
0.0
 71
     1
 72
     1
  1
658 x 664 x 18
  7
SLDTEXTSTYLE3
 73
     1
 44
1.0
  0
MTEXT
  5
113
330
F4
100
AcDbEntity
  8
SLD-0_0
 62
     0
100
AcDbMText
 10
337.5393489875
 20
-88.9591632855
 30
0.0
 40
9.525
 41
0.0
 71
     1
 72
     1
  1
2
  7
SLDTEXTSTYLE2
 73
     1
 44
1.0
  0
MTEXT
  5
114
330
F4
100
AcDbEntity
  8
SLD-0_0
 62
     0
100
AcDbMText
 10
36.1624790826
 20
-112.3480560619
 30
0.0
 40
9.525
 41
0.0
 71
     1
 72
     1
  1
4
  7
SLDTEXTSTYLE2
 73
     1
 44
1.0
  0
MTEXT
  5
115
330
F4
100
AcDbEntity
  8
SLD-0_0
 62
     0
100
AcDbMText
 10
152.508579242
 20
-112.3480560619
 30
0.0
 40
9.525
 41
0.0
 71
     1
 72
     1
  1
658 x 664 x 18
  7
SLDTEXTSTYLE3
 73
     1
 44
1.0
  0
MTEXT
  5
116
330
F4
100
AcDbEntity
  8
SLD-0_0
 62
     0
100
AcDbMText
 10
337.5393489875
 20
-112.3480560619
 30
0.0
 40
9.525
 41
0.0
 71
     1
 72
     1
  1
1
  7
SLDTEXTSTYLE2
 73
     1
 44
1.0
  0
MTEXT
  5
117
330
F4
100
AcDbEntity
  8
SLD-0_0
 62
     0
100
AcDbMText
 10
36.1624790826
 20
-135.7369488382
 30
0.0
 40
9.525
 41
0.0
 71
     1
 72
     1
  1
5
  7
SLDTEXTSTYLE2
 73
     1
 44
1.0
  0
MTEXT
  5
118
330
F4
100
AcDbEntity
  8
SLD-0_0
 62
     0
100
AcDbMText
 10
152.508579242
 20
-135.7369488382
 30
0.0
 40
9.525
 41
0.0
 71
     1
 72
     1
  1
269 x 347 x 18
  7
SLDTEXTSTYLE3
 73
     1
 44
1.0
  0
MTEXT
  5
119
330
F4
100
AcDbEntity
  8
SLD-0_0
 62
     0
100
AcDbMText
 10
337.5393489875
 20
-135.7369488382
 30
0.0
 40
9.525
 41
0.0
 71
     1
 72
     1
  1
4
  7
SLDTEXTSTYLE2
 73
     1
 44
1.0
  0
MTEXT
  5
11A
330
F4
100
AcDbEntity
  8
SLD-0_0
 62
     0
100
AcDbMText
 10
36.1624790826
 20
-159.1258416146
 30
0.0
 40
9.525
 41
0.0
 71
     1
 72
     1
  1
6
  7
SLDTEXTSTYLE2
 73
     1
 44
1.0
  0
MTEXT
  5
11B
330
F4
100
AcDbEntity
  8
SLD-0_0
 62
     0
100
AcDbMText
 10
152.508579242
 20
-159.1258416146
 30
0.0
 40
9.525
 41
0.0
 71
     1
 72
     1
  1
658 x 221 x 18
  7
SLDTEXTSTYLE3
 73
     1
 44
1.0
  0
MTEXT
  5
11C
330
F4
100
AcDbEntity
  8
SLD-0_0
 62
     0
100
AcDbMText
 10
337.5393489875
 20
-159.1258416146
 30
0.0
 40
9.525
 41
0.0
 71
     1
 72
     1
  1
1
  7
SLDTEXTSTYLE2
 73
     1
 44
1.0
  0
MTEXT
  5
11D
330
F4
100
AcDbEntity
  8
SLD-0_0
 62
     0
100
AcDbMText
 10
36.1624790826
 20
-182.514734391
 30
0.0
 40
9.525
 41
0.0
 71
     1
 72
     1
  1
7
  7
SLDTEXTSTYLE2
 73
     1
 44
1.0
  0
MTEXT
  5
11F
330
F4
100
AcDbEntity
  8
SLD-0_0
 62
     0
100
AcDbMText
 10
156.0275368867
 20
-182.514734391
 30
0.0
 40
9.525
 41
0.0
 71
     1
 72
     1
  1
85 x 664 x 18
  7
SLDTEXTSTYLE4
 73
     1
 44
1.0
  0
MTEXT
  5
120
330
F4
100
AcDbEntity
  8
SLD-0_0
 62
     0
100
AcDbMText
 10
337.5393489875
 20
-182.514734391
 30
0.0
 40
9.525
 41
0.0
 71
     1
 72
     1
  1
1
  7
SLDTEXTSTYLE2
 73
     1
 44
1.0
  0
ENDBLK
  5
F6
330
F4
100
AcDbEntity
  8
0
100
AcDbBlockEnd
  0
BLOCK
  5
1EF
330
1EE
100
AcDbEntity
  8
0
100
AcDbBlockBegin
  2
SW_NOTE_2
 70
     0
 10
0.0
 20
0.0
 30
0.0
  3
SW_NOTE_2
  1

  0
CIRCLE
  5
1F1
330
1EE
100
AcDbEntity
  8
SLD-0_0
 62
     0
100
AcDbCircle
 10
-11.8665019337
 20
6.8027998586
 30
0.0
 40
13.67815609133115
  0
MTEXT
  5
1F2
330
1EE
100
AcDbEntity
  8
SLD-0_0
 62
     0
100
AcDbMText
 10
-11.8224046689
 20
12.1775091917
 30
0.0
 40
9.525
 41
0.0
 71
     2
 72
     1
  1
1
  7
SLDTEXTSTYLE0
 73
     1
 44
1.0
  0
ENDBLK
  5
1F0
330
1EE
100
AcDbEntity
  8
0
100
AcDbBlockEnd
  0
BLOCK
  5
1F6
330
1F5
100
AcDbEntity
  8
0
100
AcDbBlockBegin
  2
_DOT
 70
     0
 10
0.0
 20
0.0
 30
0.0
  3
_DOT
  1

  0
POLYLINE
  5
1F8
330
1F5
100
AcDbEntity
  8
0
  6
ByBlock
 62
     0
100
AcDb2dPolyline
 66
     1
 10
0.0
 20
0.0
 30
0.0
 70
     1
 40
0.5
 41
0.5
  0
VERTEX
  5
1FA
330
1F8
100
AcDbEntity
  8
0
  6
ByBlock
 62
     0
100
AcDbVertex
100
AcDb2dVertex
 10
-0.25
 20
0.0
 30
0.0
 42
1.0
  0
VERTEX
  5
1FB
330
1F8
100
AcDbEntity
  8
0
  6
ByBlock
 62
     0
100
AcDbVertex
100
AcDb2dVertex
 10
0.25
 20
0.0
 30
0.0
 42
1.0
  0
SEQEND
  5
1FC
330
1F8
100
AcDbEntity
  8
0
  6
ByBlock
 62
     0
  0
LINE
  5
1F9
330
1F5
100
AcDbEntity
  8
0
  6
ByBlock
 62
     0
370
    -2
100
AcDbLine
 10
-0.5
 20
0.0
 30
0.0
 11
-1.0
 21
0.0
 31
0.0
  0
ENDBLK
  5
1F7
330
1F5
100
AcDbEntity
  8
0
100
AcDbBlockEnd
  0
BLOCK
  5
1FF
330
1FE
100
AcDbEntity
  8
0
100
AcDbBlockBegin
  2
SW_NOTE_3
 70
     0
 10
0.0
 20
0.0
 30
0.0
  3
SW_NOTE_3
  1

  0
CIRCLE
  5
201
330
1FE
100
AcDbEntity
  8
SLD-0_0
 62
     0
100
AcDbCircle
 10
-12.3771932124
 20
5.8221166461
 30
0.0
 40
13.67815609133115
  0
MTEXT
  5
202
330
1FE
100
AcDbEntity
  8
SLD-0_0
 62
     0
100
AcDbMText
 10
-12.3330959476
 20
11.1968259793
 30
0.0
 40
9.525
 41
0.0
 71
     2
 72
     1
  1
6
  7
SLDTEXTSTYLE0
 73
     1
 44
1.0
  0
ENDBLK
  5
200
330
1FE
100
AcDbEntity
  8
0
100
AcDbBlockEnd
  0
BLOCK
  5
206
330
205
100
AcDbEntity
  8
0
100
AcDbBlockBegin
  2
SW_NOTE_4
 70
     0
 10
0.0
 20
0.0
 30
0.0
  3
SW_NOTE_4
  1

  0
CIRCLE
  5
208
330
205
100
AcDbEntity
  8
SLD-0_0
 62
     0
100
AcDbCircle
 10
11.1161600948
 20
7.970127904
 30
0.0
 40
13.6781560913312
  0
MTEXT
  5
209
330
205
100
AcDbEntity
  8
SLD-0_0
 62
     0
100
AcDbMText
 10
11.1602573596
 20
13.3448372372
 30
0.0
 40
9.525
 41
0.0
 71
     2
 72
     1
  1
7
  7
SLDTEXTSTYLE0
 73
     1
 44
1.0
  0
ENDBLK
  5
207
330
205
100
AcDbEntity
  8
0
100
AcDbBlockEnd
  0
BLOCK
  5
20D
330
20C
100
AcDbEntity
  8
0
100
AcDbBlockBegin
  2
SW_NOTE_5
 70
     0
 10
0.0
 20
0.0
 30
0.0
  3
SW_NOTE_5
  1

  0
CIRCLE
  5
20F
330
20C
100
AcDbEntity
  8
SLD-0_0
 62
     0
100
AcDbCircle
 10
8.9150742507
 20
10.3736881177
 30
0.0
 40
13.67815609133115
  0
MTEXT
  5
210
330
20C
100
AcDbEntity
  8
SLD-0_0
 62
     0
100
AcDbMText
 10
8.9591715156
 20
15.7483974508
 30
0.0
 40
9.525
 41
0.0
 71
     2
 72
     1
  1
3
  7
SLDTEXTSTYLE0
 73
     1
 44
1.0
  0
ENDBLK
  5
20E
330
20C
100
AcDbEntity
  8
0
100
AcDbBlockEnd
  0
BLOCK
  5
214
330
213
100
AcDbEntity
  8
0
100
AcDbBlockBegin
  2
SW_NOTE_6
 70
     0
 10
0.0
 20
0.0
 30
0.0
  3
SW_NOTE_6
  1

  0
CIRCLE
  5
216
330
213
100
AcDbEntity
  8
SLD-0_0
 62
     0
100
AcDbCircle
 10
13.5897630321
 20
-1.5525124119
 30
0.0
 40
13.67815609133115
  0
MTEXT
  5
217
330
213
100
AcDbEntity
  8
SLD-0_0
 62
     0
100
AcDbMText
 10
13.633860297
 20
3.8221969213
 30
0.0
 40
9.525
 41
0.0
 71
     2
 72
     1
  1
2
  7
SLDTEXTSTYLE0
 73
     1
 44
1.0
  0
ENDBLK
  5
215
330
213
100
AcDbEntity
  8
0
100
AcDbBlockEnd
  0
BLOCK
  5
21B
330
21A
100
AcDbEntity
  8
0
100
AcDbBlockBegin
  2
SW_NOTE_7
 70
     0
 10
0.0
 20
0.0
 30
0.0
  3
SW_NOTE_7
  1

  0
CIRCLE
  5
21D
330
21A
100
AcDbEntity
  8
SLD-0_0
 62
     0
100
AcDbCircle
 10
-13.2081989084
 20
-3.5546357978
 30
0.0
 40
13.6781560913312
  0
MTEXT
  5
21E
330
21A
100
AcDbEntity
  8
SLD-0_0
 62
     0
100
AcDbMText
 10
-13.1641016435
 20
1.8200735354
 30
0.0
 40
9.525
 41
0.0
 71
     2
 72
     1
  1
4
  7
SLDTEXTSTYLE0
 73
     1
 44
1.0
  0
ENDBLK
  5
21C
330
21A
100
AcDbEntity
  8
0
100
AcDbBlockEnd
  0
BLOCK
  5
222
330
221
100
AcDbEntity
  8
0
100
AcDbBlockBegin
  2
SW_NOTE_8
 70
     0
 10
0.0
 20
0.0
 30
0.0
  3
SW_NOTE_8
  1

  0
CIRCLE
  5
224
330
221
100
AcDbEntity
  8
SLD-0_0
 62
     0
100
AcDbCircle
 10
13.1708038872
 20
-3.6907829825
 30
0.0
 40
13.67815609133116
  0
MTEXT
  5
225
330
221
100
AcDbEntity
  8
SLD-0_0
 62
     0
100
AcDbMText
 10
13.214901152
 20
1.6839263506
 30
0.0
 40
9.525
 41
0.0
 71
     2
 72
     1
  1
1
  7
SLDTEXTSTYLE0
 73
     1
 44
1.0
  0
ENDBLK
  5
223
330
221
100
AcDbEntity
  8
0
100
AcDbBlockEnd
  0
BLOCK
  5
229
330
228
100
AcDbEntity
  8
0
100
AcDbBlockBegin
  2
SW_NOTE_9
 70
     0
 10
0.0
 20
0.0
 30
0.0
  3
SW_NOTE_9
  1

  0
CIRCLE
  5
22B
330
228
100
AcDbEntity
  8
SLD-0_0
 62
     0
100
AcDbCircle
 10
-0.9767923953
 20
13.6432338789
 30
0.0
 40
13.67815609133115
  0
MTEXT
  5
22C
330
228
100
AcDbEntity
  8
SLD-0_0
 62
     0
100
AcDbMText
 10
-0.9326951305
 20
19.0179432121
 30
0.0
 40
9.525
 41
0.0
 71
     2
 72
     1
  1
2
  7
SLDTEXTSTYLE0
 73
     1
 44
1.0
  0
ENDBLK
  5
22A
330
228
100
AcDbEntity
  8
0
100
AcDbBlockEnd
  0
BLOCK
  5
230
330
22F
100
AcDbEntity
  8
0
100
AcDbBlockBegin
  2
SW_NOTE_10
 70
     0
 10
0.0
 20
0.0
 30
0.0
  3
SW_NOTE_10
  1

  0
CIRCLE
  5
232
330
22F
100
AcDbEntity
  8
SLD-0_0
 62
     0
100
AcDbCircle
 10
8.0390723515
 20
-11.0664027483
 30
0.0
 40
13.67815609133115
  0
MTEXT
  5
233
330
22F
100
AcDbEntity
  8
SLD-0_0
 62
     0
100
AcDbMText
 10
8.0831696163
 20
-5.6916934151
 30
0.0
 40
9.525
 41
0.0
 71
     2
 72
     1
  1
5
  7
SLDTEXTSTYLE0
 73
     1
 44
1.0
  0
ENDBLK
  5
231
330
22F
100
AcDbEntity
  8
0
100
AcDbBlockEnd
  0
BLOCK
  5
237
330
236
100
AcDbEntity
  8
0
100
AcDbBlockBegin
  2
SW_NOTE_11
 70
     0
 10
0.0
 20
0.0
 30
0.0
  3
SW_NOTE_11
  1

  0
CIRCLE
  5
239
330
236
100
AcDbEntity
  8
SLD-0_0
 62
     0
100
AcDbCircle
 10
4.6738502444
 20
9.5803593311
 30
0.0
 40
10.1220726501988
  0
MTEXT
  5
23A
330
236
100
AcDbEntity
  8
SLD-0_0
 62
     0
100
AcDbMText
 10
0.0
 20
16.3200536553
 30
0.0
 40
12.7
 41
0.0
 71
     1
 72
     1
  1
5
  7
SLDTEXTSTYLE0
 73
     1
 44
1.0
  0
ENDBLK
  5
238
330
236
100
AcDbEntity
  8
0
100
AcDbBlockEnd
  0
BLOCK
  5
23D
330
23C
100
AcDbEntity
  8
0
100
AcDbBlockBegin
  2
SW_NOTE_12
 70
     0
 10
0.0
 20
0.0
 30
0.0
  3
SW_NOTE_12
  1

  0
CIRCLE
  5
23F
330
23C
100
AcDbEntity
  8
SLD-0_0
 62
     0
100
AcDbCircle
 10
4.6247064477
 20
9.5855535011
 30
0.0
 40
10.07693081960973
  0
MTEXT
  5
240
330
23C
100
AcDbEntity
  8
SLD-0_0
 62
     0
100
AcDbMText
 10
0.0
 20
16.3200536553
 30
0.0
 40
12.7
 41
0.0
 71
     1
 72
     1
  1
7
  7
SLDTEXTSTYLE0
 73
     1
 44
1.0
  0
ENDBLK
  5
23E
330
23C
100
AcDbEntity
  8
0
100
AcDbBlockEnd
  0
BLOCK
  5
243
330
242
100
AcDbEntity
  8
0
100
AcDbBlockBegin
  2
SW_NOTE_13
 70
     0
 10
0.0
 20
0.0
 30
0.0
  3
SW_NOTE_13
  1

  0
CIRCLE
  5
245
330
242
100
AcDbEntity
  8
SLD-0_0
 62
     0
100
AcDbCircle
 10
4.6570793593
 20
9.6160580822
 30
0.0
 40
10.122072650199
  0
MTEXT
  5
246
330
242
100
AcDbEntity
  8
SLD-0_0
 62
     0
100
AcDbMText
 10
0.0
 20
16.3200536553
 30
0.0
 40
12.7
 41
0.0
 71
     1
 72
     1
  1
6
  7
SLDTEXTSTYLE0
 73
     1
 44
1.0
  0
ENDBLK
  5
244
330
242
100
AcDbEntity
  8
0
100
AcDbBlockEnd
  0
BLOCK
  5
249
330
248
100
AcDbEntity
  8
0
100
AcDbBlockBegin
  2
SW_NOTE_14
 70
     0
 10
0.0
 20
0.0
 30
0.0
  3
SW_NOTE_14
  1

  0
CIRCLE
  5
24B
330
248
100
AcDbEntity
  8
SLD-0_0
 62
     0
100
AcDbCircle
 10
4.6496388618
 20
9.6234785931
 30
0.0
 40
10.122072650199
  0
MTEXT
  5
24C
330
248
100
AcDbEntity
  8
SLD-0_0
 62
     0
100
AcDbMText
 10
0.0
 20
16.3200536553
 30
0.0
 40
12.7
 41
0.0
 71
     1
 72
     1
  1
4
  7
SLDTEXTSTYLE0
 73
     1
 44
1.0
  0
ENDBLK
  5
24A
330
248
100
AcDbEntity
  8
0
100
AcDbBlockEnd
  0
BLOCK
  5
24F
330
24E
100
AcDbEntity
  8
0
100
AcDbBlockBegin
  2
SW_NOTE_15
 70
     0
 10
0.0
 20
0.0
 30
0.0
  3
SW_NOTE_15
  1

  0
CIRCLE
  5
251
330
24E
100
AcDbEntity
  8
SLD-0_0
 62
     0
100
AcDbCircle
 10
4.6707171566
 20
9.5435632205
 30
0.0
 40
10.122072650199
  0
MTEXT
  5
252
330
24E
100
AcDbEntity
  8
SLD-0_0
 62
     0
100
AcDbMText
 10
0.0
 20
16.3200536553
 30
0.0
 40
12.7
 41
0.0
 71
     1
 72
     1
  1
3
  7
SLDTEXTSTYLE0
 73
     1
 44
1.0
  0
ENDBLK
  5
250
330
24E
100
AcDbEntity
  8
0
100
AcDbBlockEnd
  0
BLOCK
  5
255
330
254
100
AcDbEntity
  8
0
100
AcDbBlockBegin
  2
SW_NOTE_16
 70
     0
 10
0.0
 20
0.0
 30
0.0
  3
SW_NOTE_16
  1

  0
CIRCLE
  5
257
330
254
100
AcDbEntity
  8
SLD-0_0
 62
     0
100
AcDbCircle
 10
4.6194044615
 20
9.6009375277
 30
0.0
 40
10.1220726501987
  0
MTEXT
  5
258
330
254
100
AcDbEntity
  8
SLD-0_0
 62
     0
100
AcDbMText
 10
0.0
 20
16.3200536553
 30
0.0
 40
12.7
 41
0.0
 71
     1
 72
     1
  1
2
  7
SLDTEXTSTYLE0
 73
     1
 44
1.0
  0
ENDBLK
  5
256
330
254
100
AcDbEntity
  8
0
100
AcDbBlockEnd
  0
BLOCK
  5
25B
330
25A
100
AcDbEntity
  8
0
100
AcDbBlockBegin
  2
SW_NOTE_17
 70
     0
 10
0.0
 20
0.0
 30
0.0
  3
SW_NOTE_17
  1

  0
CIRCLE
  5
25D
330
25A
100
AcDbEntity
  8
SLD-0_0
 62
     0
100
AcDbCircle
 10
4.6581394115
 20
9.6009375277
 30
0.0
 40
10.12207265019874
  0
MTEXT
  5
25E
330
25A
100
AcDbEntity
  8
SLD-0_0
 62
     0
100
AcDbMText
 10
0.0
 20
16.3200536553
 30
0.0
 40
12.7
 41
0.0
 71
     1
 72
     1
  1
1
  7
SLDTEXTSTYLE0
 73
     1
 44
1.0
  0
ENDBLK
  5
25C
330
25A
100
AcDbEntity
  8
0
100
AcDbBlockEnd
  0
BLOCK
  5
267
330
266
100
AcDbEntity
  8
0
100
AcDbBlockBegin
  2
_D
 70
     0
 10
0.0
 20
0.0
 30
0.0
  3
_D
  1

  0
SOLID
  5
269
330
266
100
AcDbEntity
  8
SLD-0_0
100
AcDbTrace
 10
999.9106947631
 20
1851.0696840377
 30
0.0
 11
996.6086947631
 21
1851.5776840377
 31
0.0
 12
996.6086947631
 22
1850.5616840377
 32
0.0
 13
996.6086947631
 23
1850.5616840377
 33
0.0
  0
SOLID
  5
26A
330
266
100
AcDbEntity
  8
SLD-0_0
100
AcDbTrace
 10
161.9106947631
 20
1851.0696840377
 30
0.0
 11
165.2126947631
 21
1850.5616840377
 31
0.0
 12
165.2126947631
 22
1851.5776840377
 32
0.0
 13
165.2126947631
 23
1851.5776840377
 33
0.0
  0
LINE
  5
26B
330
266
100
AcDbEntity
  8
SLD-0_0
100
AcDbLine
 10
999.9106947631
 20
1841.7174502343
 30
0.0
 11
999.9106947631
 21
1852.0696840377
 31
0.0
  0
LINE
  5
26C
330
266
100
AcDbEntity
  8
SLD-0_0
100
AcDbLine
 10
161.9106947631
 20
1841.7174502343
 30
0.0
 11
161.9106947631
 21
1852.0696840377
 31
0.0
  0
LINE
  5
26D
330
266
100
AcDbEntity
  8
SLD-0_0
100
AcDbLine
 10
999.9106947631
 20
1851.0696840377
 30
0.0
 11
161.9106947631
 21
1851.0696840377
 31
0.0
  0
MTEXT
  5
26E
330
266
100
AcDbEntity
  8
SLD-0_0
100
AcDbMText
 10
590.536242803
 20
1855.5814211269
 30
0.0
 40
3.5
 41
0.0
 71
     1
 72
     1
  1
838
  7
SLDTEXTSTYLE0
 73
     1
 44
1.0
  0
ENDBLK
  5
268
330
266
100
AcDbEntity
  8
0
100
AcDbBlockEnd
  0
BLOCK
  5
271
330
270
100
AcDbEntity
  8
0
100
AcDbBlockBegin
  2
_D_1
 70
     0
 10
0.0
 20
0.0
 30
0.0
  3
_D_1
  1

  0
SOLID
  5
273
330
270
100
AcDbEntity
  8
SLD-0_0
100
AcDbTrace
 10
1013.304514326
 20
1146.7174502343
 30
0.0
 11
1013.812514326
 21
1150.0194502343
 31
0.0
 12
1012.796514326
 22
1150.0194502343
 32
0.0
 13
1012.796514326
 23
1150.0194502343
 33
0.0
  0
SOLID
  5
274
330
270
100
AcDbEntity
  8
SLD-0_0
100
AcDbTrace
 10
1013.304514326
 20
1840.7174502343
 30
0.0
 11
1012.796514326
 21
1837.4154502343
 31
0.0
 12
1013.812514326
 22
1837.4154502343
 32
0.0
 13
1013.812514326
 23
1837.4154502343
 33
0.0
  0
LINE
  5
275
330
270
100
AcDbEntity
  8
SLD-0_0
100
AcDbLine
 10
1000.9106947631
 20
1146.7174502343
 30
0.0
 11
1014.304514326
 21
1146.7174502343
 31
0.0
  0
LINE
  5
276
330
270
100
AcDbEntity
  8
SLD-0_0
100
AcDbLine
 10
1000.9106947631
 20
1840.7174502343
 30
0.0
 11
1014.304514326
 21
1840.7174502343
 31
0.0
  0
LINE
  5
277
330
270
100
AcDbEntity
  8
SLD-0_0
100
AcDbLine
 10
1013.304514326
 20
1146.7174502343
 30
0.0
 11
1013.304514326
 21
1840.7174502343
 31
0.0
  0
MTEXT
  5
278
330
270
100
AcDbEntity
  8
SLD-0_0
100
AcDbMText
 10
1008.7927772368
 20
1529.0709073877
 30
0.0
 40
3.5
 41
0.0
 71
     1
 72
     1
  1
694
  7
SLDTEXTSTYLE0
 11
-3.713525943768165E-15
 21
1.0
 31
0.0
 73
     1
 44
1.0
  0
ENDBLK
  5
272
330
270
100
AcDbEntity
  8
0
100
AcDbBlockEnd
  0
BLOCK
  5
27F
330
27E
100
AcDbEntity
  8
0
100
AcDbBlockBegin
  2
_D_2
 70
     0
 10
0.0
 20
0.0
 30
0.0
  3
_D_2
  1

  0
SOLID
  5
281
330
27E
100
AcDbEntity
  8
SLD-0_0
100
AcDbTrace
 10
2208.5056576373
 20
1835.7174502343
 30
0.0
 11
2211.8076576373
 21
1835.2094502343
 31
0.0
 12
2211.8076576373
 22
1836.2254502343
 32
0.0
 13
2211.8076576373
 23
1836.2254502343
 33
0.0
  0
SOLID
  5
282
330
27E
100
AcDbEntity
  8
SLD-0_0
100
AcDbTrace
 10
2866.5056576373
 20
1835.7174502343
 30
0.0
 11
2863.2036576373
 21
1836.2254502343
 31
0.0
 12
2863.2036576373
 22
1835.2094502343
 32
0.0
 13
2863.2036576373
 23
1835.2094502343
 33
0.0
  0
LINE
  5
283
330
27E
100
AcDbEntity
  8
SLD-0_0
100
AcDbLine
 10
2208.5056576373
 20
1826.7174502343
 30
0.0
 11
2208.5056576373
 21
1836.7174502343
 31
0.0
  0
LINE
  5
284
330
27E
100
AcDbEntity
  8
SLD-0_0
100
AcDbLine
 10
2866.5056576373
 20
1826.7174502343
 30
0.0
 11
2866.5056576373
 21
1836.7174502343
 31
0.0
  0
LINE
  5
285
330
27E
100
AcDbEntity
  8
SLD-0_0
100
AcDbLine
 10
2208.5056576373
 20
1835.7174502343
 30
0.0
 11
2866.5056576373
 21
1835.7174502343
 31
0.0
  0
MTEXT
  5
286
330
27E
100
AcDbEntity
  8
SLD-0_0
100
AcDbMText
 10
2504.1234801893
 20
1840.2291873235
 30
0.0
 40
3.5
 41
0.0
 71
     1
 72
     1
  1
658
  7
SLDTEXTSTYLE0
 73
     1
 44
1.0
  0
ENDBLK
  5
280
330
27E
100
AcDbEntity
  8
0
100
AcDbBlockEnd
  0
BLOCK
  5
289
330
288
100
AcDbEntity
  8
0
100
AcDbBlockBegin
  2
_D_3
 70
     0
 10
0.0
 20
0.0
 30
0.0
  3
_D_3
  1

  0
SOLID
  5
28B
330
288
100
AcDbEntity
  8
SLD-0_0
100
AcDbTrace
 10
2876.5056576373
 20
1825.7174502343
 30
0.0
 11
2875.9976576373
 21
1822.4154502343
 31
0.0
 12
2877.0136576373
 22
1822.4154502343
 32
0.0
 13
2877.0136576373
 23
1822.4154502343
 33
0.0
  0
SOLID
  5
28C
330
288
100
AcDbEntity
  8
SLD-0_0
100
AcDbTrace
 10
2876.5056576373
 20
1161.7174502343
 30
0.0
 11
2877.0136576373
 21
1165.0194502343
 31
0.0
 12
2875.9976576373
 22
1165.0194502343
 32
0.0
 13
2875.9976576373
 23
1165.0194502343
 33
0.0
  0
LINE
  5
28D
330
288
100
AcDbEntity
  8
SLD-0_0
100
AcDbLine
 10
2867.5056576373
 20
1825.7174502343
 30
0.0
 11
2877.5056576373
 21
1825.7174502343
 31
0.0
  0
LINE
  5
28E
330
288
100
AcDbEntity
  8
SLD-0_0
100
AcDbLine
 10
2867.5056576373
 20
1161.7174502343
 30
0.0
 11
2877.5056576373
 21
1161.7174502343
 31
0.0
  0
LINE
  5
28F
330
288
100
AcDbEntity
  8
SLD-0_0
100
AcDbLine
 10
2876.5056576373
 20
1825.7174502343
 30
0.0
 11
2876.5056576373
 21
1161.7174502343
 31
0.0
  0
MTEXT
  5
290
330
288
100
AcDbEntity
  8
SLD-0_0
100
AcDbMText
 10
2871.9939205481
 20
1481.4415288909
 30
0.0
 40
3.5
 41
0.0
 71
     1
 72
     1
  1
664
  7
SLDTEXTSTYLE0
 11
-7.044195017643634E-15
 21
1.0
 31
0.0
 73
     1
 44
1.0
  0
ENDBLK
  5
28A
330
288
100
AcDbEntity
  8
0
100
AcDbBlockEnd
  0
BLOCK
  5
297
330
296
100
AcDbEntity
  8
0
100
AcDbBlockBegin
  2
_D_4
 70
     0
 10
0.0
 20
0.0
 30
0.0
  3
_D_4
  1

  0
SOLID
  5
299
330
296
100
AcDbEntity
  8
SLD-0_0
100
AcDbTrace
 10
1201.9897868887
 20
1835.7174502343
 30
0.0
 11
1205.2917868887
 21
1835.2094502343
 31
0.0
 12
1205.2917868887
 22
1836.2254502343
 32
0.0
 13
1205.2917868887
 23
1836.2254502343
 33
0.0
  0
SOLID
  5
29A
330
296
100
AcDbEntity
  8
SLD-0_0
100
AcDbTrace
 10
2039.9897868887
 20
1835.7174502343
 30
0.0
 11
2036.6877868887
 21
1836.2254502343
 31
0.0
 12
2036.6877868887
 22
1835.2094502343
 32
0.0
 13
2036.6877868887
 23
1835.2094502343
 33
0.0
  0
LINE
  5
29B
330
296
100
AcDbEntity
  8
SLD-0_0
100
AcDbLine
 10
1201.9897868887
 20
1826.7174502343
 30
0.0
 11
1201.9897868887
 21
1836.7174502343
 31
0.0
  0
LINE
  5
29C
330
296
100
AcDbEntity
  8
SLD-0_0
100
AcDbLine
 10
2039.9897868887
 20
1826.7174502343
 30
0.0
 11
2039.9897868887
 21
1836.7174502343
 31
0.0
  0
LINE
  5
29D
330
296
100
AcDbEntity
  8
SLD-0_0
100
AcDbLine
 10
1201.9897868887
 20
1835.7174502343
 30
0.0
 11
2039.9897868887
 21
1835.7174502343
 31
0.0
  0
MTEXT
  5
29E
330
296
100
AcDbEntity
  8
SLD-0_0
100
AcDbMText
 10
1659.9014192404
 20
1840.2291873235
 30
0.0
 40
3.5
 41
0.0
 71
     1
 72
     1
  1
838
  7
SLDTEXTSTYLE0
 73
     1
 44
1.0
  0
ENDBLK
  5
298
330
296
100
AcDbEntity
  8
0
100
AcDbBlockEnd
  0
BLOCK
  5
2A1
330
2A0
100
AcDbEntity
  8
0
100
AcDbBlockBegin
  2
_D_5
 70
     0
 10
0.0
 20
0.0
 30
0.0
  3
_D_5
  1

  0
SOLID
  5
2A3
330
2A0
100
AcDbEntity
  8
SLD-0_0
100
AcDbTrace
 10
2049.9897868887
 20
1825.7174502343
 30
0.0
 11
2049.4817868887
 21
1822.4154502343
 31
0.0
 12
2050.4977868887
 22
1822.4154502343
 32
0.0
 13
2050.4977868887
 23
1822.4154502343
 33
0.0
  0
SOLID
  5
2A4
330
2A0
100
AcDbEntity
  8
SLD-0_0
100
AcDbTrace
 10
2049.9897868887
 20
1161.7174502343
 30
0.0
 11
2050.4977868887
 21
1165.0194502343
 31
0.0
 12
2049.4817868887
 22
1165.0194502343
 32
0.0
 13
2049.4817868887
 23
1165.0194502343
 33
0.0
  0
LINE
  5
2A5
330
2A0
100
AcDbEntity
  8
SLD-0_0
100
AcDbLine
 10
2040.9897868887
 20
1825.7174502343
 30
0.0
 11
2050.9897868887
 21
1825.7174502343
 31
0.0
  0
LINE
  5
2A6
330
2A0
100
AcDbEntity
  8
SLD-0_0
100
AcDbLine
 10
2040.9897868887
 20
1161.7174502343
 30
0.0
 11
2050.9897868887
 21
1161.7174502343
 31
0.0
  0
LINE
  5
2A7
330
2A0
100
AcDbEntity
  8
SLD-0_0
100
AcDbLine
 10
2049.9897868887
 20
1825.7174502343
 30
0.0
 11
2049.9897868887
 21
1161.7174502343
 31
0.0
  0
MTEXT
  5
2A8
330
2A0
100
AcDbEntity
  8
SLD-0_0
100
AcDbMText
 10
2045.4780497995
 20
1512.1582210604
 30
0.0
 40
3.5
 41
0.0
 71
     1
 72
     1
  1
664
  7
SLDTEXTSTYLE0
 11
6.123233995736766E-17
 21
1.0
 31
0.0
 73
     1
 44
1.0
  0
ENDBLK
  5
2A2
330
2A0
100
AcDbEntity
  8
0
100
AcDbBlockEnd
  0
BLOCK
  5
2BC
330
2BB
100
AcDbEntity
  8
0
100
AcDbBlockBegin
  2
_D_6
 70
     0
 10
0.0
 20
0.0
 30
0.0
  3
_D_6
  1

  0
SOLID
  5
2BE
330
2BB
100
AcDbEntity
  8
SLD-0_0
100
AcDbTrace
 10
1138.1421401864
 20
328.2130040527
 30
0.0
 11
1141.4441401864
 21
327.7050040527
 31
0.0
 12
1141.4441401864
 22
328.7210040527
 32
0.0
 13
1141.4441401864
 23
328.7210040527
 33
0.0
  0
SOLID
  5
2BF
330
2BB
100
AcDbEntity
  8
SLD-0_0
100
AcDbTrace
 10
1796.1421401864
 20
328.2130040527
 30
0.0
 11
1792.8401401864
 21
328.7210040527
 31
0.0
 12
1792.8401401864
 22
327.7050040527
 32
0.0
 13
1792.8401401864
 23
327.7050040527
 33
0.0
  0
LINE
  5
2C0
330
2BB
100
AcDbEntity
  8
SLD-0_0
100
AcDbLine
 10
1138.1421401864
 20
542.4737658297
 30
0.0
 11
1138.1421401864
 21
327.2130040527
 31
0.0
  0
LINE
  5
2C1
330
2BB
100
AcDbEntity
  8
SLD-0_0
100
AcDbLine
 10
1796.1421401864
 20
542.4737658297
 30
0.0
 11
1796.1421401864
 21
327.2130040527
 31
0.0
  0
LINE
  5
2C2
330
2BB
100
AcDbEntity
  8
SLD-0_0
100
AcDbLine
 10
1138.1421401864
 20
328.2130040527
 30
0.0
 11
1796.1421401864
 21
328.2130040527
 31
0.0
  0
MTEXT
  5
2C3
330
2BB
100
AcDbEntity
  8
SLD-0_0
100
AcDbMText
 10
1461.2437307262
 20
332.7247411419
 30
0.0
 40
3.5
 41
0.0
 71
     1
 72
     1
  1
658
  7
SLDTEXTSTYLE0
 73
     1
 44
1.0
  0
ENDBLK
  5
2BD
330
2BB
100
AcDbEntity
  8
0
100
AcDbBlockEnd
  0
BLOCK
  5
2C6
330
2C5
100
AcDbEntity
  8
0
100
AcDbBlockBegin
  2
_D_7
 70
     0
 10
0.0
 20
0.0
 30
0.0
  3
_D_7
  1

  0
SOLID
  5
2C8
330
2C5
100
AcDbEntity
  8
SLD-0_0
100
AcDbTrace
 10
1827.1421401864
 20
1017.4737658297
 30
0.0
 11
1826.6341401864
 21
1014.1717658297
 31
0.0
 12
1827.6501401864
 22
1014.1717658297
 32
0.0
 13
1827.6501401864
 23
1014.1717658297
 33
0.0
  0
SOLID
  5
2C9
330
2C5
100
AcDbEntity
  8
SLD-0_0
100
AcDbTrace
 10
1827.1421401864
 20
353.4737658297
 30
0.0
 11
1827.6501401864
 21
356.7757658297
 31
0.0
 12
1826.6341401864
 22
356.7757658297
 32
0.0
 13
1826.6341401864
 23
356.7757658297
 33
0.0
  0
LINE
  5
2CA
330
2C5
100
AcDbEntity
  8
SLD-0_0
100
AcDbLine
 10
1607.1421401864
 20
1017.4737658297
 30
0.0
 11
1828.1421401864
 21
1017.4737658297
 31
0.0
  0
LINE
  5
2CB
330
2C5
100
AcDbEntity
  8
SLD-0_0
100
AcDbLine
 10
1607.1421401864
 20
353.4737658297
 30
0.0
 11
1828.1421401864
 21
353.4737658297
 31
0.0
  0
LINE
  5
2CC
330
2C5
100
AcDbEntity
  8
SLD-0_0
100
AcDbLine
 10
1827.1421401864
 20
1017.4737658297
 30
0.0
 11
1827.1421401864
 21
353.4737658297
 31
0.0
  0
MTEXT
  5
2CD
330
2C5
100
AcDbEntity
  8
SLD-0_0
100
AcDbMText
 10
1822.6304030972
 20
684.3924895661
 30
0.0
 40
3.5
 41
0.0
 71
     1
 72
     1
  1
664
  7
SLDTEXTSTYLE0
 11
-7.044195017643634E-15
 21
1.0
 31
0.0
 73
     1
 44
1.0
  0
ENDBLK
  5
2C7
330
2C5
100
AcDbEntity
  8
0
100
AcDbBlockEnd
  0
BLOCK
  5
2D1
330
2D0
100
AcDbEntity
  8
0
100
AcDbBlockBegin
  2
_D_8
 70
     0
 10
0.0
 20
0.0
 30
0.0
  3
_D_8
  1

  0
SOLID
  5
2D3
330
2D0
100
AcDbEntity
  8
SLD-0_0
100
AcDbTrace
 10
1243.4180717322
 20
792.4856399105
 30
0.0
 11
1246.177647708
 21
790.602555092
 31
0.0
 12
1246.6160511922
 22
791.5191020821
 32
0.0
 13
1246.6160511922
 23
791.5191020821
 33
0.0
  0
SOLID
  5
2D4
330
2D0
100
AcDbEntity
  8
SLD-0_0
100
AcDbTrace
 10
1690.8662086407
 20
578.4618917488
 30
0.0
 11
1688.1066326648
 21
580.3449765673
 31
0.0
 12
1687.6682291807
 22
579.4284295772
 32
0.0
 13
1687.6682291807
 23
579.4284295772
 33
0.0
  0
LINE
  5
2D5
330
2D0
100
AcDbEntity
  8
SLD-0_0
100
AcDbLine
 10
1690.8662086407
 20
578.4618917488
 30
0.0
 11
1243.4180717322
 21
792.4856399105
 31
0.0
  0
MTEXT
  5
2D6
330
2D0
100
AcDbEntity
  8
SLD-0_0
100
AcDbMText
 10
1602.5215462782
 20
625.7197852377
 30
0.0
 40
3.5
 41
0.0
 71
     1
 72
     1
  1
%%c
  7
SLDTEXTSTYLE0
 11
0.9021131792508805
 21
-0.4314994922614263
 31
0.0
 73
     1
 44
1.0
  0
MTEXT
  5
2D7
330
2D0
100
AcDbEntity
  8
SLD-0_0
100
AcDbMText
 10
1607.1354739988
 20
623.53979069
 30
0.0
 40
3.5
 41
0.0
 71
     1
 72
     1
  1
496
  7
SLDTEXTSTYLE0
 11
0.9021131792508805
 21
-0.4314994922614263
 31
0.0
 73
     1
 44
1.0
  0
ENDBLK
  5
2D2
330
2D0
100
AcDbEntity
  8
0
100
AcDbBlockEnd
  0
BLOCK
  5
2DB
330
2DA
100
AcDbEntity
  8
0
100
AcDbBlockBegin
  2
_NONE
 70
     0
 10
0.0
 20
0.0
 30
0.0
  3
_NONE
  1

  0
ENDBLK
  5
2DC
330
2DA
100
AcDbEntity
  8
0
100
AcDbBlockEnd
  0
BLOCK
  5
2DE
330
2DD
100
AcDbEntity
  8
0
100
AcDbBlockBegin
  2
_D_9
 70
     0
 10
0.0
 20
0.0
 30
0.0
  3
_D_9
  1

  0
SOLID
  5
2E0
330
2DD
100
AcDbEntity
  8
SLD-0_0
100
AcDbTrace
 10
1564.0622516191
 20
923.95610304
 30
0.0
 11
1561.3112175418
 21
922.0605610316
 31
0.0
 12
1562.008191282
 22
921.3213157371
 32
0.0
 13
1562.008191282
 23
921.3213157371
 33
0.0
  0
LINE
  5
2E1
330
2DD
100
AcDbEntity
  8
SLD-0_0
100
AcDbLine
 10
1564.0622516191
 20
923.95610304
 30
0.0
 11
1545.0152892815
 21
905.9982848735
 31
0.0
  0
LINE
  5
2E2
330
2DD
100
AcDbEntity
  8
SLD-0_0
100
AcDbLine
 10
1570.1741221645
 20
929.7184843565
 30
0.0
 11
1564.0622516191
 21
923.95610304
 31
0.0
  0
LINE
  5
2E3
330
2DD
100
AcDbEntity
  8
SLD-0_0
100
AcDbLine
 10
1545.0152892815
 20
905.9982848735
 30
0.0
 11
1528.9671995448
 21
905.9982848735
 31
0.0
  0
MTEXT
  5
2E4
330
2DD
100
AcDbEntity
  8
SLD-0_0
100
AcDbMText
 10
1528.9671995448
 20
910.5100219627
 30
0.0
 40
3.5
 41
0.0
 71
     1
 72
     1
  1
%%c
  7
SLDTEXTSTYLE0
 73
     1
 44
1.0
  0
MTEXT
  5
2E5
330
2DD
100
AcDbEntity
  8
SLD-0_0
100
AcDbMText
 10
1534.07015109
 20
910.5343276192
 30
0.0
 40
3.5
 41
0.0
 71
     1
 72
     1
  1
8.40
  7
SLDTEXTSTYLE0
 73
     1
 44
1.0
  0
ENDBLK
  5
2DF
330
2DD
100
AcDbEntity
  8
0
100
AcDbBlockEnd
  0
BLOCK
  5
2E8
330
2E7
100
AcDbEntity
  8
0
100
AcDbBlockBegin
  2
_D_10
 70
     0
 10
0.0
 20
0.0
 30
0.0
  3
_D_10
  1

  0
SOLID
  5
2EA
330
2E7
100
AcDbEntity
  8
SLD-0_0
100
AcDbTrace
 10
1606.1421401864
 20
340.6737571458
 30
0.0
 11
1602.8401401864
 21
341.1817571458
 31
0.0
 12
1602.8401401864
 22
340.1657571458
 32
0.0
 13
1602.8401401864
 23
340.1657571458
 33
0.0
  0
SOLID
  5
2EB
330
2E7
100
AcDbEntity
  8
SLD-0_0
100
AcDbTrace
 10
1328.1421401864
 20
340.6737571458
 30
0.0
 11
1331.4441401864
 21
340.1657571458
 31
0.0
 12
1331.4441401864
 22
341.1817571458
 32
0.0
 13
1331.4441401864
 23
341.1817571458
 33
0.0
  0
LINE
  5
2EC
330
2E7
100
AcDbEntity
  8
SLD-0_0
100
AcDbLine
 10
1606.1421401864
 20
352.4737658297
 30
0.0
 11
1606.1421401864
 21
339.6737571458
 31
0.0
  0
LINE
  5
2ED
330
2E7
100
AcDbEntity
  8
SLD-0_0
100
AcDbLine
 10
1328.1421401864
 20
352.4737658297
 30
0.0
 11
1328.1421401864
 21
339.6737571458
 31
0.0
  0
LINE
  5
2EE
330
2E7
100
AcDbEntity
  8
SLD-0_0
100
AcDbLine
 10
1606.1421401864
 20
340.6737571458
 30
0.0
 11
1328.1421401864
 21
340.6737571458
 31
0.0
  0
MTEXT
  5
2EF
330
2E7
100
AcDbEntity
  8
SLD-0_0
100
AcDbMText
 10
1463.1317236191
 20
345.185494235
 30
0.0
 40
3.5
 41
0.0
 71
     1
 72
     1
  1
278
  7
SLDTEXTSTYLE0
 73
     1
 44
1.0
  0
ENDBLK
  5
2E9
330
2E7
100
AcDbEntity
  8
0
100
AcDbBlockEnd
  0
BLOCK
  5
2F2
330
2F1
100
AcDbEntity
  8
0
100
AcDbBlockBegin
  2
_D_11
 70
     0
 10
0.0
 20
0.0
 30
0.0
  3
_D_11
  1

  0
SOLID
  5
2F4
330
2F1
100
AcDbEntity
  8
SLD-0_0
100
AcDbTrace
 10
1128.1421401864
 20
827.4737658297
 30
0.0
 11
1127.6341401864
 21
824.1717658297
 31
0.0
 12
1128.6501401864
 22
824.1717658297
 32
0.0
 13
1128.6501401864
 23
824.1717658297
 33
0.0
  0
SOLID
  5
2F5
330
2F1
100
AcDbEntity
  8
SLD-0_0
100
AcDbTrace
 10
1128.1421401864
 20
543.4737658297
 30
0.0
 11
1128.6501401864
 21
546.7757658297
 31
0.0
 12
1127.6341401864
 22
546.7757658297
 32
0.0
 13
1127.6341401864
 23
546.7757658297
 33
0.0
  0
LINE
  5
2F6
330
2F1
100
AcDbEntity
  8
SLD-0_0
100
AcDbLine
 10
1137.1421401864
 20
827.4737658297
 30
0.0
 11
1127.1421401864
 21
827.4737658297
 31
0.0
  0
LINE
  5
2F7
330
2F1
100
AcDbEntity
  8
SLD-0_0
100
AcDbLine
 10
1137.1421401864
 20
543.4737658297
 30
0.0
 11
1127.1421401864
 21
543.4737658297
 31
0.0
  0
LINE
  5
2F8
330
2F1
100
AcDbEntity
  8
SLD-0_0
100
AcDbLine
 10
1128.1421401864
 20
827.4737658297
 30
0.0
 11
1128.1421401864
 21
543.4737658297
 31
0.0
  0
MTEXT
  5
2F9
330
2F1
100
AcDbEntity
  8
SLD-0_0
100
AcDbMText
 10
1123.6304030972
 20
678.6531015983
 30
0.0
 40
3.5
 41
0.0
 71
     1
 72
     1
  1
284
  7
SLDTEXTSTYLE0
 11
-7.044195017643634E-15
 21
1.0
 31
0.0
 73
     1
 44
1.0
  0
ENDBLK
  5
2F3
330
2F1
100
AcDbEntity
  8
0
100
AcDbBlockEnd
  0
BLOCK
  5
2FD
330
2FC
100
AcDbEntity
  8
0
100
AcDbBlockBegin
  2
_D_12
 70
     0
 10
0.0
 20
0.0
 30
0.0
  3
_D_12
  1

  0
ARC
  5
2FF
330
2FC
100
AcDbEntity
  8
SLD-0_0
100
AcDbCircle
 10
1328.1421401864
 20
353.4737658297
 30
0.0
 40
146.1586397881547
100
AcDbArc
 50
135.0
 51
180.0
  0
SOLID
  5
300
330
2FC
100
AcDbEntity
  8
SLD-0_0
100
AcDbTrace
 10
1224.7923748632
 20
456.8235311529
 30
0.0
 11
1222.1207824826
 21
454.8175744854
 31
0.0
 12
1222.8472708395
 22
454.1073135002
 32
0.0
 13
1222.8472708395
 23
454.1073135002
 33
0.0
  0
SOLID
  5
301
330
2FC
100
AcDbEntity
  8
SLD-0_0
100
AcDbTrace
 10
1181.9835003983
 20
353.4737658297
 30
0.0
 11
1182.5287600744
 21
356.7698179964
 31
0.0
 12
1181.5128248717
 22
356.7812924809
 32
0.0
 13
1181.5128248717
 23
356.7812924809
 33
0.0
  0
LINE
  5
302
330
2FC
100
AcDbEntity
  8
SLD-0_0
100
AcDbLine
 10
1327.1421401864
 20
353.4737658297
 30
0.0
 11
1180.9835003983
 21
353.4737658297
 31
0.0
  0
MTEXT
  5
303
330
2FC
100
AcDbEntity
  8
SLD-0_0
100
AcDbMText
 10
1187.7340728571
 20
408.2492932181
 30
0.0
 40
3.5
 41
0.0
 71
     1
 72
     1
  1
45°
  7
SLDTEXTSTYLE0
 11
0.3858099098354738
 21
0.9225782966625345
 31
0.0
 73
     1
 44
1.0
  0
ENDBLK
  5
2FE
330
2FC
100
AcDbEntity
  8
0
100
AcDbBlockEnd
  0
BLOCK
  5
307
330
306
100
AcDbEntity
  8
0
100
AcDbBlockBegin
  2
_D_13
 70
     0
 10
0.0
 20
0.0
 30
0.0
  3
_D_13
  1

  0
ARC
  5
309
330
306
100
AcDbEntity
  8
SLD-0_0
100
AcDbCircle
 10
1467.1421401864
 20
685.4737658297
 30
0.0
 40
261.2499999999999
100
AcDbArc
 50
156.2499091941
 51
213.9252920374
  0
SOLID
  5
30A
330
306
100
AcDbEntity
  8
SLD-0_0
100
AcDbTrace
 10
1684.4750267806
 20
830.4495531345
 30
0.0
 11
1681.4462004017
 21
829.0397734473
 31
0.0
 12
1682.0100105448
 22
828.1945668912
 32
0.0
 13
1682.0100105448
 23
828.1945668912
 33
0.0
  0
SOLID
  5
30B
330
306
100
AcDbEntity
  8
SLD-0_0
100
AcDbTrace
 10
1249.8092535923
 20
540.4979785248
 30
0.0
 11
1252.8380799712
 21
541.907758212
 31
0.0
 12
1252.2742698281
 22
542.7529647681
 32
0.0
 13
1252.2742698281
 23
542.7529647681
 33
0.0
  0
LINE
  5
30C
330
306
100
AcDbEntity
  8
SLD-0_0
100
AcDbLine
 10
1249.8092535923
 20
540.4979785248
 30
0.0
 11
1684.4750267806
 21
830.4495531345
 31
0.0
  0
MTEXT
  5
30D
330
306
100
AcDbEntity
  8
SLD-0_0
100
AcDbMText
 10
1344.5243493434
 20
609.102107382
 30
0.0
 40
3.5
 41
0.0
 71
     1
 72
     1
  1
%%c
  7
SLDTEXTSTYLE0
 11
0.831896216628176
 21
0.5549312432722876
 31
0.0
 73
     1
 44
1.0
  0
MTEXT
  5
30E
330
306
100
AcDbEntity
  8
SLD-0_0
100
AcDbMText
 10
1348.7559874594
 20
611.9541144111
 30
0.0
 40
3.5
 41
0.0
 71
     1
 72
     1
  1
522.50
  7
SLDTEXTSTYLE0
 11
0.831896216628176
 21
0.5549312432722876
 31
0.0
 73
     1
 44
1.0
  0
ENDBLK
  5
308
330
306
100
AcDbEntity
  8
0
100
AcDbBlockEnd
  0
BLOCK
  5
310
330
30F
100
AcDbEntity
  8
0
100
AcDbBlockBegin
  2
SW_CENTERMARKSYMBOL_0
 70
     0
 10
0.0
 20
0.0
 30
0.0
  3
SW_CENTERMARKSYMBOL_0
  1

  0
ARC
  5
312
330
30F
100
AcDbEntity
  8
SLD-0_0
 62
     0
100
AcDbCircle
 10
-99.9760467054
 20
-241.3635278686
 30
0.0
 40
261.2500000000001
100
AcDbArc
 50
67.5
 51
68.0482849714
  0
ARC
  5
313
330
30F
100
AcDbEntity
  8
SLD-0_0
 62
     0
100
AcDbCircle
 10
-99.9760467054
 20
-241.3635278686
 30
0.0
 40
261.2500000000001
100
AcDbArc
 50
66.9517150286
 51
67.5
  0
ARC
  5
314
330
30F
100
AcDbEntity
  8
SLD-0_0
 62
     0
100
AcDbCircle
 10
-99.9760467054
 20
-241.3635278686
 30
0.0
 40
261.2500000000001
100
AcDbArc
 50
112.5
 51
113.0482849714
  0
ARC
  5
315
330
30F
100
AcDbEntity
  8
SLD-0_0
 62
     0
100
AcDbCircle
 10
-99.9760467054
 20
-241.3635278686
 30
0.0
 40
261.25
100
AcDbArc
 50
111.9517150286
 51
112.5
  0
ARC
  5
316
330
30F
100
AcDbEntity
  8
SLD-0_0
 62
     0
100
AcDbCircle
 10
-99.9760467054
 20
-241.3635278686
 30
0.0
 40
261.2500000000001
100
AcDbArc
 50
22.5
 51
23.0482849714
  0
ARC
  5
317
330
30F
100
AcDbEntity
  8
SLD-0_0
 62
     0
100
AcDbCircle
 10
-99.9760467054
 20
-241.3635278686
 30
0.0
 40
261.2500000000001
100
AcDbArc
 50
21.9517150286
 51
22.5
  0
ARC
  5
318
330
30F
100
AcDbEntity
  8
SLD-0_0
 62
     0
100
AcDbCircle
 10
-99.9760467054
 20
-241.3635278686
 30
0.0
 40
261.2500000000001
100
AcDbArc
 50
337.5
 51
338.0482849714
  0
ARC
  5
319
330
30F
100
AcDbEntity
  8
SLD-0_0
 62
     0
100
AcDbCircle
 10
-99.9760467054
 20
-241.3635278686
 30
0.0
 40
261.2500000000001
100
AcDbArc
 50
336.9517150286
 51
337.5
  0
ARC
  5
31A
330
30F
100
AcDbEntity
  8
SLD-0_0
 62
     0
100
AcDbCircle
 10
-99.9760467054
 20
-241.3635278686
 30
0.0
 40
261.2500000000001
100
AcDbArc
 50
292.5
 51
293.0482849714
  0
ARC
  5
31B
330
30F
100
AcDbEntity
  8
SLD-0_0
 62
     0
100
AcDbCircle
 10
-99.9760467054
 20
-241.3635278686
 30
0.0
 40
261.2500000000001
100
AcDbArc
 50
291.9517150286
 51
292.5
  0
ARC
  5
31C
330
30F
100
AcDbEntity
  8
SLD-0_0
 62
     0
100
AcDbCircle
 10
-99.9760467054
 20
-241.3635278686
 30
0.0
 40
261.2500000000001
100
AcDbArc
 50
247.5
 51
248.0482849714
  0
ARC
  5
31D
330
30F
100
AcDbEntity
  8
SLD-0_0
 62
     0
100
AcDbCircle
 10
-99.9760467054
 20
-241.3635278686
 30
0.0
 40
261.2500000000001
100
AcDbArc
 50
246.9517150286
 51
247.5
  0
ARC
  5
31E
330
30F
100
AcDbEntity
  8
SLD-0_0
 62
     0
100
AcDbCircle
 10
-99.9760467054
 20
-241.3635278686
 30
0.0
 40
261.25
100
AcDbArc
 50
202.5
 51
203.0482849714
  0
ARC
  5
31F
330
30F
100
AcDbEntity
  8
SLD-0_0
 62
     0
100
AcDbCircle
 10
-99.9760467054
 20
-241.3635278686
 30
0.0
 40
261.2500000000001
100
AcDbArc
 50
201.9517150286
 51
202.5
  0
ARC
  5
320
330
30F
100
AcDbEntity
  8
SLD-0_0
 62
     0
100
AcDbCircle
 10
-99.9760467054
 20
-241.3635278686
 30
0.0
 40
261.2500000000001
100
AcDbArc
 50
157.5
 51
158.0482849714
  0
ARC
  5
321
330
30F
100
AcDbEntity
  8
SLD-0_0
 62
     0
100
AcDbCircle
 10
-99.9760467054
 20
-241.3635278686
 30
0.0
 40
261.2500000000001
100
AcDbArc
 50
156.9517150286
 51
157.5
  0
ARC
  5
322
330
30F
100
AcDbEntity
  8
SLD-0_0
 62
     0
100
AcDbCircle
 10
-99.9760467054
 20
-241.3635278686
 30
0.0
 40
261.2500000000001
100
AcDbArc
 50
23.5965699428
 51
66.4034300572
  0
ARC
  5
323
330
30F
100
AcDbEntity
  8
SLD-0_0
 62
     0
100
AcDbCircle
 10
-99.9760467054
 20
-241.3635278686
 30
0.0
 40
261.2500000000002
100
AcDbArc
 50
68.5965699428
 51
111.4034300572
  0
ARC
  5
324
330
30F
100
AcDbEntity
  8
SLD-0_0
 62
     0
100
AcDbCircle
 10
-99.9760467054
 20
-241.3635278686
 30
0.0
 40
261.2500000000001
100
AcDbArc
 50
113.5965699428
 51
156.4034300572
  0
ARC
  5
325
330
30F
100
AcDbEntity
  8
SLD-0_0
 62
     0
100
AcDbCircle
 10
-99.9760467054
 20
-241.3635278686
 30
0.0
 40
261.2500000000001
100
AcDbArc
 50
158.5965699428
 51
201.4034300572
  0
ARC
  5
326
330
30F
100
AcDbEntity
  8
SLD-0_0
 62
     0
100
AcDbCircle
 10
-99.9760467054
 20
-241.3635278686
 30
0.0
 40
261.2500000000001
100
AcDbArc
 50
203.5965699428
 51
246.4034300572
  0
ARC
  5
327
330
30F
100
AcDbEntity
  8
SLD-0_0
 62
     0
100
AcDbCircle
 10
-99.9760467054
 20
-241.3635278686
 30
0.0
 40
261.2500000000001
100
AcDbArc
 50
248.5965699428
 51
291.4034300572
  0
ARC
  5
328
330
30F
100
AcDbEntity
  8
SLD-0_0
 62
     0
100
AcDbCircle
 10
-99.9760467054
 20
-241.3635278686
 30
0.0
 40
261.2500000000001
100
AcDbArc
 50
293.5965699428
 51
336.4034300572
  0
ARC
  5
329
330
30F
100
AcDbEntity
  8
SLD-0_0
 62
     0
100
AcDbCircle
 10
-99.9760467054
 20
-241.3635278686
 30
0.0
 40
261.2500000000001
100
AcDbArc
 50
338.5965699428
 51
21.4034300572
  0
LINE
  5
32A
330
30F
100
AcDbEntity
  8
SLD-0_0
 62
     0
100
AcDbLine
 10
0.0
 20
0.0
 30
0.0
 11
0.9567085809
 21
2.3096988313
 31
0.0
  0
LINE
  5
32B
330
30F
100
AcDbEntity
  8
SLD-0_0
 62
     0
100
AcDbLine
 10
0.0
 20
0.0
 30
0.0
 11
-0.9567085809
 21
-2.3096988313
 31
0.0
  0
LINE
  5
32C
330
30F
100
AcDbEntity
  8
SLD-0_0
 62
     0
100
AcDbLine
 10
1.9134171618
 20
4.6193976626
 30
0.0
 11
2.5639789968
 21
6.1899928678
 31
0.0
  0
LINE
  5
32D
330
30F
100
AcDbEntity
  8
SLD-0_0
 62
     0
100
AcDbLine
 10
-1.9134171618
 20
-4.6193976626
 30
0.0
 11
-2.5639789968
 21
-6.1899928678
 31
0.0
  0
LINE
  5
32E
330
30F
100
AcDbEntity
  8
SLD-0_0
 62
     0
100
AcDbLine
 10
-99.9760467054
 20
-241.3635278686
 30
0.0
 11
-99.9760467054
 21
-238.8635278686
 31
0.0
  0
LINE
  5
32F
330
30F
100
AcDbEntity
  8
SLD-0_0
 62
     0
100
AcDbLine
 10
-99.9760467054
 20
-241.3635278686
 30
0.0
 11
-102.4760467054
 21
-241.3635278686
 31
0.0
  0
LINE
  5
330
330
30F
100
AcDbEntity
  8
SLD-0_0
 62
     0
100
AcDbLine
 10
-99.9760467054
 20
-241.3635278686
 30
0.0
 11
-99.9760467054
 21
-243.8635278686
 31
0.0
  0
LINE
  5
331
330
30F
100
AcDbEntity
  8
SLD-0_0
 62
     0
100
AcDbLine
 10
-99.9760467054
 20
-241.3635278686
 30
0.0
 11
-97.4760467054
 21
-241.3635278686
 31
0.0
  0
LINE
  5
332
330
30F
100
AcDbEntity
  8
SLD-0_0
 62
     0
100
AcDbLine
 10
-99.9760467054
 20
-236.3635278686
 30
0.0
 11
-99.9760467054
 21
106.6237299901
 31
0.0
  0
LINE
  5
333
330
30F
100
AcDbEntity
  8
SLD-0_0
 62
     0
100
AcDbLine
 10
-104.9760467054
 20
-241.3635278686
 30
0.0
 11
-445.4907692826
 21
-241.3635278686
 31
0.0
  0
LINE
  5
334
330
30F
100
AcDbEntity
  8
SLD-0_0
 62
     0
100
AcDbLine
 10
-99.9760467054
 20
-246.3635278686
 30
0.0
 11
-99.9760467054
 21
-592.1710155796
 31
0.0
  0
LINE
  5
335
330
30F
100
AcDbEntity
  8
SLD-0_0
 62
     0
100
AcDbLine
 10
-94.9760467054
 20
-241.3635278686
 30
0.0
 11
247.9286320904
 21
-241.3635278686
 31
0.0
  0
LINE
  5
336
330
30F
100
AcDbEntity
  8
SLD-0_0
 62
     0
100
AcDbLine
 10
-199.9520934108
 20
0.0
 30
0.0
 11
-200.9088019917
 21
2.3096988313
 31
0.0
  0
LINE
  5
337
330
30F
100
AcDbEntity
  8
SLD-0_0
 62
     0
100
AcDbLine
 10
-199.9520934108
 20
0.0
 30
0.0
 11
-198.9953848298
 21
-2.3096988313
 31
0.0
  0
LINE
  5
338
330
30F
100
AcDbEntity
  8
SLD-0_0
 62
     0
100
AcDbLine
 10
-201.8655105726
 20
4.6193976626
 30
0.0
 11
-202.5160724076
 21
6.1899928678
 31
0.0
  0
LINE
  5
339
330
30F
100
AcDbEntity
  8
SLD-0_0
 62
     0
100
AcDbLine
 10
-198.0386762489
 20
-4.6193976626
 30
0.0
 11
-197.3881144139
 21
-6.1899928678
 31
0.0
  0
LINE
  5
33A
330
30F
100
AcDbEntity
  8
SLD-0_0
 62
     0
100
AcDbLine
 10
141.3874811632
 20
-141.3874811632
 30
0.0
 11
143.6971799945
 21
-140.4307725823
 31
0.0
  0
LINE
  5
33B
330
30F
100
AcDbEntity
  8
SLD-0_0
 62
     0
100
AcDbLine
 10
141.3874811632
 20
-141.3874811632
 30
0.0
 11
139.0777823319
 21
-142.3441897441
 31
0.0
  0
LINE
  5
33C
330
30F
100
AcDbEntity
  8
SLD-0_0
 62
     0
100
AcDbLine
 10
146.0068788257
 20
-139.4740640014
 30
0.0
 11
147.577474031
 21
-138.8235021663
 31
0.0
  0
LINE
  5
33D
330
30F
100
AcDbEntity
  8
SLD-0_0
 62
     0
100
AcDbLine
 10
136.7680835006
 20
-143.300898325
 30
0.0
 11
135.1974882954
 21
-143.95146016
 31
0.0
  0
LINE
  5
33E
330
30F
100
AcDbEntity
  8
SLD-0_0
 62
     0
100
AcDbLine
 10
141.3874811632
 20
-341.339574574
 30
0.0
 11
143.6971799945
 21
-342.2962831549
 31
0.0
  0
LINE
  5
33F
330
30F
100
AcDbEntity
  8
SLD-0_0
 62
     0
100
AcDbLine
 10
141.3874811632
 20
-341.339574574
 30
0.0
 11
139.0777823319
 21
-340.382865993
 31
0.0
  0
LINE
  5
340
330
30F
100
AcDbEntity
  8
SLD-0_0
 62
     0
100
AcDbLine
 10
146.0068788257
 20
-343.2529917358
 30
0.0
 11
147.577474031
 21
-343.9035535708
 31
0.0
  0
LINE
  5
341
330
30F
100
AcDbEntity
  8
SLD-0_0
 62
     0
100
AcDbLine
 10
136.7680835006
 20
-339.4261574121
 30
0.0
 11
135.1974882954
 21
-338.7755955771
 31
0.0
  0
LINE
  5
342
330
30F
100
AcDbEntity
  8
SLD-0_0
 62
     0
100
AcDbLine
 10
0.0
 20
-482.7270557371
 30
0.0
 11
0.9567085809
 21
-485.0367545684
 31
0.0
  0
LINE
  5
343
330
30F
100
AcDbEntity
  8
SLD-0_0
 62
     0
100
AcDbLine
 10
0.0
 20
-482.7270557371
 30
0.0
 11
-0.9567085809
 21
-480.4173569059
 31
0.0
  0
LINE
  5
344
330
30F
100
AcDbEntity
  8
SLD-0_0
 62
     0
100
AcDbLine
 10
1.9134171618
 20
-487.3464533997
 30
0.0
 11
2.5639789968
 21
-488.917048605
 31
0.0
  0
LINE
  5
345
330
30F
100
AcDbEntity
  8
SLD-0_0
 62
     0
100
AcDbLine
 10
-1.9134171618
 20
-478.1076580746
 30
0.0
 11
-2.5639789969
 21
-476.5370628693
 31
0.0
  0
LINE
  5
346
330
30F
100
AcDbEntity
  8
SLD-0_0
 62
     0
100
AcDbLine
 10
-199.9520934108
 20
-482.7270557371
 30
0.0
 11
-200.9088019917
 21
-485.0367545684
 31
0.0
  0
LINE
  5
347
330
30F
100
AcDbEntity
  8
SLD-0_0
 62
     0
100
AcDbLine
 10
-199.9520934108
 20
-482.7270557371
 30
0.0
 11
-198.9953848299
 21
-480.4173569059
 31
0.0
  0
LINE
  5
348
330
30F
100
AcDbEntity
  8
SLD-0_0
 62
     0
100
AcDbLine
 10
-201.8655105726
 20
-487.3464533997
 30
0.0
 11
-202.5160724076
 21
-488.917048605
 31
0.0
  0
LINE
  5
349
330
30F
100
AcDbEntity
  8
SLD-0_0
 62
     0
100
AcDbLine
 10
-198.0386762489
 20
-478.1076580746
 30
0.0
 11
-197.3881144139
 21
-476.5370628693
 31
0.0
  0
LINE
  5
34A
330
30F
100
AcDbEntity
  8
SLD-0_0
 62
     0
100
AcDbLine
 10
-341.339574574
 20
-341.3395745739
 30
0.0
 11
-343.6492734052
 21
-342.2962831549
 31
0.0
  0
LINE
  5
34B
330
30F
100
AcDbEntity
  8
SLD-0_0
 62
     0
100
AcDbLine
 10
-341.339574574
 20
-341.3395745739
 30
0.0
 11
-339.0298757427
 21
-340.382865993
 31
0.0
  0
LINE
  5
34C
330
30F
100
AcDbEntity
  8
SLD-0_0
 62
     0
100
AcDbLine
 10
-345.9589722365
 20
-343.2529917358
 30
0.0
 11
-347.5295674418
 21
-343.9035535708
 31
0.0
  0
LINE
  5
34D
330
30F
100
AcDbEntity
  8
SLD-0_0
 62
     0
100
AcDbLine
 10
-336.7201769114
 20
-339.4261574121
 30
0.0
 11
-335.1495817061
 21
-338.7755955771
 31
0.0
  0
LINE
  5
34E
330
30F
100
AcDbEntity
  8
SLD-0_0
 62
     0
100
AcDbLine
 10
-341.339574574
 20
-141.3874811632
 30
0.0
 11
-343.6492734052
 21
-140.4307725823
 31
0.0
  0
LINE
  5
34F
330
30F
100
AcDbEntity
  8
SLD-0_0
 62
     0
100
AcDbLine
 10
-341.339574574
 20
-141.3874811632
 30
0.0
 11
-339.0298757427
 21
-142.3441897441
 31
0.0
  0
LINE
  5
350
330
30F
100
AcDbEntity
  8
SLD-0_0
 62
     0
100
AcDbLine
 10
-345.9589722365
 20
-139.4740640014
 30
0.0
 11
-347.5295674418
 21
-138.8235021663
 31
0.0
  0
LINE
  5
351
330
30F
100
AcDbEntity
  8
SLD-0_0
 62
     0
100
AcDbLine
 10
-336.7201769114
 20
-143.300898325
 30
0.0
 11
-335.1495817061
 21
-143.95146016
 31
0.0
  0
ENDBLK
  5
311
330
30F
100
AcDbEntity
  8
0
100
AcDbBlockEnd
  0
BLOCK
  5
359
330
358
100
AcDbEntity
  8
0
100
AcDbBlockBegin
  2
_D_14
 70
     0
 10
0.0
 20
0.0
 30
0.0
  3
_D_14
  1

  0
SOLID
  5
35B
330
358
100
AcDbEntity
  8
SLD-0_0
100
AcDbTrace
 10
2808.9766958731
 20
714.4307292386
 30
0.0
 11
2808.4686958731
 21
711.1287292386
 31
0.0
 12
2809.4846958731
 22
711.1287292386
 32
0.0
 13
2809.4846958731
 23
711.1287292386
 33
0.0
  0
SOLID
  5
35C
330
358
100
AcDbEntity
  8
SLD-0_0
100
AcDbTrace
 10
2808.9766958731
 20
629.4307292386
 30
0.0
 11
2809.4846958731
 21
632.7327292386
 31
0.0
 12
2808.4686958731
 22
632.7327292386
 32
0.0
 13
2808.4686958731
 23
632.7327292386
 33
0.0
  0
LINE
  5
35D
330
358
100
AcDbEntity
  8
SLD-0_0
100
AcDbLine
 10
2799.9766958731
 20
714.4307292386
 30
0.0
 11
2809.9766958731
 21
714.4307292386
 31
0.0
  0
LINE
  5
35E
330
358
100
AcDbEntity
  8
SLD-0_0
100
AcDbLine
 10
2799.9766958731
 20
629.4307292386
 30
0.0
 11
2809.9766958731
 21
629.4307292386
 31
0.0
  0
LINE
  5
35F
330
358
100
AcDbEntity
  8
SLD-0_0
100
AcDbLine
 10
2808.9766958731
 20
714.4307292386
 30
0.0
 11
2808.9766958731
 21
629.4307292386
 31
0.0
  0
MTEXT
  5
360
330
358
100
AcDbEntity
  8
SLD-0_0
100
AcDbMText
 10
2804.4649587839
 20
671.7758790806
 30
0.0
 40
3.5
 41
0.0
 71
     1
 72
     1
  1
85
  7
SLDTEXTSTYLE0
 11
-7.044195017643634E-15
 21
1.0
 31
0.0
 73
     1
 44
1.0
  0
ENDBLK
  5
35A
330
358
100
AcDbEntity
  8
0
100
AcDbBlockEnd
  0
BLOCK
  5
363
330
362
100
AcDbEntity
  8
0
100
AcDbBlockBegin
  2
_D_15
 70
     0
 10
0.0
 20
0.0
 30
0.0
  3
_D_15
  1

  0
SOLID
  5
365
330
362
100
AcDbEntity
  8
SLD-0_0
100
AcDbTrace
 10
2134.9766958731
 20
619.4307292386
 30
0.0
 11
2138.2786958731
 21
618.9227292386
 31
0.0
 12
2138.2786958731
 22
619.9387292386
 32
0.0
 13
2138.2786958731
 23
619.9387292386
 33
0.0
  0
SOLID
  5
366
330
362
100
AcDbEntity
  8
SLD-0_0
100
AcDbTrace
 10
2798.9766958731
 20
619.4307292386
 30
0.0
 11
2795.6746958731
 21
619.9387292386
 31
0.0
 12
2795.6746958731
 22
618.9227292386
 32
0.0
 13
2795.6746958731
 23
618.9227292386
 33
0.0
  0
LINE
  5
367
330
362
100
AcDbEntity
  8
SLD-0_0
100
AcDbLine
 10
2134.9766958731
 20
628.4307292386
 30
0.0
 11
2134.9766958731
 21
618.4307292386
 31
0.0
  0
LINE
  5
368
330
362
100
AcDbEntity
  8
SLD-0_0
100
AcDbLine
 10
2798.9766958731
 20
628.4307292386
 30
0.0
 11
2798.9766958731
 21
618.4307292386
 31
0.0
  0
LINE
  5
369
330
362
100
AcDbEntity
  8
SLD-0_0
100
AcDbLine
 10
2134.9766958731
 20
619.4307292386
 30
0.0
 11
2798.9766958731
 21
619.4307292386
 31
0.0
  0
MTEXT
  5
36A
330
362
100
AcDbEntity
  8
SLD-0_0
100
AcDbMText
 10
2442.0711406217
 20
623.9424663278
 30
0.0
 40
3.5
 41
0.0
 71
     1
 72
     1
  1
664
  7
SLDTEXTSTYLE0
 73
     1
 44
1.0
  0
ENDBLK
  5
364
330
362
100
AcDbEntity
  8
0
100
AcDbBlockEnd
  0
BLOCK
  5
385
330
384
100
AcDbEntity
  8
0
100
AcDbBlockBegin
  2
_D_16
 70
     0
 10
0.0
 20
0.0
 30
0.0
  3
_D_16
  1

  0
SOLID
  5
387
330
384
100
AcDbEntity
  8
SLD-0_0
100
AcDbTrace
 10
2130.7451225448
 20
782.6209718087
 30
0.0
 11
2134.0471225448
 21
782.1129718087
 31
0.0
 12
2134.0471225448
 22
783.1289718087
 32
0.0
 13
2134.0471225448
 23
783.1289718087
 33
0.0
  0
SOLID
  5
388
330
384
100
AcDbEntity
  8
SLD-0_0
100
AcDbTrace
 10
2788.7451225448
 20
782.6209718087
 30
0.0
 11
2785.4431225448
 21
783.1289718087
 31
0.0
 12
2785.4431225448
 22
782.1129718087
 32
0.0
 13
2785.4431225448
 23
782.1129718087
 33
0.0
  0
LINE
  5
389
330
384
100
AcDbEntity
  8
SLD-0_0
100
AcDbLine
 10
2130.7451225448
 20
801.8930048678
 30
0.0
 11
2130.7451225448
 21
781.6209718087
 31
0.0
  0
LINE
  5
38A
330
384
100
AcDbEntity
  8
SLD-0_0
100
AcDbLine
 10
2788.7451225448
 20
801.8930048678
 30
0.0
 11
2788.7451225448
 21
781.6209718087
 31
0.0
  0
LINE
  5
38B
330
384
100
AcDbEntity
  8
SLD-0_0
100
AcDbLine
 10
2130.7451225448
 20
782.6209718087
 30
0.0
 11
2788.7451225448
 21
782.6209718087
 31
0.0
  0
MTEXT
  5
38C
330
384
100
AcDbEntity
  8
SLD-0_0
100
AcDbMText
 10
2445.7590649316
 20
787.1327088979
 30
0.0
 40
3.5
 41
0.0
 71
     1
 72
     1
  1
658
  7
SLDTEXTSTYLE0
 73
     1
 44
1.0
  0
ENDBLK
  5
386
330
384
100
AcDbEntity
  8
0
100
AcDbBlockEnd
  0
BLOCK
  5
38F
330
38E
100
AcDbEntity
  8
0
100
AcDbBlockBegin
  2
_D_17
 70
     0
 10
0.0
 20
0.0
 30
0.0
  3
_D_17
  1

  0
SOLID
  5
391
330
38E
100
AcDbEntity
  8
SLD-0_0
100
AcDbTrace
 10
2157.7451225448
 20
794.197899093
 30
0.0
 11
2161.0471225448
 21
793.689899093
 31
0.0
 12
2161.0471225448
 22
794.705899093
 32
0.0
 13
2161.0471225448
 23
794.705899093
 33
0.0
  0
SOLID
  5
392
330
38E
100
AcDbEntity
  8
SLD-0_0
100
AcDbTrace
 10
2439.7451225448
 20
794.197899093
 30
0.0
 11
2436.4431225448
 21
794.705899093
 31
0.0
 12
2436.4431225448
 22
793.689899093
 32
0.0
 13
2436.4431225448
 23
793.689899093
 33
0.0
  0
LINE
  5
393
330
38E
100
AcDbEntity
  8
SLD-0_0
100
AcDbLine
 10
2157.7451225448
 20
901.8930048678
 30
0.0
 11
2157.7451225448
 21
793.197899093
 31
0.0
  0
LINE
  5
394
330
38E
100
AcDbEntity
  8
SLD-0_0
100
AcDbLine
 10
2439.7451225448
 20
901.8930048678
 30
0.0
 11
2439.7451225448
 21
793.197899093
 31
0.0
  0
LINE
  5
395
330
38E
100
AcDbEntity
  8
SLD-0_0
100
AcDbLine
 10
2157.7451225448
 20
794.197899093
 30
0.0
 11
2439.7451225448
 21
794.197899093
 31
0.0
  0
MTEXT
  5
396
330
38E
100
AcDbEntity
  8
SLD-0_0
100
AcDbMText
 10
2285.181562702
 20
798.7096361822
 30
0.0
 40
3.5
 41
0.0
 71
     1
 72
     1
  1
282
  7
SLDTEXTSTYLE0
 73
     1
 44
1.0
  0
ENDBLK
  5
390
330
38E
100
AcDbEntity
  8
0
100
AcDbBlockEnd
  0
BLOCK
  5
399
330
398
100
AcDbEntity
  8
0
100
AcDbBlockBegin
  2
_D_18
 70
     0
 10
0.0
 20
0.0
 30
0.0
  3
_D_18
  1

  0
SOLID
  5
39B
330
398
100
AcDbEntity
  8
SLD-0_0
100
AcDbTrace
 10
2106.7451225448
 20
973.8930048678
 30
0.0
 11
2106.2371225448
 21
970.5910048678
 31
0.0
 12
2107.2531225448
 22
970.5910048678
 32
0.0
 13
2107.2531225448
 23
970.5910048678
 33
0.0
  0
SOLID
  5
39C
330
398
100
AcDbEntity
  8
SLD-0_0
100
AcDbTrace
 10
2106.7451225448
 20
852.8930048678
 30
0.0
 11
2107.2531225448
 21
856.1950048678
 31
0.0
 12
2106.2371225448
 22
856.1950048678
 32
0.0
 13
2106.2371225448
 23
856.1950048678
 33
0.0
  0
LINE
  5
39D
330
398
100
AcDbEntity
  8
SLD-0_0
100
AcDbLine
 10
2206.7451225448
 20
973.8930048678
 30
0.0
 11
2105.7451225448
 21
973.8930048678
 31
0.0
  0
LINE
  5
39E
330
398
100
AcDbEntity
  8
SLD-0_0
100
AcDbLine
 10
2206.7451225448
 20
852.8930048678
 30
0.0
 11
2105.7451225448
 21
852.8930048678
 31
0.0
  0
LINE
  5
39F
330
398
100
AcDbEntity
  8
SLD-0_0
100
AcDbLine
 10
2106.7451225448
 20
973.8930048678
 30
0.0
 11
2106.7451225448
 21
852.8930048678
 31
0.0
  0
MTEXT
  5
3A0
330
398
100
AcDbEntity
  8
SLD-0_0
100
AcDbMText
 10
2102.2333854556
 20
912.1560096733
 30
0.0
 40
3.5
 41
0.0
 71
     1
 72
     1
  1
121
  7
SLDTEXTSTYLE0
 11
-7.044195017643634E-15
 21
1.0
 31
0.0
 73
     1
 44
1.0
  0
ENDBLK
  5
39A
330
398
100
AcDbEntity
  8
0
100
AcDbBlockEnd
  0
BLOCK
  5
3A3
330
3A2
100
AcDbEntity
  8
0
100
AcDbBlockBegin
  2
_D_19
 70
     0
 10
0.0
 20
0.0
 30
0.0
  3
_D_19
  1

  0
SOLID
  5
3A5
330
3A2
100
AcDbEntity
  8
SLD-0_0
100
AcDbTrace
 10
2099.7451225448
 20
802.8930048678
 30
0.0
 11
2100.2531225448
 21
806.1950048678
 31
0.0
 12
2099.2371225448
 22
806.1950048678
 32
0.0
 13
2099.2371225448
 23
806.1950048678
 33
0.0
  0
SOLID
  5
3A6
330
3A2
100
AcDbEntity
  8
SLD-0_0
100
AcDbTrace
 10
2099.7451225448
 20
1023.8930048678
 30
0.0
 11
2099.2371225448
 21
1020.5910048678
 31
0.0
 12
2100.2531225448
 22
1020.5910048678
 32
0.0
 13
2100.2531225448
 23
1020.5910048678
 33
0.0
  0
LINE
  5
3A7
330
3A2
100
AcDbEntity
  8
SLD-0_0
100
AcDbLine
 10
2129.7451225448
 20
802.8930048678
 30
0.0
 11
2098.7451225448
 21
802.8930048678
 31
0.0
  0
LINE
  5
3A8
330
3A2
100
AcDbEntity
  8
SLD-0_0
100
AcDbLine
 10
2129.7451225448
 20
1023.8930048678
 30
0.0
 11
2098.7451225448
 21
1023.8930048678
 31
0.0
  0
LINE
  5
3A9
330
3A2
100
AcDbEntity
  8
SLD-0_0
100
AcDbLine
 10
2099.7451225448
 20
802.8930048678
 30
0.0
 11
2099.7451225448
 21
1023.8930048678
 31
0.0
  0
MTEXT
  5
3AA
330
3A2
100
AcDbEntity
  8
SLD-0_0
100
AcDbMText
 10
2095.2333854556
 20
912.1560096733
 30
0.0
 40
3.5
 41
0.0
 71
     1
 72
     1
  1
221
  7
SLDTEXTSTYLE0
 11
6.123233995736766E-17
 21
1.0
 31
0.0
 73
     1
 44
1.0
  0
ENDBLK
  5
3A4
330
3A2
100
AcDbEntity
  8
0
100
AcDbBlockEnd
  0
BLOCK
  5
3AE
330
3AD
100
AcDbEntity
  8
0
100
AcDbBlockBegin
  2
_D_20
 70
     0
 10
0.0
 20
0.0
 30
0.0
  3
_D_20
  1

  0
SOLID
  5
3B0
330
3AD
100
AcDbEntity
  8
SLD-0_0
100
AcDbTrace
 10
2427.2635716803
 20
869.8420446024
 30
0.0
 11
2429.405492305
 21
867.2781717433
 31
0.0
 12
2430.0770878175
 22
868.0405466297
 32
0.0
 13
2430.0770878175
 23
868.0405466297
 33
0.0
  0
LINE
  5
3B1
330
3AD
100
AcDbEntity
  8
SLD-0_0
100
AcDbLine
 10
2427.2635716803
 20
869.8420446024
 30
0.0
 11
2455.6498264722
 21
844.8358676195
 31
0.0
  0
LINE
  5
3B2
330
3AD
100
AcDbEntity
  8
SLD-0_0
100
AcDbLine
 10
2427.2635716803
 20
869.8420446024
 30
0.0
 11
2389.7451225448
 21
902.8930048678
 31
0.0
  0
MTEXT
  5
3B3
330
3AD
100
AcDbEntity
  8
SLD-0_0
100
AcDbMText
 10
2452.0144575548
 20
854.0491966391
 30
0.0
 40
3.5
 41
0.0
 71
     1
 72
     1
  1
R50
  7
SLDTEXTSTYLE0
 11
0.750368982711129
 21
-0.6610192053072781
 31
0.0
 73
     1
 44
1.0
  0
ENDBLK
  5
3AF
330
3AD
100
AcDbEntity
  8
0
100
AcDbBlockEnd
  0
BLOCK
  5
3B6
330
3B5
100
AcDbEntity
  8
0
100
AcDbBlockBegin
  2
_D_21
 70
     0
 10
0.0
 20
0.0
 30
0.0
  3
_D_21
  1

  0
SOLID
  5
3B8
330
3B5
100
AcDbEntity
  8
SLD-0_0
100
AcDbTrace
 10
2478.9048495742
 20
938.8930048678
 30
0.0
 11
2479.4128495742
 21
942.1950048678
 31
0.0
 12
2478.3968495742
 22
942.1950048678
 32
0.0
 13
2478.3968495742
 23
942.1950048678
 33
0.0
  0
SOLID
  5
3B9
330
3B5
100
AcDbEntity
  8
SLD-0_0
100
AcDbTrace
 10
2478.9048495742
 20
1023.8930048678
 30
0.0
 11
2478.3968495742
 21
1020.5910048678
 31
0.0
 12
2479.4128495742
 22
1020.5910048678
 32
0.0
 13
2479.4128495742
 23
1020.5910048678
 33
0.0
  0
LINE
  5
3BA
330
3B5
100
AcDbEntity
  8
SLD-0_0
100
AcDbLine
 10
2469.7451225448
 20
938.8930048678
 30
0.0
 11
2479.9048495742
 21
938.8930048678
 31
0.0
  0
LINE
  5
3BB
330
3B5
100
AcDbEntity
  8
SLD-0_0
100
AcDbLine
 10
2478.9048495742
 20
938.8930048678
 30
0.0
 11
2478.9048495742
 21
1023.8930048678
 31
0.0
  0
MTEXT
  5
3BC
330
3B5
100
AcDbEntity
  8
SLD-0_0
100
AcDbMText
 10
2474.393112485
 20
981.384941464
 30
0.0
 40
3.5
 41
0.0
 71
     1
 72
     1
  1
85
  7
SLDTEXTSTYLE0
 11
6.123233995736766E-17
 21
1.0
 31
0.0
 73
     1
 44
1.0
  0
ENDBLK
  5
3B7
330
3B5
100
AcDbEntity
  8
0
100
AcDbBlockEnd
  0
BLOCK
  5
3C0
330
3BF
100
AcDbEntity
  8
0
100
AcDbBlockBegin
  2
_D_22
 70
     0
 10
0.0
 20
0.0
 30
0.0
  3
_D_22
  1

  0
SOLID
  5
3C2
330
3BF
100
AcDbEntity
  8
SLD-0_0
100
AcDbTrace
 10
2450.7451225448
 20
1030.5959848935
 30
0.0
 11
2447.4431225448
 21
1031.1039848935
 31
0.0
 12
2447.4431225448
 22
1030.0879848935
 32
0.0
 13
2447.4431225448
 23
1030.0879848935
 33
0.0
  0
SOLID
  5
3C3
330
3BF
100
AcDbEntity
  8
SLD-0_0
100
AcDbTrace
 10
2468.7451225448
 20
1030.5959848935
 30
0.0
 11
2472.0471225448
 21
1030.0879848935
 31
0.0
 12
2472.0471225448
 22
1031.1039848935
 32
0.0
 13
2472.0471225448
 23
1031.1039848935
 33
0.0
  0
LINE
  5
3C4
330
3BF
100
AcDbEntity
  8
SLD-0_0
100
AcDbLine
 10
2450.7451225448
 20
1024.8930048678
 30
0.0
 11
2450.7451225448
 21
1031.5959848935
 31
0.0
  0
LINE
  5
3C5
330
3BF
100
AcDbEntity
  8
SLD-0_0
100
AcDbLine
 10
2468.7451225448
 20
1024.8930048678
 30
0.0
 11
2468.7451225448
 21
1031.5959848935
 31
0.0
  0
LINE
  5
3C6
330
3BF
100
AcDbEntity
  8
SLD-0_0
100
AcDbLine
 10
2450.7451225448
 20
1030.5959848935
 30
0.0
 11
2444.3951225448
 21
1030.5959848935
 31
0.0
  0
LINE
  5
3C7
330
3BF
100
AcDbEntity
  8
SLD-0_0
100
AcDbLine
 10
2450.7451225448
 20
1030.5959848935
 30
0.0
 11
2468.7451225448
 21
1030.5959848935
 31
0.0
  0
LINE
  5
3C8
330
3BF
100
AcDbEntity
  8
SLD-0_0
100
AcDbLine
 10
2468.7451225448
 20
1030.5959848935
 30
0.0
 11
2475.0951225448
 21
1030.5959848935
 31
0.0
  0
MTEXT
  5
3C9
330
3BF
100
AcDbEntity
  8
SLD-0_0
100
AcDbMText
 10
2455.0655308352
 20
1035.1077219827
 30
0.0
 40
3.5
 41
0.0
 71
     1
 72
     1
  1
18
  7
SLDTEXTSTYLE0
 73
     1
 44
1.0
  0
ENDBLK
  5
3C1
330
3BF
100
AcDbEntity
  8
0
100
AcDbBlockEnd
  0
BLOCK
  5
3CC
330
3CB
100
AcDbEntity
  8
0
100
AcDbBlockBegin
  2
_D_23
 70
     0
 10
0.0
 20
0.0
 30
0.0
  3
_D_23
  1

  0
SOLID
  5
3CE
330
3CB
100
AcDbEntity
  8
SLD-0_0
100
AcDbTrace
 10
2157.7451225448
 20
794.197899093
 30
0.0
 11
2154.4431225448
 21
794.705899093
 31
0.0
 12
2154.4431225448
 22
793.689899093
 32
0.0
 13
2154.4431225448
 23
793.689899093
 33
0.0
  0
SOLID
  5
3CF
330
3CB
100
AcDbEntity
  8
SLD-0_0
100
AcDbTrace
 10
2130.7451225448
 20
794.197899093
 30
0.0
 11
2134.0471225448
 21
793.689899093
 31
0.0
 12
2134.0471225448
 22
794.705899093
 32
0.0
 13
2134.0471225448
 23
794.705899093
 33
0.0
  0
LINE
  5
3D0
330
3CB
100
AcDbEntity
  8
SLD-0_0
100
AcDbLine
 10
2157.7451225448
 20
901.8930048678
 30
0.0
 11
2157.7451225448
 21
793.197899093
 31
0.0
  0
LINE
  5
3D1
330
3CB
100
AcDbEntity
  8
SLD-0_0
100
AcDbLine
 10
2130.7451225448
 20
801.8930048678
 30
0.0
 11
2130.7451225448
 21
793.197899093
 31
0.0
  0
LINE
  5
3D2
330
3CB
100
AcDbEntity
  8
SLD-0_0
100
AcDbLine
 10
2157.7451225448
 20
794.197899093
 30
0.0
 11
2130.7451225448
 21
794.197899093
 31
0.0
  0
MTEXT
  5
3D3
330
3CB
100
AcDbEntity
  8
SLD-0_0
100
AcDbMText
 10
2139.9246588433
 20
798.7096361822
 30
0.0
 40
3.5
 41
0.0
 71
     1
 72
     1
  1
27
  7
SLDTEXTSTYLE0
 73
     1
 44
1.0
  0
ENDBLK
  5
3CD
330
3CB
100
AcDbEntity
  8
0
100
AcDbBlockEnd
  0
BLOCK
  5
3D6
330
3D5
100
AcDbEntity
  8
0
100
AcDbBlockBegin
  2
_D_24
 70
     0
 10
0.0
 20
0.0
 30
0.0
  3
_D_24
  1

  0
SOLID
  5
3D8
330
3D5
100
AcDbEntity
  8
SLD-0_0
100
AcDbTrace
 10
2106.7451225448
 20
852.8930048678
 30
0.0
 11
2106.2371225448
 21
849.5910048678
 31
0.0
 12
2107.2531225448
 22
849.5910048678
 32
0.0
 13
2107.2531225448
 23
849.5910048678
 33
0.0
  0
SOLID
  5
3D9
330
3D5
100
AcDbEntity
  8
SLD-0_0
100
AcDbTrace
 10
2106.7451225448
 20
802.8930048678
 30
0.0
 11
2107.2531225448
 21
806.1950048678
 31
0.0
 12
2106.2371225448
 22
806.1950048678
 32
0.0
 13
2106.2371225448
 23
806.1950048678
 33
0.0
  0
LINE
  5
3DA
330
3D5
100
AcDbEntity
  8
SLD-0_0
100
AcDbLine
 10
2206.7451225448
 20
852.8930048678
 30
0.0
 11
2105.7451225448
 21
852.8930048678
 31
0.0
  0
LINE
  5
3DB
330
3D5
100
AcDbEntity
  8
SLD-0_0
100
AcDbLine
 10
2129.7451225448
 20
802.8930048678
 30
0.0
 11
2105.7451225448
 21
802.8930048678
 31
0.0
  0
LINE
  5
3DC
330
3D5
100
AcDbEntity
  8
SLD-0_0
100
AcDbLine
 10
2106.7451225448
 20
852.8930048678
 30
0.0
 11
2106.7451225448
 21
802.8930048678
 31
0.0
  0
MTEXT
  5
3DD
330
3D5
100
AcDbEntity
  8
SLD-0_0
100
AcDbMText
 10
2102.2333854556
 20
821.648280593
 30
0.0
 40
3.5
 41
0.0
 71
     1
 72
     1
  1
50
  7
SLDTEXTSTYLE0
 11
-7.044195017643634E-15
 21
1.0
 31
0.0
 73
     1
 44
1.0
  0
ENDBLK
  5
3D7
330
3D5
100
AcDbEntity
  8
0
100
AcDbBlockEnd
  0
BLOCK
  5
3EA
330
3E9
100
AcDbEntity
  8
0
100
AcDbBlockBegin
  2
_D_25
 70
     0
 10
0.0
 20
0.0
 30
0.0
  3
_D_25
  1

  0
SOLID
  5
3EC
330
3E9
100
AcDbEntity
  8
SLD-0_0
100
AcDbTrace
 10
2395.9203171653
 20
282.2083810546
 30
0.0
 11
2399.2223171653
 21
281.7003810546
 31
0.0
 12
2399.2223171653
 22
282.7163810546
 32
0.0
 13
2399.2223171653
 23
282.7163810546
 33
0.0
  0
SOLID
  5
3ED
330
3E9
100
AcDbEntity
  8
SLD-0_0
100
AcDbTrace
 10
2742.9203171653
 20
282.2083810546
 30
0.0
 11
2739.6183171653
 21
282.7163810546
 31
0.0
 12
2739.6183171653
 22
281.7003810546
 32
0.0
 13
2739.6183171653
 23
281.7003810546
 33
0.0
  0
LINE
  5
3EE
330
3E9
100
AcDbEntity
  8
SLD-0_0
100
AcDbLine
 10
2395.9203171653
 20
559.9083810546
 30
0.0
 11
2395.9203171653
 21
281.2083810546
 31
0.0
  0
LINE
  5
3EF
330
3E9
100
AcDbEntity
  8
SLD-0_0
100
AcDbLine
 10
2742.9203171653
 20
559.9083810546
 30
0.0
 11
2742.9203171653
 21
281.2083810546
 31
0.0
  0
LINE
  5
3F0
330
3E9
100
AcDbEntity
  8
SLD-0_0
100
AcDbLine
 10
2395.9203171653
 20
282.2083810546
 30
0.0
 11
2742.9203171653
 21
282.2083810546
 31
0.0
  0
MTEXT
  5
3F1
330
3E9
100
AcDbEntity
  8
SLD-0_0
100
AcDbMText
 10
2584.2505641582
 20
286.7201181438
 30
0.0
 40
3.5
 41
0.0
 71
     1
 72
     1
  1
347
  7
SLDTEXTSTYLE0
 73
     1
 44
1.0
  0
ENDBLK
  5
3EB
330
3E9
100
AcDbEntity
  8
0
100
AcDbBlockEnd
  0
BLOCK
  5
3F5
330
3F4
100
AcDbEntity
  8
0
100
AcDbBlockBegin
  2
_D_26
 70
     0
 10
0.0
 20
0.0
 30
0.0
  3
_D_26
  1

  0
SOLID
  5
3F7
330
3F4
100
AcDbEntity
  8
SLD-0_0
100
AcDbTrace
 10
2752.9203171653
 20
560.9083810546
 30
0.0
 11
2752.4123171653
 21
557.6063810546
 31
0.0
 12
2753.4283171653
 22
557.6063810546
 32
0.0
 13
2753.4283171653
 23
557.6063810546
 33
0.0
  0
SOLID
  5
3F8
330
3F4
100
AcDbEntity
  8
SLD-0_0
100
AcDbTrace
 10
2752.9203171653
 20
292.2083810546
 30
0.0
 11
2753.4283171653
 21
295.5103810546
 31
0.0
 12
2752.4123171653
 22
295.5103810546
 32
0.0
 13
2752.4123171653
 23
295.5103810546
 33
0.0
  0
LINE
  5
3F9
330
3F4
100
AcDbEntity
  8
SLD-0_0
100
AcDbLine
 10
2743.9203171653
 20
560.9083810546
 30
0.0
 11
2753.9203171653
 21
560.9083810546
 31
0.0
  0
LINE
  5
3FA
330
3F4
100
AcDbEntity
  8
SLD-0_0
100
AcDbLine
 10
2743.9203171653
 20
292.2083810546
 30
0.0
 11
2753.9203171653
 21
292.2083810546
 31
0.0
  0
LINE
  5
3FB
330
3F4
100
AcDbEntity
  8
SLD-0_0
100
AcDbLine
 10
2752.9203171653
 20
560.9083810546
 30
0.0
 11
2752.9203171653
 21
292.2083810546
 31
0.0
  0
MTEXT
  5
3FC
330
3F4
100
AcDbEntity
  8
SLD-0_0
100
AcDbMText
 10
2748.4085800761
 20
408.006619414
 30
0.0
 40
3.5
 41
0.0
 71
     1
 72
     1
  1
268.70
  7
SLDTEXTSTYLE0
 11
-7.932373437343760E-15
 21
1.0
 31
0.0
 73
     1
 44
1.0
  0
ENDBLK
  5
3F6
330
3F4
100
AcDbEntity
  8
0
100
AcDbBlockEnd
  0
BLOCK
  5
402
330
401
100
AcDbEntity
  8
0
100
AcDbBlockBegin
  2
SW_ANGULAR_DIMENSION_0
 70
     0
 10
0.0
 20
0.0
 30
0.0
  3
SW_ANGULAR_DIMENSION_0
  1

  0
ARC
  5
404
330
401
100
AcDbEntity
  8
CAJETIN
 62
     0
100
AcDbCircle
 10
49.7928809992
 20
-7.399662129
 30
0.0
 40
50.20821341505069
100
AcDbArc
 50
135.0
 51
180.0
  0
SOLID
  5
405
330
401
100
AcDbEntity
  8
CAJETIN
 62
     0
100
AcDbTrace
 10
14.2903128222
 20
28.1029060481
 30
0.0
 11
11.6625487776
 21
26.0398684512
 31
0.0
 12
12.4041676643
 22
25.3454208816
 32
0.0
 13
12.4041676643
 23
25.3454208816
 33
0.0
  0
SOLID
  5
406
330
401
100
AcDbEntity
  8
CAJETIN
 62
     0
100
AcDbTrace
 10
-0.4153324158
 20
-7.399662129
 30
0.0
 11
0.200798013
 21
-4.1161196373
 31
0.0
 12
-0.8146543165
 22
-4.0827644791
 32
0.0
 13
-0.8146543165
 23
-4.0827644791
 33
0.0
  0
LINE
  5
407
330
401
100
AcDbEntity
  8
CAJETIN
 62
     0
100
AcDbLine
 10
31.085774218
 20
11.3074446522
 30
0.0
 11
13.583206041
 21
28.8100128293
 31
0.0
  0
LINE
  5
408
330
401
100
AcDbEntity
  8
CAJETIN
 62
     0
100
AcDbLine
 10
48.7928809992
 20
-7.399662129
 30
0.0
 11
-1.4153324158
 21
-7.399662129
 31
0.0
  0
MTEXT
  5
409
330
401
100
AcDbEntity
  8
CAJETIN
 62
     0
100
AcDbMText
 10
-4.4031663812
 20
0.9838177582
 30
0.0
 40
3.5
 41
0.0
 71
     1
 72
     1
  1
45°
  7
SLDTEXTSTYLE0
 11
0.2180574219432268
 21
0.9759359408974922
 31
0.0
 73
     1
 44
1.0
  0
ENDBLK
  5
403
330
401
100
AcDbEntity
  8
0
100
AcDbBlockEnd
  0
BLOCK
  5
40C
330
40B
100
AcDbEntity
  8
0
100
AcDbBlockBegin
  2
SW_ANGULAR_DIMENSION_1
 70
     0
 10
0.0
 20
0.0
 30
0.0
  3
SW_ANGULAR_DIMENSION_1
  1

  0
ARC
  5
40E
330
40B
100
AcDbEntity
  8
CAJETIN
 62
     0
100
AcDbCircle
 10
43.1733471103
 20
10.8775274293
 30
0.0
 40
44.37383463472555
100
AcDbArc
 50
180.0
 51
225.0
  0
SOLID
  5
40F
330
40B
100
AcDbEntity
  8
CAJETIN
 62
     0
100
AcDbTrace
 10
-1.2004875244
 20
10.8775274293
 30
0.0
 11
-1.5855352098
 21
7.5589424477
 31
0.0
 12
-0.5702357848
 22
7.5966661483
 32
0.0
 13
-0.5702357848
 23
7.5966661483
 33
0.0
  0
SOLID
  5
410
330
40B
100
AcDbEntity
  8
CAJETIN
 62
     0
100
AcDbTrace
 10
11.7963077329
 20
-20.4995119482
 30
0.0
 11
9.9220437519
 21
-17.7339374094
 31
0.0
 12
9.177443959
 22
-18.4251878332
 32
0.0
 13
9.177443959
 23
-18.4251878332
 33
0.0
  0
LINE
  5
411
330
40B
100
AcDbEntity
  8
CAJETIN
 62
     0
100
AcDbLine
 10
42.1733471103
 20
10.8775274293
 30
0.0
 11
-2.2004875244
 21
10.8775274293
 31
0.0
  0
LINE
  5
412
330
40B
100
AcDbEntity
  8
CAJETIN
 62
     0
100
AcDbLine
 10
24.4662403291
 20
-7.8295793519
 30
0.0
 11
11.0892009517
 21
-21.2066187294
 31
0.0
  0
MTEXT
  5
413
330
40B
100
AcDbEntity
  8
CAJETIN
 62
     0
100
AcDbMText
 10
4.2703759841
 20
1.4559053941
 30
0.0
 40
3.5
 41
0.0
 71
     1
 72
     1
  1
45°
  7
SLDTEXTSTYLE0
 11
0.3226928709047509
 21
-0.9465037300862843
 31
0.0
 73
     1
 44
1.0
  0
ENDBLK
  5
40D
330
40B
100
AcDbEntity
  8
0
100
AcDbBlockEnd
  0
BLOCK
  5
417
330
416
100
AcDbEntity
  8
0
100
AcDbBlockBegin
  2
_D_27
 70
     0
 10
0.0
 20
0.0
 30
0.0
  3
_D_27
  1

  0
SOLID
  5
419
330
416
100
AcDbEntity
  8
CAJETIN
100
AcDbTrace
 10
2281.5215604694
 20
560.9083810546
 30
0.0
 11
2281.0135604694
 21
557.6063810546
 31
0.0
 12
2282.0295604694
 22
557.6063810546
 32
0.0
 13
2282.0295604694
 23
557.6063810546
 33
0.0
  0
SOLID
  5
41A
330
416
100
AcDbEntity
  8
CAJETIN
100
AcDbTrace
 10
2281.5215604694
 20
292.2083810546
 30
0.0
 11
2282.0295604694
 21
295.5103810546
 31
0.0
 12
2281.0135604694
 22
295.5103810546
 32
0.0
 13
2281.0135604694
 23
295.5103810546
 33
0.0
  0
LINE
  5
41B
330
416
100
AcDbEntity
  8
CAJETIN
100
AcDbLine
 10
2272.5215604694
 20
560.9083810546
 30
0.0
 11
2282.5215604694
 21
560.9083810546
 31
0.0
  0
LINE
  5
41C
330
416
100
AcDbEntity
  8
CAJETIN
100
AcDbLine
 10
2272.5215604694
 20
292.2083810546
 30
0.0
 11
2282.5215604694
 21
292.2083810546
 31
0.0
  0
LINE
  5
41D
330
416
100
AcDbEntity
  8
CAJETIN
100
AcDbLine
 10
2281.5215604694
 20
560.9083810546
 30
0.0
 11
2281.5215604694
 21
292.2083810546
 31
0.0
  0
MTEXT
  5
41E
330
416
100
AcDbEntity
  8
CAJETIN
100
AcDbMText
 10
2277.0098233802
 20
402.9697766768
 30
0.0
 40
3.5
 41
0.0
 71
     1
 72
     1
  1
268.70
  7
SLDTEXTSTYLE0
 11
-7.044195017643634E-15
 21
1.0
 31
0.0
 73
     1
 44
1.0
  0
ENDBLK
  5
418
330
416
100
AcDbEntity
  8
0
100
AcDbBlockEnd
  0
ENDSEC
  0
SECTION
  2
ENTITIES
  0
LINE
  5
7A
330
1F
100
AcDbEntity
  8
PREDETERMINADO
100
AcDbLine
 10
2954.7804651778
 20
54.8470237267
 30
0.0
 11
2946.0141513925
 21
54.8470237267
 31
0.0
  0
LINE
  5
7B
330
1F
100
AcDbEntity
  8
PREDETERMINADO
100
AcDbLine
 10
2940.2969902281
 20
26.4517899439
 30
0.0
 11
2945.6330073148
 21
26.4517899439
 31
0.0
  0
LINE
  5
7C
330
1F
100
AcDbEntity
  8
PREDETERMINADO
100
AcDbLine
 10
2975.743389447
 20
54.8470237267
 30
0.0
 11
2967.7393638169
 21
54.8470237267
 31
0.0
  0
LINE
  5
7D
330
1F
100
AcDbEntity
  8
PREDETERMINADO
100
AcDbLine
 10
2962.6880619137
 20
28.9292264484
 30
0.0
 11
2970.6195959942
 21
28.9292264484
 31
0.0
  0
LINE
  5
7E
330
1F
100
AcDbEntity
  8
PREDETERMINADO
100
AcDbLine
 10
2705.7139776297
 20
136.0001873961
 30
0.0
 11
2705.7139776297
 21
94.6171449077
 31
0.0
  0
LINE
  5
7F
330
1F
100
AcDbEntity
  8
PREDETERMINADO
100
AcDbLine
 10
2705.7139776297
 20
94.6171449077
 30
0.0
 11
2218.7380790231
 21
94.6171449077
 31
0.0
  0
LINE
  5
80
330
1F
100
AcDbEntity
  8
PREDETERMINADO
100
AcDbLine
 10
2218.7380790231
 20
94.6171449077
 30
0.0
 11
2218.7380790231
 21
90.3781449077
 31
0.0
  0
LINE
  5
81
330
1F
100
AcDbEntity
  8
PREDETERMINADO
100
AcDbLine
 10
2218.7380790231
 20
90.3781449077
 30
0.0
 11
2709.9529776297
 21
90.3781449077
 31
0.0
  0
LINE
  5
82
330
1F
100
AcDbEntity
  8
PREDETERMINADO
100
AcDbLine
 10
2709.9529776297
 20
90.3781449077
 30
0.0
 11
2709.9529776297
 21
136.0001873961
 31
0.0
  0
LINE
  5
83
330
1F
100
AcDbEntity
  8
PREDETERMINADO
100
AcDbLine
 10
2709.9529776297
 20
136.0001873961
 30
0.0
 11
2705.7139776297
 21
136.0001873961
 31
0.0
  0
LINE
  5
84
330
1F
100
AcDbEntity
  8
PREDETERMINADO
100
AcDbLine
 10
2962.6880619137
 20
28.9292264484
 30
0.0
 11
2970.6195959942
 21
28.9292264484
 31
0.0
  0
LINE
  5
85
330
1F
100
AcDbEntity
  8
PREDETERMINADO
100
AcDbLine
 10
2975.743389447
 20
54.8470237267
 30
0.0
 11
2967.7393638169
 21
54.8470237267
 31
0.0
  0
LINE
  5
86
330
1F
100
AcDbEntity
  8
PREDETERMINADO
100
AcDbLine
 10
2954.7804651778
 20
54.8470237267
 30
0.0
 11
2946.0141513925
 21
54.8470237267
 31
0.0
  0
LINE
  5
87
330
1F
100
AcDbEntity
  8
PREDETERMINADO
100
AcDbLine
 10
2940.2969902281
 20
26.4517899439
 30
0.0
 11
2945.6330073148
 21
26.4517899439
 31
0.0
  0
LINE
  5
88
330
1F
100
AcDbEntity
  8
PREDETERMINADO
  6
Continuous
 62
   179
370
    15
100
AcDbLine
 10
2218.7380790231
 20
225.8885880506
 30
0.0
 11
2218.7380790231
 21
140.2391873961
 31
0.0
  0
LINE
  5
89
330
1F
100
AcDbEntity
  8
SLD-0_0
100
AcDbLine
 10
2407.4845844079
 20
90.3781449077
 30
0.0
 11
2407.4845844079
 21
13.9385880506
 31
0.0
  0
LINE
  5
8A
330
1F
100
AcDbEntity
  8
FORMATO
  6
Continuous
 62
   179
100
AcDbLine
 10
2413.2229776297
 20
140.2391873961
 30
0.0
 11
2413.2229776297
 21
225.8885880506
 31
0.0
  0
LINE
  5
8B
330
1F
100
AcDbEntity
  8
FORMATO
  6
Continuous
 62
   179
100
AcDbLine
 10
2332.7301434798
 20
140.2391873961
 30
0.0
 11
2413.2229776297
 21
140.2391873961
 31
0.0
  0
LINE
  5
8C
330
1F
100
AcDbEntity
  8
FORMATO
  6
Continuous
 62
   179
100
AcDbLine
 10
2332.7301434798
 20
140.2391873961
 30
0.0
 11
2332.7301434798
 21
225.8885880506
 31
0.0
  0
LINE
  5
8D
330
1F
100
AcDbEntity
  8
FORMATO
  6
Continuous
 62
   179
100
AcDbLine
 10
2218.7380790231
 20
161.4341873961
 30
0.0
 11
2498.0029776297
 21
161.4341873961
 31
0.0
  0
LINE
  5
8E
330
1F
100
AcDbEntity
  8
FORMATO
  6
Continuous
 62
   179
100
AcDbLine
 10
2218.7380790231
 20
182.6291873961
 30
0.0
 11
2498.0029776297
 21
182.6291873961
 31
0.0
  0
LINE
  5
8F
330
1F
100
AcDbEntity
  8
FORMATO
  6
Continuous
 62
   179
100
AcDbLine
 10
2498.0029776297
 20
140.2391873961
 30
0.0
 11
2498.0029776297
 21
225.8885880506
 31
0.0
  0
LINE
  5
90
330
1F
100
AcDbEntity
  8
FORMATO
  6
Continuous
 62
   179
100
AcDbLine
 10
2985.4879776297
 20
203.8241873961
 30
0.0
 11
2218.7380790231
 21
203.8241873961
 31
0.0
  0
LINE
  5
91
330
1F
100
AcDbEntity
  8
FORMATO
  6
Continuous
 62
   179
100
AcDbLine
 10
2804.9423754276
 20
225.8885880506
 30
0.0
 11
2804.9423754276
 21
178.187712345
 31
0.0
  0
LINE
  5
92
330
1F
100
AcDbEntity
  8
FORMATO
  6
Continuous
 62
   179
100
AcDbLine
 10
2752.3429776297
 20
225.8885880506
 30
0.0
 11
2752.3429776297
 21
178.187712345
 31
0.0
  0
LINE
  5
93
330
1F
100
AcDbEntity
  8
FORMATO
  6
Continuous
 62
   179
100
AcDbLine
 10
2709.9529776297
 20
178.187712345
 30
0.0
 11
2985.4879776297
 21
178.187712345
 31
0.0
  0
LINE
  5
94
330
1F
100
AcDbEntity
  8
FORMATO
  6
Continuous
 62
   179
100
AcDbLine
 10
2874.3092423969
 20
136.0001873961
 30
0.0
 11
2874.3092423969
 21
225.8885880506
 31
0.0
  0
LINE
  5
95
330
1F
100
AcDbEntity
  8
PREDETERMINADO
370
    15
100
AcDbLine
 10
2218.7380790231
 20
94.6171449077
 30
0.0
 11
2218.7380790231
 21
13.9385880506
 31
0.0
  0
LINE
  5
96
330
1F
100
AcDbEntity
  8
FORMATO
  6
Continuous
 62
   179
100
AcDbLine
 10
2837.1229776297
 20
80.6632431379
 30
0.0
 11
2985.4879776297
 21
80.6632431379
 31
0.0
  0
LINE
  5
97
330
1F
100
AcDbEntity
  8
FORMATO
  6
Continuous
 62
   179
100
AcDbLine
 10
2837.1229776297
 20
13.9385880506
 30
0.0
 11
2837.1229776297
 21
136.0001873961
 31
0.0
  0
LINE
  5
98
330
1F
100
AcDbEntity
  8
FORMATO
  6
Continuous
 62
   179
370
    15
100
AcDbLine
 10
2214.4990790231
 20
140.2391873961
 30
0.0
 11
2705.7139776297
 21
140.2391873961
 31
0.0
  0
LINE
  5
99
330
1F
100
AcDbEntity
  8
FORMATO
  6
Continuous
 62
   179
370
    15
100
AcDbLine
 10
2709.9529776297
 20
90.3781449077
 30
0.0
 11
2709.9529776297
 21
136.0001873961
 31
0.0
  0
LINE
  5
9A
330
1F
100
AcDbEntity
  8
FORMATO
  6
Continuous
 62
   179
100
AcDbLine
 10
2568.6317482269
 20
90.3781449077
 30
0.0
 11
2568.6317482269
 21
13.9385880506
 31
0.0
  0
LINE
  5
9B
330
1F
100
AcDbEntity
  8
SLD-0
  6
Continuous
 62
   179
100
AcDbLine
 10
2967.7393638169
 20
54.8470237267
 30
0.0
 11
2975.743389447
 21
54.8470237267
 31
0.0
  0
LINE
  5
9C
330
1F
100
AcDbEntity
  8
SLD-0
  6
Continuous
 62
   179
100
AcDbLine
 10
2962.4033467302
 20
28.9292264484
 30
0.0
 11
2970.6195959942
 21
28.9292264484
 31
0.0
  0
LINE
  5
9D
330
1F
100
AcDbEntity
  8
SLD-0
  6
Continuous
 62
   179
100
AcDbLine
 10
2946.0141513925
 20
54.8470237267
 30
0.0
 11
2954.7804651778
 21
54.8470237267
 31
0.0
  0
LINE
  5
9E
330
1F
100
AcDbEntity
  8
FORMATO
  6
Continuous
 62
   179
100
AcDbLine
 10
2501.681482026
 20
183.9959353091
 30
0.0
 11
2508.3728656716
 21
183.9959353091
 31
0.0
  0
LINE
  5
9F
330
1F
100
AcDbEntity
  8
FORMATO
  6
Continuous
 62
   179
100
AcDbLine
 10
2501.681482026
 20
167.0399353091
 30
0.0
 11
2508.3728656716
 21
167.0399353091
 31
0.0
  0
LINE
  5
A0
330
1F
100
AcDbEntity
  8
FORMATO
  6
Continuous
 62
   179
100
AcDbLine
 10
2501.681482026
 20
150.0839353091
 30
0.0
 11
2508.3728656716
 21
150.0839353091
 31
0.0
  0
LINE
  5
A1
330
1F
100
AcDbEntity
  8
FORMATO
  6
Continuous
 62
   179
100
AcDbLine
 10
2712.6153070816
 20
95.7163101209
 30
0.0
 11
2719.3066907271
 21
95.7163101209
 31
0.0
  0
LINE
  5
A2
330
1F
100
AcDbEntity
  8
FORMATO
  6
Continuous
 62
   179
100
AcDbLine
 10
2712.6153070816
 20
74.0535937143
 30
0.0
 11
2719.3066907271
 21
74.0535937143
 31
0.0
  0
LINE
  5
A3
330
1F
100
AcDbEntity
  8
FORMATO
  6
Continuous
 62
   179
100
AcDbLine
 10
2712.6153070816
 20
52.3908773078
 30
0.0
 11
2719.3066907271
 21
52.3908773078
 31
0.0
  0
LINE
  5
A4
330
1F
100
AcDbEntity
  8
FORMATO
  6
Continuous
 62
   179
100
AcDbLine
 10
2712.6153070816
 20
30.7281609012
 30
0.0
 11
2719.3066907271
 21
30.7281609012
 31
0.0
  0
LINE
  5
A5
330
1F
100
AcDbEntity
  8
PREDETERMINADO
100
AcDbLine
 10
2709.9529776297
 20
136.0001873961
 30
0.0
 11
2985.8420369895
 21
136.0001873961
 31
0.0
  0
LINE
  5
A6
330
1F
100
AcDbEntity
  8
FORMATO
  6
Continuous
 62
   179
370
    15
100
AcDbLine
 10
2218.7380790231
 20
225.8885880506
 30
0.0
 11
2985.4879776297
 21
225.8885880506
 31
0.0
  0
LINE
  5
A7
330
1F
100
AcDbEntity
  8
FORMATO
  6
Continuous
 62
   179
370
    15
100
AcDbLine
 10
2709.9529776297
 20
90.3781449077
 30
0.0
 11
2218.7380790231
 21
90.3781449077
 31
0.0
  0
LINE
  5
A8
330
1F
100
AcDbEntity
  8
PREDETERMINADO
  6
Continuous
 62
   179
100
AcDbLine
 10
2254.8106842822
 20
222.0401269747
 30
0.0
 11
2254.8106842822
 21
205.70416719
 31
0.0
  0
LINE
  5
A9
330
1F
100
AcDbEntity
  8
PREDETERMINADO
  6
Continuous
 62
   179
100
AcDbLine
 10
2238.4149012691
 20
218.2923467984
 30
0.0
 11
2238.4149012691
 21
209.4519473664
 31
0.0
  0
LINE
  5
AA
330
1F
100
AcDbEntity
  8
PREDETERMINADO
  6
CENTER
 62
   179
100
AcDbLine
 10
2274.908740879
 20
223.0864482492
 30
0.0
 11
2274.908740879
 21
204.4738830876
 31
0.0
  0
LINE
  5
AB
330
1F
100
AcDbEntity
  8
PREDETERMINADO
  6
Continuous
 62
   179
100
AcDbLine
 10
2254.8106842822
 20
222.0401269747
 30
0.0
 11
2238.4149012691
 21
218.2923467984
 31
0.0
  0
LINE
  5
AC
330
1F
100
AcDbEntity
  8
PREDETERMINADO
  6
Continuous
 62
   179
100
AcDbLine
 10
2238.4149012691
 20
209.4519473664
 30
0.0
 11
2254.8106842822
 21
205.70416719
 31
0.0
  0
LINE
  5
AD
330
1F
100
AcDbEntity
  8
PREDETERMINADO
  6
CENTER
 62
   179
100
AcDbLine
 10
2284.7372802644
 20
213.8721470824
 30
0.0
 11
2236.7239752297
 21
213.8721470824
 31
0.0
  0
LINE
  5
AE
330
1F
100
AcDbEntity
  8
PREDETERMINADO
370
    15
100
AcDbLine
 10
2218.7380790231
 20
13.9385880506
 30
0.0
 11
2985.4879776297
 21
13.9385880506
 31
0.0
  0
LINE
  5
AF
330
1F
100
AcDbEntity
  8
PREDETERMINADO
370
    15
100
AcDbLine
 10
2985.4879776297
 20
13.9385880506
 30
0.0
 11
2985.4879776297
 21
225.8885880506
 31
0.0
  0
LINE
  5
B0
330
1F
100
AcDbEntity
  8
PREDETERMINADO
370
    15
100
AcDbLine
 10
2705.7139776297
 20
136.0001873961
 30
0.0
 11
2709.9529776297
 21
136.0001873961
 31
0.0
  0
LINE
  5
B1
330
1F
100
AcDbEntity
  8
PREDETERMINADO
100
AcDbLine
 10
2709.9529776297
 20
136.0001873961
 30
0.0
 11
2709.9529776297
 21
225.8885880506
 31
0.0
  0
LINE
  5
B2
330
1F
100
AcDbEntity
  8
PREDETERMINADO
100
AcDbLine
 10
2709.9529776297
 20
90.3781449077
 30
0.0
 11
2709.9529776297
 21
13.9385880506
 31
0.0
  0
LINE
  5
B3
330
1F
100
AcDbEntity
  8
PREDETERMINADO
370
    15
100
AcDbLine
 10
2214.4990790231
 20
140.2391873961
 30
0.0
 11
2214.4990790231
 21
94.6171449077
 31
0.0
  0
LINE
  5
B4
330
1F
100
AcDbEntity
  8
PREDETERMINADO
370
    15
100
AcDbLine
 10
2214.4990790231
 20
94.6171449077
 30
0.0
 11
2705.7139776297
 21
94.6171449077
 31
0.0
  0
LINE
  5
B5
330
1F
100
AcDbEntity
  8
PREDETERMINADO
370
    15
100
AcDbLine
 10
2705.7139776297
 20
94.6171449077
 30
0.0
 11
2705.7139776297
 21
140.2391873961
 31
0.0
  0
LINE
  5
B6
330
1F
100
AcDbEntity
  8
SLD-0
  6
Continuous
 62
   179
100
AcDbLine
 10
2940.2969902281
 20
26.4517899439
 30
0.0
 11
2945.6330073148
 21
26.4517899439
 31
0.0
  0
ARC
  5
B7
330
1F
100
AcDbEntity
  8
PREDETERMINADO
100
AcDbCircle
 10
2872.64074025
 20
54.8470237267
 30
0.0
 40
73.37341114253053
100
AcDbArc
 50
337.2322750577
 51
0.0
  0
ARC
  5
B8
330
1F
100
AcDbEntity
  8
PREDETERMINADO
100
AcDbCircle
 10
2906.1349671459
 20
54.8470237267
 30
0.0
 40
48.64549803190766
100
AcDbArc
 50
324.2875534854
 51
0.0
  0
ARC
  5
B9
330
1F
100
AcDbEntity
  8
PREDETERMINADO
100
AcDbCircle
 10
2898.7227142441
 20
54.8470237267
 30
0.0
 40
69.01664957284493
100
AcDbArc
 50
337.9429486592
 51
0.0
  0
ARC
  5
BA
330
1F
100
AcDbEntity
  8
PREDETERMINADO
100
AcDbCircle
 10
2907.6312103028
 20
54.8470237267
 30
0.0
 40
68.11217914413874
100
AcDbArc
 50
337.634330245
 51
0.0
  0
ARC
  5
BB
330
1F
100
AcDbEntity
  8
PREDETERMINADO
100
AcDbCircle
 10
2907.6312103028
 20
54.8470237267
 30
0.0
 40
68.11217914413874
100
AcDbArc
 50
337.634330245
 51
0.0
  0
ARC
  5
BC
330
1F
100
AcDbEntity
  8
PREDETERMINADO
100
AcDbCircle
 10
2898.7227142441
 20
54.8470237267
 30
0.0
 40
69.01664957284493
100
AcDbArc
 50
337.9429486592
 51
0.0
  0
ARC
  5
BD
330
1F
100
AcDbEntity
  8
PREDETERMINADO
100
AcDbCircle
 10
2906.1349671459
 20
54.8470237267
 30
0.0
 40
48.64549803190766
100
AcDbArc
 50
324.2875534854
 51
0.0
  0
ARC
  5
BE
330
1F
100
AcDbEntity
  8
PREDETERMINADO
100
AcDbCircle
 10
2872.64074025
 20
54.8470237267
 30
0.0
 40
73.37341114253053
100
AcDbArc
 50
337.2322750577
 51
0.0
  0
CIRCLE
  5
BF
330
1F
100
AcDbEntity
  8
PREDETERMINADO
  6
Continuous
 62
   179
100
AcDbCircle
 10
2274.908740879
 20
213.8721470824
 30
0.0
 40
8.16797989235628
  0
CIRCLE
  5
C0
330
1F
100
AcDbEntity
  8
PREDETERMINADO
  6
Continuous
 62
   179
100
AcDbCircle
 10
2274.8975165165
 20
213.8721470824
 30
0.0
 40
4.420199715999228
  0
ARC
  5
C1
330
1F
100
AcDbEntity
  8
SLD-0
  6
Continuous
 62
   179
100
AcDbCircle
 10
2898.7227142441
 20
54.8470237267
 30
0.0
 40
69.01664957284493
100
AcDbArc
 50
337.9429486592
 51
0.0
  0
ARC
  5
C2
330
1F
100
AcDbEntity
  8
SLD-0
  6
Continuous
 62
   179
100
AcDbCircle
 10
2907.6312103028
 20
54.8470237267
 30
0.0
 40
68.11217914413874
100
AcDbArc
 50
337.634330245
 51
0.0
  0
ARC
  5
C3
330
1F
100
AcDbEntity
  8
SLD-0
  6
Continuous
 62
   179
100
AcDbCircle
 10
2906.1349671459
 20
54.8470237267
 30
0.0
 40
48.64549803190766
100
AcDbArc
 50
324.2875534854
 51
0.0
  0
ARC
  5
C4
330
1F
100
AcDbEntity
  8
SLD-0
  6
Continuous
 62
   179
100
AcDbCircle
 10
2872.64074025
 20
54.8470237267
 30
0.0
 40
73.37341114253053
100
AcDbArc
 50
337.2322750577
 51
0.0
  0
HATCH
  5
C5
330
1F
100
AcDbEntity
  8
0
  6
Continuous
 62
   179
100
AcDbHatch
 10
0.0
 20
0.0
 30
0.0
210
0.0
220
0.0
230
1.0
  2
ANSI31
 70
     0
 71
     0
 91
        1
 92
        0
 93
        4
 72
     1
 10
2940.296990228136
 20
26.45178994388675
 11
2945.633007314844
 21
26.45178994388675
 72
     2
 10
2906.134967145864
 20
54.84702372672268
 40
48.64549803190743
 50
324.2875534853725
 51
360.0000000000008
 73
     1
 72
     1
 10
2954.780465177771
 20
54.84702372672268
 11
2946.014151392493
 21
54.84702372672268
 72
     2
 10
2872.640740249964
 20
54.84702372672268
 40
73.37341114252966
 50
0.0
 51
22.76772494225683
 73
     0
 97
        0
 75
     0
 76
     1
 52
90.0
 41
0.03125
 77
     0
 78
     1
 53
135.0000000000002
 43
0.0
 44
0.0
 45
-0.0701582509458525
 46
-0.070158250945853
 79
     0
 98
        1
 10
0.0
 20
0.0
  0
HATCH
  5
C6
330
1F
100
AcDbEntity
  8
0
  6
Continuous
 62
   179
100
AcDbHatch
 10
0.0
 20
0.0
 30
0.0
210
0.0
220
0.0
230
1.0
  2
ANSI31
 70
     0
 71
     0
 91
        1
 92
        0
 93
        4
 72
     1
 10
2962.688061913744
 20
28.92922644843043
 11
2970.619595994204
 21
28.92922644843043
 72
     2
 10
2907.631210302837
 20
54.84702372672268
 40
68.11217914413834
 50
337.6343302449529
 51
360.0000000000008
 73
     1
 72
     1
 10
2975.743389446975
 20
54.84702372672268
 11
2967.739363816916
 21
54.84702372672268
 72
     2
 10
2898.722714244071
 20
54.84702372672268
 40
69.01664957284461
 50
0.0
 51
22.05705134075574
 73
     0
 97
        0
 75
     0
 76
     1
 52
90.0
 41
0.03125
 77
     0
 78
     1
 53
135.0000000000002
 43
0.0
 44
0.0
 45
-0.0701582509458525
 46
-0.070158250945853
 79
     0
 98
        1
 10
0.0
 20
0.0
  0
HATCH
  5
C7
330
1F
100
AcDbEntity
  8
0
  6
Continuous
 62
   179
100
AcDbHatch
 10
0.0
 20
0.0
 30
0.0
210
0.0
220
0.0
230
1.0
  2
ANSI31
 70
     0
 71
     0
 91
        1
 92
        0
 93
        6
 72
     1
 10
2709.952977629699
 20
90.37814490772833
 11
2709.952977629699
 21
136.0001873960639
 72
     1
 10
2709.952977629699
 20
136.0001873960639
 11
2705.713977629698
 21
136.0001873960639
 72
     1
 10
2705.713977629698
 20
136.0001873960639
 11
2705.713977629698
 21
94.61714490772799
 72
     1
 10
2705.713977629698
 20
94.61714490772799
 11
2218.738079023131
 21
94.61714490772799
 72
     1
 10
2218.738079023131
 20
94.61714490772799
 11
2218.738079023131
 21
90.37814490772833
 72
     1
 10
2218.738079023131
 20
90.37814490772833
 11
2709.952977629699
 21
90.37814490772833
 97
        0
 75
     0
 76
     1
 52
0.0
 41
0.0625
 77
     0
 78
     1
 53
45.0
 43
0.0
 44
0.0
 45
-0.1403165018917055
 46
0.1403165018917055
 79
     0
 98
        1
 10
0.0
 20
0.0
  0
INSERT
  5
CE
330
1F
100
AcDbEntity
  8
CAJETIN
100
AcDbBlockReference
  2
SW_NOTE_0
 10
2729.620341277
 20
98.8406147163
 30
0.0
  0
MTEXT
  5
CF
330
1F
100
AcDbEntity
  8
CAJETIN
100
AcDbMText
 10
2940.3789931572
 20
155.0128472465
 30
0.0
 40
9.525
 41
0.0
 71
     1
 72
     1
  1
g.
  7
SLDTEXTSTYLE0
 73
     1
 44
1.0
  0
MTEXT
  5
D0
330
1F
100
AcDbEntity
  8
CAJETIN
100
AcDbMText
 10
2344.8797876802
 20
199.2693749924
 30
0.0
 40
9.525
 41
0.0
 71
     1
 72
     1
  1
R&D Dep.
  7
SLDTEXTSTYLE0
 73
     1
 44
1.0
  0
MTEXT
  5
D2
330
1F
100
AcDbEntity
  8
PREDETERMINADO
100
AcDbMText
 10
2850.7877267878
 20
58.2657467851
 30
0.0
 40
19.05
 41
0.0
 71
     1
 72
     1
  1
beyma
  7
SLDTEXTSTYLE1
 73
     1
 44
1.0
  0
MTEXT
  5
D3
330
1F
100
AcDbEntity
  8
CAJETIN
100
AcDbMText
 10
2773.8833152894
 20
196.6641281251
 30
0.0
 40
9.525
 41
0.0
 71
     1
 72
     1
  1
01
  7
SLDTEXTSTYLE0
 73
     1
 44
1.0
  0
MTEXT
  5
D4
330
1F
100
AcDbEntity
  8
CAJETIN
100
AcDbMText
 10
2757.0455387453
 20
155.0128472465
 30
0.0
 40
9.525
 41
0.0
 71
     1
 72
     1
  1
S-21LEX
  7
SLDTEXTSTYLE0
 73
     1
 44
1.0
  0
MTEXT
  5
D5
330
1F
100
AcDbEntity
  8
CAJETIN
100
AcDbMText
 10
2929.866154297
 20
197.5801898616
 30
0.0
 40
9.525
 41
0.0
 71
     2
 72
     1
  1
1:1
  7
SLDTEXTSTYLE0
 73
     1
 44
1.0
  0
MTEXT
  5
D6
330
1F
100
AcDbEntity
  8
CAJETIN
100
AcDbMText
 10
2357.8589142907
 20
222.330268191
 30
0.0
 40
9.525
 41
0.0
 71
     1
 72
     1
  1
NAME
  7
SLDTEXTSTYLE0
 73
     1
 44
1.0
  0
MTEXT
  5
D7
330
1F
100
AcDbEntity
  8
CAJETIN
100
AcDbMText
 10
2901.7758815957
 20
173.1980998713
 30
0.0
 40
9.525
 41
0.0
 71
     1
 72
     1
  1
WEIGHT
  7
SLDTEXTSTYLE0
 73
     1
 44
1.0
  0
MTEXT
  5
D8
330
1F
100
AcDbEntity
  8
CAJETIN
100
AcDbMText
 10
2283.6505318877
 20
221.4599423408
 30
0.0
 40
9.525
 41
0.0
 71
     1
 72
     1
  1
CAD
  7
SLDTEXTSTYLE0
 73
     1
 44
1.0
  0
MTEXT
  5
D9
330
1F
100
AcDbEntity
  8
CAJETIN
100
AcDbMText
 10
2443.0694460374
 20
222.330268191
 30
0.0
 40
9.525
 41
0.0
 71
     1
 72
     1
  1
DATE
  7
SLDTEXTSTYLE0
 73
     1
 44
1.0
  0
MTEXT
  5
DA
330
1F
100
AcDbEntity
  8
CAJETIN
100
AcDbMText
 10
2223.8400248561
 20
199.4945776643
 30
0.0
 40
9.525
 41
0.0
 71
     1
 72
     1
  1
DESIGNED BY
  7
SLDTEXTSTYLE0
 73
     1
 44
1.0
  0
MTEXT
  5
DB
330
1F
100
AcDbEntity
  8
CAJETIN
100
AcDbMText
 10
2223.8400248561
 20
158.2460589266
 30
0.0
 40
9.525
 41
0.0
 71
     1
 72
     1
  1
REVISED BY
  7
SLDTEXTSTYLE0
 73
     1
 44
1.0
  0
MTEXT
  5
DC
330
1F
100
AcDbEntity
  8
CAJETIN
100
AcDbMText
 10
2223.8400248561
 20
179.4898536752
 30
0.0
 40
9.525
 41
0.0
 71
     1
 72
     1
  1
DRAWN BY
  7
SLDTEXTSTYLE0
 73
     1
 44
1.0
  0
MTEXT
  5
DD
330
1F
100
AcDbEntity
  8
CAJETIN
100
AcDbMText
 10
2218.3542599655
 20
135.3780637829
 30
0.0
 40
9.525
 41
0.0
 71
     1
 72
     1
  1
TITLE:
  7
SLDTEXTSTYLE0
 73
     1
 44
1.0
  0
MTEXT
  5
DE
330
1F
100
AcDbEntity
  8
CAJETIN
100
AcDbMText
 10
2223.8400248561
 20
85.1066151542
 30
0.0
 40
9.525
 41
0.0
 71
     1
 72
     1
  1
MODEL CODE:
  7
SLDTEXTSTYLE0
 73
     1
 44
1.0
  0
MTEXT
  5
DF
330
1F
100
AcDbEntity
  8
CAJETIN
100
AcDbMText
 10
2579.7226213589
 20
85.5606605874
 30
0.0
 40
9.525
 41
0.0
 71
     1
 72
     1
  1
PART NUMBER
  7
SLDTEXTSTYLE0
 73
     1
 44
1.0
  0
MTEXT
  5
E0
330
1F
100
AcDbEntity
  8
CAJETIN
100
AcDbMText
 10
2568.9290914431
 20
222.330268191
 30
0.0
 40
9.525
 41
0.0
 71
     1
 72
     1
  1
NOTES
  7
SLDTEXTSTYLE0
 73
     1
 44
1.0
  0
MTEXT
  5
E1
330
1F
100
AcDbEntity
  8
CAJETIN
100
AcDbMText
 10
2713.1523780759
 20
221.3740187677
 30
0.0
 40
9.525
 41
0.0
 71
     1
 72
     1
  1
UNIT
  7
SLDTEXTSTYLE0
 73
     1
 44
1.0
  0
MTEXT
  5
E2
330
1F
100
AcDbEntity
  8
CAJETIN
100
AcDbMText
 10
2756.7444121269
 20
221.3740187677
 30
0.0
 40
9.525
 41
0.0
 71
     1
 72
     1
  1
LEVEL
  7
SLDTEXTSTYLE0
 73
     1
 44
1.0
  0
MTEXT
  5
E3
330
1F
100
AcDbEntity
  8
CAJETIN
100
AcDbMText
 10
2820.0472091646
 20
221.3740187677
 30
0.0
 40
9.525
 41
0.0
 71
     1
 72
     1
  1
DATE
  7
SLDTEXTSTYLE0
 73
     1
 44
1.0
  0
MTEXT
  5
E4
330
1F
100
AcDbEntity
  8
CAJETIN
100
AcDbMText
 10
2907.330566732
 20
222.330268191
 30
0.0
 40
9.525
 41
0.0
 71
     1
 72
     1
  1
SCALE
  7
SLDTEXTSTYLE0
 73
     1
 44
1.0
  0
MTEXT
  5
E5
330
1F
100
AcDbEntity
  8
CAJETIN
100
AcDbMText
 10
2722.1133743872
 20
173.1980998713
 30
0.0
 40
9.525
 41
0.0
 71
     1
 72
     1
  1
DRAWING NUMBER
  7
SLDTEXTSTYLE0
 73
     1
 44
1.0
  0
MTEXT
  5
E6
330
1F
100
AcDbEntity
  8
CAJETIN
100
AcDbMText
 10
2454.3879323419
 20
85.5606605874
 30
0.0
 40
9.525
 41
0.0
 71
     1
 72
     1
  1
SIGNED
  7
SLDTEXTSTYLE0
 73
     1
 44
1.0
  0
MTEXT
  5
E7
330
1F
100
AcDbEntity
  8
CAJETIN
100
AcDbMText
 10
2736.55573906
 20
130.9129423421
 30
0.0
 40
9.525
 41
0.0
 71
     1
 72
     1
  1
MATERIAL
  7
SLDTEXTSTYLE0
 73
     1
 44
1.0
  0
MTEXT
  5
E8
330
1F
100
AcDbEntity
  8
CAJETIN
100
AcDbMText
 10
2425.2260524053
 20
199.2693749924
 30
0.0
 40
9.525
 41
0.0
 71
     1
 72
     1
  1
18/01/2019
  7
SLDTEXTSTYLE0
 73
     1
 44
1.0
  0
MTEXT
  5
E9
330
1F
100
AcDbEntity
  8
CAJETIN
100
AcDbMText
 10
2346.2547865086
 20
178.4179457785
 30
0.0
 40
9.525
 41
0.0
 71
     1
 72
     1
  1
R. Climent
  7
SLDTEXTSTYLE0
 73
     1
 44
1.0
  0
MTEXT
  5
EA
330
1F
100
AcDbEntity
  8
CAJETIN
100
AcDbMText
 10
2346.2547865086
 20
157.1417316839
 30
0.0
 40
9.525
 41
0.0
 71
     1
 72
     1
  1
J. Serrano
  7
SLDTEXTSTYLE0
 73
     1
 44
1.0
  0
MTEXT
  5
EB
330
1F
100
AcDbEntity
  8
CAJETIN
100
AcDbMText
 10
2425.2260524053
 20
178.4179457785
 30
0.0
 40
9.525
 41
0.0
 71
     1
 72
     1
  1
18/01/2019
  7
SLDTEXTSTYLE0
 73
     1
 44
1.0
  0
MTEXT
  5
EC
330
1F
100
AcDbEntity
  8
CAJETIN
100
AcDbMText
 10
2425.2260524053
 20
157.1417316839
 30
0.0
 40
9.525
 41
0.0
 71
     1
 72
     1
  1
18/01/2019
  7
SLDTEXTSTYLE0
 73
     1
 44
1.0
  0
MTEXT
  5
ED
330
1F
100
AcDbEntity
  8
CAJETIN
100
AcDbMText
 10
2718.7130028383
 20
196.6641281251
 30
0.0
 40
9.525
 41
0.0
 71
     1
 72
     1
  1
mm
  7
SLDTEXTSTYLE0
 73
     1
 44
1.0
  0
INSERT
  5
F3
330
1F
100
AcDbEntity
  8
CAJETIN
100
AcDbBlockReference
  2
SW_NOTE_1
 10
2444.6246583562
 20
118.6729021007
 30
0.0
  0
INSERT
  5
121
330
1F
100
AcDbEntity
  8
SLD-0_0
100
AcDbBlockReference
  2
SW_TABLEANNOTATION_0
 10
877.7629300512
 20
235.3986802696
 30
0.0
  0
LINE
  5
122
330
1F
100
AcDbEntity
  8
0
  6
Continuous
 62
     7
100
AcDbLine
 10
950.6758942443
 20
393.5586458321
 30
0.0
 11
946.8305426953
 21
706.8331902509
 31
0.0
  0
ARC
  5
123
330
1F
100
AcDbEntity
  8
0
  6
Continuous
 62
     7
100
AcDbCircle
 10
568.7439746335
 20
172.8303223701
 30
0.0
 40
5.000000000000034
100
AcDbArc
 50
259.3878232163
 51
299.3894118811
  0
LINE
  5
124
330
1F
100
AcDbEntity
  8
0
  6
Continuous
 62
     7
100
AcDbLine
 10
278.7651624664
 20
222.0751637011
 30
0.0
 11
567.8231734097
 21
167.9158412066
 31
0.0
  0
LINE
  5
125
330
1F
100
AcDbEntity
  8
0
  6
Continuous
 62
     7
100
AcDbLine
 10
571.1976883688
 20
168.4737997998
 30
0.0
 11
781.4053141712
 21
286.8685355982
 31
0.0
  0
LINE
  5
126
330
1F
100
AcDbEntity
  8
0
  6
Continuous
 62
     7
100
AcDbLine
 10
274.6400107817
 20
230.702668081
 30
0.0
 11
274.6863403184
 21
226.9282759796
 31
0.0
  0
ARC
  5
127
330
1F
100
AcDbEntity
  8
0
  6
Continuous
 62
     7
100
AcDbCircle
 10
279.6859636902
 20
226.9896448646
 30
0.0
 40
4.999999999999973
100
AcDbArc
 50
180.7032532781
 51
259.3878232163
  0
LINE
  5
128
330
1F
100
AcDbEntity
  8
0
  6
Continuous
 62
     7
100
AcDbLine
 10
783.9512238076
 20
291.2864270534
 30
0.0
 11
783.9048942709
 21
295.0608191548
 31
0.0
  0
ARC
  5
129
330
1F
100
AcDbEntity
  8
0
  6
Continuous
 62
     7
100
AcDbCircle
 10
778.9516004358
 20
291.2250581684
 30
0.0
 40
4.999999999999953
100
AcDbArc
 50
299.3894118811
 51
0.7032532781
  0
ARC
  5
12A
330
1F
100
AcDbEntity
  8
0
  6
Continuous
 62
     7
100
AcDbCircle
 10
272.9357580752
 20
776.9179314758
 30
0.0
 40
5.000000000000157
100
AcDbArc
 50
119.3894118811
 51
180.7032532781
  0
LINE
  5
12B
330
1F
100
AcDbEntity
  8
0
  6
Continuous
 62
     7
100
AcDbLine
 10
267.9361347034
 20
776.8565625909
 30
0.0
 11
267.9824642401
 21
773.0821704894
 31
0.0
  0
LINE
  5
12C
330
1F
100
AcDbEntity
  8
0
  6
Continuous
 62
     7
100
AcDbLine
 10
480.6896701422
 20
899.6691898445
 30
0.0
 11
270.4820443398
 21
781.2744540461
 31
0.0
  0
ARC
  5
12D
330
1F
100
AcDbEntity
  8
0
  6
Continuous
 62
     7
100
AcDbCircle
 10
772.2013948208
 20
841.1533447797
 30
0.0
 40
5.000000000000031
100
AcDbArc
 50
0.7032532781
 51
79.3878232163
  0
LINE
  5
12E
330
1F
100
AcDbEntity
  8
0
  6
Continuous
 62
     7
100
AcDbLine
 10
777.2473477294
 20
837.4403215632
 30
0.0
 11
777.2010181926
 21
841.2147136647
 31
0.0
  0
LINE
  5
12F
330
1F
100
AcDbEntity
  8
0
  6
Continuous
 62
     7
100
AcDbLine
 10
773.1221960446
 20
846.0678259432
 30
0.0
 11
484.0641851013
 21
900.2271484377
 31
0.0
  0
ARC
  5
130
330
1F
100
AcDbEntity
  8
0
  6
Continuous
 62
     7
100
AcDbCircle
 10
483.1433838775
 20
895.3126672742
 30
0.0
 40
5.000000000000165
100
AcDbArc
 50
79.3878232163
 51
119.389411881
  0
LINE
  5
131
330
1F
100
AcDbEntity
  8
0
  6
Continuous
 62
     7
100
AcDbLine
 10
151.9534436875
 20
695.9887405901
 30
0.0
 11
155.7987952366
 21
382.7141961712
 31
0.0
  0
LINE
  5
132
330
1F
100
AcDbEntity
  8
0
  6
Continuous
 62
     7
100
AcDbLine
 10
940.9697390805
 20
708.8620303974
 30
0.0
 11
725.6225625251
 21
587.5725577824
 31
0.0
  0
LINE
  5
133
330
1F
100
AcDbEntity
  8
0
  6
Continuous
 62
     7
100
AcDbLine
 10
944.4006947
 20
708.2191897743
 30
0.0
 11
940.9697390805
 21
708.8620303974
 31
0.0
  0
LWPOLYLINE
  5
134
330
1F
100
AcDbEntity
  8
0
  6
Continuous
 62
     7
100
AcDbPolyline
 90
        9
 70
   128
 43
0.0
 10
946.1196138479
 20
705.9682705871
 10
946.5385460909
 20
706.2660781589
 10
946.7765668773
 20
706.5833211584
 10
946.8245292017
 20
706.9078081153
 10
946.680589899
 20
707.2270691776
 10
946.3502804758
 20
707.5288353218
 10
945.846294538
 20
707.8015098443
 10
945.1879999825
 20
708.034614016
 10
944.4006947
 20
708.2191897743
  0
LINE
  5
135
330
1F
100
AcDbEntity
  8
0
  6
Continuous
 62
     7
100
AcDbLine
 10
946.1196138479
 20
705.9682705871
 30
0.0
 11
735.9119880455
 21
587.5735347887
 31
0.0
  0
ARC
  5
136
330
1F
100
AcDbEntity
  8
0
  6
Continuous
 62
     7
100
AcDbCircle
 10
731.4280851961
 20
598.4868076622
 30
0.0
 40
11.79851302388528
100
AcDbArc
 50
258.3893582534
 51
292.3361391603
  0
LINE
  5
137
330
1F
100
AcDbEntity
  8
0
  6
Continuous
 62
     7
100
AcDbLine
 10
729.0535181446
 20
586.9297171593
 30
0.0
 11
725.6225625251
 21
587.5725577824
 31
0.0
  0
ARC
  5
138
330
1F
100
AcDbEntity
  8
0
  6
Continuous
 62
     7
100
AcDbCircle
 10
735.2734367451
 20
285.2122632434
 30
0.0
 40
11.7985130238856
100
AcDbArc
 50
258.3893582534
 51
292.3361391603
  0
LINE
  5
139
330
1F
100
AcDbEntity
  8
0
  6
Continuous
 62
     7
100
AcDbLine
 10
725.6225625251
 20
587.5725577824
 30
0.0
 11
729.4679140741
 21
274.2980133636
 31
0.0
  0
LINE
  5
13A
330
1F
100
AcDbEntity
  8
0
  6
Continuous
 62
     7
100
AcDbLine
 10
732.8988696936
 20
273.6551727405
 30
0.0
 11
729.4679140741
 21
274.2980133636
 31
0.0
  0
LINE
  5
13B
330
1F
100
AcDbEntity
  8
0
  6
Continuous
 62
     7
100
AcDbLine
 10
739.7573395946
 20
274.2989903699
 30
0.0
 11
949.9649653969
 21
392.6937261683
 31
0.0
  0
ARC
  5
13C
330
1F
100
AcDbEntity
  8
0
  6
Continuous
 62
     7
100
AcDbCircle
 10
949.5900585967
 20
393.7265214928
 30
0.0
 40
1.098736224493345
100
AcDbArc
 50
289.9510000133
 51
351.211367115
  0
ARC
  5
13D
330
1F
100
AcDbEntity
  8
0
  6
Continuous
 62
     7
100
AcDbCircle
 10
490.0424682809
 20
339.0490506697
 30
0.0
 40
11.79851302388591
100
AcDbArc
 50
78.3893582534
 51
112.3361391603
  0
LINE
  5
13E
330
1F
100
AcDbEntity
  8
0
  6
Continuous
 62
     7
100
AcDbLine
 10
781.4750462757
 20
296.4468186782
 30
0.0
 11
779.678151993
 21
296.7834935782
 31
0.0
  0
LINE
  5
13F
330
1F
100
AcDbEntity
  8
0
  6
Continuous
 62
     7
100
AcDbLine
 10
729.0755331768
 20
306.2646476988
 30
0.0
 11
533.0232060799
 21
342.9979704473
 31
0.0
  0
LINE
  5
140
330
1F
100
AcDbEntity
  8
0
  6
Continuous
 62
     7
100
AcDbLine
 10
509.1171574984
 20
347.477124616
 30
0.0
 11
492.4170353323
 21
350.6061411727
 31
0.0
  0
LWPOLYLINE
  5
141
330
1F
100
AcDbEntity
  8
0
  6
Continuous
 62
     7
100
AcDbPolyline
 90
        9
 70
   128
 43
0.0
 10
783.1939654235
 20
294.195899491
 10
783.6128976665
 20
294.4937070628
 10
783.8509184529
 20
294.8109500623
 10
783.8988807773
 20
295.1354370192
 10
783.7549414746
 20
295.4546980815
 10
783.4246320514
 20
295.7564642257
 10
782.9206461136
 20
296.0291387482
 10
782.2623515582
 20
296.2622429199
 10
781.4750462757
 20
296.4468186782
  0
LINE
  5
142
330
1F
100
AcDbEntity
  8
0
  6
Continuous
 62
     7
100
AcDbLine
 10
572.9863396212
 20
175.8011636926
 30
0.0
 11
783.1939654235
 21
294.195899491
 31
0.0
  0
ARC
  5
143
330
1F
100
AcDbEntity
  8
0
  6
Continuous
 62
     7
100
AcDbCircle
 10
568.5024367717
 20
186.7144365661
 30
0.0
 40
11.79851302388579
100
AcDbArc
 50
258.3893582534
 51
292.3361391603
  0
LINE
  5
144
330
1F
100
AcDbEntity
  8
0
  6
Continuous
 62
     7
100
AcDbLine
 10
277.0698587769
 20
229.3166685577
 30
0.0
 11
566.1278697202
 21
175.1573460632
 31
0.0
  0
LWPOLYLINE
  5
145
330
1F
100
AcDbEntity
  8
0
  6
Continuous
 62
     7
100
AcDbPolyline
 90
        9
 70
   128
 43
0.0
 10
275.3509396291
 20
231.5675877449
 10
274.9320073861
 20
231.2697801731
 10
274.6939865997
 20
230.9525371735
 10
274.6460242752
 20
230.6280502167
 10
274.789963578
 20
230.3087891544
 10
275.1202730012
 20
230.0070230101
 10
275.624258939
 20
229.7343484877
 10
276.2825534944
 20
229.501244316
 10
277.0698587769
 20
229.3166685577
  0
LINE
  5
146
330
1F
100
AcDbEntity
  8
0
  6
Continuous
 62
     7
100
AcDbLine
 10
485.5585654314
 20
349.9623235432
 30
0.0
 11
468.4156987734
 21
340.3069879623
 31
0.0
  0
LINE
  5
147
330
1F
100
AcDbEntity
  8
0
  6
Continuous
 62
     7
100
AcDbLine
 10
359.3610759672
 20
278.8844148969
 30
0.0
 11
275.3509396291
 21
231.5675877449
 31
0.0
  0
ARC
  5
148
330
1F
100
AcDbEntity
  8
0
  6
Continuous
 62
     7
100
AcDbCircle
 10
561.8448902301
 20
729.0939389745
 30
0.0
 40
11.798513023888
100
AcDbArc
 50
258.3893582534
 51
292.3361391603
  0
LINE
  5
149
330
1F
100
AcDbEntity
  8
0
  6
Continuous
 62
     7
100
AcDbLine
 10
270.4123122354
 20
771.6961709661
 30
0.0
 11
559.4703231787
 21
717.5368484716
 31
0.0
  0
LINE
  5
14A
330
1F
100
AcDbEntity
  8
0
  6
Continuous
 62
     7
100
AcDbLine
 10
566.3287930796
 20
718.180666101
 30
0.0
 11
776.5364188819
 21
836.5754018994
 31
0.0
  0
LWPOLYLINE
  5
14B
330
1F
100
AcDbEntity
  8
0
  6
Continuous
 62
     7
100
AcDbPolyline
 90
        7
 70
   128
 43
0.0
 10
270.4123122354
 20
771.6961709661
 10
269.6250069529
 20
771.8807467244
 10
268.9667123974
 20
772.1138508961
 10
268.4627264596
 20
772.3865254185
 10
268.1324170364
 20
772.6882915628
 10
267.9884777337
 20
773.0075526251
 10
267.9824642401
 20
773.0821704894
  0
ARC
  5
14C
330
1F
100
AcDbEntity
  8
0
  6
Continuous
 62
     7
100
AcDbCircle
 10
776.1615120818
 20
837.6081972239
 30
0.0
 40
1.098736224492534
100
AcDbArc
 50
289.9510000133
 51
351.211367115
  0
LINE
  5
14D
330
1F
100
AcDbEntity
  8
0
  6
Continuous
 62
     7
100
AcDbLine
 10
157.8142473023
 20
693.9599004437
 30
0.0
 11
161.6595988513
 21
380.6853560248
 31
0.0
  0
LINE
  5
14E
330
1F
100
AcDbEntity
  8
0
  6
Continuous
 62
     7
100
AcDbLine
 10
161.6595988513
 20
380.6853560248
 30
0.0
 11
158.2286432318
 21
381.3281966479
 31
0.0
  0
LINE
  5
14F
330
1F
100
AcDbEntity
  8
0
  6
Continuous
 62
     7
100
AcDbLine
 10
157.8142473023
 20
693.9599004437
 30
0.0
 11
154.3832916828
 21
694.6027410667
 31
0.0
  0
LINE
  5
150
330
1F
100
AcDbEntity
  8
0
  6
Continuous
 62
     7
100
AcDbLine
 10
161.6595988513
 20
380.6853560248
 30
0.0
 11
192.7592535656
 21
398.2015397944
 31
0.0
  0
LINE
  5
151
330
1F
100
AcDbEntity
  8
0
  6
Continuous
 62
     7
100
AcDbLine
 10
236.5787911035
 20
422.8819125916
 30
0.0
 11
280.4015430684
 21
447.5640958427
 31
0.0
  0
LINE
  5
152
330
1F
100
AcDbEntity
  8
0
  6
Continuous
 62
     7
100
AcDbLine
 10
370.7769115745
 20
498.4659974085
 30
0.0
 11
377.0067754068
 21
501.9748286398
 31
0.0
  0
LINE
  5
153
330
1F
100
AcDbEntity
  8
0
  6
Continuous
 62
     7
100
AcDbLine
 10
289.4878203476
 20
768.1220904823
 30
0.0
 11
157.8142473023
 21
693.9599004437
 31
0.0
  0
LINE
  5
154
330
1F
100
AcDbEntity
  8
0
  6
Continuous
 62
     7
100
AcDbLine
 10
377.0067754068
 20
501.9748286398
 30
0.0
 11
376.5749411227
 21
537.1556663013
 31
0.0
  0
LINE
  5
155
330
1F
100
AcDbEntity
  8
0
  6
Continuous
 62
     7
100
AcDbLine
 10
375.9040652065
 20
591.8108374431
 30
0.0
 11
375.3018847414
 21
640.869501771
 31
0.0
  0
LINE
  5
156
330
1F
100
AcDbEntity
  8
0
  6
Continuous
 62
     7
100
AcDbLine
 10
374.8799197345
 20
675.2463054509
 30
0.0
 11
373.9341108303
 21
752.2998205345
 31
0.0
  0
LWPOLYLINE
  5
157
330
1F
100
AcDbEntity
  8
0
  6
Continuous
 62
     7
100
AcDbPolyline
 90
        9
 70
   128
 43
0.0
 10
152.664372535
 20
696.8536602539
 10
152.245440292
 20
696.5558526821
 10
152.0074195056
 20
696.2386096826
 10
151.9594571811
 20
695.9141227257
 10
152.1033964838
 20
695.5948616634
 10
152.433705907
 20
695.2930955192
 10
152.9376918448
 20
695.0204209967
 10
153.5959864003
 20
694.7873168251
 10
154.3832916828
 20
694.6027410667
  0
LINE
  5
158
330
1F
100
AcDbEntity
  8
0
  6
Continuous
 62
     7
100
AcDbLine
 10
281.7681702037
 20
769.5684818842
 30
0.0
 11
152.664372535
 21
696.8536602539
 31
0.0
  0
LWPOLYLINE
  5
159
330
1F
100
AcDbEntity
  8
0
  6
Continuous
 62
     7
100
AcDbPolyline
 90
        7
 70
   128
 43
0.0
 10
158.2286432318
 20
381.3281966479
 10
157.4413379493
 20
381.5127724062
 10
156.7830433939
 20
381.7458765779
 10
156.2790574561
 20
382.0185511004
 10
155.9487480329
 20
382.3203172446
 10
155.8048087301
 20
382.6395783069
 10
155.7987952366
 20
382.7141961712
  0
LINE
  5
15A
330
1F
100
AcDbEntity
  8
0
  6
Continuous
 62
     7
100
AcDbLine
 10
636.3579676456
 20
610.4230394034
 30
0.0
 11
733.7833564429
 21
592.1689421244
 31
0.0
  0
LINE
  5
15B
330
1F
100
AcDbEntity
  8
0
  6
Continuous
 62
     7
100
AcDbLine
 10
713.0554121192
 20
553.4249557558
 30
0.0
 11
725.9525504206
 21
560.68897996
 31
0.0
  0
LINE
  5
15C
330
1F
100
AcDbEntity
  8
0
  6
Continuous
 62
     7
100
AcDbLine
 10
430.8593124149
 20
606.2985970041
 30
0.0
 11
513.8274445967
 21
590.7532820242
 31
0.0
  0
LINE
  5
15D
330
1F
100
AcDbEntity
  8
0
  6
Continuous
 62
     7
100
AcDbLine
 10
628.8778007052
 20
569.1968846794
 30
0.0
 11
713.0554121192
 21
553.4249557558
 31
0.0
  0
LINE
  5
15E
330
1F
100
AcDbEntity
  8
0
  6
Continuous
 62
     7
100
AcDbLine
 10
430.8593124149
 20
606.2985970041
 30
0.0
 11
479.8629209381
 21
633.8987816412
 31
0.0
  0
LINE
  5
15F
330
1F
100
AcDbEntity
  8
0
  6
Continuous
 62
     7
100
AcDbLine
 10
473.5330696871
 20
621.6421676416
 30
0.0
 11
468.1365413963
 21
618.6026939842
 31
0.0
  0
LWPOLYLINE
  5
160
330
1F
100
AcDbEntity
  8
0
  6
Continuous
 62
     7
100
AcDbPolyline
 90
       19
 70
   128
 43
0.0
 10
476.7311371355
 20
607.3480980485
 10
474.9111092077
 20
607.7258067421
 10
473.2027205029
 20
608.1557175822
 10
471.6189728907
 20
608.6345586877
 10
470.1719196466
 20
609.1586857885
 10
468.8725737196
 20
609.7241099611
 10
467.7308239167
 20
610.326527986
 10
466.7553596434
 20
610.9613550983
 10
465.9536047719
 20
611.6237598803
 10
465.3316611407
 20
612.3087010318
 10
464.8942621164
 20
613.0109657369
 10
464.6447365698
 20
613.7252093373
 10
464.5849835409
 20
614.4459960078
 10
464.7154577864
 20
615.1678401266
 10
465.0351663184
 20
615.8852480242
 10
465.541675962
 20
616.5927597933
 10
466.2311318729
 20
617.2849908421
 10
467.0982868754
 20
617.9566728744
 10
468.1365413963
 20
618.6026939842
  0
LINE
  5
161
330
1F
100
AcDbEntity
  8
0
  6
Continuous
 62
     7
100
AcDbLine
 10
504.9218558855
 20
602.066147124
 30
0.0
 11
476.7311371355
 21
607.3480980485
 31
0.0
  0
LWPOLYLINE
  5
162
330
1F
100
AcDbEntity
  8
0
  6
Continuous
 62
     7
100
AcDbPolyline
 90
        9
 70
   128
 43
0.0
 10
486.6094292254
 20
625.32861962
 10
484.7808908877
 20
625.0664471319
 10
482.8303887145
 20
624.7223117067
 10
480.9723261042
 20
624.3241569922
 10
479.2208440352
 20
623.8750131862
 10
477.5892723436
 20
623.3782985442
 10
476.0900282752
 20
622.8377933647
 10
474.7345219826
 20
622.2576112183
 10
473.5330696871
 20
621.6421676416
  0
LINE
  5
163
330
1F
100
AcDbEntity
  8
0
  6
Continuous
 62
     7
100
AcDbLine
 10
641.726677588
 20
576.4337267208
 30
0.0
 11
692.8813411643
 21
566.8491387944
 31
0.0
  0
LWPOLYLINE
  5
164
330
1F
100
AcDbEntity
  8
0
  6
Continuous
 62
     7
100
AcDbPolyline
 90
       18
 70
   128
 43
0.0
 10
692.8813411643
 20
566.8491387944
 10
694.7991568035
 20
566.5265068384
 10
696.8001644191
 20
566.2614070441
 10
698.8691351349
 20
566.0558569809
 10
700.9903228345
 20
565.911421009
 10
703.1475839987
 20
565.8291983733
 10
705.3245005674
 20
565.8098148377
 10
707.5045048912
 20
565.8534179226
 10
709.6710058207
 20
565.9596757823
 10
711.8075149758
 20
566.1277797302
 10
713.8977722316
 20
566.3564503939
 10
715.9258694684
 20
566.6439474514
 10
717.8763716416
 20
566.9880828766
 10
719.7344342519
 20
567.3862375911
 10
721.4859163209
 20
567.8353813971
 10
723.1174880125
 20
568.332096039
 10
724.6167320809
 20
568.8726012186
 10
725.8456972821
 20
569.3941315798
  0
LINE
  5
165
330
1F
100
AcDbEntity
  8
0
  6
Continuous
 62
     7
100
AcDbLine
 10
723.9756232206
 20
584.3622965348
 30
0.0
 11
725.6662427561
 21
584.0140003125
 31
0.0
  0
LINE
  5
166
330
1F
100
AcDbEntity
  8
0
  6
Continuous
 62
     7
100
AcDbLine
 10
645.9213828769
 20
598.9869207098
 30
0.0
 11
723.9756232206
 21
584.3622965348
 31
0.0
  0
LINE
  5
167
330
1F
100
AcDbEntity
  8
0
  6
Continuous
 62
     7
100
AcDbLine
 10
645.9213828769
 20
598.9869207098
 30
0.0
 11
645.2676221959
 21
599.1050094244
 31
0.0
  0
LINE
  5
168
330
1F
100
AcDbEntity
  8
0
  6
Continuous
 62
     7
100
AcDbLine
 10
430.8593124149
 20
606.2985970041
 30
0.0
 11
430.9635538726
 21
597.8062147759
 31
0.0
  0
LINE
  5
169
330
1F
100
AcDbEntity
  8
0
  6
Continuous
 62
     7
100
AcDbLine
 10
713.0554121192
 20
553.4249557558
 30
0.0
 11
713.1596535769
 21
544.9325735276
 31
0.0
  0
LINE
  5
16A
330
1F
100
AcDbEntity
  8
0
  6
Continuous
 62
     7
100
AcDbLine
 10
430.9635538726
 20
597.8062147759
 30
0.0
 11
521.6513361982
 21
580.814508394
 31
0.0
  0
LINE
  5
16B
330
1F
100
AcDbEntity
  8
0
  6
Continuous
 62
     7
100
AcDbLine
 10
617.5895834753
 20
562.8390492228
 30
0.0
 11
713.1596535769
 21
544.9325735276
 31
0.0
  0
LINE
  5
16C
330
1F
100
AcDbEntity
  8
0
  6
Continuous
 62
     7
100
AcDbLine
 10
713.1596535769
 20
544.9325735276
 30
0.0
 11
726.0567918782
 21
552.1965977318
 31
0.0
  0
LINE
  5
16D
330
1F
100
AcDbEntity
  8
0
  6
Continuous
 62
     7
100
AcDbLine
 10
724.0798646783
 20
575.8699143065
 30
0.0
 11
725.7704842138
 21
575.5216180843
 31
0.0
  0
LINE
  5
16E
330
1F
100
AcDbEntity
  8
0
  6
Continuous
 62
     7
100
AcDbLine
 10
649.9910121598
 20
589.751564027
 30
0.0
 11
724.0798646783
 21
575.8699143065
 31
0.0
  0
LINE
  5
16F
330
1F
100
AcDbEntity
  8
0
  6
Continuous
 62
     7
100
AcDbLine
 10
468.1791647629
 20
610.075420171
 30
0.0
 11
468.240782854
 21
610.110311756
 31
0.0
  0
LWPOLYLINE
  5
170
330
1F
100
AcDbEntity
  8
0
  6
Continuous
 62
     7
100
AcDbPolyline
 90
       12
 70
   128
 43
0.0
 10
492.8909670668
 20
617.349114556
 10
491.139995993
 20
617.2583365727
 10
489.003486838
 20
617.0902326248
 10
486.9132295821
 20
616.8615619611
 10
484.8851323453
 20
616.5740649036
 10
482.9346301721
 20
616.2299294784
 10
481.0765675619
 20
615.8317747639
 10
479.3250854929
 20
615.3826309579
 10
477.6935138013
 20
614.885916316
 10
476.1942697329
 20
614.3454111364
 10
474.8387634402
 20
613.7652289901
 10
473.6373111448
 20
613.1497854134
  0
LINE
  5
171
330
1F
100
AcDbEntity
  8
0
  6
Continuous
 62
     7
100
AcDbLine
 10
473.6373111448
 20
613.1497854134
 30
0.0
 11
468.240782854
 21
610.110311756
 31
0.0
  0
LINE
  5
172
330
1F
100
AcDbEntity
  8
0
  6
Continuous
 62
     7
100
AcDbLine
 10
482.1854155517
 20
322.5591176501
 30
0.0
 11
493.102649482
 21
320.5136113129
 31
0.0
  0
LINE
  5
173
330
1F
100
AcDbEntity
  8
0
  6
Continuous
 62
     7
100
AcDbLine
 10
482.1854155517
 20
322.5591176501
 30
0.0
 11
562.5701124459
 21
396.9333055928
 31
0.0
  0
LINE
  5
174
330
1F
100
AcDbEntity
  8
0
  6
Continuous
 62
     7
100
AcDbLine
 10
562.5701124459
 20
396.9333055928
 30
0.0
 11
562.7175321291
 21
384.9232634688
 31
0.0
  0
LINE
  5
175
330
1F
100
AcDbEntity
  8
0
  6
Continuous
 62
     7
100
AcDbLine
 10
493.102649482
 20
320.5136113129
 30
0.0
 11
562.7175321291
 21
384.9232634688
 31
0.0
  0
LINE
  5
176
330
1F
100
AcDbEntity
  8
0
  6
Continuous
 62
     7
100
AcDbLine
 10
562.5701124459
 20
396.9333055928
 30
0.0
 11
651.7413180125
 21
447.1569893606
 31
0.0
  0
LINE
  5
177
330
1F
100
AcDbEntity
  8
0
  6
Continuous
 62
     7
100
AcDbLine
 10
651.7413180125
 20
447.1569893606
 30
0.0
 11
651.8887376956
 21
435.1469472366
 31
0.0
  0
LINE
  5
178
330
1F
100
AcDbEntity
  8
0
  6
Continuous
 62
     7
100
AcDbLine
 10
651.8887376956
 20
435.1469472366
 30
0.0
 11
562.7175321291
 21
384.9232634688
 31
0.0
  0
LINE
  5
179
330
1F
100
AcDbEntity
  8
0
  6
Continuous
 62
     7
100
AcDbLine
 10
582.2738550485
 20
370.7372950807
 30
0.0
 11
493.102649482
 21
320.5136113129
 31
0.0
  0
LINE
  5
17A
330
1F
100
AcDbEntity
  8
0
  6
Continuous
 62
     7
100
AcDbLine
 10
651.8887376956
 20
435.1469472366
 30
0.0
 11
582.2738550485
 21
370.7372950807
 31
0.0
  0
LINE
  5
17B
330
1F
100
AcDbEntity
  8
0
  6
Continuous
 62
     7
100
AcDbLine
 10
560.9254138918
 20
530.9242251936
 30
0.0
 11
560.7779942087
 21
542.9342673176
 31
0.0
  0
LINE
  5
17C
330
1F
100
AcDbEntity
  8
0
  6
Continuous
 62
     7
100
AcDbLine
 10
560.9254138918
 20
530.9242251936
 30
0.0
 11
478.3400687271
 21
635.8332771798
 31
0.0
  0
LINE
  5
17D
330
1F
100
AcDbEntity
  8
0
  6
Continuous
 62
     7
100
AcDbLine
 10
478.3400687271
 20
635.8332771798
 30
0.0
 11
489.2573026574
 21
633.7877708427
 31
0.0
  0
LINE
  5
17E
330
1F
100
AcDbEntity
  8
0
  6
Continuous
 62
     7
100
AcDbLine
 10
560.7779942087
 20
542.9342673176
 30
0.0
 11
489.2573026574
 21
633.7877708427
 31
0.0
  0
LINE
  5
17F
330
1F
100
AcDbEntity
  8
0
  6
Continuous
 62
     7
100
AcDbLine
 10
649.9491997752
 20
593.1579510854
 30
0.0
 11
560.7779942087
 21
542.9342673176
 31
0.0
  0
LINE
  5
180
330
1F
100
AcDbEntity
  8
0
  6
Continuous
 62
     7
100
AcDbLine
 10
650.0966194584
 20
581.1479089614
 30
0.0
 11
649.9491997752
 21
593.1579510854
 31
0.0
  0
LINE
  5
181
330
1F
100
AcDbEntity
  8
0
  6
Continuous
 62
     7
100
AcDbLine
 10
650.0966194584
 20
581.1479089614
 30
0.0
 11
560.9254138918
 21
530.9242251936
 31
0.0
  0
LINE
  5
182
330
1F
100
AcDbEntity
  8
0
  6
Continuous
 62
     7
100
AcDbLine
 10
578.4285082239
 20
684.0114546105
 30
0.0
 11
489.2573026574
 21
633.7877708427
 31
0.0
  0
LINE
  5
183
330
1F
100
AcDbEntity
  8
0
  6
Continuous
 62
     7
100
AcDbLine
 10
578.4285082239
 20
684.0114546105
 30
0.0
 11
649.9491997752
 21
593.1579510854
 31
0.0
  0
LINE
  5
184
330
1F
100
AcDbEntity
  8
0
  6
Continuous
 62
     7
100
AcDbLine
 10
567.5112742936
 20
686.0569609476
 30
0.0
 11
578.4285082239
 21
684.0114546105
 31
0.0
  0
LINE
  5
185
330
1F
100
AcDbEntity
  8
0
  6
Continuous
 62
     7
100
AcDbLine
 10
478.3400687271
 20
635.8332771798
 30
0.0
 11
567.5112742936
 21
686.0569609476
 31
0.0
  0
LINE
  5
186
330
1F
100
AcDbEntity
  8
0
  6
Continuous
 62
     7
100
AcDbLine
 10
437.3681552896
 20
710.4414041577
 30
0.0
 11
348.1969497231
 21
660.2177203899
 31
0.0
  0
LINE
  5
187
330
1F
100
AcDbEntity
  8
0
  6
Continuous
 62
     7
100
AcDbLine
 10
448.2853892198
 20
708.3958978206
 30
0.0
 11
437.3681552896
 21
710.4414041577
 31
0.0
  0
LINE
  5
188
330
1F
100
AcDbEntity
  8
0
  6
Continuous
 62
     7
100
AcDbLine
 10
448.2853892198
 20
708.3958978206
 30
0.0
 11
359.1141836533
 21
658.1722140528
 31
0.0
  0
LINE
  5
189
330
1F
100
AcDbEntity
  8
0
  6
Continuous
 62
     7
100
AcDbLine
 10
359.1141836533
 20
658.1722140528
 30
0.0
 11
348.1969497231
 21
660.2177203899
 31
0.0
  0
LINE
  5
18A
330
1F
100
AcDbEntity
  8
0
  6
Continuous
 62
     7
100
AcDbLine
 10
359.1141836533
 20
658.1722140528
 30
0.0
 11
302.2959783423
 21
605.6024085595
 31
0.0
  0
LINE
  5
18B
330
1F
100
AcDbEntity
  8
0
  6
Continuous
 62
     7
100
AcDbLine
 10
367.9006923256
 20
634.0217098778
 30
0.0
 11
448.2853892198
 21
708.3958978206
 31
0.0
  0
LINE
  5
18C
330
1F
100
AcDbEntity
  8
0
  6
Continuous
 62
     7
100
AcDbLine
 10
313.661778288
 20
603.4728567001
 30
0.0
 11
367.9006923256
 21
634.0217098778
 31
0.0
  0
LINE
  5
18D
330
1F
100
AcDbEntity
  8
0
  6
Continuous
 62
     7
100
AcDbLine
 10
348.1969497231
 20
660.2177203899
 30
0.0
 11
291.378744412
 21
607.6479148966
 31
0.0
  0
LINE
  5
18E
330
1F
100
AcDbEntity
  8
0
  6
Continuous
 62
     7
100
AcDbLine
 10
280.3740127416
 20
449.8069468412
 30
0.0
 11
362.9593579064
 21
344.897894855
 31
0.0
  0
LINE
  5
18F
330
1F
100
AcDbEntity
  8
0
  6
Continuous
 62
     7
100
AcDbLine
 10
369.5452183082
 20
500.0306306089
 30
0.0
 11
280.3740127416
 21
449.8069468412
 31
0.0
  0
LINE
  5
190
330
1F
100
AcDbEntity
  8
0
  6
Continuous
 62
     7
100
AcDbLine
 10
438.0400690192
 20
413.0208852395
 30
0.0
 11
369.5452183082
 21
500.0306306089
 31
0.0
  0
LINE
  5
191
330
1F
100
AcDbEntity
  8
0
  6
Continuous
 62
     7
100
AcDbLine
 10
362.9593579064
 20
344.897894855
 30
0.0
 11
433.1655508954
 21
384.4399601755
 31
0.0
  0
LINE
  5
192
330
1F
100
AcDbEntity
  8
0
  6
Continuous
 62
     7
100
AcDbLine
 10
280.3740127416
 20
449.8069468412
 30
0.0
 11
280.5214324248
 21
437.7969047171
 31
0.0
  0
LINE
  5
193
330
1F
100
AcDbEntity
  8
0
  6
Continuous
 62
     7
100
AcDbLine
 10
362.9593579064
 20
344.897894855
 30
0.0
 11
352.0421239761
 21
346.9434011921
 31
0.0
  0
LINE
  5
194
330
1F
100
AcDbEntity
  8
0
  6
Continuous
 62
     7
100
AcDbLine
 10
280.5214324248
 20
437.7969047171
 30
0.0
 11
352.0421239761
 21
346.9434011921
 31
0.0
  0
LINE
  5
195
330
1F
100
AcDbEntity
  8
0
  6
Continuous
 62
     7
100
AcDbLine
 10
664.0212176559
 20
472.6161128411
 30
0.0
 11
671.7408677998
 21
471.1697214391
 31
0.0
  0
LINE
  5
196
330
1F
100
AcDbEntity
  8
0
  6
Continuous
 62
     7
100
AcDbLine
 10
664.0212176559
 20
472.6161128411
 30
0.0
 11
663.0182370385
 21
554.327314534
 31
0.0
  0
LINE
  5
197
330
1F
100
AcDbEntity
  8
0
  6
Continuous
 62
     7
100
AcDbLine
 10
662.7953421541
 20
572.4861986968
 30
0.0
 11
662.6124423192
 21
587.3867511504
 31
0.0
  0
LINE
  5
198
330
1F
100
AcDbEntity
  8
0
  6
Continuous
 62
     7
100
AcDbLine
 10
662.3895474349
 20
605.5456353133
 30
0.0
 11
660.3569271763
 21
771.1399060501
 31
0.0
  0
LINE
  5
199
330
1F
100
AcDbEntity
  8
0
  6
Continuous
 62
     7
100
AcDbLine
 10
671.7408677998
 20
471.1697214391
 30
0.0
 11
670.7378871823
 21
552.880923132
 31
0.0
  0
LINE
  5
19A
330
1F
100
AcDbEntity
  8
0
  6
Continuous
 62
     7
100
AcDbLine
 10
670.514992298
 20
571.0398072949
 30
0.0
 11
670.3320924631
 21
585.9403597485
 31
0.0
  0
LINE
  5
19B
330
1F
100
AcDbEntity
  8
0
  6
Continuous
 62
     7
100
AcDbLine
 10
670.1091975787
 20
604.0992439113
 30
0.0
 11
668.0059422092
 21
775.4480424009
 31
0.0
  0
LINE
  5
19C
330
1F
100
AcDbEntity
  8
0
  6
Continuous
 62
     7
100
AcDbLine
 10
689.8490329099
 20
787.7506738714
 30
0.0
 11
692.1539991048
 21
599.968822093
 31
0.0
  0
LINE
  5
19D
330
1F
100
AcDbEntity
  8
0
  6
Continuous
 62
     7
100
AcDbLine
 10
692.3768939892
 20
581.8099379301
 30
0.0
 11
692.5597938241
 21
566.9093854765
 31
0.0
  0
LINE
  5
19E
330
1F
100
AcDbEntity
  8
0
  6
Continuous
 62
     7
100
AcDbLine
 10
692.7826887084
 20
548.7505013137
 30
0.0
 11
693.5839585006
 21
483.4723529096
 31
0.0
  0
LINE
  5
19F
330
1F
100
AcDbEntity
  8
0
  6
Continuous
 62
     7
100
AcDbLine
 10
693.5839585006
 20
483.4723529096
 30
0.0
 11
671.7408677998
 21
471.1697214391
 31
0.0
  0
LINE
  5
1A0
330
1F
100
AcDbEntity
  8
0
  6
Continuous
 62
     7
100
AcDbLine
 10
393.3387905378
 20
272.5181841357
 30
0.0
 11
274.11308276
 21
294.8568957877
 31
0.0
  0
LINE
  5
1A1
330
1F
100
AcDbEntity
  8
0
  6
Continuous
 62
     7
100
AcDbLine
 10
191.5275602992
 20
399.7661729948
 30
0.0
 11
274.11308276
 21
294.8568957877
 31
0.0
  0
LINE
  5
1A2
330
1F
100
AcDbEntity
  8
0
  6
Continuous
 62
     7
100
AcDbLine
 10
189.8828617451
 20
533.7570925957
 30
0.0
 11
191.5275602992
 21
399.7661729948
 31
0.0
  0
LINE
  5
1A3
330
1F
100
AcDbEntity
  8
0
  6
Continuous
 62
     7
100
AcDbLine
 10
189.8828617451
 20
533.7570925957
 30
0.0
 11
270.2677312109
 21
608.1314402065
 31
0.0
  0
LINE
  5
1A4
330
1F
100
AcDbEntity
  8
0
  6
Continuous
 62
     7
100
AcDbLine
 10
389.4934389887
 20
585.7927285545
 30
0.0
 11
270.2677312109
 21
608.1314402065
 31
0.0
  0
LINE
  5
1A5
330
1F
100
AcDbEntity
  8
0
  6
Continuous
 62
     7
100
AcDbLine
 10
389.4934389887
 20
585.7927285545
 30
0.0
 11
472.0789614494
 21
480.8834513473
 31
0.0
  0
LINE
  5
1A6
330
1F
100
AcDbEntity
  8
0
  6
Continuous
 62
     7
100
AcDbLine
 10
472.0789614494
 20
480.8834513473
 30
0.0
 11
473.7236600035
 21
346.8925317465
 31
0.0
  0
LINE
  5
1A7
330
1F
100
AcDbEntity
  8
0
  6
Continuous
 62
     7
100
AcDbLine
 10
473.7236600035
 20
346.8925317465
 30
0.0
 11
393.3387905378
 21
272.5181841357
 31
0.0
  0
LWPOLYLINE
  5
1A8
330
1F
100
AcDbEntity
  8
0
  6
Continuous
 62
     7
100
AcDbPolyline
 90
      168
 70
   128
 43
0.0
 10
438.162885079
 20
420.3967528556
 10
438.0335917673
 20
424.8120409822
 10
437.7539413014
 20
429.2492857018
 10
437.3243294951
 20
433.7022065905
 10
436.7453644161
 20
438.1645010369
 10
436.0178655245
 20
442.6298531621
 10
435.1428625138
 20
447.0919427595
 10
434.1215938528
 20
451.5444542403
 10
432.9555050332
 20
455.9810855724
 10
431.6462465232
 20
460.3955572003
 10
430.1956714319
 20
464.781620933
 10
428.6058328862
 20
469.1330687877
 10
426.8789811246
 20
473.4437417766
 10
425.0175603127
 20
477.7075386242
 10
423.0242050836
 20
481.9184244028
 10
420.9017368088
 20
486.0704390744
 10
418.6531596045
 20
490.1577059267
 10
416.2816560806
 20
494.1744398903
 10
413.790582835
 20
498.1149557276
 10
411.1834657033
 20
501.973676079
 10
408.4639947683
 20
505.7451393574
 10
405.636019137
 20
509.4240074783
 10
402.7035414927
 20
513.0050734151
 10
399.6707124295
 20
516.4832685696
 10
396.5418245779
 20
519.8536699454
 10
393.3213065287
 20
523.1115071163
 10
390.013716565
 20
526.2521689781
 10
386.6237362107
 20
529.271210275
 10
383.1561636038
 20
532.1643578918
 10
379.6159067056
 20
534.9275169015
 10
376.0079763538
 20
537.5567763615
 10
372.3374791705
 20
540.0484148492
 10
368.6096103338
 20
542.3989057287
 10
364.8296462253
 20
544.6049221432
 10
361.0029369615
 20
546.663341723
 10
357.1348988214
 20
548.5712510055
 10
353.2310065805
 20
550.3259495584
 10
349.2967857617
 20
551.9249538021
 10
345.3378048147
 20
553.3660005249
 10
341.3596672341
 20
554.6470500863
 10
337.368003629
 20
555.766289304
 10
333.3684637528
 20
556.72213402
 10
329.366708507
 20
557.5132313429
 10
325.3684019285
 20
558.1384615629
 10
321.3792031734
 20
558.5969397367
 10
317.4047585062
 20
558.8880169396
 10
313.4506933091
 20
559.0112811844
 10
309.522604119
 20
558.9665580043
 10
305.6260507071
 20
558.7539107001
 10
301.766548209
 20
558.3736402501
 10
297.9495593187
 20
557.8262848846
 10
294.1804865574
 20
557.1126193241
 10
290.464664626
 20
556.2336536822
 10
286.8073528549
 20
555.1906320366
 10
283.21372776
 20
553.9850306677
 10
279.6888757157
 20
552.6185559696
 10
276.237785756
 20
551.0931420342
 10
272.8653425127
 20
549.4109479145
 10
269.5763193022
 20
547.5743545681
 10
266.3753713689
 20
545.5859614876
 10
263.2670292969
 20
543.448583021
 10
260.2556925967
 20
541.1652443884
 10
257.3456234786
 20
538.7391774005
 10
254.54094082
 20
536.1738158837
 10
251.8456143357
 20
533.4727908203
 10
249.2634589589
 20
530.6399252094
 10
246.7981294418
 20
527.6792286554
 10
244.4531151825
 20
524.5948916932
 10
242.2317352866
 20
521.3912798569
 10
240.1371338689
 20
518.0729275007
 10
238.1722756035
 20
514.6445313815
 10
236.3399415276
 20
511.1109440104
 10
234.642725105
 20
507.4771667853
 10
233.083028556
 20
503.7483429116
 10
231.6630594565
 20
499.9297501223
 10
230.3848276139
 20
496.0267932087
 10
229.2501422227
 20
492.0449963697
 10
228.2606093029
 20
487.9899953935
 10
227.4176294279
 20
483.8675296807
 10
226.7223957414
 20
479.6834341203
 10
226.1758922688
 20
475.4436308318
 10
225.7788925248
 20
471.1541207826
 10
225.5319584182
 20
466.8209752946
 10
225.4354394564
 20
462.4503274506
 10
225.4894722514
 20
458.0483634138
 10
225.6939803257
 20
453.6213136722
 10
226.048674221
 20
449.1754442196
 10
226.5530519079
 20
444.717047687
 10
227.206399496
 20
440.2524344363
 10
228.0077922449
 20
435.7879236281
 10
228.9560958728
 20
431.3298342783
 10
230.0499681619
 20
426.8844763138
 10
231.2878608584
 20
422.4581416419
 10
232.6680218636
 20
418.0570952441
 10
234.1884977139
 20
413.6875663095
 10
235.8471363457
 20
409.3557394178
 10
237.6415901416
 20
405.0677457855
 10
239.5693192529
 20
400.8296545881
 10
241.6275951945
 20
396.6474643697
 10
243.8135047071
 20
392.5270945529
 10
246.1239538801
 20
388.4743770604
 10
248.5556725312
 20
384.4950480608
 10
251.1052188345
 20
380.5947398491
 10
253.7689841923
 20
376.7789728755
 10
256.5431983426
 20
373.0531479315
 10
259.4239346955
 20
369.4225385056
 10
262.4071158909
 20
365.8922833195
 10
265.4885195693
 20
362.4673790546
 10
268.6637843485
 20
359.1526732799
 10
271.9284159961
 20
355.9528575909
 10
275.2777937912
 20
352.8724609687
 10
278.7071770641
 20
349.9158433704
 10
282.2117119062
 20
347.0871895574
 10
285.7864380402
 20
344.3905031731
 10
289.4262958413
 20
341.8296010754
 10
293.1261334975
 20
339.4081079348
 10
296.8807143025
 20
337.1294511041
 10
300.684724067
 20
334.9968557673
 10
304.5327786406
 20
333.0133403746
 10
308.4194315322
 20
331.1817123702
 10
312.3391816194
 20
329.5045642186
 10
316.2864809342
 20
327.9842697357
 10
320.2557425159
 20
326.6229807282
 10
324.2413483185
 20
325.4226239485
 10
328.2376571628
 20
324.3848983674
 10
332.2390127203
 20
323.5112727694
 10
336.2397515199
 20
322.8029836738
 10
340.2342109631
 20
322.2610335847
 10
344.2167373392
 20
321.8861895717
 10
348.1816938275
 20
321.6789821848
 10
352.1234684754
 20
321.6397047027
 10
356.0364821418
 20
321.7684127184
 10
359.9151963933
 20
322.06492406
 10
363.7541213437
 20
322.5288190489
 10
367.547823424
 20
323.1594410936
 10
371.2909330731
 20
323.9558976192
 10
374.9781523379
 20
324.9170613305
 10
378.6042623719
 20
326.0415718077
 10
382.1641308217
 20
327.327837432
 10
385.6527190916
 20
328.7740376382
 10
389.0650894751
 20
330.3781254917
 10
392.3964121435
 20
332.1378305855
 10
395.641971982
 20
334.0506622538
 10
398.7971752637
 20
336.1139130973
 10
401.8575561511
 20
338.3246628151
 10
404.8187830174
 20
340.6797823383
 10
407.6766645769
 20
343.1759382584
 10
410.4271558179
 20
345.809597546
 10
413.0663637278
 20
348.5770325508
 10
415.5905528027
 20
351.474326278
 10
417.9961503354
 20
354.4973779324
 10
420.2797514714
 20
357.6419087224
 10
422.4381240289
 20
360.9034679162
 10
424.4682130727
 20
364.2774391416
 10
426.3671452389
 20
367.7590469196
 10
428.1322328012
 20
371.3433634236
 10
429.7609774758
 20
375.0253154546
 10
431.2510739565
 20
378.7996916211
 10
432.6004131785
 20
382.6611497158
 10
433.807085303
 20
386.6042242765
 10
434.8693824205
 20
390.623334322
 10
435.7858009682
 20
394.7127912517
 10
436.5550438582
 20
398.8668068964
 10
437.1760223131
 20
403.0795017116
 10
437.6478574075
 20
407.3449130988
 10
437.9698813115
 20
411.6570038452
 10
438.1416382362
 20
416.0096706685
 10
438.162885079
 20
420.3967528556
  0
LWPOLYLINE
  5
1A9
330
1F
100
AcDbEntity
  8
0
  6
Continuous
 62
     7
100
AcDbPolyline
 90
       22
 70
   128
 43
0.0
 10
289.3300576132
 20
561.8959780087
 10
289.242863722
 20
562.4950456426
 10
289.0033682724
 20
563.0708710737
 10
288.6328514862
 20
563.5722896855
 10
288.1642354058
 20
563.9547482339
 10
287.6391586264
 20
564.1842635986
 10
287.1042765241
 20
564.240442332
 10
286.6071157211
 20
564.1182927073
 10
286.1918511364
 20
563.8286682547
 10
285.8953808507
 20
563.3973033776
 10
285.74404755
 20
562.8625267386
 10
285.7512978621
 20
562.2718555888
 10
285.916487565
 20
561.6777736519
 10
286.2249388286
 20
561.1330677152
 10
286.6492444047
 20
560.6861372915
 10
287.1517028806
 20
560.3766941103
 10
287.6876686159
 20
560.2322335562
 10
288.2095187028
 20
560.2655915834
 10
288.6708844711
 20
560.4738041848
 10
289.0307715476
 20
560.8383707571
 10
289.2572023862
 20
561.3268979603
 10
289.3300576132
 20
561.8959780087
  0
LWPOLYLINE
  5
1AA
330
1F
100
AcDbEntity
  8
0
  6
Continuous
 62
     7
100
AcDbPolyline
 90
       22
 70
   128
 43
0.0
 10
375.0834024282
 20
545.8288119694
 10
374.9962085369
 20
546.4278796033
 10
374.7567130874
 20
547.0037050344
 10
374.3861963012
 20
547.5051236462
 10
373.9175802207
 20
547.8875821946
 10
373.3925034413
 20
548.1170975593
 10
372.8576213391
 20
548.1732762927
 10
372.360460536
 20
548.051126668
 10
371.9451959513
 20
547.7615022154
 10
371.6487256656
 20
547.3301373383
 10
371.4973923649
 20
546.7953606993
 10
371.504642677
 20
546.2046895495
 10
371.6698323799
 20
545.6106076126
 10
371.9782836436
 20
545.0659016759
 10
372.4025892196
 20
544.6189712522
 10
372.9050476955
 20
544.309528071
 10
373.4410134308
 20
544.1650675169
 10
373.9628635177
 20
544.1984255441
 10
374.4242292861
 20
544.4066381455
 10
374.7841163626
 20
544.7712047178
 10
375.0105472012
 20
545.259731921
 10
375.0834024282
 20
545.8288119694
  0
LWPOLYLINE
  5
1AB
330
1F
100
AcDbEntity
  8
0
  6
Continuous
 62
     7
100
AcDbPolyline
 90
       22
 70
   128
 43
0.0
 10
436.538976119
 20
467.7611358906
 10
436.4517822278
 20
468.3602035245
 10
436.2122867783
 20
468.9360289556
 10
435.841769992
 20
469.4374475674
 10
435.3731539116
 20
469.8199061158
 10
434.8480771322
 20
470.0494214805
 10
434.31319503
 20
470.1056002139
 10
433.8160342269
 20
469.9834505892
 10
433.4007696422
 20
469.6938261366
 10
433.1042993565
 20
469.2624612595
 10
432.9529660558
 20
468.7276846205
 10
432.9602163679
 20
468.1370134707
 10
433.1254060708
 20
467.5429315338
 10
433.4338573344
 20
466.9982255971
 10
433.8581629105
 20
466.5512951734
 10
434.3606213864
 20
466.2418519922
 10
434.8965871217
 20
466.0973914381
 10
435.4184372086
 20
466.1307494653
 10
435.8798029769
 20
466.3389620667
 10
436.2396900534
 20
466.703528639
 10
436.466120892
 20
467.1920558422
 10
436.538976119
 20
467.7611358906
  0
LWPOLYLINE
  5
1AC
330
1F
100
AcDbEntity
  8
0
  6
Continuous
 62
     7
100
AcDbPolyline
 90
       22
 70
   128
 43
0.0
 10
437.6969371012
 20
373.4239356363
 10
437.6097432099
 20
374.0230032702
 10
437.3702477604
 20
374.5988287013
 10
436.9997309742
 20
375.1002473131
 10
436.5311148937
 20
375.4827058616
 10
436.0060381143
 20
375.7122212262
 10
435.4711560121
 20
375.7683999597
 10
434.973995209
 20
375.646250335
 10
434.5587306243
 20
375.3566258823
 10
434.2622603386
 20
374.9252610053
 10
434.1109270379
 20
374.3904843662
 10
434.11817735
 20
373.7998132164
 10
434.2833670529
 20
373.2057312795
 10
434.5918183165
 20
372.6610253428
 10
435.0161238926
 20
372.2140949191
 10
435.5185823685
 20
371.9046517379
 10
436.0545481038
 20
371.7601911838
 10
436.5763981907
 20
371.793549211
 10
437.0377639591
 20
372.0017618124
 10
437.3976510356
 20
372.3663283847
 10
437.6240818742
 20
372.8548555879
 10
437.6969371012
 20
373.4239356363
  0
LWPOLYLINE
  5
1AD
330
1F
100
AcDbEntity
  8
0
  6
Continuous
 62
     7
100
AcDbPolyline
 90
       22
 70
   128
 43
0.0
 10
377.8789675359
 20
318.0786636792
 10
377.7917736447
 20
318.6777313131
 10
377.5522781951
 20
319.2535567442
 10
377.1817614089
 20
319.754975356
 10
376.7131453285
 20
320.1374339044
 10
376.1880685491
 20
320.3669492691
 10
375.6531864468
 20
320.4231280025
 10
375.1560256438
 20
320.3009783778
 10
374.7407610591
 20
320.0113539252
 10
374.4442907734
 20
319.5799890481
 10
374.2929574726
 20
319.0452124091
 10
374.3002077847
 20
318.4545412593
 10
374.4653974876
 20
317.8604593224
 10
374.7738487513
 20
317.3157533857
 10
375.1981543273
 20
316.868822962
 10
375.7006128033
 20
316.5593797808
 10
376.2365785385
 20
316.4149192267
 10
376.7584286255
 20
316.4482772539
 10
377.2197943938
 20
316.6564898553
 10
377.5796814703
 20
317.0210564276
 10
377.8061123089
 20
317.5095836308
 10
377.8789675359
 20
318.0786636792
  0
LWPOLYLINE
  5
1AE
330
1F
100
AcDbEntity
  8
0
  6
Continuous
 62
     7
100
AcDbPolyline
 90
       22
 70
   128
 43
0.0
 10
292.125622721
 20
334.1458297185
 10
292.0384288298
 20
334.7448973524
 10
291.7989333802
 20
335.3207227835
 10
291.428416594
 20
335.8221413953
 10
290.9598005135
 20
336.2045999437
 10
290.4347237341
 20
336.4341153084
 10
289.8998416319
 20
336.4902940418
 10
289.4026808288
 20
336.3681444171
 10
288.9874162441
 20
336.0785199645
 10
288.6909459584
 20
335.6471550874
 10
288.5396126577
 20
335.1123784484
 10
288.5468629698
 20
334.5217072985
 10
288.7120526727
 20
333.9276253617
 10
289.0205039364
 20
333.382919425
 10
289.4448095124
 20
332.9359890013
 10
289.9472679883
 20
332.6265458201
 10
290.4832337236
 20
332.482085266
 10
291.0050838106
 20
332.5154432932
 10
291.4664495789
 20
332.7236558946
 10
291.8263366554
 20
333.0882224669
 10
292.052767494
 20
333.5767496701
 10
292.125622721
 20
334.1458297185
  0
LWPOLYLINE
  5
1AF
330
1F
100
AcDbEntity
  8
0
  6
Continuous
 62
     7
100
AcDbPolyline
 90
       22
 70
   128
 43
0.0
 10
230.6700490301
 20
412.2135057973
 10
230.5828551389
 20
412.8125734312
 10
230.3433596893
 20
413.3883988623
 10
229.9728429031
 20
413.8898174741
 10
229.5042268227
 20
414.2722760225
 10
228.9791500433
 20
414.5017913872
 10
228.444267941
 20
414.5579701206
 10
227.947107138
 20
414.4358204959
 10
227.5318425532
 20
414.1461960433
 10
227.2353722676
 20
413.7148311662
 10
227.0840389668
 20
413.1800545272
 10
227.0912892789
 20
412.5893833773
 10
227.2564789818
 20
411.9953014405
 10
227.5649302455
 20
411.4505955037
 10
227.9892358215
 20
411.0036650801
 10
228.4916942975
 20
410.6942218989
 10
229.0276600327
 20
410.5497613448
 10
229.5495101197
 20
410.583119372
 10
230.010875888
 20
410.7913319734
 10
230.3707629645
 20
411.1558985457
 10
230.5971938031
 20
411.6444257489
 10
230.6700490301
 20
412.2135057973
  0
LWPOLYLINE
  5
1B0
330
1F
100
AcDbEntity
  8
0
  6
Continuous
 62
     7
100
AcDbPolyline
 90
       22
 70
   128
 43
0.0
 10
229.512088048
 20
506.5507060516
 10
229.4248941568
 20
507.1497736855
 10
229.1853987072
 20
507.7255991166
 10
228.814881921
 20
508.2270177284
 10
228.3462658405
 20
508.6094762768
 10
227.8211890611
 20
508.8389916414
 10
227.2863069589
 20
508.8951703749
 10
226.7891461558
 20
508.7730207502
 10
226.3738815711
 20
508.4833962975
 10
226.0774112854
 20
508.0520314205
 10
225.9260779847
 20
507.5172547815
 10
225.9333282968
 20
506.9265836316
 10
226.0985179997
 20
506.3325016948
 10
226.4069692634
 20
505.787795758
 10
226.8312748394
 20
505.3408653343
 10
227.3337333153
 20
505.0314221531
 10
227.8696990506
 20
504.8869615991
 10
228.3915491376
 20
504.9203196263
 10
228.8529149059
 20
505.1285322277
 10
229.2128019824
 20
505.4930987999
 10
229.439232821
 20
505.9816260032
 10
229.512088048
 20
506.5507060516
  0
LINE
  5
1B1
330
1F
100
AcDbEntity
  8
0
  6
Continuous
 62
     7
100
AcDbLine
 10
472.0789614494
 20
480.8834513473
 30
0.0
 11
476.7045571272
 21
483.4887144823
 31
0.0
  0
LINE
  5
1B2
330
1F
100
AcDbEntity
  8
0
  6
Continuous
 62
     7
100
AcDbLine
 10
389.4934389887
 20
585.7927285545
 30
0.0
 11
394.1190346665
 21
588.3979916894
 31
0.0
  0
LINE
  5
1B3
330
1F
100
AcDbEntity
  8
0
  6
Continuous
 62
     7
100
AcDbLine
 10
394.1190346665
 20
588.3979916894
 30
0.0
 11
476.7045571272
 21
483.4887144823
 31
0.0
  0
LINE
  5
1B4
330
1F
100
AcDbEntity
  8
0
  6
Continuous
 62
     7
100
AcDbLine
 10
473.7236600035
 20
346.8925317465
 30
0.0
 11
478.3492556813
 21
349.4977948814
 31
0.0
  0
LINE
  5
1B5
330
1F
100
AcDbEntity
  8
0
  6
Continuous
 62
     7
100
AcDbLine
 10
476.7045571272
 20
483.4887144823
 30
0.0
 11
478.3492556813
 21
349.4977948814
 31
0.0
  0
LWPOLYLINE
  5
1B6
330
1F
100
AcDbEntity
  8
0
  6
Continuous
 62
     7
100
AcDbPolyline
 90
       84
 70
   128
 43
0.0
 10
273.2853440792
 20
549.6312330362
 10
271.0009670468
 20
548.1912246225
 10
267.8926249747
 20
546.0538461559
 10
264.8812882745
 20
543.7705075233
 10
261.9712191564
 20
541.3444405354
 10
259.1665364978
 20
538.7790790186
 10
256.4712100135
 20
536.0780539552
 10
253.8890546367
 20
533.2451883443
 10
251.4237251196
 20
530.2844917903
 10
249.0787108603
 20
527.2001548281
 10
246.8573309644
 20
523.9965429918
 10
244.7627295467
 20
520.6781906357
 10
242.7978712813
 20
517.2497945164
 10
240.9655372054
 20
513.7162071453
 10
239.2683207828
 20
510.0824299203
 10
237.7086242338
 20
506.3536060465
 10
236.2886551343
 20
502.5350132572
 10
235.0104232918
 20
498.6320563436
 10
233.8757379005
 20
494.6502595046
 10
232.8862049807
 20
490.5952585285
 10
232.0432251057
 20
486.4727928156
 10
231.3479914192
 20
482.2886972552
 10
230.8014879466
 20
478.0488939667
 10
230.4044882026
 20
473.7593839176
 10
230.157554096
 20
469.4262384295
 10
230.0610351342
 20
465.0555905855
 10
230.1150679292
 20
460.6536265487
 10
230.3195760035
 20
456.2265768071
 10
230.6742698988
 20
451.7807073545
 10
231.1786475857
 20
447.322310822
 10
231.8319951738
 20
442.8576975712
 10
232.6333879227
 20
438.393186763
 10
233.5816915506
 20
433.9350974132
 10
234.6755638397
 20
429.4897394488
 10
235.9134565362
 20
425.0634047768
 10
237.2936175414
 20
420.662358379
 10
238.8140933917
 20
416.2928294445
 10
240.4727320235
 20
411.9610025528
 10
242.2671858194
 20
407.6730089204
 10
244.1949149307
 20
403.434917723
 10
246.2531908723
 20
399.2527275046
 10
248.4391003849
 20
395.1323576878
 10
250.7495495579
 20
391.0796401954
 10
253.181268209
 20
387.1003111957
 10
255.7308145123
 20
383.200002984
 10
258.3945798701
 20
379.3842360104
 10
261.1687940204
 20
375.6584110664
 10
264.0495303733
 20
372.0278016405
 10
267.0327115687
 20
368.4975464544
 10
270.1141152471
 20
365.0726421895
 10
273.2893800263
 20
361.7579364149
 10
276.5540116739
 20
358.5581207258
 10
279.903389469
 20
355.4777241036
 10
283.3327727419
 20
352.5211065053
 10
286.837307584
 20
349.6924526924
 10
290.412033718
 20
346.995766308
 10
294.0518915191
 20
344.4348642103
 10
297.7517291753
 20
342.0133710697
 10
301.5063099803
 20
339.7347142391
 10
305.3103197448
 20
337.6021189022
 10
309.1583743184
 20
335.6186035095
 10
313.04502721
 20
333.7869755051
 10
316.9647772972
 20
332.1098273536
 10
320.912076612
 20
330.5895328707
 10
324.8813381937
 20
329.2282438632
 10
328.8669439963
 20
328.0278870835
 10
332.8632528406
 20
326.9901615023
 10
336.8646083982
 20
326.1165359043
 10
340.8653471977
 20
325.4082468087
 10
344.8598066409
 20
324.8662967196
 10
348.842333017
 20
324.4914527067
 10
352.8072895053
 20
324.2842453197
 10
356.7490641532
 20
324.2449678376
 10
360.6620778196
 20
324.3736758533
 10
364.5407920711
 20
324.6701871949
 10
368.3797170215
 20
325.1340821838
 10
372.1734191018
 20
325.7647042286
 10
375.9165287509
 20
326.5611607541
 10
379.6037480157
 20
327.5223244654
 10
383.2298580497
 20
328.6468349426
 10
386.7897264995
 20
329.9331005669
 10
390.2783147694
 20
331.3793007731
 10
393.6906851529
 20
332.9833886266
 10
394.9467733474
 20
333.623654441
  0
LINE
  5
1B7
330
1F
100
AcDbEntity
  8
0
  6
Continuous
 62
     7
100
AcDbLine
 10
270.2677312109
 20
608.1314402065
 30
0.0
 11
274.8933268887
 21
610.7367033414
 31
0.0
  0
LINE
  5
1B8
330
1F
100
AcDbEntity
  8
0
  6
Continuous
 62
     7
100
AcDbLine
 10
394.1190346665
 20
588.3979916894
 30
0.0
 11
274.8933268887
 21
610.7367033414
 31
0.0
  0
LINE
  5
1B9
330
1F
100
AcDbEntity
  8
0
  6
Continuous
 62
     7
100
AcDbLine
 10
393.3387905378
 20
272.5181841357
 30
0.0
 11
397.9643862156
 21
275.1234472706
 31
0.0
  0
LINE
  5
1BA
330
1F
100
AcDbEntity
  8
0
  6
Continuous
 62
     7
100
AcDbLine
 10
478.3492556813
 20
349.4977948814
 30
0.0
 11
397.9643862156
 21
275.1234472706
 31
0.0
  0
LINE
  5
1BB
330
1F
100
AcDbEntity
  8
0
  6
Continuous
 62
     7
100
AcDbLine
 10
895.6863213912
 20
809.7323531071
 30
0.0
 11
900.311917069
 21
812.3376162421
 31
0.0
  0
LINE
  5
1BC
330
1F
100
AcDbEntity
  8
0
  6
Continuous
 62
     7
100
AcDbLine
 10
895.6863213912
 20
809.7323531071
 30
0.0
 11
770.5164540311
 21
833.1847915669
 31
0.0
  0
LINE
  5
1BD
330
1F
100
AcDbEntity
  8
0
  6
Continuous
 62
     7
100
AcDbLine
 10
900.311917069
 20
812.3376162421
 30
0.0
 11
775.1420497089
 21
835.7900547018
 31
0.0
  0
LINE
  5
1BE
330
1F
100
AcDbEntity
  8
0
  6
Continuous
 62
     7
100
AcDbLine
 10
897.2268885414
 20
684.2248498342
 30
0.0
 11
895.6863213912
 21
809.7323531071
 31
0.0
  0
LINE
  5
1BF
330
1F
100
AcDbEntity
  8
0
  6
Continuous
 62
     7
100
AcDbLine
 10
901.8524842192
 20
686.8301129691
 30
0.0
 11
900.311917069
 21
812.3376162421
 31
0.0
  0
LINE
  5
1C0
330
1F
100
AcDbEntity
  8
0
  6
Continuous
 62
     7
100
AcDbLine
 10
617.3355732359
 20
549.3314499366
 30
0.0
 11
663.1850065184
 21
540.7408759019
 31
0.0
  0
LINE
  5
1C1
330
1F
100
AcDbEntity
  8
0
  6
Continuous
 62
     7
100
AcDbLine
 10
692.9494581883
 20
535.1640626816
 30
0.0
 11
726.3426604567
 21
528.9073490037
 31
0.0
  0
LINE
  5
1C2
330
1F
100
AcDbEntity
  8
0
  6
Continuous
 62
     7
100
AcDbLine
 10
614.9270180623
 20
745.5525275411
 30
0.0
 11
616.2725059193
 21
635.9378174092
 31
0.0
  0
LINE
  5
1C3
330
1F
100
AcDbEntity
  8
0
  6
Continuous
 62
     7
100
AcDbLine
 10
617.1726539075
 20
562.6042229845
 30
0.0
 11
617.3355732359
 21
549.3314499366
 31
0.0
  0
LINE
  5
1C4
330
1F
100
AcDbEntity
  8
0
  6
Continuous
 62
     8
370
     0
100
AcDbLine
 10
735.9119880455
 20
587.5735347887
 30
0.0
 11
739.7573395946
 21
274.2989903699
 31
0.0
  0
LINE
  5
1C5
330
1F
100
AcDbEntity
  8
0
  6
Continuous
 62
     8
370
     0
100
AcDbLine
 10
732.8988696936
 20
273.6551727405
 30
0.0
 11
729.0535181446
 21
586.9297171593
 31
0.0
  0
LINE
  5
1C6
330
1F
100
AcDbEntity
  8
0
  6
Continuous
 62
     8
370
     0
100
AcDbLine
 10
949.9649653969
 20
392.6937261683
 30
0.0
 11
946.1196138479
 21
705.9682705871
 31
0.0
  0
LINE
  5
1C7
330
1F
100
AcDbEntity
  8
0
  6
Continuous
 62
     8
370
     0
100
AcDbLine
 10
572.9863396212
 20
175.8011636926
 30
0.0
 11
573.0326691579
 21
172.0267715912
 31
0.0
  0
ARC
  5
1C8
330
1F
100
AcDbEntity
  8
0
  6
Continuous
 62
     8
370
     0
100
AcDbCircle
 10
568.5487663084
 20
182.9400444647
 30
0.0
 40
11.79851302388619
100
AcDbArc
 50
258.3893582534
 51
292.3361391603
  0
LINE
  5
1C9
330
1F
100
AcDbEntity
  8
0
  6
Continuous
 62
     8
370
     0
100
AcDbLine
 10
566.174199257
 20
171.3829539618
 30
0.0
 11
566.1278697202
 21
175.1573460632
 31
0.0
  0
LWPOLYLINE
  5
1CA
330
1F
100
AcDbEntity
  8
0
  6
Continuous
 62
     8
370
     0
100
AcDbPolyline
 90
        8
 70
   128
 43
0.0
 10
567.8231734097
 20
167.9158412066
 10
567.8140678104
 20
167.9175839469
 10
567.3644359312
 20
168.1033421446
 10
566.9678189506
 20
168.4707555415
 10
566.6394586369
 20
169.0057046466
 10
566.3919736926
 20
169.6876316661
 10
566.2348748255
 20
170.4903305268
 10
566.174199257
 20
171.3829539618
  0
ARC
  5
1CB
330
1F
100
AcDbEntity
  8
0
  6
Continuous
 62
     8
370
     0
100
AcDbCircle
 10
569.1130661599
 20
171.8007677363
 30
0.0
 40
3.926113269403168
100
AcDbArc
 50
302.0705668625
 51
3.3000141039
  0
LINE
  5
1CC
330
1F
100
AcDbEntity
  8
0
  6
Continuous
 62
     8
370
     0
100
AcDbLine
 10
277.1161883136
 20
225.5422764563
 30
0.0
 11
566.174199257
 21
171.3829539618
 31
0.0
  0
LINE
  5
1CD
330
1F
100
AcDbEntity
  8
0
  6
Continuous
 62
     8
370
     0
100
AcDbLine
 10
277.0698587769
 20
229.3166685577
 30
0.0
 11
277.1161883136
 21
225.5422764563
 31
0.0
  0
LWPOLYLINE
  5
1CE
330
1F
100
AcDbEntity
  8
0
  6
Continuous
 62
     8
370
     0
100
AcDbPolyline
 90
        8
 70
   128
 43
0.0
 10
277.1161883136
 20
225.5422764563
 10
277.1768638822
 20
224.6496530213
 10
277.3339627493
 20
223.8469541606
 10
277.5814476936
 20
223.1650271411
 10
277.9098080073
 20
222.630078036
 10
278.3064249879
 20
222.2626646391
 10
278.7560568671
 20
222.0769064415
 10
278.7651624664
 20
222.0751637011
  0
LINE
  5
1CF
330
1F
100
AcDbEntity
  8
0
  6
Continuous
 62
     8
370
     0
100
AcDbLine
 10
783.2402949602
 20
290.4215073896
 30
0.0
 11
783.1939654235
 21
294.195899491
 31
0.0
  0
LINE
  5
1D0
330
1F
100
AcDbEntity
  8
0
  6
Continuous
 62
     8
370
     0
100
AcDbLine
 10
573.0326691579
 20
172.0267715912
 30
0.0
 11
783.2402949602
 21
290.4215073896
 31
0.0
  0
ARC
  5
1D1
330
1F
100
AcDbEntity
  8
0
  6
Continuous
 62
     8
370
     0
100
AcDbCircle
 10
779.3206919622
 20
290.1955035347
 30
0.0
 40
3.926113269403466
100
AcDbArc
 50
302.0705668625
 51
3.3000141039
  0
LWPOLYLINE
  5
1D2
330
1F
100
AcDbEntity
  8
0
  6
Continuous
 62
     8
370
     0
100
AcDbPolyline
 90
        7
 70
   128
 43
0.0
 10
277.1161883136
 20
225.5422764563
 10
276.3288830311
 20
225.7268522146
 10
275.6705884757
 20
225.9599563863
 10
275.1666025379
 20
226.2326309087
 10
274.8362931147
 20
226.5343970529
 10
274.692353812
 20
226.8536581153
 10
274.6863403184
 20
226.9282759796
  0
ARC
  5
1D3
330
1F
100
AcDbEntity
  8
0
  6
Continuous
 62
     8
370
     0
100
AcDbCircle
 10
782.8653881601
 20
291.454302714
 30
0.0
 40
1.098736224493117
100
AcDbArc
 50
289.9510000134
 51
351.211367115
  0
ARC
  5
1D4
330
1F
100
AcDbEntity
  8
0
  6
Continuous
 62
     8
370
     0
100
AcDbCircle
 10
560.5434361989
 20
721.9088586966
 30
0.0
 40
5.739213295296174
100
AcDbArc
 50
0.4612244142
 51
75.9590515332
  0
ARC
  5
1D5
330
1F
100
AcDbEntity
  8
0
  6
Continuous
 62
     8
370
     0
100
AcDbCircle
 10
561.7985606934
 20
732.868331076
 30
0.0
 40
11.79851302388361
100
AcDbArc
 50
258.3893582534
 51
292.3361391603
  0
LWPOLYLINE
  5
1D6
330
1F
100
AcDbEntity
  8
0
  6
Continuous
 62
     8
370
     0
100
AcDbPolyline
 90
        9
 70
   128
 43
0.0
 10
561.9358570976
 20
727.4765991081
 10
561.4356315532
 20
727.1035766819
 10
560.9568549186
 20
726.5635795837
 10
560.5179263113
 20
725.877359599
 10
560.1357135116
 20
725.0712877772
 10
559.824904743
 20
724.1763410062
 10
559.5974442123
 20
723.2269115885
 10
559.4620730999
 20
722.2594855643
 10
559.4239936419
 20
721.311240573
  0
LINE
  5
1D7
330
1F
100
AcDbEntity
  8
0
  6
Continuous
 62
     8
370
     0
100
AcDbLine
 10
559.4703231787
 20
717.5368484716
 30
0.0
 11
559.4239936419
 21
721.311240573
 31
0.0
  0
LINE
  5
1D8
330
1F
100
AcDbEntity
  8
0
  6
Continuous
 62
     8
370
     0
100
AcDbLine
 10
566.2824635429
 20
721.9550582025
 30
0.0
 11
566.3287930796
 21
718.180666101
 31
0.0
  0
LINE
  5
1D9
330
1F
100
AcDbEntity
  8
0
  6
Continuous
 62
     8
370
     0
100
AcDbLine
 10
272.8778461543
 20
781.6359216026
 30
0.0
 11
561.9358570976
 21
727.4765991081
 31
0.0
  0
LINE
  5
1DA
330
1F
100
AcDbEntity
  8
0
  6
Continuous
 62
     8
370
     0
100
AcDbLine
 10
559.4239936419
 20
721.311240573
 30
0.0
 11
270.3659826986
 21
775.4705630675
 31
0.0
  0
LWPOLYLINE
  5
1DB
330
1F
100
AcDbEntity
  8
0
  6
Continuous
 62
     8
370
     0
100
AcDbPolyline
 90
        9
 70
   128
 43
0.0
 10
270.3659826986
 20
775.4705630675
 10
270.4040621566
 20
776.4188080588
 10
270.539433269
 20
777.386234083
 10
270.7668937997
 20
778.3356635007
 10
271.0777025683
 20
779.2306102717
 10
271.459915368
 20
780.0366820935
 10
271.8988439753
 20
780.7229020782
 10
272.3776206099
 20
781.2628991764
 10
272.8778461543
 20
781.6359216026
  0
LINE
  5
1DC
330
1F
100
AcDbEntity
  8
0
  6
Continuous
 62
     8
370
     0
100
AcDbLine
 10
561.9358570976
 20
727.4765991081
 30
0.0
 11
772.1434828999
 21
845.8713349065
 31
0.0
  0
ARC
  5
1DD
330
1F
100
AcDbEntity
  8
0
  6
Continuous
 62
     8
370
     0
100
AcDbCircle
 10
770.7510620013
 20
840.303594495
 30
0.0
 40
5.739213295296249
100
AcDbArc
 50
0.4612244142
 51
75.9590515332
  0
LINE
  5
1DE
330
1F
100
AcDbEntity
  8
0
  6
Continuous
 62
     8
370
     0
100
AcDbLine
 10
776.4900893452
 20
840.3497940009
 30
0.0
 11
566.2824635429
 21
721.9550582025
 31
0.0
  0
LINE
  5
1DF
330
1F
100
AcDbEntity
  8
0
  6
Continuous
 62
     8
370
     0
100
AcDbLine
 10
270.3659826986
 20
775.4705630675
 30
0.0
 11
270.4123122354
 21
771.6961709661
 31
0.0
  0
LINE
  5
1E0
330
1F
100
AcDbEntity
  8
0
  6
Continuous
 62
     8
370
     0
100
AcDbLine
 10
776.5364188819
 20
836.5754018994
 30
0.0
 11
776.4900893452
 21
840.3497940009
 31
0.0
  0
LINE
  5
1E1
330
1F
100
AcDbEntity
  8
0
  6
Continuous
 62
     8
370
     0
100
AcDbLine
 10
483.0854719566
 20
900.030657401
 30
0.0
 11
272.8778461543
 21
781.6359216026
 31
0.0
  0
LINE
  5
1E2
330
1F
100
AcDbEntity
  8
0
  6
Continuous
 62
     8
370
     0
100
AcDbLine
 10
772.1434828999
 20
845.8713349065
 30
0.0
 11
483.0854719566
 21
900.030657401
 31
0.0
  0
ARC
  5
1E3
330
1F
100
AcDbEntity
  8
0
  6
Continuous
 62
     8
370
     0
100
AcDbCircle
 10
272.1674272652
 20
778.2241639543
 30
0.0
 40
3.484936907446366
100
AcDbArc
 50
78.2375690571
 51
118.9220555815
  0
LWPOLYLINE
  5
1E4
330
1F
100
AcDbEntity
  8
0
  6
Continuous
 62
     8
370
     0
100
AcDbPolyline
 90
        7
 70
   128
 43
0.0
 10
267.9361347034
 20
776.8565625909
 10
267.942148197
 20
776.7819447265
 10
268.0860874997
 20
776.4626836642
 10
268.4163969229
 20
776.16091752
 10
268.9203828607
 20
775.8882429975
 10
269.5786774161
 20
775.6551388259
 10
270.3659826986
 20
775.4705630675
  0
ARC
  5
1E5
330
1F
100
AcDbEntity
  8
0
  6
Continuous
 62
     8
370
     0
100
AcDbCircle
 10
482.3750530675
 20
896.6188997527
 30
0.0
 40
3.484936907445504
100
AcDbArc
 50
78.2375690571
 51
118.9220555815
  0
LWPOLYLINE
  5
1E6
330
1F
100
AcDbEntity
  8
0
  6
Continuous
 62
     8
370
     0
100
AcDbPolyline
 90
        3
 70
   128
 43
0.0
 10
772.1434828999
 20
845.8713349065
 10
772.6459339669
 20
846.063047618
 10
773.1221960446
 20
846.0678259432
  0
ARC
  5
1E7
330
1F
100
AcDbEntity
  8
0
  6
Continuous
 62
     8
370
     0
100
AcDbCircle
 10
776.115182545
 20
841.3825893253
 30
0.0
 40
1.098736224493284
100
AcDbArc
 50
289.9510000134
 51
351.211367115
  0
LWPOLYLINE
  5
1E8
330
1F
100
AcDbEntity
  8
0
  6
Continuous
 62
     8
370
     0
100
AcDbPolyline
 90
        3
 70
   128
 43
0.0
 10
484.0641851013
 20
900.2271484377
 10
483.5879230236
 20
900.2223701125
 10
483.0854719566
 20
900.030657401
  0
LINE
  5
1E9
330
1F
100
AcDbEntity
  8
0
  6
Continuous
 62
     8
370
     0
100
AcDbLine
 10
154.3832916828
 20
694.6027410667
 30
0.0
 11
158.2286432318
 21
381.3281966479
 31
0.0
  0
LINE
  5
1EA
330
1F
100
AcDbEntity
  8
0
  6
Continuous
 62
     8
370
     0
100
AcDbLine
 10
723.9756232206
 20
584.3622965348
 30
0.0
 11
724.0798646783
 21
575.8699143065
 31
0.0
  0
LINE
  5
1EB
330
1F
100
AcDbEntity
  8
0
  6
Continuous
 62
     8
370
     0
100
AcDbLine
 10
645.9213828769
 20
598.9869207098
 30
0.0
 11
645.9302657659
 21
598.2632461722
 31
0.0
  0
LINE
  5
1EC
330
1F
100
AcDbEntity
  8
0
  6
Continuous
 62
     8
370
     0
100
AcDbLine
 10
468.1365413963
 20
618.6026939842
 30
0.0
 11
468.240782854
 21
610.110311756
 31
0.0
  0
LINE
  5
1ED
330
1F
100
AcDbEntity
  8
0
  6
Continuous
 62
     8
370
     0
100
AcDbLine
 10
473.5330696871
 20
621.6421676416
 30
0.0
 11
473.6373111448
 21
613.1497854134
 31
0.0
  0
INSERT
  5
1F3
330
1F
100
AcDbEntity
  8
SLD-0_0
100
AcDbBlockReference
  2
SW_NOTE_2
 10
384.7513133506
 20
884.9160482556
 30
0.0
  0
LEADER
  5
1FD
330
1F
100
AcDbEntity
  8
SLD-0_0
100
AcDbLeader
  3
SLDDIMSTYLE0
 76
     2
 10
508.9073811917
 20
813.7401545112
 30
0.0
 10
384.7513133506
 20
884.9160482556
 30
0.0
  0
INSERT
  5
203
330
1F
100
AcDbEntity
  8
SLD-0_0
100
AcDbBlockReference
  2
SW_NOTE_3
 10
412.68300361
 20
631.4624807035
 30
0.0
  0
LEADER
  5
204
330
1F
100
AcDbEntity
  8
SLD-0_0
100
AcDbLeader
  3
SLDDIMSTYLE0
 76
     2
 10
461.7620915734
 20
608.3761338959
 30
0.0
 10
412.68300361
 20
631.4624807035
 30
0.0
  0
INSERT
  5
20A
330
1F
100
AcDbEntity
  8
SLD-0_0
100
AcDbBlockReference
  2
SW_NOTE_4
 10
716.2029020867
 20
697.3063145017
 30
0.0
  0
LEADER
  5
20B
330
1F
100
AcDbEntity
  8
SLD-0_0
100
AcDbLeader
  3
SLDDIMSTYLE0
 76
     2
 10
679.5281788842
 20
671.0110621594
 30
0.0
 10
716.2029020867
 20
697.3063145017
 30
0.0
  0
INSERT
  5
211
330
1F
100
AcDbEntity
  8
SLD-0_0
100
AcDbBlockReference
  2
SW_NOTE_5
 10
893.9391561264
 20
866.156576918
 30
0.0
  0
LEADER
  5
212
330
1F
100
AcDbEntity
  8
SLD-0_0
100
AcDbLeader
  3
SLDDIMSTYLE0
 76
     2
 10
821.2285834426
 20
781.5496759922
 30
0.0
 10
893.9391561264
 20
866.156576918
 30
0.0
  0
INSERT
  5
218
330
1F
100
AcDbEntity
  8
SLD-0_0
100
AcDbBlockReference
  2
SW_NOTE_6
 10
972.3429586804
 20
503.770850842
 30
0.0
  0
LEADER
  5
219
330
1F
100
AcDbEntity
  8
SLD-0_0
100
AcDbLeader
  3
SLDDIMSTYLE0
 76
     2
 10
863.6636992823
 20
516.1865124491
 30
0.0
 10
972.3429586804
 20
503.770850842
 30
0.0
  0
INSERT
  5
21F
330
1F
100
AcDbEntity
  8
SLD-0_0
100
AcDbBlockReference
  2
SW_NOTE_7
 10
239.6098298972
 20
263.3672657672
 30
0.0
  0
LEADER
  5
220
330
1F
100
AcDbEntity
  8
SLD-0_0
100
AcDbLeader
  3
SLDDIMSTYLE0
 76
     2
 10
373.4155750149
 20
299.377526882
 30
0.0
 10
239.6098298972
 20
263.3672657672
 30
0.0
  0
INSERT
  5
226
330
1F
100
AcDbEntity
  8
SLD-0_0
100
AcDbBlockReference
  2
SW_NOTE_8
 10
714.1482582943
 20
202.1374598429
 30
0.0
  0
LEADER
  5
227
330
1F
100
AcDbEntity
  8
SLD-0_0
100
AcDbLeader
  3
SLDDIMSTYLE0
 76
     2
 10
567.3989694739
 20
243.2602176118
 30
0.0
 10
714.1482582943
 20
202.1374598429
 30
0.0
  0
INSERT
  5
22D
330
1F
100
AcDbEntity
  8
SLD-0_0
100
AcDbBlockReference
  2
SW_NOTE_9
 10
182.9339789397
 20
743.9267865084
 30
0.0
  0
LEADER
  5
22E
330
1F
100
AcDbEntity
  8
SLD-0_0
100
AcDbLeader
  3
SLDDIMSTYLE0
 76
     2
 10
193.7352746955
 20
593.0609475669
 30
0.0
 10
182.9339789397
 20
743.9267865084
 30
0.0
  0
INSERT
  5
234
330
1F
100
AcDbEntity
  8
SLD-0_0
100
AcDbBlockReference
  2
SW_NOTE_10
 10
615.6102650593
 20
355.1807656433
 30
0.0
  0
LEADER
  5
235
330
1F
100
AcDbEntity
  8
SLD-0_0
100
AcDbLeader
  3
SLDDIMSTYLE0
 76
     2
 10
586.0040182034
 20
395.9360465075
 30
0.0
 10
615.6102650593
 20
355.1807656433
 30
0.0
  0
INSERT
  5
23B
330
1F
100
AcDbEntity
  8
SLD-0_0
100
AcDbBlockReference
  2
SW_NOTE_11
 10
2184.6227858412
 20
552.4577038697
 30
0.0
  0
INSERT
  5
241
330
1F
100
AcDbEntity
  8
SLD-0_0
100
AcDbBlockReference
  2
SW_NOTE_12
 10
2072.7453241333
 20
712.3403792206
 30
0.0
  0
INSERT
  5
247
330
1F
100
AcDbEntity
  8
SLD-0_0
100
AcDbBlockReference
  2
SW_NOTE_13
 10
2055.5875689587
 20
1048.3445331512
 30
0.0
  0
INSERT
  5
24D
330
1F
100
AcDbEntity
  8
SLD-0_0
100
AcDbBlockReference
  2
SW_NOTE_14
 10
1247.5420023206
 20
993.1893042815
 30
0.0
  0
INSERT
  5
253
330
1F
100
AcDbEntity
  8
SLD-0_0
100
AcDbBlockReference
  2
SW_NOTE_15
 10
2129.8858577669
 20
1854.2274255665
 30
0.0
  0
INSERT
  5
259
330
1F
100
AcDbEntity
  8
SLD-0_0
100
AcDbBlockReference
  2
SW_NOTE_16
 10
1111.9962938055
 20
1862.2230583948
 30
0.0
  0
INSERT
  5
25F
330
1F
100
AcDbEntity
  8
SLD-0_0
100
AcDbBlockReference
  2
SW_NOTE_17
 10
95.3418605885
 20
1862.2230583948
 30
0.0
  0
LINE
  5
260
330
1F
100
AcDbEntity
  8
0
  6
Continuous
 62
     7
100
AcDbLine
 10
161.9106947631
 20
1840.7174502343
 30
0.0
 11
161.9106947631
 21
1146.7174502343
 31
0.0
  0
LINE
  5
261
330
1F
100
AcDbEntity
  8
0
  6
Continuous
 62
     7
100
AcDbLine
 10
999.9106947631
 20
1840.7174502343
 30
0.0
 11
161.9106947631
 21
1840.7174502343
 31
0.0
  0
LINE
  5
262
330
1F
100
AcDbEntity
  8
0
  6
Continuous
 62
     7
100
AcDbLine
 10
999.9106947631
 20
1146.7174502343
 30
0.0
 11
999.9106947631
 21
1840.7174502343
 31
0.0
  0
LINE
  5
263
330
1F
100
AcDbEntity
  8
0
  6
Continuous
 62
     7
100
AcDbLine
 10
161.9106947631
 20
1146.7174502343
 30
0.0
 11
999.9106947631
 21
1146.7174502343
 31
0.0
  0
DIMENSION
  5
264
330
1F
100
AcDbEntity
  8
SLD-0_0
100
AcDbDimension
  2
_D
 10
161.9106947631
 20
1851.0696840377
 30
0.0
 11
594.5466593703
 21
1851.0696840377
 31
0.0
 70
   160
  1
<>
 71
     2
 42
-1.0
  3
SLDDIMSTYLE1
100
AcDbAlignedDimension
 13
999.9106947631
 23
1840.7174502343
 33
0.0
 14
161.9106947631
 24
1840.7174502343
 34
0.0
 50
0.0
100
AcDbRotatedDimension
  0
DIMENSION
  5
26F
330
1F
100
AcDbEntity
  8
SLD-0_0
100
AcDbDimension
  2
_D_1
 10
1013.304514326
 20
1840.7174502343
 30
0.0
 11
1013.304514326
 21
1533.081323955
 31
0.0
 70
   160
  1
<>
 71
     2
 42
-1.0
  3
SLDDIMSTYLE1
100
AcDbAlignedDimension
 13
999.9106947631
 23
1146.7174502343
 33
0.0
 14
999.9106947631
 24
1840.7174502343
 34
0.0
 50
90.0
100
AcDbRotatedDimension
  0
LINE
  5
279
330
1F
100
AcDbEntity
  8
0
  6
Continuous
 62
     7
100
AcDbLine
 10
2866.5056576373
 20
1161.7174502343
 30
0.0
 11
2208.5056576373
 21
1161.7174502343
 31
0.0
  0
LINE
  5
27A
330
1F
100
AcDbEntity
  8
0
  6
Continuous
 62
     7
100
AcDbLine
 10
2866.5056576373
 20
1825.7174502343
 30
0.0
 11
2866.5056576373
 21
1161.7174502343
 31
0.0
  0
LINE
  5
27B
330
1F
100
AcDbEntity
  8
0
  6
Continuous
 62
     7
100
AcDbLine
 10
2208.5056576373
 20
1825.7174502343
 30
0.0
 11
2866.5056576373
 21
1825.7174502343
 31
0.0
  0
LINE
  5
27C
330
1F
100
AcDbEntity
  8
0
  6
Continuous
 62
     7
100
AcDbLine
 10
2208.5056576373
 20
1161.7174502343
 30
0.0
 11
2208.5056576373
 21
1825.7174502343
 31
0.0
  0
DIMENSION
  5
27D
330
1F
100
AcDbEntity
  8
SLD-0_0
100
AcDbDimension
  2
_D_2
 10
2866.5056576373
 20
1835.7174502343
 30
0.0
 11
2508.1338967566
 21
1835.7174502343
 31
0.0
 70
   160
  1
<>
 71
     2
 42
-1.0
  3
SLDDIMSTYLE1
100
AcDbAlignedDimension
 13
2208.5056576373
 23
1825.7174502343
 33
0.0
 14
2866.5056576373
 24
1825.7174502343
 34
0.0
100
AcDbRotatedDimension
  0
DIMENSION
  5
287
330
1F
100
AcDbEntity
  8
SLD-0_0
100
AcDbDimension
  2
_D_3
 10
2876.5056576373
 20
1161.7174502343
 30
0.0
 11
2876.5056576373
 21
1485.4519454582
 31
0.0
 70
   160
  1
<>
 71
     2
 42
-1.0
  3
SLDDIMSTYLE1
100
AcDbAlignedDimension
 13
2866.5056576373
 23
1825.7174502343
 33
0.0
 14
2866.5056576373
 24
1161.7174502343
 34
0.0
 50
90.0
100
AcDbRotatedDimension
  0
LINE
  5
291
330
1F
100
AcDbEntity
  8
0
  6
Continuous
 62
     7
100
AcDbLine
 10
1201.9897868887
 20
1825.7174502343
 30
0.0
 11
2039.9897868887
 21
1825.7174502343
 31
0.0
  0
LINE
  5
292
330
1F
100
AcDbEntity
  8
0
  6
Continuous
 62
     7
100
AcDbLine
 10
1201.9897868887
 20
1161.7174502343
 30
0.0
 11
1201.9897868887
 21
1825.7174502343
 31
0.0
  0
LINE
  5
293
330
1F
100
AcDbEntity
  8
0
  6
Continuous
 62
     7
100
AcDbLine
 10
2039.9897868887
 20
1161.7174502343
 30
0.0
 11
1201.9897868887
 21
1161.7174502343
 31
0.0
  0
LINE
  5
294
330
1F
100
AcDbEntity
  8
0
  6
Continuous
 62
     7
100
AcDbLine
 10
2039.9897868887
 20
1825.7174502343
 30
0.0
 11
2039.9897868887
 21
1161.7174502343
 31
0.0
  0
DIMENSION
  5
295
330
1F
100
AcDbEntity
  8
SLD-0_0
100
AcDbDimension
  2
_D_4
 10
2039.9897868887
 20
1835.7174502343
 30
0.0
 11
1663.9118358078
 21
1835.7174502343
 31
0.0
 70
   160
  1
<>
 71
     2
 42
-1.0
  3
SLDDIMSTYLE1
100
AcDbAlignedDimension
 13
1201.9897868887
 23
1825.7174502343
 33
0.0
 14
2039.9897868887
 24
1825.7174502343
 34
0.0
 50
0.0
100
AcDbRotatedDimension
  0
DIMENSION
  5
29F
330
1F
100
AcDbEntity
  8
SLD-0_0
100
AcDbDimension
  2
_D_5
 10
2049.9897868887
 20
1161.7174502343
 30
0.0
 11
2049.9897868887
 21
1516.1686376277
 31
0.0
 70
   160
  1
<>
 71
     2
 42
-1.0
  3
SLDDIMSTYLE1
100
AcDbAlignedDimension
 13
2039.9897868887
 23
1825.7174502343
 33
0.0
 14
2039.9897868887
 24
1161.7174502343
 34
0.0
 50
90.0
100
AcDbRotatedDimension
  0
CIRCLE
  5
2A9
330
1F
100
AcDbEntity
  8
0
  6
Continuous
 62
     7
100
AcDbCircle
 10
1367.1660934811
 20
926.8372936982
 30
0.0
 40
4.200000000000045
  0
CIRCLE
  5
2AA
330
1F
100
AcDbEntity
  8
0
  6
Continuous
 62
     7
100
AcDbCircle
 10
1567.1181868918
 20
926.8372936982
 30
0.0
 40
4.199999999999818
  0
CIRCLE
  5
2AB
330
1F
100
AcDbEntity
  8
0
  6
Continuous
 62
     7
100
AcDbCircle
 10
1708.505668055
 20
785.449812535
 30
0.0
 40
4.200000000000045
  0
CIRCLE
  5
2AC
330
1F
100
AcDbEntity
  8
0
  6
Continuous
 62
     7
100
AcDbCircle
 10
1708.505668055
 20
585.4977191243
 30
0.0
 40
4.200000000000045
  0
CIRCLE
  5
2AD
330
1F
100
AcDbEntity
  8
0
  6
Continuous
 62
     7
100
AcDbCircle
 10
1567.1181868918
 20
444.1102379611
 30
0.0
 40
4.200000000000045
  0
CIRCLE
  5
2AE
330
1F
100
AcDbEntity
  8
0
  6
Continuous
 62
     7
100
AcDbCircle
 10
1367.1660934811
 20
444.1102379611
 30
0.0
 40
4.200000000000045
  0
CIRCLE
  5
2AF
330
1F
100
AcDbEntity
  8
0
  6
Continuous
 62
     7
100
AcDbCircle
 10
1225.7786123179
 20
585.4977191243
 30
0.0
 40
4.200000000000045
  0
CIRCLE
  5
2B0
330
1F
100
AcDbEntity
  8
0
  6
Continuous
 62
     7
100
AcDbCircle
 10
1225.7786123179
 20
785.449812535
 30
0.0
 40
4.200000000000273
  0
LINE
  5
2B1
330
1F
100
AcDbEntity
  8
0
  6
Continuous
 62
     7
100
AcDbLine
 10
1606.1421401864
 20
353.4737658297
 30
0.0
 11
1328.1421401864
 21
353.4737658297
 31
0.0
  0
CIRCLE
  5
2B2
330
1F
100
AcDbEntity
  8
0
  6
Continuous
 62
     7
100
AcDbCircle
 10
1467.1421401864
 20
685.4737658297
 30
0.0
 40
247.9999999999998
  0
LINE
  5
2B3
330
1F
100
AcDbEntity
  8
0
  6
Continuous
 62
     7
100
AcDbLine
 10
1138.1421401864
 20
543.4737658297
 30
0.0
 11
1328.1421401864
 21
353.4737658297
 31
0.0
  0
LINE
  5
2B4
330
1F
100
AcDbEntity
  8
0
  6
Continuous
 62
     7
100
AcDbLine
 10
1138.1421401864
 20
827.4737658297
 30
0.0
 11
1138.1421401864
 21
543.4737658297
 31
0.0
  0
LINE
  5
2B5
330
1F
100
AcDbEntity
  8
0
  6
Continuous
 62
     7
100
AcDbLine
 10
1138.1421401864
 20
827.4737658297
 30
0.0
 11
1328.1421401864
 21
1017.4737658297
 31
0.0
  0
LINE
  5
2B6
330
1F
100
AcDbEntity
  8
0
  6
Continuous
 62
     7
100
AcDbLine
 10
1606.1421401864
 20
1017.4737658297
 30
0.0
 11
1328.1421401864
 21
1017.4737658297
 31
0.0
  0
LINE
  5
2B7
330
1F
100
AcDbEntity
  8
0
  6
Continuous
 62
     7
100
AcDbLine
 10
1606.1421401864
 20
1017.4737658297
 30
0.0
 11
1796.1421401864
 21
827.4737658297
 31
0.0
  0
LINE
  5
2B8
330
1F
100
AcDbEntity
  8
0
  6
Continuous
 62
     7
100
AcDbLine
 10
1796.1421401864
 20
827.4737658297
 30
0.0
 11
1796.1421401864
 21
543.4737658297
 31
0.0
  0
LINE
  5
2B9
330
1F
100
AcDbEntity
  8
0
  6
Continuous
 62
     7
100
AcDbLine
 10
1796.1421401864
 20
543.4737658297
 30
0.0
 11
1606.1421401864
 21
353.4737658297
 31
0.0
  0
DIMENSION
  5
2BA
330
1F
100
AcDbEntity
  8
SLD-0_0
100
AcDbDimension
  2
_D_6
 10
1796.1421401864
 20
328.2130040527
 30
0.0
 11
1465.2541472936
 21
328.2130040527
 31
0.0
 70
   160
  1
<>
 71
     2
 42
-1.0
  3
SLDDIMSTYLE1
100
AcDbAlignedDimension
 13
1138.1421401864
 23
543.4737658297
 33
0.0
 14
1796.1421401864
 24
543.4737658297
 34
0.0
 50
0.0
100
AcDbRotatedDimension
  0
DIMENSION
  5
2C4
330
1F
100
AcDbEntity
  8
SLD-0_0
100
AcDbDimension
  2
_D_7
 10
1827.1421401864
 20
353.4737658297
 30
0.0
 11
1827.1421401864
 21
688.4029061334
 31
0.0
 70
   160
  1
<>
 71
     2
 42
-1.0
  3
SLDDIMSTYLE1
100
AcDbAlignedDimension
 13
1606.1421401864
 23
1017.4737658297
 33
0.0
 14
1606.1421401864
 24
353.4737658297
 34
0.0
 50
90.0
100
AcDbRotatedDimension
  0
DIMENSION
  5
2CE
330
1F
100
AcDbEntity
  8
SLD-0_0
100
AcDbDimension
  2
_D_8
 10
1690.8662086407
 20
578.4618917488
 30
0.0
 11
1606.5169146786
 21
618.8079278012
 31
0.0
 70
   163
  1
<>
 71
     1
 42
-1.0
  3
SLDDIMSTYLE2
100
AcDbDiametricDimension
 15
1243.4180717322
 25
792.4856399105
 35
0.0
 40
0.0
  0
DIMENSION
  5
2D8
330
1F
100
AcDbEntity
  8
SLD-0_0
100
AcDbDimension
  2
_D_9
 10
1570.1741221645
 20
929.7184843565
 30
0.0
 11
1536.1974944131
 21
908.7691183117
 31
0.0
 70
   163
  1
<>
 71
     1
 42
-1.0
  3
SLDDIMSTYLE3
100
AcDbDiametricDimension
 15
1564.0622516191
 25
923.95610304
 35
0.0
 40
0.0
  0
DIMENSION
  5
2E6
330
1F
100
AcDbEntity
  8
SLD-0_0
100
AcDbDimension
  2
_D_10
 10
1328.1421401864
 20
340.6737571458
 30
0.0
 11
1467.1421401864
 21
340.6737571458
 31
0.0
 70
   160
  1
<>
 71
     2
 42
-1.0
  3
SLDDIMSTYLE1
100
AcDbAlignedDimension
 13
1606.1421401864
 23
353.4737658297
 33
0.0
 14
1328.1421401864
 24
353.4737658297
 34
0.0
 50
0.0
100
AcDbRotatedDimension
  0
DIMENSION
  5
2F0
330
1F
100
AcDbEntity
  8
SLD-0_0
100
AcDbDimension
  2
_D_11
 10
1128.1421401864
 20
543.4737658297
 30
0.0
 11
1128.1421401864
 21
682.6635181656
 31
0.0
 70
   160
  1
<>
 71
     2
 42
-1.0
  3
SLDDIMSTYLE1
100
AcDbAlignedDimension
 13
1138.1421401864
 23
827.4737658297
 33
0.0
 14
1138.1421401864
 24
543.4737658297
 34
0.0
 50
90.0
100
AcDbRotatedDimension
  0
DIMENSION
  5
2FA
330
1F
100
AcDbEntity
  8
SLD-0_0
100
AcDbDimension
  2
_D_12
 10
1328.1421401864
 20
353.4737658297
 30
0.0
 11
1193.2993512482
 21
409.863217468
 31
0.0
 70
   162
  1
<>
 71
     1
 42
-1.0
  3
SLDDIMSTYLE4
100
AcDb2LineAngularDimension
 13
1328.1421401864
 23
353.4737658297
 33
0.0
 14
1606.1421401864
 24
353.4737658297
 34
0.0
 15
1138.1421401864
 25
543.4737658297
 35
0.0
 16
1193.1091643865
 26
409.4062557736
 36
0.0
  0
DIMENSION
  5
304
330
1F
100
AcDbEntity
  8
SLD-0_0
100
AcDbDimension
  2
_D_13
 10
1249.8092535923
 20
540.4979785248
 30
0.0
 11
1355.243025312
 21
610.8294641398
 31
0.0
 70
   163
  1
<>
 71
     1
 42
-1.0
  3
SLDDIMSTYLE5
100
AcDbDiametricDimension
 15
1684.4750267806
 25
830.4495531345
 35
0.0
 40
0.0
  0
INSERT
  5
352
330
1F
100
AcDbEntity
  8
SLD-0_0
100
AcDbBlockReference
  2
SW_CENTERMARKSYMBOL_0
 10
1567.1181868918
 20
926.8372936982
 30
0.0
  0
LINE
  5
353
330
1F
100
AcDbEntity
  8
0
  6
Continuous
 62
     7
100
AcDbLine
 10
2798.9766958731
 20
629.4307292386
 30
0.0
 11
2798.9766958731
 21
714.4307292386
 31
0.0
  0
LINE
  5
354
330
1F
100
AcDbEntity
  8
0
  6
Continuous
 62
     7
100
AcDbLine
 10
2134.9766958731
 20
714.4307292386
 30
0.0
 11
2134.9766958731
 21
629.4307292386
 31
0.0
  0
LINE
  5
355
330
1F
100
AcDbEntity
  8
0
  6
Continuous
 62
     7
100
AcDbLine
 10
2798.9766958731
 20
714.4307292386
 30
0.0
 11
2134.9766958731
 21
714.4307292386
 31
0.0
  0
LINE
  5
356
330
1F
100
AcDbEntity
  8
0
  6
Continuous
 62
     7
100
AcDbLine
 10
2134.9766958731
 20
629.4307292386
 30
0.0
 11
2798.9766958731
 21
629.4307292386
 31
0.0
  0
DIMENSION
  5
357
330
1F
100
AcDbEntity
  8
SLD-0_0
100
AcDbDimension
  2
_D_14
 10
2808.9766958731
 20
629.4307292386
 30
0.0
 11
2808.9766958731
 21
674.4494901255
 31
0.0
 70
   160
  1
<>
 71
     2
 42
-1.0
  3
SLDDIMSTYLE1
100
AcDbAlignedDimension
 13
2798.9766958731
 23
714.4307292386
 33
0.0
 14
2798.9766958731
 24
629.4307292386
 34
0.0
 50
90.0
100
AcDbRotatedDimension
  0
DIMENSION
  5
361
330
1F
100
AcDbEntity
  8
SLD-0_0
100
AcDbDimension
  2
_D_15
 10
2798.9766958731
 20
619.4307292386
 30
0.0
 11
2446.081557189
 21
619.4307292386
 31
0.0
 70
   160
  1
<>
 71
     2
 42
-1.0
  3
SLDDIMSTYLE1
100
AcDbAlignedDimension
 13
2134.9766958731
 23
629.4307292386
 33
0.0
 14
2798.9766958731
 24
629.4307292386
 34
0.0
100
AcDbRotatedDimension
  0
LINE
  5
36B
330
1F
100
AcDbEntity
  8
0
  6
Continuous
 62
     7
100
AcDbLine
 10
2468.7451225448
 20
1023.8930048678
 30
0.0
 11
2788.7451225448
 21
1023.8930048678
 31
0.0
  0
LINE
  5
36C
330
1F
100
AcDbEntity
  8
0
  6
Continuous
 62
     7
100
AcDbLine
 10
2479.7451225448
 20
923.8930048678
 30
0.0
 11
2479.7451225448
 21
902.8930048678
 31
0.0
  0
LINE
  5
36D
330
1F
100
AcDbEntity
  8
0
  6
Continuous
 62
     7
100
AcDbLine
 10
2157.7451225448
 20
923.8930048678
 30
0.0
 11
2157.7451225448
 21
902.8930048678
 31
0.0
  0
ARC
  5
36E
330
1F
100
AcDbEntity
  8
0
  6
Continuous
 62
     7
100
AcDbCircle
 10
2529.7451225448
 20
902.8930048678
 30
0.0
 40
50.0
100
AcDbArc
 50
180.0
 51
270.0
  0
LINE
  5
36F
330
1F
100
AcDbEntity
  8
0
  6
Continuous
 62
     7
100
AcDbLine
 10
2529.7451225448
 20
852.8930048678
 30
0.0
 11
2711.7451225448
 21
852.8930048678
 31
0.0
  0
ARC
  5
370
330
1F
100
AcDbEntity
  8
0
  6
Continuous
 62
     7
100
AcDbCircle
 10
2711.7451225448
 20
902.8930048678
 30
0.0
 40
50.0
100
AcDbArc
 50
270.0
 51
0.0
  0
LINE
  5
371
330
1F
100
AcDbEntity
  8
0
  6
Continuous
 62
     7
100
AcDbLine
 10
2761.7451225448
 20
923.8930048678
 30
0.0
 11
2761.7451225448
 21
902.8930048678
 31
0.0
  0
ARC
  5
372
330
1F
100
AcDbEntity
  8
0
  6
Continuous
 62
     7
100
AcDbCircle
 10
2711.7451225448
 20
923.8930048678
 30
0.0
 40
50.00000000000011
100
AcDbArc
 50
0.0
 51
90.0
  0
LINE
  5
373
330
1F
100
AcDbEntity
  8
0
  6
Continuous
 62
     7
100
AcDbLine
 10
2529.7451225448
 20
973.8930048678
 30
0.0
 11
2711.7451225448
 21
973.8930048678
 31
0.0
  0
ARC
  5
374
330
1F
100
AcDbEntity
  8
0
  6
Continuous
 62
     7
100
AcDbCircle
 10
2529.7451225448
 20
923.8930048678
 30
0.0
 40
50.0
100
AcDbArc
 50
90.0
 51
180.0
  0
ARC
  5
375
330
1F
100
AcDbEntity
  8
0
  6
Continuous
 62
     7
100
AcDbCircle
 10
2207.7451225448
 20
902.8930048678
 30
0.0
 40
50.00000000000045
100
AcDbArc
 50
180.0
 51
270.0
  0
LINE
  5
376
330
1F
100
AcDbEntity
  8
0
  6
Continuous
 62
     7
100
AcDbLine
 10
2389.7451225448
 20
852.8930048678
 30
0.0
 11
2207.7451225448
 21
852.8930048678
 31
0.0
  0
ARC
  5
377
330
1F
100
AcDbEntity
  8
0
  6
Continuous
 62
     7
100
AcDbCircle
 10
2389.7451225448
 20
902.8930048678
 30
0.0
 40
50.0
100
AcDbArc
 50
270.0
 51
0.0
  0
LINE
  5
378
330
1F
100
AcDbEntity
  8
0
  6
Continuous
 62
     7
100
AcDbLine
 10
2439.7451225448
 20
923.8930048678
 30
0.0
 11
2439.7451225448
 21
902.8930048678
 31
0.0
  0
ARC
  5
379
330
1F
100
AcDbEntity
  8
0
  6
Continuous
 62
     7
100
AcDbCircle
 10
2389.7451225448
 20
923.8930048678
 30
0.0
 40
50.0
100
AcDbArc
 50
0.0
 51
90.0
  0
LINE
  5
37A
330
1F
100
AcDbEntity
  8
0
  6
Continuous
 62
     7
100
AcDbLine
 10
2389.7451225448
 20
973.8930048678
 30
0.0
 11
2207.7451225448
 21
973.8930048678
 31
0.0
  0
ARC
  5
37B
330
1F
100
AcDbEntity
  8
0
  6
Continuous
 62
     7
100
AcDbCircle
 10
2207.7451225448
 20
923.8930048678
 30
0.0
 40
50.00000000000045
100
AcDbArc
 50
90.0
 51
180.0
  0
LINE
  5
37C
330
1F
100
AcDbEntity
  8
0
  6
Continuous
 62
     7
100
AcDbLine
 10
2788.7451225448
 20
802.8930048678
 30
0.0
 11
2788.7451225448
 21
1023.8930048678
 31
0.0
  0
LINE
  5
37D
330
1F
100
AcDbEntity
  8
0
  6
Continuous
 62
     7
100
AcDbLine
 10
2130.7451225448
 20
802.8930048678
 30
0.0
 11
2788.7451225448
 21
802.8930048678
 31
0.0
  0
LINE
  5
37E
330
1F
100
AcDbEntity
  8
0
  6
Continuous
 62
     7
100
AcDbLine
 10
2130.7451225448
 20
802.8930048678
 30
0.0
 11
2130.7451225448
 21
1023.8930048678
 31
0.0
  0
LINE
  5
37F
330
1F
100
AcDbEntity
  8
0
  6
Continuous
 62
     7
100
AcDbLine
 10
2130.7451225448
 20
1023.8930048678
 30
0.0
 11
2450.7451225448
 21
1023.8930048678
 31
0.0
  0
LINE
  5
380
330
1F
100
AcDbEntity
  8
0
  6
Continuous
 62
     7
100
AcDbLine
 10
2450.7451225448
 20
938.8930048678
 30
0.0
 11
2450.7451225448
 21
1023.8930048678
 31
0.0
  0
LINE
  5
381
330
1F
100
AcDbEntity
  8
0
  6
Continuous
 62
     7
100
AcDbLine
 10
2450.7451225448
 20
938.8930048678
 30
0.0
 11
2468.7451225448
 21
938.8930048678
 31
0.0
  0
LINE
  5
382
330
1F
100
AcDbEntity
  8
0
  6
Continuous
 62
     7
100
AcDbLine
 10
2468.7451225448
 20
938.8930048678
 30
0.0
 11
2468.7451225448
 21
1023.8930048678
 31
0.0
  0
DIMENSION
  5
383
330
1F
100
AcDbEntity
  8
SLD-0_0
100
AcDbDimension
  2
_D_16
 10
2788.7451225448
 20
782.6209718087
 30
0.0
 11
2449.7694814989
 21
782.6209718087
 31
0.0
 70
   160
  1
<>
 71
     2
 42
-1.0
  3
SLDDIMSTYLE1
100
AcDbAlignedDimension
 13
2130.7451225448
 23
802.8930048678
 33
0.0
 14
2788.7451225448
 24
802.8930048678
 34
0.0
 50
0.0
100
AcDbRotatedDimension
  0
DIMENSION
  5
38D
330
1F
100
AcDbEntity
  8
SLD-0_0
100
AcDbDimension
  2
_D_17
 10
2439.7451225448
 20
794.197899093
 30
0.0
 11
2289.1919792693
 21
794.197899093
 31
0.0
 70
   160
  1
<>
 71
     2
 42
-1.0
  3
SLDDIMSTYLE1
100
AcDbAlignedDimension
 13
2157.7451225448
 23
902.8930048678
 33
0.0
 14
2439.7451225448
 24
902.8930048678
 34
0.0
 50
0.0
100
AcDbRotatedDimension
  0
DIMENSION
  5
397
330
1F
100
AcDbEntity
  8
SLD-0_0
100
AcDbDimension
  2
_D_18
 10
2106.7451225448
 20
852.8930048678
 30
0.0
 11
2106.7451225448
 21
916.1664262406
 31
0.0
 70
   160
  1
<>
 71
     2
 42
-1.0
  3
SLDDIMSTYLE1
100
AcDbAlignedDimension
 13
2207.7451225448
 23
973.8930048678
 33
0.0
 14
2207.7451225448
 24
852.8930048678
 34
0.0
 50
90.0
100
AcDbRotatedDimension
  0
DIMENSION
  5
3A1
330
1F
100
AcDbEntity
  8
SLD-0_0
100
AcDbDimension
  2
_D_19
 10
2099.7451225448
 20
1023.8930048678
 30
0.0
 11
2099.7451225448
 21
916.1664262406
 31
0.0
 70
   160
  1
<>
 71
     2
 42
-1.0
  3
SLDDIMSTYLE1
100
AcDbAlignedDimension
 13
2130.7451225448
 23
802.8930048678
 33
0.0
 14
2130.7451225448
 24
1023.8930048678
 34
0.0
 50
90.0
100
AcDbRotatedDimension
  0
DIMENSION
  5
3AB
330
1F
100
AcDbEntity
  8
SLD-0_0
100
AcDbDimension
  2
_D_20
 10
2389.7451225448
 20
902.8930048678
 30
0.0
 11
2452.3738387917
 21
847.7217876627
 31
0.0
 70
   164
  1
<>
 71
     1
 42
-1.0
  3
SLDDIMSTYLE6
100
AcDbRadialDimension
 15
2427.2635716803
 25
869.8420446024
 35
0.0
 40
0.0
  0
DIMENSION
  5
3B4
330
1F
100
AcDbEntity
  8
SLD-0_0
100
AcDbDimension
  2
_D_21
 10
2478.9048495742
 20
1023.8930048678
 30
0.0
 11
2478.9048495742
 21
984.0585525089
 31
0.0
 70
   160
  1
<>
 71
     2
 42
-1.0
  3
SLDDIMSTYLE1
100
AcDbAlignedDimension
 13
2468.7451225448
 23
938.8930048678
 33
0.0
 14
2468.7451225448
 24
1023.8930048678
 34
0.0
 50
90.0
100
AcDbRotatedDimension
  0
DIMENSION
  5
3BD
330
1F
100
AcDbEntity
  8
SLD-0_0
100
AcDbDimension
  2
_D_22
 10
2468.7451225448
 20
1030.5959848935
 30
0.0
 11
2457.7391418801
 21
1030.5959848935
 31
0.0
 70
   160
  1
<>
 71
     2
 42
-1.0
  3
SLDDIMSTYLE7
100
AcDbAlignedDimension
 13
2450.7451225448
 23
1023.8930048678
 33
0.0
 14
2468.7451225448
 24
1023.8930048678
 34
0.0
100
AcDbRotatedDimension
  0
DIMENSION
  5
3CA
330
1F
100
AcDbEntity
  8
SLD-0_0
100
AcDbDimension
  2
_D_23
 10
2130.7451225448
 20
794.197899093
 30
0.0
 11
2142.5982698882
 21
794.197899093
 31
0.0
 70
   160
  1
<>
 71
     2
 42
-1.0
  3
SLDDIMSTYLE1
100
AcDbAlignedDimension
 13
2157.7451225448
 23
902.8930048678
 33
0.0
 14
2130.7451225448
 24
802.8930048678
 34
0.0
100
AcDbRotatedDimension
  0
DIMENSION
  5
3D4
330
1F
100
AcDbEntity
  8
SLD-0_0
100
AcDbDimension
  2
_D_24
 10
2106.7451225448
 20
802.8930048678
 30
0.0
 11
2106.7451225448
 21
824.3218916379
 31
0.0
 70
   160
  1
<>
 71
     2
 42
-1.0
  3
SLDDIMSTYLE1
100
AcDbAlignedDimension
 13
2207.7451225448
 23
852.8930048678
 33
0.0
 14
2130.7451225448
 24
802.8930048678
 34
0.0
 50
90.0
100
AcDbRotatedDimension
  0
LINE
  5
3DE
330
1F
100
AcDbEntity
  8
0
  6
Continuous
 62
     7
100
AcDbLine
 10
2742.9203171653
 20
310.2083810546
 30
0.0
 11
2395.9203171653
 21
310.2083810546
 31
0.0
  0
LINE
  5
3DF
330
1F
100
AcDbEntity
  8
0
  6
Continuous
 62
     7
100
AcDbLine
 10
2742.9203171653
 20
542.9083810546
 30
0.0
 11
2395.9203171653
 21
542.9083810546
 31
0.0
  0
LINE
  5
3E0
330
1F
100
AcDbEntity
  8
0
  6
Continuous
 62
     7
100
AcDbLine
 10
2742.9203171653
 20
542.9083810546
 30
0.0
 11
2742.9203171653
 21
310.2083810546
 31
0.0
  0
LINE
  5
3E1
330
1F
100
AcDbEntity
  8
0
  6
Continuous
 62
     7
100
AcDbLine
 10
2395.9203171653
 20
310.2083810546
 30
0.0
 11
2395.9203171653
 21
542.9083810546
 31
0.0
  0
LINE
  5
3E2
330
1F
100
AcDbEntity
  8
0
  6
Continuous
 62
     7
100
AcDbLine
 10
2395.9203171653
 20
560.9083810546
 30
0.0
 11
2742.9203171653
 21
560.9083810546
 31
0.0
  0
LINE
  5
3E3
330
1F
100
AcDbEntity
  8
0
  6
Continuous
 62
     7
100
AcDbLine
 10
2742.9203171653
 20
560.9083810546
 30
0.0
 11
2742.9203171653
 21
542.9083810546
 31
0.0
  0
LINE
  5
3E4
330
1F
100
AcDbEntity
  8
0
  6
Continuous
 62
     7
100
AcDbLine
 10
2395.9203171653
 20
560.9083810546
 30
0.0
 11
2395.9203171653
 21
542.9083810546
 31
0.0
  0
LINE
  5
3E5
330
1F
100
AcDbEntity
  8
0
  6
Continuous
 62
     7
100
AcDbLine
 10
2742.9203171653
 20
292.2083810546
 30
0.0
 11
2395.9203171653
 21
292.2083810546
 31
0.0
  0
LINE
  5
3E6
330
1F
100
AcDbEntity
  8
0
  6
Continuous
 62
     7
100
AcDbLine
 10
2742.9203171653
 20
292.2083810546
 30
0.0
 11
2742.9203171653
 21
310.2083810546
 31
0.0
  0
LINE
  5
3E7
330
1F
100
AcDbEntity
  8
0
  6
Continuous
 62
     7
100
AcDbLine
 10
2395.9203171653
 20
292.2083810546
 30
0.0
 11
2395.9203171653
 21
310.2083810546
 31
0.0
  0
DIMENSION
  5
3E8
330
1F
100
AcDbEntity
  8
SLD-0_0
100
AcDbDimension
  2
_D_25
 10
2742.9203171653
 20
282.2083810546
 30
0.0
 11
2588.2609807255
 21
282.2083810546
 31
0.0
 70
   160
  1
<>
 71
     2
 42
-1.0
  3
SLDDIMSTYLE1
100
AcDbAlignedDimension
 13
2395.9203171653
 23
560.9083810546
 33
0.0
 14
2742.9203171653
 24
560.9083810546
 34
0.0
 50
0.0
100
AcDbRotatedDimension
  0
DIMENSION
  5
3F2
330
1F
100
AcDbEntity
  8
SLD-0_0
100
AcDbDimension
  2
_D_26
 10
2752.9203171653
 20
292.2083810546
 30
0.0
 11
2752.9203171653
 21
415.3590497874
 31
0.0
 70
   160
  1
<>
 71
     2
 42
-1.0
  3
SLDDIMSTYLE8
100
AcDbAlignedDimension
 13
2742.9203171653
 23
560.9083810546
 33
0.0
 14
2742.9203171653
 24
292.2083810546
 34
0.0
 50
90.0
100
AcDbRotatedDimension
  0
LINE
  5
3FD
330
1F
100
AcDbEntity
  8
0
  6
Continuous
 62
     7
100
AcDbLine
 10
2271.5215604694
 20
292.2083810546
 30
0.0
 11
2253.5215604694
 21
310.2083810546
 31
0.0
  0
LINE
  5
3FE
330
1F
100
AcDbEntity
  8
0
  6
Continuous
 62
     7
100
AcDbLine
 10
2253.5215604694
 20
542.9083810546
 30
0.0
 11
2253.5215604694
 21
310.2083810546
 31
0.0
  0
LINE
  5
3FF
330
1F
100
AcDbEntity
  8
0
  6
Continuous
 62
     7
100
AcDbLine
 10
2271.5215604694
 20
560.9083810546
 30
0.0
 11
2253.5215604694
 21
542.9083810546
 31
0.0
  0
LINE
  5
400
330
1F
100
AcDbEntity
  8
0
  6
Continuous
 62
     7
100
AcDbLine
 10
2271.5215604694
 20
560.9083810546
 30
0.0
 11
2271.5215604694
 21
292.2083810546
 31
0.0
  0
INSERT
  5
40A
330
1F
100
AcDbEntity
  8
CAJETIN
100
AcDbBlockReference
  2
SW_ANGULAR_DIMENSION_0
 10
2221.7286794702
 20
299.6080431836
 30
0.0
  0
INSERT
  5
414
330
1F
100
AcDbEntity
  8
CAJETIN
100
AcDbBlockReference
  2
SW_ANGULAR_DIMENSION_1
 10
2228.3482133591
 20
550.0308536254
 30
0.0
  0
DIMENSION
  5
415
330
1F
100
AcDbEntity
  8
CAJETIN
100
AcDbDimension
  2
_D_27
 10
2281.5215604694
 20
292.2083810546
 30
0.0
 11
2281.5215604694
 21
410.3222070502
 31
0.0
 70
   160
  1
<>
 71
     2
 42
-1.0
  3
SLDDIMSTYLE8
100
AcDbAlignedDimension
 13
2271.5215604694
 23
560.9083810546
 33
0.0
 14
2271.5215604694
 24
292.2083810546
 34
0.0
 50
90.0
100
AcDbRotatedDimension
  0
ENDSEC
  0
SECTION
  2
OBJECTS
  0
DICTIONARY
  5
C
330
0
100
AcDbDictionary
281
     1
  3
ACAD_GROUP
350
D
  3
ACAD_LAYOUT
350
1A
  3
ACAD_MLINESTYLE
350
17
  3
ACAD_PLOTSETTINGS
350
19
  3
ACAD_PLOTSTYLENAME
350
E
  3
ACAD_SCALELIST
350
47
  0
DICTIONARY
  5
D
102
{ACAD_REACTORS
330
C
102
}
330
C
100
AcDbDictionary
281
     1
  0
DICTIONARY
  5
1A
102
{ACAD_REACTORS
330
C
102
}
330
C
100
AcDbDictionary
281
     1
  3
Layout1
350
1E
  3
Layout2
350
26
  3
Model
350
22
  0
DICTIONARY
  5
17
102
{ACAD_REACTORS
330
C
102
}
330
C
100
AcDbDictionary
281
     1
  3
Standard
350
18
  0
DICTIONARY
  5
19
102
{ACAD_REACTORS
330
C
102
}
330
C
100
AcDbDictionary
281
     1
  0
ACDBDICTIONARYWDFLT
  5
E
102
{ACAD_REACTORS
330
C
102
}
330
C
100
AcDbDictionary
281
     1
  3
Normal
350
F
100
AcDbDictionaryWithDefault
340
F
  0
DICTIONARY
  5
47
102
{ACAD_REACTORS
330
C
102
}
330
C
100
AcDbDictionary
281
     1
  3
A0
350
48
  3
A1
350
49
  3
A2
350
4A
  3
A3
350
4B
  3
A4
350
4C
  3
A5
350
4D
  3
A6
350
4E
  3
A7
350
4F
  3
A8
350
50
  3
A9
350
51
  3
B0
350
52
  3
B1
350
53
  3
B2
350
54
  3
B3
350
55
  3
B4
350
56
  3
B5
350
57
  3
B6
350
58
  3
B7
350
59
  3
B8
350
5A
  3
B9
350
5B
  3
C0
350
5C
  3
C1
350
5D
  3
C2
350
5E
  3
C3
350
5F
  3
C4
350
60
  3
C5
350
61
  3
C6
350
62
  3
C7
350
63
  3
C8
350
64
  3
C9
350
65
  3
D0
350
66
  3
D1
350
67
  3
D2
350
68
  0
LAYOUT
  5
1E
102
{ACAD_REACTORS
330
1A
102
}
330
1A
100
AcDbPlotSettings
  1

  2
none_device
  4

  6

 40
0.0
 41
0.0
 42
0.0
 43
0.0
 44
0.0
 45
0.0
 46
0.0
 47
0.0
 48
0.0
 49
0.0
140
0.0
141
0.0
142
1.0
143
1.0
 70
   688
 72
     1
 73
     0
 74
     5
  7

 75
    16
147
1.0
148
0.0
149
0.0
100
AcDbLayout
  1
Layout1
 70
     1
 71
     1
 10
0.0
 20
0.0
 11
420.0
 21
297.0
 12
0.0
 22
0.0
 32
0.0
 14
1.0000000000E+20
 24
1.0000000000E+20
 34
1.0000000000E+20
 15
-1.0000000000E+20
 25
-1.0000000000E+20
 35
-1.0000000000E+20
146
0.0
 13
0.0
 23
0.0
 33
0.0
 16
1.0
 26
0.0
 36
0.0
 17
0.0
 27
1.0
 37
0.0
 76
     0
330
1B
  0
LAYOUT
  5
26
102
{ACAD_REACTORS
330
1A
102
}
330
1A
100
AcDbPlotSettings
  1

  2
none_device
  4

  6

 40
0.0
 41
0.0
 42
0.0
 43
0.0
 44
0.0
 45
0.0
 46
0.0
 47
0.0
 48
0.0
 49
0.0
140
0.0
141
0.0
142
1.0
143
1.0
 70
   688
 72
     1
 73
     0
 74
     5
  7

 75
    16
147
1.0
148
0.0
149
0.0
100
AcDbLayout
  1
Layout2
 70
     1
 71
     2
 10
0.0
 20
0.0
 11
0.0
 21
0.0
 12
0.0
 22
0.0
 32
0.0
 14
0.0
 24
0.0
 34
0.0
 15
0.0
 25
0.0
 35
0.0
146
0.0
 13
0.0
 23
0.0
 33
0.0
 16
1.0
 26
0.0
 36
0.0
 17
0.0
 27
1.0
 37
0.0
 76
     0
330
23
  0
LAYOUT
  5
22
102
{ACAD_REACTORS
330
1A
102
}
330
1A
100
AcDbPlotSettings
  1

  2
none_device
  4
Letter_(8.50_x_11.00_Inches)
  6

 40
6.35
 41
6.35
 42
6.35000508
 43
6.35000508
 44
215.9
 45
279.4
 46
0.0
 47
0.0
 48
0.0
 49
0.0
140
0.0
141
0.0
142
1.0
143
1.0
 70
  1712
 72
     1
 73
     0
 74
     0
  7

 75
     0
147
1.0
148
0.0
149
0.0
100
AcDbLayout
  1
Model
 70
     1
 71
     0
 10
0.0
 20
0.0
 11
3000.0
 21
2000.0
 12
0.0
 22
0.0
 32
0.0
 14
0.0
 24
0.0
 34
0.0
 15
3000.0
 25
2000.0
 35
0.0
146
0.0
 13
0.0
 23
0.0
 33
0.0
 16
1.0
 26
0.0
 36
0.0
 17
0.0
 27
1.0
 37
0.0
 76
     0
330
1F
331
29
  0
MLINESTYLE
  5
18
102
{ACAD_REACTORS
330
17
102
}
330
17
100
AcDbMlineStyle
  2
Standard
 70
     0
  3

 62
   256
 51
90.0
 52
90.0
 71
     2
 49
0.5
 62
   256
  6
BYLAYER
 49
-0.5
 62
   256
  6
BYLAYER
  0
ACDBPLACEHOLDER
  5
F
102
{ACAD_REACTORS
330
E
102
}
330
E
  0
SCALE
  5
48
102
{ACAD_REACTORS
330
47
102
}
330
47
100
AcDbScale
 70
     0
300
1:1
140
1.0
141
1.0
290
     1
  0
SCALE
  5
49
102
{ACAD_REACTORS
330
47
102
}
330
47
100
AcDbScale
 70
     0
300
1:2
140
1.0
141
2.0
290
     0
  0
SCALE
  5
4A
102
{ACAD_REACTORS
330
47
102
}
330
47
100
AcDbScale
 70
     0
300
1:4
140
1.0
141
4.0
290
     0
  0
SCALE
  5
4B
102
{ACAD_REACTORS
330
47
102
}
330
47
100
AcDbScale
 70
     0
300
1:5
140
1.0
141
5.0
290
     0
  0
SCALE
  5
4C
102
{ACAD_REACTORS
330
47
102
}
330
47
100
AcDbScale
 70
     0
300
1:8
140
1.0
141
8.0
290
     0
  0
SCALE
  5
4D
102
{ACAD_REACTORS
330
47
102
}
330
47
100
AcDbScale
 70
     0
300
1:10
140
1.0
141
10.0
290
     0
  0
SCALE
  5
4E
102
{ACAD_REACTORS
330
47
102
}
330
47
100
AcDbScale
 70
     0
300
1:16
140
1.0
141
16.0
290
     0
  0
SCALE
  5
4F
102
{ACAD_REACTORS
330
47
102
}
330
47
100
AcDbScale
 70
     0
300
1:20
140
1.0
141
20.0
290
     0
  0
SCALE
  5
50
102
{ACAD_REACTORS
330
47
102
}
330
47
100
AcDbScale
 70
     0
300
1:30
140
1.0
141
30.0
290
     0
  0
SCALE
  5
51
102
{ACAD_REACTORS
330
47
102
}
330
47
100
AcDbScale
 70
     0
300
1:40
140
1.0
141
40.0
290
     0
  0
SCALE
  5
52
102
{ACAD_REACTORS
330
47
102
}
330
47
100
AcDbScale
 70
     0
300
1:50
140
1.0
141
50.0
290
     0
  0
SCALE
  5
53
102
{ACAD_REACTORS
330
47
102
}
330
47
100
AcDbScale
 70
     0
300
1:100
140
1.0
141
100.0
290
     0
  0
SCALE
  5
54
102
{ACAD_REACTORS
330
47
102
}
330
47
100
AcDbScale
 70
     0
300
2:1
140
2.0
141
1.0
290
     0
  0
SCALE
  5
55
102
{ACAD_REACTORS
330
47
102
}
330
47
100
AcDbScale
 70
     0
300
4:1
140
4.0
141
1.0
290
     0
  0
SCALE
  5
56
102
{ACAD_REACTORS
330
47
102
}
330
47
100
AcDbScale
 70
     0
300
8:1
140
8.0
141
1.0
290
     0
  0
SCALE
  5
57
102
{ACAD_REACTORS
330
47
102
}
330
47
100
AcDbScale
 70
     0
300
10:1
140
10.0
141
1.0
290
     0
  0
SCALE
  5
58
102
{ACAD_REACTORS
330
47
102
}
330
47
100
AcDbScale
 70
     0
300
100:1
140
100.0
141
1.0
290
     0
  0
SCALE
  5
59
102
{ACAD_REACTORS
330
47
102
}
330
47
100
AcDbScale
 70
     0
300
1/128" = 1'-0"
140
0.0078125
141
12.0
290
     0
  0
SCALE
  5
5A
102
{ACAD_REACTORS
330
47
102
}
330
47
100
AcDbScale
 70
     0
300
1/64" = 1'-0"
140
0.015625
141
12.0
290
     0
  0
SCALE
  5
5B
102
{ACAD_REACTORS
330
47
102
}
330
47
100
AcDbScale
 70
     0
300
1/32" = 1'-0"
140
0.03125
141
12.0
290
     0
  0
SCALE
  5
5C
102
{ACAD_REACTORS
330
47
102
}
330
47
100
AcDbScale
 70
     0
300
1/16" = 1'-0"
140
0.0625
141
12.0
290
     0
  0
SCALE
  5
5D
102
{ACAD_REACTORS
330
47
102
}
330
47
100
AcDbScale
 70
     0
300
3/32" = 1'-0"
140
0.09375
141
12.0
290
     0
  0
SCALE
  5
5E
102
{ACAD_REACTORS
330
47
102
}
330
47
100
AcDbScale
 70
     0
300
1/8" = 1'-0"
140
0.125
141
12.0
290
     0
  0
SCALE
  5
5F
102
{ACAD_REACTORS
330
47
102
}
330
47
100
AcDbScale
 70
     0
300
3/16" = 1'-0"
140
0.1875
141
12.0
290
     0
  0
SCALE
  5
60
102
{ACAD_REACTORS
330
47
102
}
330
47
100
AcDbScale
 70
     0
300
1/4" = 1'-0"
140
0.25
141
12.0
290
     0
  0
SCALE
  5
61
102
{ACAD_REACTORS
330
47
102
}
330
47
100
AcDbScale
 70
     0
300
3/8" = 1'-0"
140
0.375
141
12.0
290
     0
  0
SCALE
  5
62
102
{ACAD_REACTORS
330
47
102
}
330
47
100
AcDbScale
 70
     0
300
1/2" = 1'-0"
140
0.5
141
12.0
290
     0
  0
SCALE
  5
63
102
{ACAD_REACTORS
330
47
102
}
330
47
100
AcDbScale
 70
     0
300
3/4" = 1'-0"
140
0.75
141
12.0
290
     0
  0
SCALE
  5
64
102
{ACAD_REACTORS
330
47
102
}
330
47
100
AcDbScale
 70
     0
300
1" = 1'-0"
140
1.0
141
12.0
290
     0
  0
SCALE
  5
65
102
{ACAD_REACTORS
330
47
102
}
330
47
100
AcDbScale
 70
     0
300
1-1/2" = 1'-0"
140
1.5
141
12.0
290
     0
  0
SCALE
  5
66
102
{ACAD_REACTORS
330
47
102
}
330
47
100
AcDbScale
 70
     0
300
3" = 1'-0"
140
3.0
141
12.0
290
     0
  0
SCALE
  5
67
102
{ACAD_REACTORS
330
47
102
}
330
47
100
AcDbScale
 70
     0
300
6" = 1'-0"
140
6.0
141
12.0
290
     0
  0
SCALE
  5
68
102
{ACAD_REACTORS
330
47
102
}
330
47
100
AcDbScale
 70
     0
300
1'-0" = 1'-0"
140
12.0
141
12.0
290
     0
  0
ENDSEC
  0
EOF
